osu file format v14

[General]
AudioFilename: audio.mp3
AudioLeadIn: 0
PreviewTime: -1
Countdown: 0
SampleSet: None
StackLeniency: 0.7
Mode: 3
LetterboxInBreaks: 0
SpecialStyle: 0
WidescreenStoryboard: 0

[Editor]
DistanceSpacing: 1
BeatDivisor: 8
GridSize: 4
TimelineZoom: 2.899999

[Metadata]
Title:Cinema
TitleUnicode:シネマ
Artist:Ayase (CV: Vivid BAD SQUAD x KAITO)
ArtistUnicode:Ayase (CV: Vivid BAD SQUAD x KAITO)
Creator:Dereck101026
Version:Mirai
Source:
Tags:project sekai hatsune miku miku: colorful stage! jpop j-pop pop japanese ayase
BeatmapID:4511951
BeatmapSetID:2142396

[Difficulty]
HPDrainRate:8
CircleSize:4
OverallDifficulty:8
ApproachRate:5
SliderMultiplier:1.4
SliderTickRate:1

[Events]
//Background and Video events
0,0,"E8_zBMPXIAE-Zjq.jpg",0,0
//Break Periods
//Storyboard Layer 0 (Background)
//Storyboard Layer 1 (Fail)
//Storyboard Layer 2 (Pass)
//Storyboard Layer 3 (Foreground)
//Storyboard Layer 4 (Overlay)
//Storyboard Sound Samples

[TimingPoints]
3930,483.870967741935,4,1,0,100,1,0

[HitObjects]
64,192,3930,5,0,0:0:0:0:
320,192,3930,1,0,0:0:0:0:
320,192,4413,1,0,0:0:0:0:
192,192,4413,1,0,0:0:0:0:
64,192,4413,1,0,0:0:0:0:
448,192,4897,1,0,0:0:0:0:
192,192,4897,1,0,0:0:0:0:
448,192,5381,1,0,0:0:0:0:
320,192,5381,1,0,0:0:0:0:
192,192,5381,1,0,0:0:0:0:
64,192,5865,1,0,0:0:0:0:
192,192,5865,1,0,0:0:0:0:
448,192,6349,1,0,0:0:0:0:
192,192,6349,1,0,0:0:0:0:
64,192,6349,1,0,0:0:0:0:
448,192,6833,1,0,0:0:0:0:
320,192,6833,1,0,0:0:0:0:
448,192,7317,1,0,0:0:0:0:
320,192,7317,1,0,0:0:0:0:
64,192,7317,1,0,0:0:0:0:
320,192,7800,1,0,0:0:0:0:
192,192,7800,1,0,0:0:0:0:
448,192,8284,1,0,0:0:0:0:
320,192,8284,1,0,0:0:0:0:
192,192,8284,1,0,0:0:0:0:
320,192,8768,1,0,0:0:0:0:
192,192,8768,1,0,0:0:0:0:
64,192,9252,1,0,0:0:0:0:
192,192,9252,1,0,0:0:0:0:
320,192,9252,1,0,0:0:0:0:
448,192,9736,1,0,0:0:0:0:
64,192,9736,1,0,0:0:0:0:
448,192,10220,1,0,0:0:0:0:
320,192,10220,1,0,0:0:0:0:
192,192,10220,1,0,0:0:0:0:
448,192,10704,1,0,0:0:0:0:
64,192,10704,1,0,0:0:0:0:
64,192,11188,1,0,0:0:0:0:
192,192,11188,1,0,0:0:0:0:
320,192,11188,1,0,0:0:0:0:
448,192,11309,1,0,0:0:0:0:
320,192,11429,1,0,0:0:0:0:
192,192,11550,1,0,0:0:0:0:
64,192,11671,1,0,0:0:0:0:
192,192,11671,1,0,0:0:0:0:
320,192,11671,1,0,0:0:0:0:
448,192,11671,1,0,0:0:0:0:
320,192,11792,1,0,0:0:0:0:
320,192,11913,1,0,0:0:0:0:
448,192,11913,1,0,0:0:0:0:
192,192,12034,1,0,0:0:0:0:
64,192,12155,1,0,0:0:0:0:
192,192,12155,1,0,0:0:0:0:
320,192,12155,1,0,0:0:0:0:
320,192,12276,1,0,0:0:0:0:
320,192,12397,1,0,0:0:0:0:
448,192,12397,1,0,0:0:0:0:
192,192,12518,1,0,0:0:0:0:
64,192,12639,1,0,0:0:0:0:
320,192,12639,1,0,0:0:0:0:
192,192,12760,1,0,0:0:0:0:
64,192,12881,1,0,0:0:0:0:
320,192,12881,1,0,0:0:0:0:
448,192,12881,1,0,0:0:0:0:
192,192,13002,1,0,0:0:0:0:
320,192,13002,1,0,0:0:0:0:
320,192,13123,1,0,0:0:0:0:
448,192,13123,1,0,0:0:0:0:
64,192,13123,1,0,0:0:0:0:
64,192,13244,1,0,0:0:0:0:
192,192,13365,1,0,0:0:0:0:
320,192,13486,1,0,0:0:0:0:
320,192,13607,1,0,0:0:0:0:
448,192,13607,1,0,0:0:0:0:
64,192,13607,1,0,0:0:0:0:
192,192,13607,1,0,0:0:0:0:
192,192,13728,1,0,0:0:0:0:
192,192,13849,1,0,0:0:0:0:
64,192,13849,1,0,0:0:0:0:
320,192,13970,1,0,0:0:0:0:
448,192,14091,1,0,0:0:0:0:
320,192,14091,1,0,0:0:0:0:
192,192,14091,1,0,0:0:0:0:
192,192,14212,1,0,0:0:0:0:
192,192,14333,1,0,0:0:0:0:
64,192,14333,1,0,0:0:0:0:
320,192,14454,1,0,0:0:0:0:
448,192,14575,1,0,0:0:0:0:
192,192,14575,1,0,0:0:0:0:
320,192,14696,1,0,0:0:0:0:
448,192,14817,1,0,0:0:0:0:
192,192,14817,1,0,0:0:0:0:
64,192,14817,1,0,0:0:0:0:
192,192,14938,1,0,0:0:0:0:
320,192,14938,1,0,0:0:0:0:
64,192,15059,1,0,0:0:0:0:
448,192,15059,1,0,0:0:0:0:
192,192,15059,1,0,0:0:0:0:
64,192,15300,1,0,0:0:0:0:
192,192,15300,1,0,0:0:0:0:
320,192,15421,1,0,0:0:0:0:
64,192,15542,1,0,0:0:0:0:
320,192,15542,1,0,0:0:0:0:
448,192,15542,1,0,0:0:0:0:
192,192,15542,1,0,0:0:0:0:
64,192,15663,1,0,0:0:0:0:
64,192,15784,1,0,0:0:0:0:
192,192,15784,1,0,0:0:0:0:
320,192,15905,1,0,0:0:0:0:
448,192,15905,1,0,0:0:0:0:
192,192,16026,1,0,0:0:0:0:
320,192,16026,1,0,0:0:0:0:
448,192,16026,1,0,0:0:0:0:
64,192,16147,1,0,0:0:0:0:
192,192,16268,1,0,0:0:0:0:
320,192,16389,1,0,0:0:0:0:
448,192,16389,1,0,0:0:0:0:
64,192,16510,1,0,0:0:0:0:
192,192,16631,1,0,0:0:0:0:
320,192,16752,1,0,0:0:0:0:
448,192,16752,1,0,0:0:0:0:
192,192,16752,1,0,0:0:0:0:
64,192,16873,1,0,0:0:0:0:
64,192,16994,1,0,0:0:0:0:
192,192,16994,1,0,0:0:0:0:
192,192,17115,1,0,0:0:0:0:
448,192,17236,1,0,0:0:0:0:
320,192,17236,1,0,0:0:0:0:
64,192,17236,1,0,0:0:0:0:
192,192,17357,1,0,0:0:0:0:
320,192,17478,1,0,0:0:0:0:
448,192,17478,1,0,0:0:0:0:
192,192,17599,1,0,0:0:0:0:
192,192,17720,1,0,0:0:0:0:
320,192,17720,1,0,0:0:0:0:
448,192,17720,1,0,0:0:0:0:
320,192,17841,1,0,0:0:0:0:
64,192,17962,1,0,0:0:0:0:
320,192,17962,1,0,0:0:0:0:
448,192,17962,1,0,0:0:0:0:
192,192,17962,1,0,0:0:0:0:
64,192,18083,1,0,0:0:0:0:
448,192,18083,1,0,0:0:0:0:
192,192,18204,1,0,0:0:0:0:
320,192,18204,1,0,0:0:0:0:
448,192,18204,1,0,0:0:0:0:
192,192,18325,1,0,0:0:0:0:
320,192,18325,1,0,0:0:0:0:
64,192,18446,1,0,0:0:0:0:
192,192,18446,1,0,0:0:0:0:
320,192,18446,1,0,0:0:0:0:
448,192,18446,1,0,0:0:0:0:
192,192,18567,1,0,0:0:0:0:
320,192,18688,1,0,0:0:0:0:
448,192,18809,1,0,0:0:0:0:
192,192,18809,1,0,0:0:0:0:
64,192,18929,1,0,0:0:0:0:
320,192,18929,1,0,0:0:0:0:
448,192,19050,1,0,0:0:0:0:
320,192,19050,1,0,0:0:0:0:
64,192,19171,1,0,0:0:0:0:
192,192,19171,1,0,0:0:0:0:
320,192,19292,1,0,0:0:0:0:
192,192,19413,1,0,0:0:0:0:
64,192,19413,1,0,0:0:0:0:
320,192,19413,1,0,0:0:0:0:
448,192,19413,1,0,0:0:0:0:
64,192,19534,1,0,0:0:0:0:
320,192,19534,1,0,0:0:0:0:
192,192,19655,1,0,0:0:0:0:
320,192,19655,1,0,0:0:0:0:
448,192,19655,1,0,0:0:0:0:
192,192,19776,1,0,0:0:0:0:
320,192,19776,1,0,0:0:0:0:
64,192,19897,1,0,0:0:0:0:
192,192,19897,1,0,0:0:0:0:
320,192,19897,1,0,0:0:0:0:
448,192,19897,1,0,0:0:0:0:
320,192,20018,1,0,0:0:0:0:
448,192,20018,1,0,0:0:0:0:
320,192,20139,1,0,0:0:0:0:
448,192,20139,1,0,0:0:0:0:
64,192,20139,1,0,0:0:0:0:
192,192,20139,1,0,0:0:0:0:
64,192,20260,1,0,0:0:0:0:
192,192,20260,1,0,0:0:0:0:
64,192,20381,1,0,0:0:0:0:
192,192,20381,1,0,0:0:0:0:
320,192,20381,1,0,0:0:0:0:
448,192,20381,1,0,0:0:0:0:
192,192,20502,1,0,0:0:0:0:
448,192,20502,1,0,0:0:0:0:
64,192,20623,1,0,0:0:0:0:
320,192,20623,1,0,0:0:0:0:
192,192,20623,1,0,0:0:0:0:
64,192,20744,1,0,0:0:0:0:
320,192,20744,1,0,0:0:0:0:
64,192,20865,1,0,0:0:0:0:
192,192,20865,1,0,0:0:0:0:
320,192,20865,1,0,0:0:0:0:
448,192,20865,1,0,0:0:0:0:
64,192,20986,1,0,0:0:0:0:
320,192,20986,1,0,0:0:0:0:
192,192,21107,1,0,0:0:0:0:
320,192,21107,1,0,0:0:0:0:
448,192,21228,1,0,0:0:0:0:
192,192,21228,1,0,0:0:0:0:
64,192,21349,1,0,0:0:0:0:
192,192,21349,1,0,0:0:0:0:
320,192,21349,1,0,0:0:0:0:
448,192,21349,1,0,0:0:0:0:
320,192,21470,1,0,0:0:0:0:
448,192,21470,1,0,0:0:0:0:
320,192,21591,1,0,0:0:0:0:
448,192,21591,1,0,0:0:0:0:
192,192,21712,1,0,0:0:0:0:
320,192,21712,1,0,0:0:0:0:
64,192,21833,1,0,0:0:0:0:
192,192,21833,1,0,0:0:0:0:
320,192,21833,1,0,0:0:0:0:
448,192,21833,1,0,0:0:0:0:
320,192,21954,1,0,0:0:0:0:
64,192,22075,1,0,0:0:0:0:
192,192,22075,1,0,0:0:0:0:
320,192,22196,1,0,0:0:0:0:
64,192,22317,1,0,0:0:0:0:
192,192,22317,1,0,0:0:0:0:
448,192,22317,1,0,0:0:0:0:
192,192,22559,1,0,0:0:0:0:
320,192,22559,1,0,0:0:0:0:
64,192,22800,1,0,0:0:0:0:
192,192,22800,1,0,0:0:0:0:
320,192,22800,1,0,0:0:0:0:
448,192,22800,1,0,0:0:0:0:
64,192,22921,1,0,0:0:0:0:
192,192,23042,1,0,0:0:0:0:
320,192,23163,1,0,0:0:0:0:
448,192,23163,1,0,0:0:0:0:
192,192,23284,1,0,0:0:0:0:
64,192,23284,1,0,0:0:0:0:
320,192,23284,1,0,0:0:0:0:
448,192,23284,1,0,0:0:0:0:
64,192,23405,1,0,0:0:0:0:
320,192,23405,1,0,0:0:0:0:
192,192,23526,1,0,0:0:0:0:
320,192,23526,1,0,0:0:0:0:
448,192,23526,1,0,0:0:0:0:
192,192,23647,1,0,0:0:0:0:
320,192,23647,1,0,0:0:0:0:
64,192,23768,1,0,0:0:0:0:
192,192,23768,1,0,0:0:0:0:
320,192,23768,1,0,0:0:0:0:
448,192,23768,1,0,0:0:0:0:
320,192,23889,1,0,0:0:0:0:
448,192,23889,1,0,0:0:0:0:
320,192,24010,1,0,0:0:0:0:
448,192,24010,1,0,0:0:0:0:
64,192,24010,1,0,0:0:0:0:
192,192,24010,1,0,0:0:0:0:
64,192,24131,1,0,0:0:0:0:
192,192,24131,1,0,0:0:0:0:
64,192,24252,1,0,0:0:0:0:
192,192,24252,1,0,0:0:0:0:
320,192,24252,1,0,0:0:0:0:
448,192,24252,1,0,0:0:0:0:
192,192,24373,1,0,0:0:0:0:
448,192,24373,1,0,0:0:0:0:
64,192,24494,1,0,0:0:0:0:
320,192,24494,1,0,0:0:0:0:
192,192,24494,1,0,0:0:0:0:
64,192,24615,1,0,0:0:0:0:
320,192,24615,1,0,0:0:0:0:
64,192,24736,1,0,0:0:0:0:
192,192,24736,1,0,0:0:0:0:
320,192,24736,1,0,0:0:0:0:
448,192,24736,1,0,0:0:0:0:
64,192,24857,1,0,0:0:0:0:
320,192,24857,1,0,0:0:0:0:
192,192,24978,1,0,0:0:0:0:
320,192,24978,1,0,0:0:0:0:
448,192,25099,1,0,0:0:0:0:
192,192,25099,1,0,0:0:0:0:
64,192,25220,1,0,0:0:0:0:
192,192,25220,1,0,0:0:0:0:
320,192,25220,1,0,0:0:0:0:
448,192,25220,1,0,0:0:0:0:
320,192,25341,1,0,0:0:0:0:
448,192,25341,1,0,0:0:0:0:
320,192,25462,1,0,0:0:0:0:
448,192,25462,1,0,0:0:0:0:
192,192,25583,1,0,0:0:0:0:
320,192,25583,1,0,0:0:0:0:
64,192,25704,1,0,0:0:0:0:
192,192,25704,1,0,0:0:0:0:
320,192,25704,1,0,0:0:0:0:
448,192,25704,1,0,0:0:0:0:
64,192,25825,1,0,0:0:0:0:
448,192,25946,1,0,0:0:0:0:
192,192,25946,1,0,0:0:0:0:
448,192,26067,1,0,0:0:0:0:
64,192,26067,1,0,0:0:0:0:
320,192,26188,1,0,0:0:0:0:
448,192,26188,1,0,0:0:0:0:
192,192,26188,1,0,0:0:0:0:
320,192,26309,1,0,0:0:0:0:
320,192,26429,1,0,0:0:0:0:
448,192,26429,1,0,0:0:0:0:
64,192,26429,1,0,0:0:0:0:
192,192,26550,1,0,0:0:0:0:
320,192,26671,1,0,0:0:0:0:
448,192,26671,1,0,0:0:0:0:
64,192,26792,1,0,0:0:0:0:
192,192,26913,1,0,0:0:0:0:
320,192,26913,1,0,0:0:0:0:
448,192,27034,1,0,0:0:0:0:
320,192,27034,1,0,0:0:0:0:
64,192,27155,1,0,0:0:0:0:
192,192,27155,1,0,0:0:0:0:
448,192,27155,1,0,0:0:0:0:
320,192,27155,1,0,0:0:0:0:
64,192,27276,1,0,0:0:0:0:
192,192,27276,1,0,0:0:0:0:
64,192,27397,1,0,0:0:0:0:
192,192,27397,1,0,0:0:0:0:
448,192,27397,1,0,0:0:0:0:
320,192,27397,1,0,0:0:0:0:
320,192,27518,1,0,0:0:0:0:
448,192,27518,1,0,0:0:0:0:
64,192,27639,1,0,0:0:0:0:
320,192,27639,1,0,0:0:0:0:
448,192,27639,1,0,0:0:0:0:
192,192,27639,1,0,0:0:0:0:
448,192,27760,1,0,0:0:0:0:
448,192,27881,1,0,0:0:0:0:
64,192,27881,1,0,0:0:0:0:
192,192,27881,1,0,0:0:0:0:
64,192,28002,1,0,0:0:0:0:
64,192,28123,1,0,0:0:0:0:
320,192,28123,1,0,0:0:0:0:
64,192,28244,1,0,0:0:0:0:
448,192,28244,1,0,0:0:0:0:
64,192,28365,1,0,0:0:0:0:
192,192,28365,1,0,0:0:0:0:
320,192,28365,1,0,0:0:0:0:
192,192,28486,1,0,0:0:0:0:
320,192,28486,1,0,0:0:0:0:
64,192,28607,1,0,0:0:0:0:
192,192,28607,1,0,0:0:0:0:
448,192,28607,1,0,0:0:0:0:
320,192,28607,1,0,0:0:0:0:
320,192,28728,1,0,0:0:0:0:
448,192,28728,1,0,0:0:0:0:
192,192,28849,1,0,0:0:0:0:
320,192,28849,1,0,0:0:0:0:
192,192,28970,1,0,0:0:0:0:
64,192,28970,1,0,0:0:0:0:
448,192,29091,1,0,0:0:0:0:
320,192,29091,1,0,0:0:0:0:
320,192,29212,1,0,0:0:0:0:
448,192,29212,1,0,0:0:0:0:
320,192,29333,1,0,0:0:0:0:
448,192,29333,1,0,0:0:0:0:
64,192,29333,1,0,0:0:0:0:
192,192,29333,1,0,0:0:0:0:
64,192,29454,1,0,0:0:0:0:
192,192,29454,1,0,0:0:0:0:
64,192,29575,1,0,0:0:0:0:
192,192,29575,1,0,0:0:0:0:
320,192,29575,1,0,0:0:0:0:
448,192,29575,1,0,0:0:0:0:
64,192,29696,1,0,0:0:0:0:
448,192,29817,1,0,0:0:0:0:
64,192,29817,1,0,0:0:0:0:
320,192,29817,1,0,0:0:0:0:
448,192,29938,1,0,0:0:0:0:
448,192,30059,1,0,0:0:0:0:
192,192,30059,1,0,0:0:0:0:
448,192,30179,1,0,0:0:0:0:
320,192,30179,1,0,0:0:0:0:
64,192,30300,1,0,0:0:0:0:
192,192,30300,1,0,0:0:0:0:
448,192,30300,1,0,0:0:0:0:
192,192,30421,1,0,0:0:0:0:
320,192,30421,1,0,0:0:0:0:
64,192,30542,1,0,0:0:0:0:
192,192,30542,1,0,0:0:0:0:
320,192,30542,1,0,0:0:0:0:
448,192,30542,1,0,0:0:0:0:
320,192,30784,1,0,0:0:0:0:
448,192,30784,1,0,0:0:0:0:
320,192,30905,1,0,0:0:0:0:
192,192,31026,1,0,0:0:0:0:
64,192,31026,1,0,0:0:0:0:
320,192,31026,1,0,0:0:0:0:
192,192,31147,1,0,0:0:0:0:
192,192,31268,1,0,0:0:0:0:
64,192,31268,1,0,0:0:0:0:
448,192,31268,1,0,0:0:0:0:
192,192,31389,1,0,0:0:0:0:
320,192,31389,1,0,0:0:0:0:
192,192,31510,1,0,0:0:0:0:
320,192,31510,1,0,0:0:0:0:
448,192,31510,1,0,0:0:0:0:
64,192,31510,1,0,0:0:0:0:
64,192,31631,1,0,0:0:0:0:
64,192,31752,1,0,0:0:0:0:
448,192,31752,1,0,0:0:0:0:
448,192,31873,1,0,0:0:0:0:
448,192,31994,1,0,0:0:0:0:
320,192,31994,1,0,0:0:0:0:
64,192,31994,1,0,0:0:0:0:
192,192,31994,1,0,0:0:0:0:
192,192,32115,1,0,0:0:0:0:
320,192,32115,1,0,0:0:0:0:
192,192,32236,1,0,0:0:0:0:
320,192,32236,1,0,0:0:0:0:
64,192,32236,1,0,0:0:0:0:
448,192,32236,1,0,0:0:0:0:
64,192,32357,1,0,0:0:0:0:
448,192,32357,1,0,0:0:0:0:
64,192,32478,1,0,0:0:0:0:
192,192,32478,1,0,0:0:0:0:
320,192,32478,1,0,0:0:0:0:
448,192,32478,1,0,0:0:0:0:
64,192,32599,1,0,0:0:0:0:
192,192,32599,1,0,0:0:0:0:
64,192,32720,1,0,0:0:0:0:
192,192,32720,1,0,0:0:0:0:
320,192,32720,1,0,0:0:0:0:
448,192,32720,1,0,0:0:0:0:
320,192,32841,1,0,0:0:0:0:
448,192,32841,1,0,0:0:0:0:
320,192,32962,1,0,0:0:0:0:
448,192,32962,1,0,0:0:0:0:
64,192,32962,1,0,0:0:0:0:
192,192,32962,1,0,0:0:0:0:
192,192,33083,1,0,0:0:0:0:
320,192,33083,1,0,0:0:0:0:
64,192,33204,1,0,0:0:0:0:
192,192,33204,1,0,0:0:0:0:
448,192,33204,1,0,0:0:0:0:
320,192,33204,1,0,0:0:0:0:
64,192,33325,1,0,0:0:0:0:
448,192,33325,1,0,0:0:0:0:
64,192,33446,1,0,0:0:0:0:
192,192,33446,1,0,0:0:0:0:
448,192,33446,1,0,0:0:0:0:
320,192,33446,1,0,0:0:0:0:
64,192,33567,1,0,0:0:0:0:
192,192,33567,1,0,0:0:0:0:
320,192,33688,1,0,0:0:0:0:
448,192,33688,1,0,0:0:0:0:
320,192,33809,1,0,0:0:0:0:
448,192,33809,1,0,0:0:0:0:
64,192,33929,1,0,0:0:0:0:
192,192,33929,1,0,0:0:0:0:
64,192,34050,1,0,0:0:0:0:
192,192,34050,1,0,0:0:0:0:
320,192,34171,1,0,0:0:0:0:
448,192,34171,1,0,0:0:0:0:
64,192,34292,1,0,0:0:0:0:
192,192,34292,1,0,0:0:0:0:
320,192,34413,1,0,0:0:0:0:
448,192,34413,1,0,0:0:0:0:
64,192,34534,1,0,0:0:0:0:
192,192,34534,1,0,0:0:0:0:
320,192,34655,1,0,0:0:0:0:
448,192,34655,1,0,0:0:0:0:
192,192,34776,1,0,0:0:0:0:
64,192,34897,1,0,0:0:0:0:
192,192,34897,1,0,0:0:0:0:
320,192,34897,1,0,0:0:0:0:
448,192,34897,1,0,0:0:0:0:
320,192,35018,1,0,0:0:0:0:
64,192,35139,1,0,0:0:0:0:
192,192,35139,1,0,0:0:0:0:
448,192,35139,1,0,0:0:0:0:
320,192,35139,1,0,0:0:0:0:
192,192,35260,1,0,0:0:0:0:
192,192,35381,1,0,0:0:0:0:
320,192,35381,1,0,0:0:0:0:
448,192,35381,1,0,0:0:0:0:
64,192,35381,1,0,0:0:0:0:
192,192,35502,1,0,0:0:0:0:
64,192,35502,1,0,0:0:0:0:
64,192,35623,1,0,0:0:0:0:
320,192,35744,1,0,0:0:0:0:
64,192,35865,1,0,0:0:0:0:
192,192,35865,1,0,0:0:0:0:
320,192,35865,1,0,0:0:0:0:
448,192,35865,1,0,0:0:0:0:
320,192,35986,1,0,0:0:0:0:
64,192,36107,1,0,0:0:0:0:
192,192,36107,1,0,0:0:0:0:
64,192,36228,1,0,0:0:0:0:
320,192,36349,1,0,0:0:0:0:
448,192,36349,1,0,0:0:0:0:
64,192,36349,1,0,0:0:0:0:
192,192,36349,1,0,0:0:0:0:
192,192,36470,1,0,0:0:0:0:
192,192,36591,1,0,0:0:0:0:
320,192,36591,1,0,0:0:0:0:
448,192,36591,1,0,0:0:0:0:
320,192,36712,1,0,0:0:0:0:
64,192,36833,1,0,0:0:0:0:
192,192,36833,1,0,0:0:0:0:
320,192,36833,1,0,0:0:0:0:
448,192,36833,1,0,0:0:0:0:
192,192,36954,1,0,0:0:0:0:
64,192,37075,1,0,0:0:0:0:
192,192,37075,1,0,0:0:0:0:
320,192,37196,1,0,0:0:0:0:
64,192,37317,1,0,0:0:0:0:
192,192,37317,1,0,0:0:0:0:
448,192,37317,1,0,0:0:0:0:
320,192,37317,1,0,0:0:0:0:
320,192,37438,1,0,0:0:0:0:
320,192,37559,1,0,0:0:0:0:
192,192,37559,1,0,0:0:0:0:
64,192,37559,1,0,0:0:0:0:
64,192,37679,1,0,0:0:0:0:
64,192,37800,1,0,0:0:0:0:
192,192,37800,1,0,0:0:0:0:
320,192,37800,1,0,0:0:0:0:
448,192,37800,1,0,0:0:0:0:
64,192,37921,1,0,0:0:0:0:
448,192,37921,1,0,0:0:0:0:
64,192,38042,1,0,0:0:0:0:
192,192,38042,1,0,0:0:0:0:
320,192,38042,1,0,0:0:0:0:
448,192,38042,1,0,0:0:0:0:
192,192,38163,1,0,0:0:0:0:
320,192,38163,1,0,0:0:0:0:
64,192,38284,1,0,0:0:0:0:
448,192,38284,1,0,0:0:0:0:
192,192,38284,1,0,0:0:0:0:
320,192,38284,1,0,0:0:0:0:
192,192,38526,1,0,0:0:0:0:
320,192,38526,1,0,0:0:0:0:
448,192,38526,1,0,0:0:0:0:
320,192,38647,1,0,0:0:0:0:
64,192,38768,1,0,0:0:0:0:
192,192,38768,1,0,0:0:0:0:
320,192,38768,1,0,0:0:0:0:
448,192,38768,1,0,0:0:0:0:
192,192,38889,1,0,0:0:0:0:
64,192,39010,1,0,0:0:0:0:
192,192,39010,1,0,0:0:0:0:
448,192,39010,1,0,0:0:0:0:
320,192,39010,1,0,0:0:0:0:
320,192,39131,1,0,0:0:0:0:
192,192,39252,1,0,0:0:0:0:
320,192,39252,1,0,0:0:0:0:
448,192,39252,1,0,0:0:0:0:
64,192,39252,1,0,0:0:0:0:
448,192,39373,1,0,0:0:0:0:
320,192,39373,1,0,0:0:0:0:
448,192,39494,1,0,0:0:0:0:
192,192,39615,1,0,0:0:0:0:
64,192,39736,1,0,0:0:0:0:
192,192,39736,1,0,0:0:0:0:
320,192,39736,1,0,0:0:0:0:
448,192,39736,1,0,0:0:0:0:
192,192,39857,1,0,0:0:0:0:
320,192,39978,1,0,0:0:0:0:
448,192,39978,1,0,0:0:0:0:
448,192,40099,1,0,0:0:0:0:
320,192,40220,1,0,0:0:0:0:
448,192,40220,1,0,0:0:0:0:
64,192,40220,1,0,0:0:0:0:
192,192,40220,1,0,0:0:0:0:
320,192,40341,1,0,0:0:0:0:
192,192,40462,1,0,0:0:0:0:
320,192,40462,1,0,0:0:0:0:
448,192,40462,1,0,0:0:0:0:
192,192,40583,1,0,0:0:0:0:
64,192,40704,1,0,0:0:0:0:
192,192,40704,1,0,0:0:0:0:
320,192,40704,1,0,0:0:0:0:
448,192,40704,1,0,0:0:0:0:
320,192,40825,1,0,0:0:0:0:
320,192,40946,1,0,0:0:0:0:
448,192,40946,1,0,0:0:0:0:
192,192,41067,1,0,0:0:0:0:
64,192,41188,1,0,0:0:0:0:
192,192,41188,1,0,0:0:0:0:
448,192,41188,1,0,0:0:0:0:
320,192,41188,1,0,0:0:0:0:
192,192,41309,1,0,0:0:0:0:
448,192,41429,1,0,0:0:0:0:
320,192,41429,1,0,0:0:0:0:
192,192,41429,1,0,0:0:0:0:
320,192,41550,1,0,0:0:0:0:
64,192,41671,1,0,0:0:0:0:
192,192,41671,1,0,0:0:0:0:
320,192,41671,1,0,0:0:0:0:
448,192,41671,1,0,0:0:0:0:
192,192,41792,1,0,0:0:0:0:
320,192,41792,1,0,0:0:0:0:
64,192,41913,1,0,0:0:0:0:
192,192,41913,1,0,0:0:0:0:
320,192,41913,1,0,0:0:0:0:
448,192,41913,1,0,0:0:0:0:
64,192,42034,1,0,0:0:0:0:
448,192,42034,1,0,0:0:0:0:
64,192,42155,1,0,0:0:0:0:
448,192,42155,1,0,0:0:0:0:
192,192,42155,1,0,0:0:0:0:
320,192,42155,1,0,0:0:0:0:
192,192,42276,1,0,0:0:0:0:
320,192,42397,1,0,0:0:0:0:
448,192,42397,1,0,0:0:0:0:
320,192,42518,1,0,0:0:0:0:
448,192,42518,1,0,0:0:0:0:
64,192,42639,1,0,0:0:0:0:
192,192,42639,1,0,0:0:0:0:
320,192,42639,1,0,0:0:0:0:
448,192,42639,1,0,0:0:0:0:
320,192,42760,1,0,0:0:0:0:
192,192,42881,1,0,0:0:0:0:
64,192,42881,1,0,0:0:0:0:
192,192,43002,1,0,0:0:0:0:
64,192,43123,1,0,0:0:0:0:
192,192,43123,1,0,0:0:0:0:
320,192,43123,1,0,0:0:0:0:
448,192,43123,1,0,0:0:0:0:
320,192,43244,1,0,0:0:0:0:
192,192,43365,1,0,0:0:0:0:
448,192,43365,1,0,0:0:0:0:
320,192,43365,1,0,0:0:0:0:
192,192,43486,1,0,0:0:0:0:
64,192,43607,1,0,0:0:0:0:
320,192,43607,1,0,0:0:0:0:
448,192,43607,1,0,0:0:0:0:
192,192,43607,1,0,0:0:0:0:
64,192,43728,1,0,0:0:0:0:
448,192,43728,1,0,0:0:0:0:
64,192,43849,1,0,0:0:0:0:
192,192,43849,1,0,0:0:0:0:
320,192,43849,1,0,0:0:0:0:
448,192,43849,1,0,0:0:0:0:
192,192,43970,1,0,0:0:0:0:
64,192,44091,1,0,0:0:0:0:
192,192,44091,1,0,0:0:0:0:
448,192,44091,1,0,0:0:0:0:
320,192,44091,1,0,0:0:0:0:
320,192,44212,1,0,0:0:0:0:
64,192,44333,1,0,0:0:0:0:
192,192,44333,1,0,0:0:0:0:
192,192,44454,1,0,0:0:0:0:
64,192,44454,1,0,0:0:0:0:
64,192,44575,1,0,0:0:0:0:
192,192,44575,1,0,0:0:0:0:
320,192,44575,1,0,0:0:0:0:
448,192,44575,1,0,0:0:0:0:
192,192,44696,1,0,0:0:0:0:
448,192,44817,1,0,0:0:0:0:
320,192,44817,1,0,0:0:0:0:
320,192,44938,1,0,0:0:0:0:
64,192,45059,1,0,0:0:0:0:
192,192,45059,1,0,0:0:0:0:
320,192,45059,1,0,0:0:0:0:
448,192,45059,1,0,0:0:0:0:
192,192,45179,1,0,0:0:0:0:
192,192,45300,1,0,0:0:0:0:
448,192,45300,1,0,0:0:0:0:
320,192,45300,1,0,0:0:0:0:
320,192,45421,1,0,0:0:0:0:
64,192,45542,1,0,0:0:0:0:
320,192,45542,1,0,0:0:0:0:
448,192,45542,1,0,0:0:0:0:
192,192,45542,1,0,0:0:0:0:
64,192,45663,1,0,0:0:0:0:
448,192,45663,1,0,0:0:0:0:
64,192,45784,1,0,0:0:0:0:
192,192,45784,1,0,0:0:0:0:
320,192,45784,1,0,0:0:0:0:
448,192,45784,1,0,0:0:0:0:
320,192,45905,1,0,0:0:0:0:
64,192,46026,1,0,0:0:0:0:
192,192,46026,1,0,0:0:0:0:
448,192,46026,1,0,0:0:0:0:
320,192,46026,1,0,0:0:0:0:
64,192,46268,128,0,47115:0:0:0:0:
192,192,46510,128,0,47357:0:0:0:0:
320,192,46752,128,0,47599:0:0:0:0:
448,192,46994,128,0,47841:0:0:0:0:
64,192,47236,128,0,48083:0:0:0:0:
192,192,47478,128,0,48083:0:0:0:0:
320,192,47720,128,0,48929:0:0:0:0:
448,192,47962,128,0,48929:0:0:0:0:
64,192,48204,128,0,48929:0:0:0:0:
192,192,48204,128,0,48929:0:0:0:0:
64,192,49171,128,0,49292:0:0:0:0:
192,192,49171,128,0,49292:0:0:0:0:
320,192,49171,128,0,49292:0:0:0:0:
448,192,49171,128,0,49292:0:0:0:0:
64,192,49413,128,0,49534:0:0:0:0:
192,192,49413,128,0,49534:0:0:0:0:
320,192,49413,128,0,49534:0:0:0:0:
448,192,49413,128,0,49534:0:0:0:0:
64,192,49655,128,0,49716:0:0:0:0:
192,192,49655,128,0,49716:0:0:0:0:
320,192,49655,128,0,49716:0:0:0:0:
448,192,49655,128,0,49716:0:0:0:0:
64,192,49897,128,0,49958:0:0:0:0:
320,192,49897,128,0,49958:0:0:0:0:
192,192,49897,128,0,49958:0:0:0:0:
448,192,49897,128,0,49958:0:0:0:0:
64,192,50139,128,0,50200:0:0:0:0:
192,192,50139,128,0,50200:0:0:0:0:
448,192,50139,128,0,50200:0:0:0:0:
320,192,50139,128,0,50200:0:0:0:0:
64,192,50381,5,0,0:0:0:0:
192,192,50381,1,0,0:0:0:0:
448,192,50381,1,0,0:0:0:0:
64,192,50502,1,0,0:0:0:0:
192,192,50502,1,0,0:0:0:0:
448,192,50502,1,0,0:0:0:0:
64,192,50623,1,0,0:0:0:0:
192,192,50623,1,0,0:0:0:0:
448,192,50623,1,0,0:0:0:0:
64,192,50744,1,0,0:0:0:0:
192,192,50744,1,0,0:0:0:0:
448,192,50744,1,0,0:0:0:0:
448,192,50865,1,0,0:0:0:0:
64,192,50865,1,0,0:0:0:0:
320,192,50865,1,0,0:0:0:0:
64,192,50986,1,0,0:0:0:0:
320,192,50986,1,0,0:0:0:0:
448,192,50986,1,0,0:0:0:0:
320,192,51107,1,0,0:0:0:0:
448,192,51107,1,0,0:0:0:0:
64,192,51107,1,0,0:0:0:0:
448,192,51228,1,0,0:0:0:0:
320,192,51228,1,0,0:0:0:0:
64,192,51228,1,0,0:0:0:0:
64,192,51349,1,0,0:0:0:0:
192,192,51349,1,0,0:0:0:0:
448,192,51349,1,0,0:0:0:0:
320,192,51349,1,0,0:0:0:0:
64,192,51470,1,0,0:0:0:0:
320,192,51470,1,0,0:0:0:0:
192,192,51591,1,0,0:0:0:0:
320,192,51591,1,0,0:0:0:0:
448,192,51591,1,0,0:0:0:0:
192,192,51712,1,0,0:0:0:0:
320,192,51712,1,0,0:0:0:0:
64,192,51833,1,0,0:0:0:0:
192,192,51833,1,0,0:0:0:0:
320,192,51833,1,0,0:0:0:0:
448,192,51833,1,0,0:0:0:0:
64,192,51954,1,0,0:0:0:0:
192,192,51954,1,0,0:0:0:0:
64,192,52075,1,0,0:0:0:0:
192,192,52075,1,0,0:0:0:0:
320,192,52075,1,0,0:0:0:0:
448,192,52075,1,0,0:0:0:0:
320,192,52196,1,0,0:0:0:0:
448,192,52196,1,0,0:0:0:0:
320,192,52317,1,0,0:0:0:0:
448,192,52317,1,0,0:0:0:0:
64,192,52317,1,0,0:0:0:0:
192,192,52317,1,0,0:0:0:0:
64,192,52438,1,0,0:0:0:0:
320,192,52438,1,0,0:0:0:0:
64,192,52559,1,0,0:0:0:0:
192,192,52559,1,0,0:0:0:0:
320,192,52559,1,0,0:0:0:0:
448,192,52559,1,0,0:0:0:0:
192,192,52679,1,0,0:0:0:0:
320,192,52679,1,0,0:0:0:0:
64,192,52800,1,0,0:0:0:0:
192,192,52800,1,0,0:0:0:0:
320,192,52800,1,0,0:0:0:0:
448,192,52800,1,0,0:0:0:0:
320,192,52921,1,0,0:0:0:0:
448,192,52921,1,0,0:0:0:0:
64,192,53042,1,0,0:0:0:0:
192,192,53042,1,0,0:0:0:0:
448,192,53042,1,0,0:0:0:0:
320,192,53042,1,0,0:0:0:0:
64,192,53163,1,0,0:0:0:0:
448,192,53163,1,0,0:0:0:0:
64,192,53284,1,0,0:0:0:0:
192,192,53284,1,0,0:0:0:0:
320,192,53284,1,0,0:0:0:0:
448,192,53284,1,0,0:0:0:0:
64,192,53526,1,0,0:0:0:0:
192,192,53526,1,0,0:0:0:0:
320,192,53526,1,0,0:0:0:0:
448,192,53526,1,0,0:0:0:0:
64,192,53647,1,0,0:0:0:0:
320,192,53647,1,0,0:0:0:0:
64,192,53768,1,0,0:0:0:0:
192,192,53768,1,0,0:0:0:0:
320,192,53768,1,0,0:0:0:0:
448,192,53768,1,0,0:0:0:0:
192,192,53889,1,0,0:0:0:0:
448,192,53889,1,0,0:0:0:0:
448,192,54010,1,0,0:0:0:0:
320,192,54010,1,0,0:0:0:0:
192,192,54010,1,0,0:0:0:0:
64,192,54010,1,0,0:0:0:0:
192,192,54131,1,0,0:0:0:0:
320,192,54131,1,0,0:0:0:0:
64,192,54252,5,0,0:0:0:0:
448,192,54252,1,0,0:0:0:0:
192,192,54252,1,0,0:0:0:0:
448,192,54373,1,0,0:0:0:0:
64,192,54373,1,0,0:0:0:0:
192,192,54373,1,0,0:0:0:0:
448,192,54494,1,0,0:0:0:0:
192,192,54494,1,0,0:0:0:0:
64,192,54494,1,0,0:0:0:0:
192,192,54615,1,0,0:0:0:0:
64,192,54615,1,0,0:0:0:0:
448,192,54615,1,0,0:0:0:0:
448,192,54736,1,0,0:0:0:0:
320,192,54736,1,0,0:0:0:0:
64,192,54736,1,0,0:0:0:0:
448,192,54857,1,0,0:0:0:0:
320,192,54857,1,0,0:0:0:0:
64,192,54857,1,0,0:0:0:0:
448,192,54978,1,0,0:0:0:0:
64,192,54978,1,0,0:0:0:0:
320,192,54978,1,0,0:0:0:0:
448,192,55099,1,0,0:0:0:0:
64,192,55099,1,0,0:0:0:0:
320,192,55099,1,0,0:0:0:0:
64,192,55220,1,0,0:0:0:0:
192,192,55220,1,0,0:0:0:0:
320,192,55220,1,0,0:0:0:0:
448,192,55220,1,0,0:0:0:0:
64,192,55341,1,0,0:0:0:0:
448,192,55341,1,0,0:0:0:0:
448,192,55462,1,0,0:0:0:0:
320,192,55462,1,0,0:0:0:0:
192,192,55462,1,0,0:0:0:0:
64,192,55462,1,0,0:0:0:0:
192,192,55583,1,0,0:0:0:0:
320,192,55583,1,0,0:0:0:0:
64,192,55704,1,0,0:0:0:0:
192,192,55704,1,0,0:0:0:0:
448,192,55704,1,0,0:0:0:0:
320,192,55704,1,0,0:0:0:0:
320,192,55825,1,0,0:0:0:0:
448,192,55825,1,0,0:0:0:0:
320,192,55946,1,0,0:0:0:0:
448,192,55946,1,0,0:0:0:0:
64,192,55946,1,0,0:0:0:0:
192,192,55946,1,0,0:0:0:0:
64,192,56067,1,0,0:0:0:0:
192,192,56067,1,0,0:0:0:0:
64,192,56188,1,0,0:0:0:0:
192,192,56188,1,0,0:0:0:0:
320,192,56188,1,0,0:0:0:0:
448,192,56188,1,0,0:0:0:0:
448,192,56309,1,0,0:0:0:0:
192,192,56309,1,0,0:0:0:0:
64,192,56429,1,0,0:0:0:0:
192,192,56429,1,0,0:0:0:0:
320,192,56429,1,0,0:0:0:0:
448,192,56429,1,0,0:0:0:0:
64,192,56550,1,0,0:0:0:0:
320,192,56550,1,0,0:0:0:0:
64,192,56671,1,0,0:0:0:0:
192,192,56671,1,0,0:0:0:0:
448,192,56671,1,0,0:0:0:0:
320,192,56671,1,0,0:0:0:0:
192,192,56792,1,0,0:0:0:0:
320,192,56792,1,0,0:0:0:0:
64,192,56913,1,0,0:0:0:0:
192,192,56913,1,0,0:0:0:0:
448,192,56913,1,0,0:0:0:0:
320,192,56913,1,0,0:0:0:0:
64,192,57034,1,0,0:0:0:0:
320,192,57034,1,0,0:0:0:0:
64,192,57155,1,0,0:0:0:0:
320,192,57155,1,0,0:0:0:0:
192,192,57155,1,0,0:0:0:0:
448,192,57155,1,0,0:0:0:0:
64,192,57276,1,0,0:0:0:0:
320,192,57276,1,0,0:0:0:0:
192,192,57276,1,0,0:0:0:0:
64,192,57397,1,0,0:0:0:0:
192,192,57397,1,0,0:0:0:0:
320,192,57397,1,0,0:0:0:0:
448,192,57397,1,0,0:0:0:0:
64,192,57639,128,0,57760:0:0:0:0:
192,192,57639,128,0,57760:0:0:0:0:
320,192,57639,128,0,57760:0:0:0:0:
448,192,57639,128,0,57760:0:0:0:0:
64,192,57881,128,0,58002:0:0:0:0:
192,192,57881,128,0,58002:0:0:0:0:
320,192,57881,128,0,58002:0:0:0:0:
448,192,57881,128,0,58002:0:0:0:0:
64,192,58123,1,0,0:0:0:0:
192,192,58123,1,0,0:0:0:0:
320,192,58123,1,0,0:0:0:0:
192,192,58244,1,0,0:0:0:0:
64,192,58244,1,0,0:0:0:0:
320,192,58244,1,0,0:0:0:0:
64,192,58365,1,0,0:0:0:0:
192,192,58365,1,0,0:0:0:0:
320,192,58365,1,0,0:0:0:0:
192,192,58486,1,0,0:0:0:0:
320,192,58486,1,0,0:0:0:0:
64,192,58486,1,0,0:0:0:0:
192,192,58607,1,0,0:0:0:0:
320,192,58607,1,0,0:0:0:0:
448,192,58607,1,0,0:0:0:0:
192,192,58728,1,0,0:0:0:0:
320,192,58728,1,0,0:0:0:0:
448,192,58728,1,0,0:0:0:0:
192,192,58849,1,0,0:0:0:0:
320,192,58849,1,0,0:0:0:0:
448,192,58849,1,0,0:0:0:0:
192,192,58970,1,0,0:0:0:0:
448,192,58970,1,0,0:0:0:0:
320,192,58970,1,0,0:0:0:0:
192,192,59091,1,0,0:0:0:0:
320,192,59091,1,0,0:0:0:0:
448,192,59091,1,0,0:0:0:0:
64,192,59091,1,0,0:0:0:0:
64,192,59212,1,0,0:0:0:0:
192,192,59212,1,0,0:0:0:0:
64,192,59333,1,0,0:0:0:0:
192,192,59333,1,0,0:0:0:0:
320,192,59333,1,0,0:0:0:0:
448,192,59333,1,0,0:0:0:0:
320,192,59454,1,0,0:0:0:0:
448,192,59454,1,0,0:0:0:0:
320,192,59575,1,0,0:0:0:0:
448,192,59575,1,0,0:0:0:0:
64,192,59575,1,0,0:0:0:0:
192,192,59575,1,0,0:0:0:0:
192,192,59696,1,0,0:0:0:0:
320,192,59696,1,0,0:0:0:0:
64,192,59817,1,0,0:0:0:0:
448,192,59817,1,0,0:0:0:0:
320,192,59817,1,0,0:0:0:0:
192,192,59817,1,0,0:0:0:0:
64,192,59938,1,0,0:0:0:0:
448,192,59938,1,0,0:0:0:0:
448,192,60059,1,0,0:0:0:0:
192,192,60059,1,0,0:0:0:0:
64,192,60059,1,0,0:0:0:0:
320,192,60059,1,0,0:0:0:0:
64,192,60179,1,0,0:0:0:0:
320,192,60179,1,0,0:0:0:0:
192,192,60179,1,0,0:0:0:0:
64,192,60300,1,0,0:0:0:0:
192,192,60300,1,0,0:0:0:0:
320,192,60300,1,0,0:0:0:0:
448,192,60300,1,0,0:0:0:0:
192,192,60421,1,0,0:0:0:0:
448,192,60421,1,0,0:0:0:0:
320,192,60421,1,0,0:0:0:0:
64,192,60542,1,0,0:0:0:0:
192,192,60542,1,0,0:0:0:0:
320,192,60542,1,0,0:0:0:0:
448,192,60542,1,0,0:0:0:0:
192,192,60663,1,0,0:0:0:0:
320,192,60663,1,0,0:0:0:0:
64,192,60784,1,0,0:0:0:0:
192,192,60784,1,0,0:0:0:0:
320,192,60784,1,0,0:0:0:0:
448,192,60784,1,0,0:0:0:0:
64,192,60905,1,0,0:0:0:0:
192,192,60905,1,0,0:0:0:0:
320,192,60905,1,0,0:0:0:0:
448,192,60905,1,0,0:0:0:0:
64,192,61026,1,0,0:0:0:0:
192,192,61026,1,0,0:0:0:0:
320,192,61026,1,0,0:0:0:0:
448,192,61026,1,0,0:0:0:0:
64,192,61147,1,0,0:0:0:0:
192,192,61147,1,0,0:0:0:0:
320,192,61147,1,0,0:0:0:0:
448,192,61147,1,0,0:0:0:0:
448,192,61268,1,0,0:0:0:0:
320,192,61268,1,0,0:0:0:0:
192,192,61268,1,0,0:0:0:0:
64,192,61268,1,0,0:0:0:0:
64,192,61389,1,0,0:0:0:0:
192,192,61389,1,0,0:0:0:0:
448,192,61389,1,0,0:0:0:0:
320,192,61389,1,0,0:0:0:0:
320,192,61510,1,0,0:0:0:0:
192,192,61510,1,0,0:0:0:0:
64,192,61510,1,0,0:0:0:0:
448,192,61510,1,0,0:0:0:0:
192,192,61631,1,0,0:0:0:0:
320,192,61631,1,0,0:0:0:0:
64,192,61752,1,0,0:0:0:0:
192,192,61752,1,0,0:0:0:0:
320,192,61752,1,0,0:0:0:0:
448,192,61752,1,0,0:0:0:0:
64,192,61873,1,0,0:0:0:0:
320,192,61873,1,0,0:0:0:0:
64,192,61994,1,0,0:0:0:0:
320,192,61994,1,0,0:0:0:0:
448,192,61994,1,0,0:0:0:0:
192,192,61994,1,0,0:0:0:0:
192,192,62115,1,0,0:0:0:0:
448,192,62115,1,0,0:0:0:0:
448,192,62236,1,0,0:0:0:0:
320,192,62236,1,0,0:0:0:0:
192,192,62236,1,0,0:0:0:0:
64,192,62236,1,0,0:0:0:0:
192,192,62357,1,0,0:0:0:0:
320,192,62357,1,0,0:0:0:0:
64,192,62478,1,0,0:0:0:0:
192,192,62478,1,0,0:0:0:0:
320,192,62478,1,0,0:0:0:0:
448,192,62478,1,0,0:0:0:0:
448,192,62599,1,0,0:0:0:0:
64,192,62599,1,0,0:0:0:0:
192,192,62720,1,0,0:0:0:0:
448,192,62720,1,0,0:0:0:0:
320,192,62720,1,0,0:0:0:0:
64,192,62720,1,0,0:0:0:0:
64,192,62841,1,0,0:0:0:0:
192,192,62841,1,0,0:0:0:0:
64,192,62962,1,0,0:0:0:0:
192,192,62962,1,0,0:0:0:0:
320,192,62962,1,0,0:0:0:0:
448,192,62962,1,0,0:0:0:0:
448,192,63083,1,0,0:0:0:0:
320,192,63083,1,0,0:0:0:0:
448,192,63204,1,0,0:0:0:0:
320,192,63204,1,0,0:0:0:0:
192,192,63204,1,0,0:0:0:0:
64,192,63204,1,0,0:0:0:0:
64,192,63325,1,0,0:0:0:0:
64,192,63446,1,0,0:0:0:0:
192,192,63446,1,0,0:0:0:0:
192,192,63567,1,0,0:0:0:0:
320,192,63567,1,0,0:0:0:0:
64,192,63567,1,0,0:0:0:0:
64,192,63688,1,0,0:0:0:0:
192,192,63688,1,0,0:0:0:0:
448,192,63688,1,0,0:0:0:0:
320,192,63688,1,0,0:0:0:0:
192,192,63809,1,0,0:0:0:0:
320,192,63809,1,0,0:0:0:0:
64,192,63929,1,0,0:0:0:0:
192,192,63929,1,0,0:0:0:0:
448,192,63929,1,0,0:0:0:0:
320,192,63929,1,0,0:0:0:0:
64,192,64050,1,0,0:0:0:0:
192,192,64050,1,0,0:0:0:0:
320,192,64171,1,0,0:0:0:0:
448,192,64292,1,0,0:0:0:0:
320,192,64413,1,0,0:0:0:0:
448,192,64413,1,0,0:0:0:0:
64,192,64534,1,0,0:0:0:0:
64,192,64655,1,0,0:0:0:0:
64,192,64776,1,0,0:0:0:0:
192,192,64776,1,0,0:0:0:0:
320,192,64897,1,0,0:0:0:0:
448,192,64897,1,0,0:0:0:0:
448,192,65018,1,0,0:0:0:0:
320,192,65139,1,0,0:0:0:0:
448,192,65139,1,0,0:0:0:0:
192,192,65260,1,0,0:0:0:0:
64,192,65381,1,0,0:0:0:0:
192,192,65381,1,0,0:0:0:0:
320,192,65502,1,0,0:0:0:0:
320,192,65623,1,0,0:0:0:0:
448,192,65623,1,0,0:0:0:0:
320,192,65744,1,0,0:0:0:0:
192,192,65865,1,0,0:0:0:0:
320,192,65865,1,0,0:0:0:0:
448,192,65865,1,0,0:0:0:0:
64,192,65986,1,0,0:0:0:0:
192,192,65986,1,0,0:0:0:0:
64,192,66107,1,0,0:0:0:0:
320,192,66228,1,0,0:0:0:0:
64,192,66349,1,0,0:0:0:0:
192,192,66349,1,0,0:0:0:0:
320,192,66349,1,0,0:0:0:0:
64,192,66470,1,0,0:0:0:0:
192,192,66470,1,0,0:0:0:0:
64,192,66591,1,0,0:0:0:0:
192,192,66712,1,0,0:0:0:0:
448,192,66712,1,0,0:0:0:0:
64,192,66833,1,0,0:0:0:0:
192,192,66833,1,0,0:0:0:0:
320,192,66833,1,0,0:0:0:0:
192,192,66954,1,0,0:0:0:0:
64,192,67075,1,0,0:0:0:0:
320,192,67075,1,0,0:0:0:0:
320,192,67196,1,0,0:0:0:0:
192,192,67317,1,0,0:0:0:0:
320,192,67317,1,0,0:0:0:0:
448,192,67317,1,0,0:0:0:0:
320,192,67438,1,0,0:0:0:0:
320,192,67559,1,0,0:0:0:0:
64,192,67559,1,0,0:0:0:0:
192,192,67679,1,0,0:0:0:0:
64,192,67800,1,0,0:0:0:0:
192,192,67800,1,0,0:0:0:0:
320,192,67800,1,0,0:0:0:0:
448,192,67800,1,0,0:0:0:0:
320,192,67921,1,0,0:0:0:0:
320,192,68042,1,0,0:0:0:0:
448,192,68163,1,0,0:0:0:0:
320,192,68284,1,0,0:0:0:0:
448,192,68284,1,0,0:0:0:0:
64,192,68405,1,0,0:0:0:0:
64,192,68526,1,0,0:0:0:0:
64,192,68647,1,0,0:0:0:0:
192,192,68647,1,0,0:0:0:0:
320,192,68768,1,0,0:0:0:0:
448,192,68768,1,0,0:0:0:0:
448,192,68889,1,0,0:0:0:0:
320,192,69010,1,0,0:0:0:0:
448,192,69010,1,0,0:0:0:0:
192,192,69131,1,0,0:0:0:0:
64,192,69252,1,0,0:0:0:0:
192,192,69252,1,0,0:0:0:0:
320,192,69373,1,0,0:0:0:0:
320,192,69494,1,0,0:0:0:0:
448,192,69494,1,0,0:0:0:0:
320,192,69615,1,0,0:0:0:0:
192,192,69736,1,0,0:0:0:0:
320,192,69736,1,0,0:0:0:0:
448,192,69736,1,0,0:0:0:0:
64,192,69857,1,0,0:0:0:0:
192,192,69857,1,0,0:0:0:0:
64,192,69978,1,0,0:0:0:0:
320,192,70099,1,0,0:0:0:0:
64,192,70220,1,0,0:0:0:0:
192,192,70220,1,0,0:0:0:0:
320,192,70220,1,0,0:0:0:0:
64,192,70341,1,0,0:0:0:0:
192,192,70341,1,0,0:0:0:0:
64,192,70462,1,0,0:0:0:0:
192,192,70583,1,0,0:0:0:0:
64,192,70704,1,0,0:0:0:0:
192,192,70704,1,0,0:0:0:0:
320,192,70704,1,0,0:0:0:0:
320,192,70825,1,0,0:0:0:0:
320,192,70946,1,0,0:0:0:0:
448,192,70946,1,0,0:0:0:0:
64,192,71067,1,0,0:0:0:0:
192,192,71067,1,0,0:0:0:0:
448,192,71188,1,0,0:0:0:0:
320,192,71248,1,0,0:0:0:0:
192,192,71309,1,0,0:0:0:0:
64,192,71309,1,0,0:0:0:0:
192,192,71429,1,0,0:0:0:0:
448,192,71429,1,0,0:0:0:0:
320,192,71550,1,0,0:0:0:0:
448,192,71550,1,0,0:0:0:0:
64,192,71671,1,0,0:0:0:0:
192,192,71671,1,0,0:0:0:0:
448,192,71671,1,0,0:0:0:0:
320,192,71671,1,0,0:0:0:0:
64,192,71792,1,0,0:0:0:0:
192,192,71792,1,0,0:0:0:0:
320,192,71913,1,0,0:0:0:0:
448,192,72034,1,0,0:0:0:0:
320,192,72155,1,0,0:0:0:0:
448,192,72155,1,0,0:0:0:0:
64,192,72276,1,0,0:0:0:0:
64,192,72397,1,0,0:0:0:0:
64,192,72518,1,0,0:0:0:0:
192,192,72518,1,0,0:0:0:0:
320,192,72639,1,0,0:0:0:0:
448,192,72639,1,0,0:0:0:0:
448,192,72760,1,0,0:0:0:0:
320,192,72881,1,0,0:0:0:0:
448,192,72881,1,0,0:0:0:0:
192,192,73002,1,0,0:0:0:0:
64,192,73123,1,0,0:0:0:0:
192,192,73123,1,0,0:0:0:0:
320,192,73244,1,0,0:0:0:0:
320,192,73365,1,0,0:0:0:0:
448,192,73365,1,0,0:0:0:0:
320,192,73486,1,0,0:0:0:0:
192,192,73607,1,0,0:0:0:0:
320,192,73607,1,0,0:0:0:0:
448,192,73607,1,0,0:0:0:0:
64,192,73728,1,0,0:0:0:0:
192,192,73728,1,0,0:0:0:0:
64,192,73849,1,0,0:0:0:0:
320,192,73970,1,0,0:0:0:0:
64,192,74091,1,0,0:0:0:0:
192,192,74091,1,0,0:0:0:0:
320,192,74091,1,0,0:0:0:0:
64,192,74212,1,0,0:0:0:0:
192,192,74212,1,0,0:0:0:0:
64,192,74333,1,0,0:0:0:0:
192,192,74454,1,0,0:0:0:0:
448,192,74454,1,0,0:0:0:0:
64,192,74575,1,0,0:0:0:0:
192,192,74575,1,0,0:0:0:0:
320,192,74575,1,0,0:0:0:0:
192,192,74696,1,0,0:0:0:0:
64,192,74817,1,0,0:0:0:0:
320,192,74817,1,0,0:0:0:0:
320,192,74938,1,0,0:0:0:0:
192,192,75059,1,0,0:0:0:0:
320,192,75059,1,0,0:0:0:0:
448,192,75059,1,0,0:0:0:0:
320,192,75179,1,0,0:0:0:0:
320,192,75300,1,0,0:0:0:0:
64,192,75300,1,0,0:0:0:0:
192,192,75421,1,0,0:0:0:0:
64,192,75542,1,0,0:0:0:0:
192,192,75542,1,0,0:0:0:0:
448,192,75542,1,0,0:0:0:0:
320,192,75542,1,0,0:0:0:0:
64,192,75663,1,0,0:0:0:0:
192,192,75663,1,0,0:0:0:0:
320,192,75784,1,0,0:0:0:0:
448,192,75905,1,0,0:0:0:0:
320,192,76026,1,0,0:0:0:0:
448,192,76026,1,0,0:0:0:0:
64,192,76147,1,0,0:0:0:0:
64,192,76268,1,0,0:0:0:0:
64,192,76389,1,0,0:0:0:0:
192,192,76389,1,0,0:0:0:0:
320,192,76510,1,0,0:0:0:0:
448,192,76510,1,0,0:0:0:0:
448,192,76631,1,0,0:0:0:0:
320,192,76752,1,0,0:0:0:0:
448,192,76752,1,0,0:0:0:0:
192,192,76873,1,0,0:0:0:0:
64,192,76994,1,0,0:0:0:0:
192,192,76994,1,0,0:0:0:0:
320,192,77115,1,0,0:0:0:0:
320,192,77236,1,0,0:0:0:0:
448,192,77236,1,0,0:0:0:0:
320,192,77357,1,0,0:0:0:0:
192,192,77478,1,0,0:0:0:0:
320,192,77478,1,0,0:0:0:0:
448,192,77478,1,0,0:0:0:0:
192,192,77599,1,0,0:0:0:0:
64,192,77720,1,0,0:0:0:0:
192,192,77720,1,0,0:0:0:0:
320,192,77720,1,0,0:0:0:0:
320,192,77841,1,0,0:0:0:0:
64,192,77962,1,0,0:0:0:0:
192,192,77962,1,0,0:0:0:0:
320,192,77962,1,0,0:0:0:0:
448,192,77962,1,0,0:0:0:0:
64,192,78083,1,0,0:0:0:0:
192,192,78083,1,0,0:0:0:0:
64,192,78204,1,0,0:0:0:0:
320,192,78204,1,0,0:0:0:0:
192,192,78325,1,0,0:0:0:0:
448,192,78325,1,0,0:0:0:0:
192,192,78446,128,0,78627:0:0:0:0:
64,192,78446,128,0,78627:0:0:0:0:
320,192,78446,128,0,78627:0:0:0:0:
192,192,78688,128,0,78869:0:0:0:0:
320,192,78688,128,0,78869:0:0:0:0:
448,192,78688,128,0,78869:0:0:0:0:
64,192,78929,128,0,79111:0:0:0:0:
192,192,78929,128,0,79111:0:0:0:0:
448,192,78929,128,0,79111:0:0:0:0:
64,192,79171,128,0,79353:0:0:0:0:
320,192,79171,128,0,79353:0:0:0:0:
448,192,79171,128,0,79353:0:0:0:0:
64,192,79413,1,0,0:0:0:0:
192,192,79413,1,0,0:0:0:0:
192,192,79534,1,0,0:0:0:0:
64,192,79655,1,0,0:0:0:0:
192,192,79655,1,0,0:0:0:0:
192,192,79776,1,0,0:0:0:0:
320,192,79897,1,0,0:0:0:0:
448,192,79897,1,0,0:0:0:0:
192,192,79897,1,0,0:0:0:0:
192,192,80018,1,0,0:0:0:0:
192,192,80139,1,0,0:0:0:0:
448,192,80139,1,0,0:0:0:0:
192,192,80260,1,0,0:0:0:0:
64,192,80381,1,0,0:0:0:0:
192,192,80381,1,0,0:0:0:0:
320,192,80381,1,0,0:0:0:0:
64,192,80623,1,0,0:0:0:0:
448,192,80623,1,0,0:0:0:0:
320,192,80744,1,0,0:0:0:0:
448,192,80865,1,0,0:0:0:0:
192,192,80865,1,0,0:0:0:0:
320,192,80986,1,0,0:0:0:0:
448,192,81107,1,0,0:0:0:0:
192,192,81107,1,0,0:0:0:0:
448,192,81228,1,0,0:0:0:0:
320,192,81349,1,0,0:0:0:0:
64,192,81349,1,0,0:0:0:0:
320,192,81470,1,0,0:0:0:0:
320,192,81591,1,0,0:0:0:0:
64,192,81591,1,0,0:0:0:0:
320,192,81712,1,0,0:0:0:0:
320,192,81833,1,0,0:0:0:0:
448,192,81833,1,0,0:0:0:0:
64,192,81833,1,0,0:0:0:0:
320,192,81954,1,0,0:0:0:0:
320,192,82075,1,0,0:0:0:0:
192,192,82075,1,0,0:0:0:0:
320,192,82196,1,0,0:0:0:0:
448,192,82317,1,0,0:0:0:0:
192,192,82317,1,0,0:0:0:0:
320,192,82317,1,0,0:0:0:0:
448,192,82438,1,0,0:0:0:0:
320,192,82559,1,0,0:0:0:0:
192,192,82559,1,0,0:0:0:0:
448,192,82679,1,0,0:0:0:0:
64,192,82679,1,0,0:0:0:0:
192,192,82800,1,0,0:0:0:0:
448,192,82800,1,0,0:0:0:0:
64,192,82800,1,0,0:0:0:0:
448,192,83042,1,0,0:0:0:0:
192,192,83042,1,0,0:0:0:0:
320,192,83163,1,0,0:0:0:0:
64,192,83284,1,0,0:0:0:0:
192,192,83284,1,0,0:0:0:0:
448,192,83284,1,0,0:0:0:0:
64,192,83405,1,0,0:0:0:0:
64,192,83526,1,0,0:0:0:0:
320,192,83526,1,0,0:0:0:0:
64,192,83647,1,0,0:0:0:0:
448,192,83768,1,0,0:0:0:0:
64,192,83768,1,0,0:0:0:0:
192,192,83768,1,0,0:0:0:0:
64,192,83889,1,0,0:0:0:0:
64,192,84010,1,0,0:0:0:0:
192,192,84010,1,0,0:0:0:0:
64,192,84131,1,0,0:0:0:0:
64,192,84252,1,0,0:0:0:0:
320,192,84252,1,0,0:0:0:0:
192,192,84252,1,0,0:0:0:0:
192,192,84494,1,0,0:0:0:0:
448,192,84494,1,0,0:0:0:0:
320,192,84615,1,0,0:0:0:0:
64,192,84736,1,0,0:0:0:0:
448,192,84736,1,0,0:0:0:0:
64,192,84857,1,0,0:0:0:0:
192,192,84978,1,0,0:0:0:0:
320,192,85099,1,0,0:0:0:0:
448,192,85220,1,0,0:0:0:0:
192,192,85220,1,0,0:0:0:0:
448,192,85341,1,0,0:0:0:0:
448,192,85462,1,0,0:0:0:0:
320,192,85462,1,0,0:0:0:0:
448,192,85583,1,0,0:0:0:0:
448,192,85704,1,0,0:0:0:0:
64,192,85704,1,0,0:0:0:0:
320,192,85704,1,0,0:0:0:0:
448,192,85825,1,0,0:0:0:0:
448,192,85946,1,0,0:0:0:0:
192,192,85946,1,0,0:0:0:0:
448,192,86067,1,0,0:0:0:0:
448,192,86188,1,0,0:0:0:0:
64,192,86188,1,0,0:0:0:0:
192,192,86188,1,0,0:0:0:0:
192,192,86309,1,0,0:0:0:0:
64,192,86429,1,0,0:0:0:0:
320,192,86429,1,0,0:0:0:0:
320,192,86550,1,0,0:0:0:0:
64,192,86671,1,0,0:0:0:0:
192,192,86671,1,0,0:0:0:0:
448,192,86671,1,0,0:0:0:0:
192,192,86913,1,0,0:0:0:0:
448,192,86913,1,0,0:0:0:0:
320,192,87034,1,0,0:0:0:0:
64,192,87155,1,0,0:0:0:0:
192,192,87155,1,0,0:0:0:0:
192,192,87276,1,0,0:0:0:0:
64,192,87397,1,0,0:0:0:0:
192,192,87397,1,0,0:0:0:0:
192,192,87518,1,0,0:0:0:0:
320,192,87639,1,0,0:0:0:0:
448,192,87639,1,0,0:0:0:0:
192,192,87639,1,0,0:0:0:0:
192,192,87760,1,0,0:0:0:0:
192,192,87881,1,0,0:0:0:0:
448,192,87881,1,0,0:0:0:0:
192,192,88002,1,0,0:0:0:0:
64,192,88123,1,0,0:0:0:0:
192,192,88123,1,0,0:0:0:0:
320,192,88123,1,0,0:0:0:0:
64,192,88244,1,0,0:0:0:0:
192,192,88365,1,0,0:0:0:0:
320,192,88486,1,0,0:0:0:0:
448,192,88607,1,0,0:0:0:0:
192,192,88607,1,0,0:0:0:0:
64,192,88607,1,0,0:0:0:0:
320,192,88728,1,0,0:0:0:0:
448,192,88849,1,0,0:0:0:0:
192,192,88849,1,0,0:0:0:0:
448,192,88970,1,0,0:0:0:0:
320,192,89091,1,0,0:0:0:0:
64,192,89091,1,0,0:0:0:0:
320,192,89212,1,0,0:0:0:0:
320,192,89333,1,0,0:0:0:0:
192,192,89333,1,0,0:0:0:0:
320,192,89454,1,0,0:0:0:0:
320,192,89575,1,0,0:0:0:0:
448,192,89575,1,0,0:0:0:0:
64,192,89575,1,0,0:0:0:0:
320,192,89696,1,0,0:0:0:0:
320,192,89817,1,0,0:0:0:0:
192,192,89817,1,0,0:0:0:0:
320,192,89938,1,0,0:0:0:0:
448,192,90059,1,0,0:0:0:0:
192,192,90059,1,0,0:0:0:0:
320,192,90059,1,0,0:0:0:0:
448,192,90179,1,0,0:0:0:0:
320,192,90300,1,0,0:0:0:0:
192,192,90300,1,0,0:0:0:0:
448,192,90421,1,0,0:0:0:0:
64,192,90421,1,0,0:0:0:0:
192,192,90542,1,0,0:0:0:0:
448,192,90542,1,0,0:0:0:0:
64,192,90542,1,0,0:0:0:0:
448,192,90784,1,0,0:0:0:0:
192,192,90784,1,0,0:0:0:0:
320,192,90905,1,0,0:0:0:0:
64,192,91026,1,0,0:0:0:0:
192,192,91026,1,0,0:0:0:0:
448,192,91026,1,0,0:0:0:0:
64,192,91147,1,0,0:0:0:0:
64,192,91268,1,0,0:0:0:0:
320,192,91268,1,0,0:0:0:0:
64,192,91389,1,0,0:0:0:0:
448,192,91510,5,0,0:0:0:0:
64,192,91510,1,0,0:0:0:0:
192,192,91510,1,0,0:0:0:0:
64,192,91631,1,0,0:0:0:0:
64,192,91752,1,0,0:0:0:0:
192,192,91752,1,0,0:0:0:0:
64,192,91873,1,0,0:0:0:0:
64,192,91994,1,0,0:0:0:0:
320,192,91994,1,0,0:0:0:0:
192,192,91994,1,0,0:0:0:0:
448,192,92115,1,0,0:0:0:0:
320,192,92236,1,0,0:0:0:0:
192,192,92357,1,0,0:0:0:0:
64,192,92478,1,0,0:0:0:0:
448,192,92478,1,0,0:0:0:0:
320,192,92478,1,0,0:0:0:0:
320,192,92599,5,0,0:0:0:0:
64,192,92599,1,0,0:0:0:0:
192,192,92720,1,0,0:0:0:0:
320,192,92720,1,0,0:0:0:0:
192,192,92841,1,0,0:0:0:0:
64,192,92962,1,0,0:0:0:0:
192,192,92962,1,0,0:0:0:0:
320,192,92962,1,0,0:0:0:0:
192,192,93083,1,0,0:0:0:0:
320,192,93204,1,0,0:0:0:0:
448,192,93325,1,0,0:0:0:0:
320,192,93446,1,0,0:0:0:0:
448,192,93446,1,0,0:0:0:0:
64,192,93446,1,0,0:0:0:0:
320,192,93567,1,0,0:0:0:0:
192,192,93688,1,0,0:0:0:0:
64,192,93809,1,0,0:0:0:0:
64,192,93929,1,0,0:0:0:0:
192,192,93929,1,0,0:0:0:0:
448,192,93929,1,0,0:0:0:0:
192,192,94050,1,0,0:0:0:0:
320,192,94050,1,0,0:0:0:0:
64,192,94171,128,0,94232:0:0:0:0:
192,192,94171,128,0,94232:0:0:0:0:
320,192,94171,128,0,94232:0:0:0:0:
448,192,94171,128,0,94232:0:0:0:0:
64,192,94413,128,0,94474:0:0:0:0:
192,192,94413,128,0,94474:0:0:0:0:
320,192,94413,128,0,94474:0:0:0:0:
448,192,94413,128,0,94474:0:0:0:0:
64,192,94655,128,0,94716:0:0:0:0:
192,192,94655,128,0,94716:0:0:0:0:
320,192,94655,128,0,94716:0:0:0:0:
448,192,94655,128,0,94716:0:0:0:0:
64,192,94897,5,0,0:0:0:0:
192,192,94897,1,0,0:0:0:0:
448,192,94897,1,0,0:0:0:0:
64,192,95018,1,0,0:0:0:0:
192,192,95018,1,0,0:0:0:0:
448,192,95018,1,0,0:0:0:0:
64,192,95139,1,0,0:0:0:0:
192,192,95139,1,0,0:0:0:0:
448,192,95139,1,0,0:0:0:0:
64,192,95260,1,0,0:0:0:0:
192,192,95260,1,0,0:0:0:0:
448,192,95260,1,0,0:0:0:0:
448,192,95381,1,0,0:0:0:0:
64,192,95381,1,0,0:0:0:0:
320,192,95381,1,0,0:0:0:0:
64,192,95502,1,0,0:0:0:0:
320,192,95502,1,0,0:0:0:0:
448,192,95502,1,0,0:0:0:0:
320,192,95623,1,0,0:0:0:0:
448,192,95623,1,0,0:0:0:0:
64,192,95623,1,0,0:0:0:0:
448,192,95744,1,0,0:0:0:0:
320,192,95744,1,0,0:0:0:0:
64,192,95744,1,0,0:0:0:0:
64,192,95865,1,0,0:0:0:0:
192,192,95865,1,0,0:0:0:0:
448,192,95865,1,0,0:0:0:0:
320,192,95865,1,0,0:0:0:0:
64,192,95986,1,0,0:0:0:0:
320,192,95986,1,0,0:0:0:0:
192,192,96107,1,0,0:0:0:0:
320,192,96107,1,0,0:0:0:0:
448,192,96107,1,0,0:0:0:0:
192,192,96228,1,0,0:0:0:0:
320,192,96228,1,0,0:0:0:0:
64,192,96349,1,0,0:0:0:0:
192,192,96349,1,0,0:0:0:0:
320,192,96349,1,0,0:0:0:0:
448,192,96349,1,0,0:0:0:0:
64,192,96470,1,0,0:0:0:0:
192,192,96470,1,0,0:0:0:0:
64,192,96591,1,0,0:0:0:0:
192,192,96591,1,0,0:0:0:0:
320,192,96591,1,0,0:0:0:0:
448,192,96591,1,0,0:0:0:0:
320,192,96712,1,0,0:0:0:0:
448,192,96712,1,0,0:0:0:0:
320,192,96833,1,0,0:0:0:0:
448,192,96833,1,0,0:0:0:0:
64,192,96833,1,0,0:0:0:0:
192,192,96833,1,0,0:0:0:0:
64,192,96954,1,0,0:0:0:0:
320,192,96954,1,0,0:0:0:0:
64,192,97075,1,0,0:0:0:0:
192,192,97075,1,0,0:0:0:0:
320,192,97075,1,0,0:0:0:0:
448,192,97075,1,0,0:0:0:0:
192,192,97196,1,0,0:0:0:0:
320,192,97196,1,0,0:0:0:0:
64,192,97317,1,0,0:0:0:0:
192,192,97317,1,0,0:0:0:0:
320,192,97317,1,0,0:0:0:0:
448,192,97317,1,0,0:0:0:0:
320,192,97438,1,0,0:0:0:0:
448,192,97438,1,0,0:0:0:0:
64,192,97559,1,0,0:0:0:0:
192,192,97559,1,0,0:0:0:0:
448,192,97559,1,0,0:0:0:0:
320,192,97559,1,0,0:0:0:0:
64,192,97679,1,0,0:0:0:0:
448,192,97679,1,0,0:0:0:0:
64,192,97800,1,0,0:0:0:0:
192,192,97800,1,0,0:0:0:0:
320,192,97800,1,0,0:0:0:0:
448,192,97800,1,0,0:0:0:0:
64,192,98042,1,0,0:0:0:0:
192,192,98042,1,0,0:0:0:0:
320,192,98042,1,0,0:0:0:0:
448,192,98042,1,0,0:0:0:0:
64,192,98163,1,0,0:0:0:0:
320,192,98163,1,0,0:0:0:0:
64,192,98284,1,0,0:0:0:0:
192,192,98284,1,0,0:0:0:0:
320,192,98284,1,0,0:0:0:0:
448,192,98284,1,0,0:0:0:0:
192,192,98405,1,0,0:0:0:0:
448,192,98405,1,0,0:0:0:0:
448,192,98526,1,0,0:0:0:0:
320,192,98526,1,0,0:0:0:0:
192,192,98526,1,0,0:0:0:0:
64,192,98526,1,0,0:0:0:0:
192,192,98647,1,0,0:0:0:0:
320,192,98647,1,0,0:0:0:0:
64,192,98768,5,0,0:0:0:0:
448,192,98768,1,0,0:0:0:0:
192,192,98768,1,0,0:0:0:0:
448,192,98889,1,0,0:0:0:0:
64,192,98889,1,0,0:0:0:0:
192,192,98889,1,0,0:0:0:0:
448,192,99010,1,0,0:0:0:0:
192,192,99010,1,0,0:0:0:0:
64,192,99010,1,0,0:0:0:0:
192,192,99131,1,0,0:0:0:0:
64,192,99131,1,0,0:0:0:0:
448,192,99131,1,0,0:0:0:0:
448,192,99252,1,0,0:0:0:0:
320,192,99252,1,0,0:0:0:0:
64,192,99252,1,0,0:0:0:0:
448,192,99373,1,0,0:0:0:0:
320,192,99373,1,0,0:0:0:0:
64,192,99373,1,0,0:0:0:0:
448,192,99494,1,0,0:0:0:0:
64,192,99494,1,0,0:0:0:0:
320,192,99494,1,0,0:0:0:0:
448,192,99615,1,0,0:0:0:0:
64,192,99615,1,0,0:0:0:0:
320,192,99615,1,0,0:0:0:0:
64,192,99736,1,0,0:0:0:0:
192,192,99736,1,0,0:0:0:0:
320,192,99736,1,0,0:0:0:0:
448,192,99736,1,0,0:0:0:0:
64,192,99857,1,0,0:0:0:0:
448,192,99857,1,0,0:0:0:0:
448,192,99978,1,0,0:0:0:0:
320,192,99978,1,0,0:0:0:0:
192,192,99978,1,0,0:0:0:0:
64,192,99978,1,0,0:0:0:0:
192,192,100099,1,0,0:0:0:0:
320,192,100099,1,0,0:0:0:0:
64,192,100220,1,0,0:0:0:0:
192,192,100220,1,0,0:0:0:0:
448,192,100220,1,0,0:0:0:0:
320,192,100220,1,0,0:0:0:0:
320,192,100341,1,0,0:0:0:0:
448,192,100341,1,0,0:0:0:0:
320,192,100462,1,0,0:0:0:0:
448,192,100462,1,0,0:0:0:0:
64,192,100462,1,0,0:0:0:0:
192,192,100462,1,0,0:0:0:0:
64,192,100583,1,0,0:0:0:0:
192,192,100583,1,0,0:0:0:0:
64,192,100704,1,0,0:0:0:0:
192,192,100704,1,0,0:0:0:0:
320,192,100704,1,0,0:0:0:0:
448,192,100704,1,0,0:0:0:0:
448,192,100825,1,0,0:0:0:0:
192,192,100825,1,0,0:0:0:0:
64,192,100946,1,0,0:0:0:0:
192,192,100946,1,0,0:0:0:0:
320,192,100946,1,0,0:0:0:0:
448,192,100946,1,0,0:0:0:0:
64,192,101067,1,0,0:0:0:0:
320,192,101067,1,0,0:0:0:0:
64,192,101188,1,0,0:0:0:0:
192,192,101188,1,0,0:0:0:0:
448,192,101188,1,0,0:0:0:0:
320,192,101188,1,0,0:0:0:0:
192,192,101309,1,0,0:0:0:0:
320,192,101309,1,0,0:0:0:0:
64,192,101429,1,0,0:0:0:0:
192,192,101429,1,0,0:0:0:0:
448,192,101429,1,0,0:0:0:0:
320,192,101429,1,0,0:0:0:0:
64,192,101550,1,0,0:0:0:0:
320,192,101550,1,0,0:0:0:0:
64,192,101671,1,0,0:0:0:0:
320,192,101671,1,0,0:0:0:0:
192,192,101671,1,0,0:0:0:0:
448,192,101671,1,0,0:0:0:0:
64,192,101792,1,0,0:0:0:0:
320,192,101792,1,0,0:0:0:0:
192,192,101792,1,0,0:0:0:0:
64,192,101913,1,0,0:0:0:0:
192,192,101913,1,0,0:0:0:0:
320,192,101913,1,0,0:0:0:0:
448,192,101913,1,0,0:0:0:0:
64,192,102155,128,0,102276:0:0:0:0:
192,192,102155,128,0,102276:0:0:0:0:
320,192,102155,128,0,102276:0:0:0:0:
448,192,102155,128,0,102276:0:0:0:0:
64,192,102397,128,0,102518:0:0:0:0:
192,192,102397,128,0,102518:0:0:0:0:
320,192,102397,128,0,102518:0:0:0:0:
448,192,102397,128,0,102518:0:0:0:0:
64,192,102639,1,0,0:0:0:0:
192,192,102639,1,0,0:0:0:0:
320,192,102639,1,0,0:0:0:0:
192,192,102760,1,0,0:0:0:0:
64,192,102760,1,0,0:0:0:0:
320,192,102760,1,0,0:0:0:0:
64,192,102881,1,0,0:0:0:0:
192,192,102881,1,0,0:0:0:0:
320,192,102881,1,0,0:0:0:0:
192,192,103002,1,0,0:0:0:0:
320,192,103002,1,0,0:0:0:0:
64,192,103002,1,0,0:0:0:0:
192,192,103123,1,0,0:0:0:0:
320,192,103123,1,0,0:0:0:0:
448,192,103123,1,0,0:0:0:0:
192,192,103244,1,0,0:0:0:0:
320,192,103244,1,0,0:0:0:0:
448,192,103244,1,0,0:0:0:0:
192,192,103365,1,0,0:0:0:0:
320,192,103365,1,0,0:0:0:0:
448,192,103365,1,0,0:0:0:0:
192,192,103486,1,0,0:0:0:0:
448,192,103486,1,0,0:0:0:0:
320,192,103486,1,0,0:0:0:0:
192,192,103607,1,0,0:0:0:0:
320,192,103607,1,0,0:0:0:0:
448,192,103607,1,0,0:0:0:0:
64,192,103607,1,0,0:0:0:0:
64,192,103728,1,0,0:0:0:0:
192,192,103728,1,0,0:0:0:0:
64,192,103849,1,0,0:0:0:0:
192,192,103849,1,0,0:0:0:0:
320,192,103849,1,0,0:0:0:0:
448,192,103849,1,0,0:0:0:0:
320,192,103970,1,0,0:0:0:0:
448,192,103970,1,0,0:0:0:0:
320,192,104091,1,0,0:0:0:0:
448,192,104091,1,0,0:0:0:0:
64,192,104091,1,0,0:0:0:0:
192,192,104091,1,0,0:0:0:0:
192,192,104212,1,0,0:0:0:0:
320,192,104212,1,0,0:0:0:0:
64,192,104333,1,0,0:0:0:0:
448,192,104333,1,0,0:0:0:0:
320,192,104333,1,0,0:0:0:0:
192,192,104333,1,0,0:0:0:0:
64,192,104454,1,0,0:0:0:0:
448,192,104454,1,0,0:0:0:0:
448,192,104575,1,0,0:0:0:0:
192,192,104575,1,0,0:0:0:0:
64,192,104575,1,0,0:0:0:0:
320,192,104575,1,0,0:0:0:0:
64,192,104696,1,0,0:0:0:0:
320,192,104696,1,0,0:0:0:0:
192,192,104696,1,0,0:0:0:0:
64,192,104817,1,0,0:0:0:0:
192,192,104817,1,0,0:0:0:0:
320,192,104817,1,0,0:0:0:0:
448,192,104817,1,0,0:0:0:0:
192,192,104938,1,0,0:0:0:0:
448,192,104938,1,0,0:0:0:0:
320,192,104938,1,0,0:0:0:0:
64,192,105059,1,0,0:0:0:0:
192,192,105059,1,0,0:0:0:0:
320,192,105059,1,0,0:0:0:0:
448,192,105059,1,0,0:0:0:0:
192,192,105179,1,0,0:0:0:0:
320,192,105179,1,0,0:0:0:0:
64,192,105300,1,0,0:0:0:0:
192,192,105300,1,0,0:0:0:0:
320,192,105300,1,0,0:0:0:0:
448,192,105300,1,0,0:0:0:0:
64,192,105421,1,0,0:0:0:0:
192,192,105421,1,0,0:0:0:0:
320,192,105421,1,0,0:0:0:0:
448,192,105421,1,0,0:0:0:0:
64,192,105542,1,0,0:0:0:0:
192,192,105542,1,0,0:0:0:0:
320,192,105542,1,0,0:0:0:0:
448,192,105542,1,0,0:0:0:0:
64,192,105663,1,0,0:0:0:0:
192,192,105663,1,0,0:0:0:0:
320,192,105663,1,0,0:0:0:0:
448,192,105663,1,0,0:0:0:0:
448,192,105784,1,0,0:0:0:0:
320,192,105784,1,0,0:0:0:0:
192,192,105784,1,0,0:0:0:0:
64,192,105784,1,0,0:0:0:0:
64,192,105905,1,0,0:0:0:0:
192,192,105905,1,0,0:0:0:0:
448,192,105905,1,0,0:0:0:0:
320,192,105905,1,0,0:0:0:0:
320,192,106026,1,0,0:0:0:0:
192,192,106026,1,0,0:0:0:0:
64,192,106026,1,0,0:0:0:0:
448,192,106026,1,0,0:0:0:0:
192,192,106147,1,0,0:0:0:0:
320,192,106147,1,0,0:0:0:0:
64,192,106268,1,0,0:0:0:0:
192,192,106268,1,0,0:0:0:0:
320,192,106268,1,0,0:0:0:0:
448,192,106268,1,0,0:0:0:0:
64,192,106389,1,0,0:0:0:0:
320,192,106389,1,0,0:0:0:0:
64,192,106510,1,0,0:0:0:0:
320,192,106510,1,0,0:0:0:0:
448,192,106510,1,0,0:0:0:0:
192,192,106510,1,0,0:0:0:0:
192,192,106631,1,0,0:0:0:0:
448,192,106631,1,0,0:0:0:0:
448,192,106752,1,0,0:0:0:0:
320,192,106752,1,0,0:0:0:0:
192,192,106752,1,0,0:0:0:0:
64,192,106752,1,0,0:0:0:0:
192,192,106873,1,0,0:0:0:0:
320,192,106873,1,0,0:0:0:0:
64,192,106994,1,0,0:0:0:0:
192,192,106994,1,0,0:0:0:0:
320,192,106994,1,0,0:0:0:0:
448,192,106994,1,0,0:0:0:0:
448,192,107115,1,0,0:0:0:0:
64,192,107115,1,0,0:0:0:0:
192,192,107236,1,0,0:0:0:0:
448,192,107236,1,0,0:0:0:0:
320,192,107236,1,0,0:0:0:0:
64,192,107236,1,0,0:0:0:0:
64,192,107357,1,0,0:0:0:0:
192,192,107357,1,0,0:0:0:0:
64,192,107478,1,0,0:0:0:0:
192,192,107478,1,0,0:0:0:0:
320,192,107478,1,0,0:0:0:0:
448,192,107478,1,0,0:0:0:0:
448,192,107599,1,0,0:0:0:0:
320,192,107599,1,0,0:0:0:0:
448,192,107720,1,0,0:0:0:0:
320,192,107720,1,0,0:0:0:0:
192,192,107720,1,0,0:0:0:0:
64,192,107720,1,0,0:0:0:0:
64,192,107841,1,0,0:0:0:0:
64,192,107962,1,0,0:0:0:0:
192,192,107962,1,0,0:0:0:0:
192,192,108083,1,0,0:0:0:0:
320,192,108083,1,0,0:0:0:0:
64,192,108083,1,0,0:0:0:0:
64,192,108204,1,0,0:0:0:0:
192,192,108204,1,0,0:0:0:0:
448,192,108204,1,0,0:0:0:0:
320,192,108204,1,0,0:0:0:0:
192,192,108325,1,0,0:0:0:0:
320,192,108325,1,0,0:0:0:0:
64,192,108446,128,0,108567:0:0:0:0:
192,192,108446,128,0,108567:0:0:0:0:
320,192,108446,128,0,108567:0:0:0:0:
448,192,108446,128,0,108567:0:0:0:0:
448,192,108688,128,0,108748:0:0:0:0:
320,192,108809,128,0,108869:0:0:0:0:
64,192,108929,128,0,108990:0:0:0:0:
192,192,108929,128,0,108990:0:0:0:0:
320,192,109050,128,0,109111:0:0:0:0:
448,192,109171,128,0,109232:0:0:0:0:
320,192,109292,1,0,0:0:0:0:
64,192,109413,128,0,109474:0:0:0:0:
192,192,109413,128,0,109474:0:0:0:0:
320,192,109534,128,0,109595:0:0:0:0:
448,192,109655,128,0,109776:0:0:0:0:
320,192,109776,128,0,109837:0:0:0:0:
64,192,109897,128,0,109958:0:0:0:0:
192,192,109897,128,0,109958:0:0:0:0:
448,192,110018,128,0,110079:0:0:0:0:
448,192,110139,128,0,110200:0:0:0:0:
448,192,110260,128,0,110321:0:0:0:0:
64,192,110381,128,0,110442:0:0:0:0:
192,192,110381,128,0,110442:0:0:0:0:
320,192,110502,128,0,110563:0:0:0:0:
192,192,110623,128,0,110684:0:0:0:0:
64,192,110744,128,0,110804:0:0:0:0:
320,192,110804,128,0,110865:0:0:0:0:
64,192,110865,128,0,110925:0:0:0:0:
320,192,110925,128,0,110986:0:0:0:0:
64,192,111046,1,0,0:0:0:0:
192,192,111046,1,0,0:0:0:0:
320,192,111107,128,0,111228:0:0:0:0:
448,192,111228,128,0,111349:0:0:0:0:
64,192,111349,128,0,111712:0:0:0:0:
192,192,111470,128,0,111712:0:0:0:0:
320,192,111591,128,0,111833:0:0:0:0:
448,192,111712,128,0,111954:0:0:0:0:
64,192,111833,128,0,112256:0:0:0:0:
192,192,111833,128,0,112256:0:0:0:0:
320,192,111954,128,0,112256:0:0:0:0:
448,192,112075,128,0,112256:0:0:0:0:
64,192,112317,128,0,112377:0:0:0:0:
192,192,112317,128,0,112377:0:0:0:0:
448,192,112317,128,0,112377:0:0:0:0:
320,192,112438,128,0,112498:0:0:0:0:
192,192,112559,128,0,112619:0:0:0:0:
64,192,112679,128,0,112740:0:0:0:0:
320,192,112800,128,0,112861:0:0:0:0:
448,192,112800,128,0,112861:0:0:0:0:
192,192,112921,128,0,112982:0:0:0:0:
64,192,113042,128,0,113103:0:0:0:0:
192,192,113163,128,0,113224:0:0:0:0:
320,192,113284,1,0,0:0:0:0:
448,192,113284,1,0,0:0:0:0:
320,192,113405,1,0,0:0:0:0:
64,192,113526,1,0,0:0:0:0:
192,192,113526,1,0,0:0:0:0:
192,192,113647,1,0,0:0:0:0:
64,192,113768,128,0,113829:0:0:0:0:
320,192,113768,128,0,113829:0:0:0:0:
448,192,113768,128,0,113829:0:0:0:0:
192,192,113889,128,0,113950:0:0:0:0:
320,192,114010,128,0,114071:0:0:0:0:
448,192,114131,128,0,114192:0:0:0:0:
64,192,114252,128,0,114313:0:0:0:0:
192,192,114252,128,0,114313:0:0:0:0:
320,192,114373,128,0,114434:0:0:0:0:
448,192,114494,128,0,114554:0:0:0:0:
320,192,114615,128,0,114675:0:0:0:0:
64,192,114736,128,0,114796:0:0:0:0:
192,192,114736,128,0,114796:0:0:0:0:
448,192,114857,128,0,114917:0:0:0:0:
320,192,114978,128,0,115038:0:0:0:0:
192,192,115099,128,0,115159:0:0:0:0:
64,192,115220,1,0,0:0:0:0:
192,192,115220,1,0,0:0:0:0:
320,192,115341,1,0,0:0:0:0:
448,192,115341,1,0,0:0:0:0:
448,192,115462,1,0,0:0:0:0:
64,192,115462,1,0,0:0:0:0:
64,192,115583,1,0,0:0:0:0:
320,192,115583,1,0,0:0:0:0:
192,192,115704,1,0,0:0:0:0:
320,192,115704,1,0,0:0:0:0:
192,192,115825,1,0,0:0:0:0:
448,192,115825,1,0,0:0:0:0:
64,192,115946,1,0,0:0:0:0:
320,192,115946,1,0,0:0:0:0:
448,192,116067,1,0,0:0:0:0:
192,192,116067,1,0,0:0:0:0:
320,192,116188,1,0,0:0:0:0:
448,192,116309,1,0,0:0:0:0:
448,192,116429,1,0,0:0:0:0:
320,192,116429,1,0,0:0:0:0:
64,192,116550,1,0,0:0:0:0:
64,192,116671,1,0,0:0:0:0:
192,192,116792,1,0,0:0:0:0:
64,192,116792,1,0,0:0:0:0:
448,192,116913,1,0,0:0:0:0:
320,192,116913,1,0,0:0:0:0:
448,192,117034,1,0,0:0:0:0:
448,192,117155,1,0,0:0:0:0:
320,192,117155,1,0,0:0:0:0:
192,192,117276,1,0,0:0:0:0:
192,192,117397,1,0,0:0:0:0:
64,192,117397,1,0,0:0:0:0:
320,192,117518,1,0,0:0:0:0:
448,192,117639,1,0,0:0:0:0:
320,192,117639,1,0,0:0:0:0:
320,192,117760,1,0,0:0:0:0:
448,192,117881,1,0,0:0:0:0:
320,192,117881,1,0,0:0:0:0:
192,192,117881,1,0,0:0:0:0:
192,192,118002,1,0,0:0:0:0:
64,192,118002,1,0,0:0:0:0:
64,192,118123,1,0,0:0:0:0:
320,192,118244,1,0,0:0:0:0:
320,192,118365,1,0,0:0:0:0:
192,192,118365,1,0,0:0:0:0:
64,192,118365,1,0,0:0:0:0:
192,192,118486,1,0,0:0:0:0:
64,192,118486,1,0,0:0:0:0:
64,192,118607,1,0,0:0:0:0:
448,192,118728,1,0,0:0:0:0:
192,192,118728,1,0,0:0:0:0:
320,192,118849,1,0,0:0:0:0:
192,192,118849,1,0,0:0:0:0:
64,192,118849,1,0,0:0:0:0:
192,192,118970,1,0,0:0:0:0:
64,192,119091,1,0,0:0:0:0:
192,192,119151,1,0,0:0:0:0:
320,192,119212,1,0,0:0:0:0:
448,192,119272,1,0,0:0:0:0:
64,192,119333,1,0,0:0:0:0:
192,192,119393,1,0,0:0:0:0:
320,192,119454,1,0,0:0:0:0:
448,192,119514,128,0,119575:0:0:0:0:
64,192,119575,1,0,0:0:0:0:
192,192,119575,1,0,0:0:0:0:
320,192,119635,1,0,0:0:0:0:
192,192,119696,1,0,0:0:0:0:
64,192,119756,1,0,0:0:0:0:
448,192,119817,1,0,0:0:0:0:
320,192,119877,1,0,0:0:0:0:
192,192,119938,1,0,0:0:0:0:
64,192,119998,1,0,0:0:0:0:
192,192,120059,1,0,0:0:0:0:
320,192,120059,1,0,0:0:0:0:
448,192,120059,1,0,0:0:0:0:
320,192,120300,1,0,0:0:0:0:
448,192,120300,1,0,0:0:0:0:
320,192,120421,1,0,0:0:0:0:
192,192,120542,1,0,0:0:0:0:
320,192,120542,1,0,0:0:0:0:
448,192,120542,1,0,0:0:0:0:
64,192,120542,1,0,0:0:0:0:
64,192,120663,1,0,0:0:0:0:
192,192,120663,1,0,0:0:0:0:
192,192,120784,1,0,0:0:0:0:
320,192,120784,1,0,0:0:0:0:
320,192,120905,1,0,0:0:0:0:
448,192,120905,1,0,0:0:0:0:
448,192,121026,1,0,0:0:0:0:
64,192,121026,1,0,0:0:0:0:
192,192,121026,1,0,0:0:0:0:
320,192,121026,1,0,0:0:0:0:
64,192,121268,1,0,0:0:0:0:
320,192,121268,1,0,0:0:0:0:
192,192,121389,1,0,0:0:0:0:
448,192,121389,1,0,0:0:0:0:
64,192,121510,1,0,0:0:0:0:
192,192,121510,1,0,0:0:0:0:
320,192,121510,1,0,0:0:0:0:
448,192,121510,1,0,0:0:0:0:
192,192,121631,1,0,0:0:0:0:
64,192,121631,1,0,0:0:0:0:
192,192,121752,1,0,0:0:0:0:
448,192,121752,1,0,0:0:0:0:
64,192,121873,1,0,0:0:0:0:
320,192,121873,1,0,0:0:0:0:
64,192,121994,1,0,0:0:0:0:
320,192,121994,1,0,0:0:0:0:
192,192,121994,1,0,0:0:0:0:
192,192,122115,1,0,0:0:0:0:
192,192,122236,1,0,0:0:0:0:
320,192,122236,1,0,0:0:0:0:
448,192,122236,1,0,0:0:0:0:
320,192,122357,1,0,0:0:0:0:
64,192,122478,1,0,0:0:0:0:
192,192,122478,1,0,0:0:0:0:
192,192,122599,1,0,0:0:0:0:
64,192,122599,1,0,0:0:0:0:
448,192,122599,1,0,0:0:0:0:
320,192,122962,1,0,0:0:0:0:
448,192,122962,1,0,0:0:0:0:
192,192,122962,1,0,0:0:0:0:
320,192,123083,1,0,0:0:0:0:
448,192,123083,1,0,0:0:0:0:
64,192,123204,1,0,0:0:0:0:
192,192,123204,1,0,0:0:0:0:
320,192,123325,1,0,0:0:0:0:
448,192,123325,1,0,0:0:0:0:
64,192,123446,1,0,0:0:0:0:
192,192,123446,1,0,0:0:0:0:
320,192,123446,1,0,0:0:0:0:
448,192,123446,1,0,0:0:0:0:
64,192,123688,1,0,0:0:0:0:
320,192,123688,1,0,0:0:0:0:
64,192,123929,1,0,0:0:0:0:
192,192,123929,1,0,0:0:0:0:
320,192,123929,1,0,0:0:0:0:
448,192,123929,1,0,0:0:0:0:
320,192,124050,1,0,0:0:0:0:
64,192,124171,1,0,0:0:0:0:
192,192,124171,1,0,0:0:0:0:
448,192,124171,1,0,0:0:0:0:
320,192,124171,1,0,0:0:0:0:
192,192,124292,1,0,0:0:0:0:
192,192,124413,1,0,0:0:0:0:
320,192,124413,1,0,0:0:0:0:
448,192,124413,1,0,0:0:0:0:
64,192,124413,1,0,0:0:0:0:
192,192,124534,1,0,0:0:0:0:
64,192,124534,1,0,0:0:0:0:
64,192,124655,1,0,0:0:0:0:
320,192,124776,1,0,0:0:0:0:
64,192,124897,1,0,0:0:0:0:
192,192,124897,1,0,0:0:0:0:
320,192,124897,1,0,0:0:0:0:
448,192,124897,1,0,0:0:0:0:
320,192,125018,1,0,0:0:0:0:
64,192,125139,1,0,0:0:0:0:
192,192,125139,1,0,0:0:0:0:
64,192,125260,1,0,0:0:0:0:
320,192,125381,1,0,0:0:0:0:
448,192,125381,1,0,0:0:0:0:
64,192,125381,1,0,0:0:0:0:
192,192,125381,1,0,0:0:0:0:
192,192,125502,1,0,0:0:0:0:
192,192,125623,1,0,0:0:0:0:
320,192,125623,1,0,0:0:0:0:
448,192,125623,1,0,0:0:0:0:
320,192,125744,1,0,0:0:0:0:
64,192,125865,1,0,0:0:0:0:
192,192,125865,1,0,0:0:0:0:
320,192,125865,1,0,0:0:0:0:
448,192,125865,1,0,0:0:0:0:
192,192,125986,1,0,0:0:0:0:
64,192,126107,1,0,0:0:0:0:
192,192,126107,1,0,0:0:0:0:
320,192,126228,1,0,0:0:0:0:
64,192,126349,1,0,0:0:0:0:
192,192,126349,1,0,0:0:0:0:
448,192,126349,1,0,0:0:0:0:
320,192,126349,1,0,0:0:0:0:
320,192,126470,1,0,0:0:0:0:
320,192,126591,1,0,0:0:0:0:
192,192,126591,1,0,0:0:0:0:
64,192,126591,1,0,0:0:0:0:
64,192,126712,1,0,0:0:0:0:
64,192,126833,1,0,0:0:0:0:
192,192,126833,1,0,0:0:0:0:
320,192,126833,1,0,0:0:0:0:
448,192,126833,1,0,0:0:0:0:
64,192,126954,1,0,0:0:0:0:
448,192,126954,1,0,0:0:0:0:
64,192,127075,1,0,0:0:0:0:
192,192,127075,1,0,0:0:0:0:
320,192,127075,1,0,0:0:0:0:
448,192,127075,1,0,0:0:0:0:
192,192,127196,1,0,0:0:0:0:
320,192,127196,1,0,0:0:0:0:
64,192,127317,1,0,0:0:0:0:
448,192,127317,1,0,0:0:0:0:
192,192,127317,1,0,0:0:0:0:
320,192,127317,1,0,0:0:0:0:
192,192,127559,1,0,0:0:0:0:
320,192,127559,1,0,0:0:0:0:
448,192,127559,1,0,0:0:0:0:
320,192,127679,1,0,0:0:0:0:
64,192,127800,1,0,0:0:0:0:
192,192,127800,1,0,0:0:0:0:
320,192,127800,1,0,0:0:0:0:
448,192,127800,1,0,0:0:0:0:
192,192,127921,1,0,0:0:0:0:
64,192,128042,1,0,0:0:0:0:
192,192,128042,1,0,0:0:0:0:
448,192,128042,1,0,0:0:0:0:
320,192,128042,1,0,0:0:0:0:
320,192,128163,1,0,0:0:0:0:
192,192,128284,1,0,0:0:0:0:
320,192,128284,1,0,0:0:0:0:
448,192,128284,1,0,0:0:0:0:
64,192,128284,1,0,0:0:0:0:
448,192,128405,1,0,0:0:0:0:
320,192,128405,1,0,0:0:0:0:
448,192,128526,1,0,0:0:0:0:
192,192,128647,1,0,0:0:0:0:
64,192,128768,1,0,0:0:0:0:
192,192,128768,1,0,0:0:0:0:
320,192,128768,1,0,0:0:0:0:
448,192,128768,1,0,0:0:0:0:
192,192,128889,1,0,0:0:0:0:
320,192,129010,1,0,0:0:0:0:
448,192,129010,1,0,0:0:0:0:
448,192,129131,1,0,0:0:0:0:
320,192,129252,1,0,0:0:0:0:
448,192,129252,1,0,0:0:0:0:
64,192,129252,1,0,0:0:0:0:
192,192,129252,1,0,0:0:0:0:
320,192,129373,1,0,0:0:0:0:
192,192,129494,1,0,0:0:0:0:
320,192,129494,1,0,0:0:0:0:
448,192,129494,1,0,0:0:0:0:
192,192,129615,1,0,0:0:0:0:
64,192,129736,1,0,0:0:0:0:
192,192,129736,1,0,0:0:0:0:
320,192,129736,1,0,0:0:0:0:
448,192,129736,1,0,0:0:0:0:
320,192,129857,1,0,0:0:0:0:
320,192,129978,1,0,0:0:0:0:
448,192,129978,1,0,0:0:0:0:
192,192,130099,1,0,0:0:0:0:
64,192,130220,1,0,0:0:0:0:
192,192,130220,1,0,0:0:0:0:
448,192,130220,1,0,0:0:0:0:
320,192,130220,1,0,0:0:0:0:
192,192,130341,1,0,0:0:0:0:
448,192,130462,1,0,0:0:0:0:
320,192,130462,1,0,0:0:0:0:
192,192,130462,1,0,0:0:0:0:
320,192,130583,1,0,0:0:0:0:
64,192,130704,1,0,0:0:0:0:
192,192,130704,1,0,0:0:0:0:
320,192,130704,1,0,0:0:0:0:
448,192,130704,1,0,0:0:0:0:
192,192,130825,1,0,0:0:0:0:
320,192,130825,1,0,0:0:0:0:
64,192,130946,1,0,0:0:0:0:
192,192,130946,1,0,0:0:0:0:
320,192,130946,1,0,0:0:0:0:
448,192,130946,1,0,0:0:0:0:
64,192,131067,1,0,0:0:0:0:
448,192,131067,1,0,0:0:0:0:
64,192,131188,1,0,0:0:0:0:
448,192,131188,1,0,0:0:0:0:
192,192,131188,1,0,0:0:0:0:
320,192,131188,1,0,0:0:0:0:
192,192,131309,1,0,0:0:0:0:
320,192,131429,1,0,0:0:0:0:
448,192,131429,1,0,0:0:0:0:
320,192,131550,1,0,0:0:0:0:
448,192,131550,1,0,0:0:0:0:
64,192,131671,1,0,0:0:0:0:
192,192,131671,1,0,0:0:0:0:
320,192,131671,1,0,0:0:0:0:
448,192,131671,1,0,0:0:0:0:
320,192,131792,1,0,0:0:0:0:
192,192,131913,1,0,0:0:0:0:
64,192,131913,1,0,0:0:0:0:
192,192,132034,1,0,0:0:0:0:
64,192,132155,1,0,0:0:0:0:
192,192,132155,1,0,0:0:0:0:
320,192,132155,1,0,0:0:0:0:
448,192,132155,1,0,0:0:0:0:
320,192,132276,1,0,0:0:0:0:
192,192,132397,1,0,0:0:0:0:
448,192,132397,1,0,0:0:0:0:
320,192,132397,1,0,0:0:0:0:
192,192,132518,1,0,0:0:0:0:
64,192,132639,1,0,0:0:0:0:
320,192,132639,1,0,0:0:0:0:
448,192,132639,1,0,0:0:0:0:
192,192,132639,1,0,0:0:0:0:
64,192,132760,1,0,0:0:0:0:
448,192,132760,1,0,0:0:0:0:
64,192,132881,1,0,0:0:0:0:
192,192,132881,1,0,0:0:0:0:
320,192,132881,1,0,0:0:0:0:
448,192,132881,1,0,0:0:0:0:
192,192,133002,1,0,0:0:0:0:
64,192,133123,1,0,0:0:0:0:
192,192,133123,1,0,0:0:0:0:
448,192,133123,1,0,0:0:0:0:
320,192,133123,1,0,0:0:0:0:
320,192,133244,1,0,0:0:0:0:
64,192,133365,1,0,0:0:0:0:
192,192,133365,1,0,0:0:0:0:
192,192,133486,1,0,0:0:0:0:
64,192,133486,1,0,0:0:0:0:
64,192,133607,1,0,0:0:0:0:
192,192,133607,1,0,0:0:0:0:
320,192,133607,1,0,0:0:0:0:
448,192,133607,1,0,0:0:0:0:
192,192,133728,1,0,0:0:0:0:
448,192,133849,1,0,0:0:0:0:
320,192,133849,1,0,0:0:0:0:
320,192,133970,1,0,0:0:0:0:
64,192,134091,1,0,0:0:0:0:
192,192,134091,1,0,0:0:0:0:
320,192,134091,1,0,0:0:0:0:
448,192,134091,1,0,0:0:0:0:
192,192,134212,1,0,0:0:0:0:
192,192,134333,1,0,0:0:0:0:
448,192,134333,1,0,0:0:0:0:
320,192,134333,1,0,0:0:0:0:
320,192,134454,1,0,0:0:0:0:
64,192,134575,1,0,0:0:0:0:
320,192,134575,1,0,0:0:0:0:
448,192,134575,1,0,0:0:0:0:
192,192,134575,1,0,0:0:0:0:
64,192,134696,1,0,0:0:0:0:
448,192,134696,1,0,0:0:0:0:
64,192,134817,1,0,0:0:0:0:
192,192,134817,1,0,0:0:0:0:
320,192,134817,1,0,0:0:0:0:
448,192,134817,1,0,0:0:0:0:
320,192,134938,1,0,0:0:0:0:
64,192,135059,1,0,0:0:0:0:
192,192,135059,1,0,0:0:0:0:
448,192,135059,1,0,0:0:0:0:
320,192,135059,1,0,0:0:0:0:
64,192,135300,128,0,136147:0:0:0:0:
192,192,135542,128,0,136389:0:0:0:0:
320,192,135784,128,0,136631:0:0:0:0:
448,192,136026,128,0,136873:0:0:0:0:
64,192,136268,128,0,137115:0:0:0:0:
192,192,136510,128,0,137115:0:0:0:0:
320,192,136752,128,0,136873:0:0:0:0:
320,192,136994,128,0,137417:0:0:0:0:
448,192,136994,128,0,137417:0:0:0:0:
64,192,137236,128,0,137417:0:0:0:0:
192,192,137236,128,0,137417:0:0:0:0:
64,192,137478,128,0,137599:0:0:0:0:
192,192,137478,128,0,137599:0:0:0:0:
320,192,137478,128,0,137599:0:0:0:0:
448,192,137478,128,0,137599:0:0:0:0:
64,192,137841,128,0,137962:0:0:0:0:
192,192,137841,128,0,137962:0:0:0:0:
320,192,137841,128,0,137962:0:0:0:0:
448,192,137841,128,0,137962:0:0:0:0:
64,192,138204,128,0,138325:0:0:0:0:
192,192,138204,128,0,138325:0:0:0:0:
320,192,138204,128,0,138325:0:0:0:0:
448,192,138204,128,0,138325:0:0:0:0:
320,192,139413,1,0,0:0:0:0:
448,192,139413,1,0,0:0:0:0:
320,192,140381,1,0,0:0:0:0:
448,192,140381,1,0,0:0:0:0:
64,192,140865,1,0,0:0:0:0:
192,192,140865,1,0,0:0:0:0:
192,192,141349,1,0,0:0:0:0:
320,192,141349,1,0,0:0:0:0:
448,192,141349,1,0,0:0:0:0:
64,192,142317,1,0,0:0:0:0:
192,192,142559,1,0,0:0:0:0:
320,192,142800,1,0,0:0:0:0:
448,192,143042,1,0,0:0:0:0:
64,192,143284,1,0,0:0:0:0:
192,192,143284,1,0,0:0:0:0:
320,192,144252,1,0,0:0:0:0:
448,192,144252,1,0,0:0:0:0:
64,192,144494,1,0,0:0:0:0:
192,192,144736,1,0,0:0:0:0:
320,192,144978,1,0,0:0:0:0:
448,192,145220,1,0,0:0:0:0:
64,192,146188,1,0,0:0:0:0:
192,192,146188,1,0,0:0:0:0:
448,192,146429,1,0,0:0:0:0:
192,192,146490,1,0,0:0:0:0:
448,192,146550,1,0,0:0:0:0:
192,192,146611,1,0,0:0:0:0:
64,192,146671,1,0,0:0:0:0:
320,192,146671,1,0,0:0:0:0:
448,192,146671,1,0,0:0:0:0:
64,192,147155,1,0,0:0:0:0:
192,192,147155,1,0,0:0:0:0:
320,192,147155,1,0,0:0:0:0:
64,192,147639,1,0,0:0:0:0:
192,192,147639,1,0,0:0:0:0:
320,192,148123,1,0,0:0:0:0:
448,192,148123,1,0,0:0:0:0:
192,192,148365,1,0,0:0:0:0:
320,192,148365,1,0,0:0:0:0:
448,192,148365,1,0,0:0:0:0:
320,192,148607,1,0,0:0:0:0:
448,192,148607,1,0,0:0:0:0:
64,192,148849,1,0,0:0:0:0:
192,192,148849,1,0,0:0:0:0:
64,192,149091,1,0,0:0:0:0:
192,192,149091,1,0,0:0:0:0:
320,192,149091,1,0,0:0:0:0:
64,192,149575,1,0,0:0:0:0:
192,192,149575,1,0,0:0:0:0:
320,192,149575,1,0,0:0:0:0:
320,192,150059,1,0,0:0:0:0:
448,192,150059,1,0,0:0:0:0:
192,192,150300,1,0,0:0:0:0:
320,192,150300,1,0,0:0:0:0:
448,192,150300,1,0,0:0:0:0:
320,192,150542,1,0,0:0:0:0:
448,192,150542,1,0,0:0:0:0:
192,192,150784,1,0,0:0:0:0:
64,192,150784,1,0,0:0:0:0:
64,192,151026,1,0,0:0:0:0:
192,192,151026,1,0,0:0:0:0:
320,192,151026,1,0,0:0:0:0:
64,192,151510,1,0,0:0:0:0:
320,192,151510,1,0,0:0:0:0:
448,192,151510,1,0,0:0:0:0:
192,192,151994,1,0,0:0:0:0:
320,192,151994,1,0,0:0:0:0:
64,192,152236,1,0,0:0:0:0:
192,192,152236,1,0,0:0:0:0:
448,192,152236,1,0,0:0:0:0:
64,192,152478,1,0,0:0:0:0:
320,192,152478,1,0,0:0:0:0:
448,192,152478,1,0,0:0:0:0:
64,192,152720,1,0,0:0:0:0:
448,192,152720,1,0,0:0:0:0:
64,192,152962,128,0,153022:0:0:0:0:
192,192,152962,128,0,153022:0:0:0:0:
320,192,152962,128,0,153022:0:0:0:0:
448,192,152962,128,0,153022:0:0:0:0:
64,192,153204,128,0,153325:0:0:0:0:
192,192,153325,1,0,0:0:0:0:
320,192,153446,1,0,0:0:0:0:
448,192,153446,1,0,0:0:0:0:
448,192,153688,128,0,153809:0:0:0:0:
320,192,153809,1,0,0:0:0:0:
64,192,153929,1,0,0:0:0:0:
192,192,153929,1,0,0:0:0:0:
64,192,154171,128,0,154232:0:0:0:0:
192,192,154171,128,0,154232:0:0:0:0:
320,192,154171,128,0,154232:0:0:0:0:
192,192,154413,128,0,154474:0:0:0:0:
320,192,154413,128,0,154474:0:0:0:0:
448,192,154413,128,0,154474:0:0:0:0:
64,192,154655,128,0,154716:0:0:0:0:
192,192,154655,128,0,154716:0:0:0:0:
320,192,154655,128,0,154716:0:0:0:0:
192,192,154897,1,0,0:0:0:0:
320,192,154897,1,0,0:0:0:0:
448,192,154897,1,0,0:0:0:0:
320,192,155018,1,0,0:0:0:0:
64,192,155139,1,0,0:0:0:0:
192,192,155139,1,0,0:0:0:0:
320,192,155139,1,0,0:0:0:0:
192,192,155260,1,0,0:0:0:0:
64,192,155381,1,0,0:0:0:0:
192,192,155381,1,0,0:0:0:0:
320,192,155381,1,0,0:0:0:0:
448,192,155381,1,0,0:0:0:0:
64,192,155623,128,0,155804:0:0:0:0:
192,192,155623,128,0,155804:0:0:0:0:
448,192,155623,128,0,155804:0:0:0:0:
64,192,155865,128,0,156046:0:0:0:0:
320,192,155865,128,0,156046:0:0:0:0:
448,192,155865,128,0,156046:0:0:0:0:
64,192,156107,128,0,156288:0:0:0:0:
192,192,156107,128,0,156288:0:0:0:0:
320,192,156107,128,0,156288:0:0:0:0:
192,192,156349,128,0,156530:0:0:0:0:
320,192,156349,128,0,156530:0:0:0:0:
448,192,156349,128,0,156530:0:0:0:0:
64,192,156591,128,0,156772:0:0:0:0:
192,192,156591,128,0,156772:0:0:0:0:
320,192,156591,128,0,156772:0:0:0:0:
64,192,156833,5,0,0:0:0:0:
192,192,156833,1,0,0:0:0:0:
448,192,156833,1,0,0:0:0:0:
64,192,156954,1,0,0:0:0:0:
192,192,156954,1,0,0:0:0:0:
448,192,156954,1,0,0:0:0:0:
64,192,157075,1,0,0:0:0:0:
192,192,157075,1,0,0:0:0:0:
448,192,157075,1,0,0:0:0:0:
64,192,157196,1,0,0:0:0:0:
192,192,157196,1,0,0:0:0:0:
448,192,157196,1,0,0:0:0:0:
448,192,157317,1,0,0:0:0:0:
64,192,157317,1,0,0:0:0:0:
320,192,157317,1,0,0:0:0:0:
64,192,157438,1,0,0:0:0:0:
320,192,157438,1,0,0:0:0:0:
448,192,157438,1,0,0:0:0:0:
320,192,157559,1,0,0:0:0:0:
448,192,157559,1,0,0:0:0:0:
64,192,157559,1,0,0:0:0:0:
448,192,157679,1,0,0:0:0:0:
320,192,157679,1,0,0:0:0:0:
64,192,157679,1,0,0:0:0:0:
64,192,157800,1,0,0:0:0:0:
192,192,157800,1,0,0:0:0:0:
448,192,157800,1,0,0:0:0:0:
320,192,157800,1,0,0:0:0:0:
64,192,157921,1,0,0:0:0:0:
320,192,157921,1,0,0:0:0:0:
192,192,158042,1,0,0:0:0:0:
320,192,158042,1,0,0:0:0:0:
448,192,158042,1,0,0:0:0:0:
192,192,158163,1,0,0:0:0:0:
320,192,158163,1,0,0:0:0:0:
64,192,158284,1,0,0:0:0:0:
192,192,158284,1,0,0:0:0:0:
320,192,158284,1,0,0:0:0:0:
448,192,158284,1,0,0:0:0:0:
64,192,158405,1,0,0:0:0:0:
192,192,158405,1,0,0:0:0:0:
64,192,158526,1,0,0:0:0:0:
192,192,158526,1,0,0:0:0:0:
320,192,158526,1,0,0:0:0:0:
448,192,158526,1,0,0:0:0:0:
320,192,158647,1,0,0:0:0:0:
448,192,158647,1,0,0:0:0:0:
320,192,158768,1,0,0:0:0:0:
448,192,158768,1,0,0:0:0:0:
64,192,158768,1,0,0:0:0:0:
192,192,158768,1,0,0:0:0:0:
64,192,158889,1,0,0:0:0:0:
320,192,158889,1,0,0:0:0:0:
64,192,159010,1,0,0:0:0:0:
192,192,159010,1,0,0:0:0:0:
320,192,159010,1,0,0:0:0:0:
448,192,159010,1,0,0:0:0:0:
192,192,159131,1,0,0:0:0:0:
320,192,159131,1,0,0:0:0:0:
64,192,159252,1,0,0:0:0:0:
192,192,159252,1,0,0:0:0:0:
320,192,159252,1,0,0:0:0:0:
448,192,159252,1,0,0:0:0:0:
320,192,159373,1,0,0:0:0:0:
448,192,159373,1,0,0:0:0:0:
64,192,159494,1,0,0:0:0:0:
192,192,159494,1,0,0:0:0:0:
448,192,159494,1,0,0:0:0:0:
320,192,159494,1,0,0:0:0:0:
64,192,159615,1,0,0:0:0:0:
448,192,159615,1,0,0:0:0:0:
64,192,159736,1,0,0:0:0:0:
192,192,159736,1,0,0:0:0:0:
320,192,159736,1,0,0:0:0:0:
448,192,159736,1,0,0:0:0:0:
64,192,159978,1,0,0:0:0:0:
192,192,159978,1,0,0:0:0:0:
320,192,159978,1,0,0:0:0:0:
448,192,159978,1,0,0:0:0:0:
64,192,160099,1,0,0:0:0:0:
320,192,160099,1,0,0:0:0:0:
64,192,160220,1,0,0:0:0:0:
192,192,160220,1,0,0:0:0:0:
320,192,160220,1,0,0:0:0:0:
448,192,160220,1,0,0:0:0:0:
192,192,160341,1,0,0:0:0:0:
448,192,160341,1,0,0:0:0:0:
448,192,160462,1,0,0:0:0:0:
320,192,160462,1,0,0:0:0:0:
192,192,160462,1,0,0:0:0:0:
64,192,160462,1,0,0:0:0:0:
192,192,160583,1,0,0:0:0:0:
320,192,160583,1,0,0:0:0:0:
64,192,160704,5,0,0:0:0:0:
448,192,160704,1,0,0:0:0:0:
192,192,160704,1,0,0:0:0:0:
448,192,160825,1,0,0:0:0:0:
64,192,160825,1,0,0:0:0:0:
192,192,160825,1,0,0:0:0:0:
448,192,160946,1,0,0:0:0:0:
192,192,160946,1,0,0:0:0:0:
64,192,160946,1,0,0:0:0:0:
192,192,161067,1,0,0:0:0:0:
64,192,161067,1,0,0:0:0:0:
448,192,161067,1,0,0:0:0:0:
448,192,161188,1,0,0:0:0:0:
320,192,161188,1,0,0:0:0:0:
64,192,161188,1,0,0:0:0:0:
448,192,161309,1,0,0:0:0:0:
320,192,161309,1,0,0:0:0:0:
64,192,161309,1,0,0:0:0:0:
448,192,161429,1,0,0:0:0:0:
64,192,161429,1,0,0:0:0:0:
320,192,161429,1,0,0:0:0:0:
448,192,161550,1,0,0:0:0:0:
64,192,161550,1,0,0:0:0:0:
320,192,161550,1,0,0:0:0:0:
64,192,161671,1,0,0:0:0:0:
192,192,161671,1,0,0:0:0:0:
320,192,161671,1,0,0:0:0:0:
448,192,161671,1,0,0:0:0:0:
64,192,161792,1,0,0:0:0:0:
448,192,161792,1,0,0:0:0:0:
448,192,161913,1,0,0:0:0:0:
320,192,161913,1,0,0:0:0:0:
192,192,161913,1,0,0:0:0:0:
64,192,161913,1,0,0:0:0:0:
192,192,162034,1,0,0:0:0:0:
320,192,162034,1,0,0:0:0:0:
64,192,162155,1,0,0:0:0:0:
192,192,162155,1,0,0:0:0:0:
448,192,162155,1,0,0:0:0:0:
320,192,162155,1,0,0:0:0:0:
320,192,162276,1,0,0:0:0:0:
448,192,162276,1,0,0:0:0:0:
320,192,162397,1,0,0:0:0:0:
448,192,162397,1,0,0:0:0:0:
64,192,162397,1,0,0:0:0:0:
192,192,162397,1,0,0:0:0:0:
64,192,162518,1,0,0:0:0:0:
192,192,162518,1,0,0:0:0:0:
64,192,162639,1,0,0:0:0:0:
192,192,162639,1,0,0:0:0:0:
320,192,162639,1,0,0:0:0:0:
448,192,162639,1,0,0:0:0:0:
448,192,162760,1,0,0:0:0:0:
192,192,162760,1,0,0:0:0:0:
64,192,162881,1,0,0:0:0:0:
192,192,162881,1,0,0:0:0:0:
320,192,162881,1,0,0:0:0:0:
448,192,162881,1,0,0:0:0:0:
64,192,163002,1,0,0:0:0:0:
320,192,163002,1,0,0:0:0:0:
64,192,163123,1,0,0:0:0:0:
192,192,163123,1,0,0:0:0:0:
448,192,163123,1,0,0:0:0:0:
320,192,163123,1,0,0:0:0:0:
192,192,163244,1,0,0:0:0:0:
320,192,163244,1,0,0:0:0:0:
64,192,163365,1,0,0:0:0:0:
192,192,163365,1,0,0:0:0:0:
448,192,163365,1,0,0:0:0:0:
320,192,163365,1,0,0:0:0:0:
64,192,163486,1,0,0:0:0:0:
320,192,163486,1,0,0:0:0:0:
64,192,163607,1,0,0:0:0:0:
320,192,163607,1,0,0:0:0:0:
192,192,163607,1,0,0:0:0:0:
448,192,163607,1,0,0:0:0:0:
64,192,163728,1,0,0:0:0:0:
320,192,163728,1,0,0:0:0:0:
192,192,163728,1,0,0:0:0:0:
64,192,163849,1,0,0:0:0:0:
192,192,163849,1,0,0:0:0:0:
320,192,163849,1,0,0:0:0:0:
448,192,163849,1,0,0:0:0:0:
64,192,164091,128,0,164212:0:0:0:0:
192,192,164091,128,0,164212:0:0:0:0:
320,192,164091,128,0,164212:0:0:0:0:
448,192,164091,128,0,164212:0:0:0:0:
64,192,164333,128,0,164454:0:0:0:0:
192,192,164333,128,0,164454:0:0:0:0:
320,192,164333,128,0,164454:0:0:0:0:
448,192,164333,128,0,164454:0:0:0:0:
64,192,164575,1,0,0:0:0:0:
192,192,164575,1,0,0:0:0:0:
320,192,164575,1,0,0:0:0:0:
192,192,164696,1,0,0:0:0:0:
64,192,164696,1,0,0:0:0:0:
320,192,164696,1,0,0:0:0:0:
64,192,164817,1,0,0:0:0:0:
192,192,164817,1,0,0:0:0:0:
320,192,164817,1,0,0:0:0:0:
192,192,164938,1,0,0:0:0:0:
320,192,164938,1,0,0:0:0:0:
64,192,164938,1,0,0:0:0:0:
192,192,165059,1,0,0:0:0:0:
320,192,165059,1,0,0:0:0:0:
448,192,165059,1,0,0:0:0:0:
192,192,165179,1,0,0:0:0:0:
320,192,165179,1,0,0:0:0:0:
448,192,165179,1,0,0:0:0:0:
192,192,165300,1,0,0:0:0:0:
320,192,165300,1,0,0:0:0:0:
448,192,165300,1,0,0:0:0:0:
192,192,165421,1,0,0:0:0:0:
448,192,165421,1,0,0:0:0:0:
320,192,165421,1,0,0:0:0:0:
192,192,165542,1,0,0:0:0:0:
320,192,165542,1,0,0:0:0:0:
448,192,165542,1,0,0:0:0:0:
64,192,165542,1,0,0:0:0:0:
64,192,165663,1,0,0:0:0:0:
192,192,165663,1,0,0:0:0:0:
64,192,165784,1,0,0:0:0:0:
192,192,165784,1,0,0:0:0:0:
320,192,165784,1,0,0:0:0:0:
448,192,165784,1,0,0:0:0:0:
320,192,165905,1,0,0:0:0:0:
448,192,165905,1,0,0:0:0:0:
320,192,166026,1,0,0:0:0:0:
448,192,166026,1,0,0:0:0:0:
64,192,166026,1,0,0:0:0:0:
192,192,166026,1,0,0:0:0:0:
192,192,166147,1,0,0:0:0:0:
320,192,166147,1,0,0:0:0:0:
64,192,166268,1,0,0:0:0:0:
448,192,166268,1,0,0:0:0:0:
320,192,166268,1,0,0:0:0:0:
192,192,166268,1,0,0:0:0:0:
64,192,166389,1,0,0:0:0:0:
448,192,166389,1,0,0:0:0:0:
448,192,166510,1,0,0:0:0:0:
192,192,166510,1,0,0:0:0:0:
64,192,166510,1,0,0:0:0:0:
320,192,166510,1,0,0:0:0:0:
64,192,166631,1,0,0:0:0:0:
320,192,166631,1,0,0:0:0:0:
192,192,166631,1,0,0:0:0:0:
64,192,166752,1,0,0:0:0:0:
192,192,166752,1,0,0:0:0:0:
320,192,166752,1,0,0:0:0:0:
448,192,166752,1,0,0:0:0:0:
192,192,166873,1,0,0:0:0:0:
448,192,166873,1,0,0:0:0:0:
320,192,166873,1,0,0:0:0:0:
64,192,166994,1,0,0:0:0:0:
192,192,166994,1,0,0:0:0:0:
320,192,166994,1,0,0:0:0:0:
448,192,166994,1,0,0:0:0:0:
192,192,167115,1,0,0:0:0:0:
320,192,167115,1,0,0:0:0:0:
64,192,167236,1,0,0:0:0:0:
192,192,167236,1,0,0:0:0:0:
320,192,167236,1,0,0:0:0:0:
448,192,167236,1,0,0:0:0:0:
64,192,167357,1,0,0:0:0:0:
192,192,167357,1,0,0:0:0:0:
320,192,167357,1,0,0:0:0:0:
448,192,167357,1,0,0:0:0:0:
64,192,167478,1,0,0:0:0:0:
192,192,167478,1,0,0:0:0:0:
320,192,167478,1,0,0:0:0:0:
448,192,167478,1,0,0:0:0:0:
64,192,167599,1,0,0:0:0:0:
192,192,167599,1,0,0:0:0:0:
320,192,167599,1,0,0:0:0:0:
448,192,167599,1,0,0:0:0:0:
448,192,167720,1,0,0:0:0:0:
320,192,167720,1,0,0:0:0:0:
192,192,167720,1,0,0:0:0:0:
64,192,167720,1,0,0:0:0:0:
64,192,167841,1,0,0:0:0:0:
192,192,167841,1,0,0:0:0:0:
448,192,167841,1,0,0:0:0:0:
320,192,167841,1,0,0:0:0:0:
320,192,167962,1,0,0:0:0:0:
192,192,167962,1,0,0:0:0:0:
64,192,167962,1,0,0:0:0:0:
448,192,167962,1,0,0:0:0:0:
192,192,168083,1,0,0:0:0:0:
320,192,168083,1,0,0:0:0:0:
64,192,168204,1,0,0:0:0:0:
192,192,168204,1,0,0:0:0:0:
320,192,168204,1,0,0:0:0:0:
448,192,168204,1,0,0:0:0:0:
64,192,168325,1,0,0:0:0:0:
320,192,168325,1,0,0:0:0:0:
64,192,168446,1,0,0:0:0:0:
320,192,168446,1,0,0:0:0:0:
448,192,168446,1,0,0:0:0:0:
192,192,168446,1,0,0:0:0:0:
192,192,168567,1,0,0:0:0:0:
448,192,168567,1,0,0:0:0:0:
448,192,168688,1,0,0:0:0:0:
320,192,168688,1,0,0:0:0:0:
192,192,168688,1,0,0:0:0:0:
64,192,168688,1,0,0:0:0:0:
192,192,168809,1,0,0:0:0:0:
320,192,168809,1,0,0:0:0:0:
64,192,168929,1,0,0:0:0:0:
192,192,168929,1,0,0:0:0:0:
320,192,168929,1,0,0:0:0:0:
448,192,168929,1,0,0:0:0:0:
448,192,169050,1,0,0:0:0:0:
64,192,169050,1,0,0:0:0:0:
192,192,169171,1,0,0:0:0:0:
448,192,169171,1,0,0:0:0:0:
320,192,169171,1,0,0:0:0:0:
64,192,169171,1,0,0:0:0:0:
64,192,169292,1,0,0:0:0:0:
192,192,169292,1,0,0:0:0:0:
64,192,169413,1,0,0:0:0:0:
192,192,169413,1,0,0:0:0:0:
320,192,169413,1,0,0:0:0:0:
448,192,169413,1,0,0:0:0:0:
448,192,169534,1,0,0:0:0:0:
320,192,169534,1,0,0:0:0:0:
448,192,169655,1,0,0:0:0:0:
320,192,169655,1,0,0:0:0:0:
192,192,169655,1,0,0:0:0:0:
64,192,169655,1,0,0:0:0:0:
64,192,169776,1,0,0:0:0:0:
64,192,169897,1,0,0:0:0:0:
192,192,169897,1,0,0:0:0:0:
192,192,170018,1,0,0:0:0:0:
320,192,170018,1,0,0:0:0:0:
64,192,170018,1,0,0:0:0:0:
64,192,170139,1,0,0:0:0:0:
192,192,170139,1,0,0:0:0:0:
448,192,170139,1,0,0:0:0:0:
320,192,170139,1,0,0:0:0:0:
320,192,170260,1,0,0:0:0:0:
192,192,170381,1,0,0:0:0:0:
320,192,170381,1,0,0:0:0:0:
448,192,170381,1,0,0:0:0:0:
64,192,170502,1,0,0:0:0:0:
320,192,170502,1,0,0:0:0:0:
64,192,170623,1,0,0:0:0:0:
320,192,170623,1,0,0:0:0:0:
448,192,170623,1,0,0:0:0:0:
192,192,170744,1,0,0:0:0:0:
320,192,170744,1,0,0:0:0:0:
64,192,170865,1,0,0:0:0:0:
192,192,170865,1,0,0:0:0:0:
320,192,170865,1,0,0:0:0:0:
448,192,170865,1,0,0:0:0:0:
64,192,171107,128,0,171167:0:0:0:0:
192,192,171107,128,0,171167:0:0:0:0:
320,192,171107,128,0,171167:0:0:0:0:
192,192,171349,128,0,171409:0:0:0:0:
320,192,171349,128,0,171409:0:0:0:0:
448,192,171349,128,0,171409:0:0:0:0:
64,192,171591,128,0,171651:0:0:0:0:
192,192,171591,128,0,171651:0:0:0:0:
320,192,171591,128,0,171651:0:0:0:0:
64,192,171833,128,0,171893:0:0:0:0:
192,192,171833,128,0,171893:0:0:0:0:
448,192,171833,128,0,171893:0:0:0:0:
64,192,172075,128,0,172135:0:0:0:0:
320,192,172075,128,0,172135:0:0:0:0:
448,192,172075,128,0,172135:0:0:0:0:
64,192,172317,5,0,0:0:0:0:
192,192,172317,1,0,0:0:0:0:
448,192,172317,1,0,0:0:0:0:
64,192,172438,1,0,0:0:0:0:
192,192,172438,1,0,0:0:0:0:
448,192,172438,1,0,0:0:0:0:
64,192,172559,1,0,0:0:0:0:
192,192,172559,1,0,0:0:0:0:
448,192,172559,1,0,0:0:0:0:
64,192,172679,1,0,0:0:0:0:
192,192,172679,1,0,0:0:0:0:
448,192,172679,1,0,0:0:0:0:
448,192,172800,1,0,0:0:0:0:
64,192,172800,1,0,0:0:0:0:
320,192,172800,1,0,0:0:0:0:
64,192,172921,1,0,0:0:0:0:
320,192,172921,1,0,0:0:0:0:
448,192,172921,1,0,0:0:0:0:
320,192,173042,1,0,0:0:0:0:
448,192,173042,1,0,0:0:0:0:
64,192,173042,1,0,0:0:0:0:
448,192,173163,1,0,0:0:0:0:
320,192,173163,1,0,0:0:0:0:
64,192,173163,1,0,0:0:0:0:
64,192,173284,1,0,0:0:0:0:
192,192,173284,1,0,0:0:0:0:
448,192,173284,1,0,0:0:0:0:
320,192,173284,1,0,0:0:0:0:
64,192,173405,1,0,0:0:0:0:
320,192,173405,1,0,0:0:0:0:
192,192,173526,1,0,0:0:0:0:
320,192,173526,1,0,0:0:0:0:
448,192,173526,1,0,0:0:0:0:
192,192,173647,1,0,0:0:0:0:
320,192,173647,1,0,0:0:0:0:
64,192,173768,1,0,0:0:0:0:
192,192,173768,1,0,0:0:0:0:
320,192,173768,1,0,0:0:0:0:
448,192,173768,1,0,0:0:0:0:
64,192,173889,1,0,0:0:0:0:
192,192,173889,1,0,0:0:0:0:
64,192,174010,1,0,0:0:0:0:
192,192,174010,1,0,0:0:0:0:
320,192,174010,1,0,0:0:0:0:
448,192,174010,1,0,0:0:0:0:
320,192,174131,1,0,0:0:0:0:
448,192,174131,1,0,0:0:0:0:
320,192,174252,1,0,0:0:0:0:
448,192,174252,1,0,0:0:0:0:
64,192,174252,1,0,0:0:0:0:
192,192,174252,1,0,0:0:0:0:
64,192,174373,1,0,0:0:0:0:
320,192,174373,1,0,0:0:0:0:
64,192,174494,1,0,0:0:0:0:
192,192,174494,1,0,0:0:0:0:
320,192,174494,1,0,0:0:0:0:
448,192,174494,1,0,0:0:0:0:
192,192,174615,1,0,0:0:0:0:
320,192,174615,1,0,0:0:0:0:
64,192,174736,1,0,0:0:0:0:
192,192,174736,1,0,0:0:0:0:
320,192,174736,1,0,0:0:0:0:
448,192,174736,1,0,0:0:0:0:
320,192,174857,1,0,0:0:0:0:
448,192,174857,1,0,0:0:0:0:
64,192,174978,1,0,0:0:0:0:
192,192,174978,1,0,0:0:0:0:
448,192,174978,1,0,0:0:0:0:
320,192,174978,1,0,0:0:0:0:
64,192,175099,1,0,0:0:0:0:
448,192,175099,1,0,0:0:0:0:
64,192,175220,1,0,0:0:0:0:
192,192,175220,1,0,0:0:0:0:
320,192,175220,1,0,0:0:0:0:
448,192,175220,1,0,0:0:0:0:
64,192,175462,1,0,0:0:0:0:
192,192,175462,1,0,0:0:0:0:
320,192,175462,1,0,0:0:0:0:
448,192,175462,1,0,0:0:0:0:
64,192,175583,1,0,0:0:0:0:
320,192,175583,1,0,0:0:0:0:
64,192,175704,1,0,0:0:0:0:
192,192,175704,1,0,0:0:0:0:
320,192,175704,1,0,0:0:0:0:
448,192,175704,1,0,0:0:0:0:
192,192,175825,1,0,0:0:0:0:
448,192,175825,1,0,0:0:0:0:
448,192,175946,1,0,0:0:0:0:
320,192,175946,1,0,0:0:0:0:
192,192,175946,1,0,0:0:0:0:
64,192,175946,1,0,0:0:0:0:
192,192,176067,1,0,0:0:0:0:
320,192,176067,1,0,0:0:0:0:
64,192,176188,5,0,0:0:0:0:
448,192,176188,1,0,0:0:0:0:
192,192,176188,1,0,0:0:0:0:
448,192,176309,1,0,0:0:0:0:
64,192,176309,1,0,0:0:0:0:
192,192,176309,1,0,0:0:0:0:
448,192,176429,1,0,0:0:0:0:
192,192,176429,1,0,0:0:0:0:
64,192,176429,1,0,0:0:0:0:
192,192,176550,1,0,0:0:0:0:
64,192,176550,1,0,0:0:0:0:
448,192,176550,1,0,0:0:0:0:
448,192,176671,1,0,0:0:0:0:
320,192,176671,1,0,0:0:0:0:
64,192,176671,1,0,0:0:0:0:
448,192,176792,1,0,0:0:0:0:
320,192,176792,1,0,0:0:0:0:
64,192,176792,1,0,0:0:0:0:
448,192,176913,1,0,0:0:0:0:
64,192,176913,1,0,0:0:0:0:
320,192,176913,1,0,0:0:0:0:
448,192,177034,1,0,0:0:0:0:
64,192,177034,1,0,0:0:0:0:
320,192,177034,1,0,0:0:0:0:
64,192,177155,1,0,0:0:0:0:
192,192,177155,1,0,0:0:0:0:
320,192,177155,1,0,0:0:0:0:
448,192,177155,1,0,0:0:0:0:
64,192,177276,1,0,0:0:0:0:
448,192,177276,1,0,0:0:0:0:
448,192,177397,1,0,0:0:0:0:
320,192,177397,1,0,0:0:0:0:
192,192,177397,1,0,0:0:0:0:
64,192,177397,1,0,0:0:0:0:
192,192,177518,1,0,0:0:0:0:
320,192,177518,1,0,0:0:0:0:
64,192,177639,1,0,0:0:0:0:
192,192,177639,1,0,0:0:0:0:
448,192,177639,1,0,0:0:0:0:
320,192,177639,1,0,0:0:0:0:
320,192,177760,1,0,0:0:0:0:
448,192,177760,1,0,0:0:0:0:
320,192,177881,1,0,0:0:0:0:
448,192,177881,1,0,0:0:0:0:
64,192,177881,1,0,0:0:0:0:
192,192,177881,1,0,0:0:0:0:
64,192,178002,1,0,0:0:0:0:
192,192,178002,1,0,0:0:0:0:
64,192,178123,1,0,0:0:0:0:
192,192,178123,1,0,0:0:0:0:
320,192,178123,1,0,0:0:0:0:
448,192,178123,1,0,0:0:0:0:
448,192,178244,1,0,0:0:0:0:
192,192,178244,1,0,0:0:0:0:
64,192,178365,1,0,0:0:0:0:
192,192,178365,1,0,0:0:0:0:
320,192,178365,1,0,0:0:0:0:
448,192,178365,1,0,0:0:0:0:
64,192,178486,1,0,0:0:0:0:
320,192,178486,1,0,0:0:0:0:
64,192,178607,1,0,0:0:0:0:
192,192,178607,1,0,0:0:0:0:
448,192,178607,1,0,0:0:0:0:
320,192,178607,1,0,0:0:0:0:
192,192,178728,1,0,0:0:0:0:
320,192,178728,1,0,0:0:0:0:
64,192,178849,1,0,0:0:0:0:
192,192,178849,1,0,0:0:0:0:
448,192,178849,1,0,0:0:0:0:
320,192,178849,1,0,0:0:0:0:
64,192,178970,1,0,0:0:0:0:
320,192,178970,1,0,0:0:0:0:
64,192,179091,1,0,0:0:0:0:
320,192,179091,1,0,0:0:0:0:
192,192,179091,1,0,0:0:0:0:
448,192,179091,1,0,0:0:0:0:
64,192,179212,1,0,0:0:0:0:
320,192,179212,1,0,0:0:0:0:
192,192,179212,1,0,0:0:0:0:
64,192,179333,128,0,179454:0:0:0:0:
192,192,179333,128,0,179454:0:0:0:0:
320,192,179333,128,0,179454:0:0:0:0:
448,192,179333,128,0,179454:0:0:0:0:
64,192,179575,128,0,179696:0:0:0:0:
192,192,179575,128,0,179696:0:0:0:0:
320,192,179575,128,0,179696:0:0:0:0:
448,192,179575,128,0,179696:0:0:0:0:
64,192,179817,128,0,179938:0:0:0:0:
192,192,179817,128,0,179938:0:0:0:0:
320,192,179817,128,0,179938:0:0:0:0:
448,192,179817,128,0,179938:0:0:0:0:
64,192,180059,1,0,0:0:0:0:
192,192,180059,1,0,0:0:0:0:
320,192,180059,1,0,0:0:0:0:
192,192,180179,1,0,0:0:0:0:
64,192,180179,1,0,0:0:0:0:
320,192,180179,1,0,0:0:0:0:
64,192,180300,1,0,0:0:0:0:
192,192,180300,1,0,0:0:0:0:
320,192,180300,1,0,0:0:0:0:
192,192,180421,1,0,0:0:0:0:
320,192,180421,1,0,0:0:0:0:
64,192,180421,1,0,0:0:0:0:
192,192,180542,1,0,0:0:0:0:
320,192,180542,1,0,0:0:0:0:
448,192,180542,1,0,0:0:0:0:
192,192,180663,1,0,0:0:0:0:
320,192,180663,1,0,0:0:0:0:
448,192,180663,1,0,0:0:0:0:
192,192,180784,1,0,0:0:0:0:
320,192,180784,1,0,0:0:0:0:
448,192,180784,1,0,0:0:0:0:
192,192,180905,1,0,0:0:0:0:
448,192,180905,1,0,0:0:0:0:
320,192,180905,1,0,0:0:0:0:
192,192,181026,1,0,0:0:0:0:
320,192,181026,1,0,0:0:0:0:
448,192,181026,1,0,0:0:0:0:
64,192,181026,1,0,0:0:0:0:
64,192,181147,1,0,0:0:0:0:
192,192,181147,1,0,0:0:0:0:
64,192,181268,1,0,0:0:0:0:
192,192,181268,1,0,0:0:0:0:
320,192,181268,1,0,0:0:0:0:
448,192,181268,1,0,0:0:0:0:
320,192,181389,1,0,0:0:0:0:
448,192,181389,1,0,0:0:0:0:
320,192,181510,1,0,0:0:0:0:
448,192,181510,1,0,0:0:0:0:
64,192,181510,1,0,0:0:0:0:
192,192,181510,1,0,0:0:0:0:
192,192,181631,1,0,0:0:0:0:
320,192,181631,1,0,0:0:0:0:
64,192,181752,1,0,0:0:0:0:
448,192,181752,1,0,0:0:0:0:
320,192,181752,1,0,0:0:0:0:
192,192,181752,1,0,0:0:0:0:
64,192,181873,1,0,0:0:0:0:
448,192,181873,1,0,0:0:0:0:
448,192,181994,1,0,0:0:0:0:
192,192,181994,1,0,0:0:0:0:
64,192,181994,1,0,0:0:0:0:
320,192,181994,1,0,0:0:0:0:
64,192,182115,1,0,0:0:0:0:
320,192,182115,1,0,0:0:0:0:
192,192,182115,1,0,0:0:0:0:
64,192,182236,1,0,0:0:0:0:
192,192,182236,1,0,0:0:0:0:
320,192,182236,1,0,0:0:0:0:
448,192,182236,1,0,0:0:0:0:
192,192,182357,1,0,0:0:0:0:
448,192,182357,1,0,0:0:0:0:
320,192,182357,1,0,0:0:0:0:
64,192,182478,1,0,0:0:0:0:
192,192,182478,1,0,0:0:0:0:
320,192,182478,1,0,0:0:0:0:
448,192,182478,1,0,0:0:0:0:
192,192,182599,1,0,0:0:0:0:
320,192,182599,1,0,0:0:0:0:
64,192,182720,1,0,0:0:0:0:
192,192,182720,1,0,0:0:0:0:
320,192,182720,1,0,0:0:0:0:
448,192,182720,1,0,0:0:0:0:
64,192,182841,1,0,0:0:0:0:
192,192,182841,1,0,0:0:0:0:
320,192,182841,1,0,0:0:0:0:
448,192,182841,1,0,0:0:0:0:
64,192,182962,1,0,0:0:0:0:
192,192,182962,1,0,0:0:0:0:
320,192,182962,1,0,0:0:0:0:
448,192,182962,1,0,0:0:0:0:
64,192,183083,1,0,0:0:0:0:
192,192,183083,1,0,0:0:0:0:
320,192,183083,1,0,0:0:0:0:
448,192,183083,1,0,0:0:0:0:
448,192,183204,1,0,0:0:0:0:
320,192,183204,1,0,0:0:0:0:
192,192,183204,1,0,0:0:0:0:
64,192,183204,1,0,0:0:0:0:
64,192,183325,1,0,0:0:0:0:
192,192,183325,1,0,0:0:0:0:
448,192,183325,1,0,0:0:0:0:
320,192,183325,1,0,0:0:0:0:
320,192,183446,1,0,0:0:0:0:
192,192,183446,1,0,0:0:0:0:
64,192,183446,1,0,0:0:0:0:
448,192,183446,1,0,0:0:0:0:
192,192,183567,1,0,0:0:0:0:
320,192,183567,1,0,0:0:0:0:
64,192,183688,1,0,0:0:0:0:
192,192,183688,1,0,0:0:0:0:
320,192,183688,1,0,0:0:0:0:
448,192,183688,1,0,0:0:0:0:
64,192,183809,1,0,0:0:0:0:
320,192,183809,1,0,0:0:0:0:
64,192,183929,1,0,0:0:0:0:
320,192,183929,1,0,0:0:0:0:
448,192,183929,1,0,0:0:0:0:
192,192,183929,1,0,0:0:0:0:
192,192,184050,1,0,0:0:0:0:
448,192,184050,1,0,0:0:0:0:
448,192,184171,1,0,0:0:0:0:
320,192,184171,1,0,0:0:0:0:
192,192,184171,1,0,0:0:0:0:
64,192,184171,1,0,0:0:0:0:
192,192,184292,1,0,0:0:0:0:
320,192,184292,1,0,0:0:0:0:
64,192,184413,1,0,0:0:0:0:
192,192,184413,1,0,0:0:0:0:
320,192,184413,1,0,0:0:0:0:
448,192,184413,1,0,0:0:0:0:
448,192,184534,1,0,0:0:0:0:
64,192,184534,1,0,0:0:0:0:
192,192,184655,1,0,0:0:0:0:
448,192,184655,1,0,0:0:0:0:
320,192,184655,1,0,0:0:0:0:
64,192,184655,1,0,0:0:0:0:
64,192,184776,1,0,0:0:0:0:
192,192,184776,1,0,0:0:0:0:
64,192,184897,1,0,0:0:0:0:
192,192,184897,1,0,0:0:0:0:
320,192,184897,1,0,0:0:0:0:
448,192,184897,1,0,0:0:0:0:
448,192,185018,1,0,0:0:0:0:
320,192,185018,1,0,0:0:0:0:
448,192,185139,1,0,0:0:0:0:
320,192,185139,1,0,0:0:0:0:
192,192,185139,1,0,0:0:0:0:
64,192,185139,1,0,0:0:0:0:
64,192,185260,1,0,0:0:0:0:
64,192,185381,1,0,0:0:0:0:
192,192,185381,1,0,0:0:0:0:
192,192,185502,1,0,0:0:0:0:
320,192,185502,1,0,0:0:0:0:
64,192,185502,1,0,0:0:0:0:
64,192,185623,1,0,0:0:0:0:
192,192,185623,1,0,0:0:0:0:
448,192,185623,1,0,0:0:0:0:
320,192,185623,1,0,0:0:0:0:
320,192,185744,1,0,0:0:0:0:
192,192,185865,1,0,0:0:0:0:
320,192,185865,1,0,0:0:0:0:
448,192,185865,1,0,0:0:0:0:
64,192,185986,1,0,0:0:0:0:
320,192,185986,1,0,0:0:0:0:
64,192,186107,1,0,0:0:0:0:
320,192,186107,1,0,0:0:0:0:
448,192,186107,1,0,0:0:0:0:
192,192,186228,1,0,0:0:0:0:
64,192,186349,1,0,0:0:0:0:
192,192,186349,1,0,0:0:0:0:
320,192,186349,1,0,0:0:0:0:
192,192,186470,1,0,0:0:0:0:
448,192,186470,1,0,0:0:0:0:
448,192,186591,1,0,0:0:0:0:
64,192,186591,1,0,0:0:0:0:
192,192,186591,1,0,0:0:0:0:
64,192,186833,1,0,0:0:0:0:
192,192,186833,1,0,0:0:0:0:
320,192,186833,1,0,0:0:0:0:
448,192,186833,1,0,0:0:0:0:
320,192,186954,1,0,0:0:0:0:
448,192,186954,1,0,0:0:0:0:
192,192,187075,1,0,0:0:0:0:
320,192,187075,1,0,0:0:0:0:
64,192,187196,1,0,0:0:0:0:
192,192,187196,1,0,0:0:0:0:
192,192,187317,1,0,0:0:0:0:
320,192,187317,1,0,0:0:0:0:
64,192,187317,1,0,0:0:0:0:
64,192,187438,1,0,0:0:0:0:
192,192,187438,1,0,0:0:0:0:
192,192,187559,1,0,0:0:0:0:
320,192,187559,1,0,0:0:0:0:
320,192,187679,1,0,0:0:0:0:
448,192,187679,1,0,0:0:0:0:
64,192,187800,1,0,0:0:0:0:
192,192,187800,1,0,0:0:0:0:
320,192,187800,1,0,0:0:0:0:
192,192,187921,1,0,0:0:0:0:
64,192,187921,1,0,0:0:0:0:
320,192,187921,1,0,0:0:0:0:
64,192,188042,1,0,0:0:0:0:
192,192,188042,1,0,0:0:0:0:
320,192,188042,1,0,0:0:0:0:
192,192,188163,1,0,0:0:0:0:
320,192,188163,1,0,0:0:0:0:
64,192,188163,1,0,0:0:0:0:
192,192,188284,1,0,0:0:0:0:
320,192,188284,1,0,0:0:0:0:
448,192,188284,1,0,0:0:0:0:
192,192,188405,1,0,0:0:0:0:
320,192,188405,1,0,0:0:0:0:
448,192,188405,1,0,0:0:0:0:
192,192,188526,1,0,0:0:0:0:
320,192,188526,1,0,0:0:0:0:
448,192,188526,1,0,0:0:0:0:
192,192,188647,1,0,0:0:0:0:
448,192,188647,1,0,0:0:0:0:
320,192,188647,1,0,0:0:0:0:
192,192,188768,1,0,0:0:0:0:
320,192,188768,1,0,0:0:0:0:
448,192,188768,1,0,0:0:0:0:
64,192,188768,1,0,0:0:0:0:
64,192,188889,1,0,0:0:0:0:
192,192,188889,1,0,0:0:0:0:
64,192,189010,1,0,0:0:0:0:
192,192,189010,1,0,0:0:0:0:
320,192,189010,1,0,0:0:0:0:
448,192,189010,1,0,0:0:0:0:
320,192,189131,1,0,0:0:0:0:
448,192,189131,1,0,0:0:0:0:
320,192,189252,1,0,0:0:0:0:
448,192,189252,1,0,0:0:0:0:
64,192,189252,1,0,0:0:0:0:
192,192,189252,1,0,0:0:0:0:
192,192,189373,1,0,0:0:0:0:
320,192,189373,1,0,0:0:0:0:
64,192,189494,1,0,0:0:0:0:
448,192,189494,1,0,0:0:0:0:
320,192,189494,1,0,0:0:0:0:
192,192,189494,1,0,0:0:0:0:
64,192,189615,1,0,0:0:0:0:
448,192,189615,1,0,0:0:0:0:
448,192,189736,1,0,0:0:0:0:
192,192,189736,1,0,0:0:0:0:
64,192,189736,1,0,0:0:0:0:
320,192,189736,1,0,0:0:0:0:
64,192,189857,1,0,0:0:0:0:
320,192,189857,1,0,0:0:0:0:
192,192,189857,1,0,0:0:0:0:
64,192,189978,1,0,0:0:0:0:
192,192,189978,1,0,0:0:0:0:
320,192,189978,1,0,0:0:0:0:
448,192,189978,1,0,0:0:0:0:
192,192,190099,1,0,0:0:0:0:
448,192,190099,1,0,0:0:0:0:
320,192,190099,1,0,0:0:0:0:
64,192,190220,1,0,0:0:0:0:
192,192,190220,1,0,0:0:0:0:
320,192,190220,1,0,0:0:0:0:
448,192,190220,1,0,0:0:0:0:
192,192,190341,1,0,0:0:0:0:
320,192,190341,1,0,0:0:0:0:
64,192,190462,1,0,0:0:0:0:
192,192,190462,1,0,0:0:0:0:
320,192,190462,1,0,0:0:0:0:
448,192,190462,1,0,0:0:0:0:
64,192,190583,1,0,0:0:0:0:
192,192,190583,1,0,0:0:0:0:
320,192,190583,1,0,0:0:0:0:
448,192,190583,1,0,0:0:0:0:
64,192,190704,1,0,0:0:0:0:
192,192,190704,1,0,0:0:0:0:
320,192,190704,1,0,0:0:0:0:
448,192,190704,1,0,0:0:0:0:
64,192,190825,1,0,0:0:0:0:
192,192,190825,1,0,0:0:0:0:
320,192,190825,1,0,0:0:0:0:
448,192,190825,1,0,0:0:0:0:
448,192,190946,1,0,0:0:0:0:
320,192,190946,1,0,0:0:0:0:
192,192,190946,1,0,0:0:0:0:
64,192,190946,1,0,0:0:0:0:
64,192,191067,1,0,0:0:0:0:
192,192,191067,1,0,0:0:0:0:
448,192,191067,1,0,0:0:0:0:
320,192,191067,1,0,0:0:0:0:
320,192,191188,1,0,0:0:0:0:
192,192,191188,1,0,0:0:0:0:
64,192,191188,1,0,0:0:0:0:
448,192,191188,1,0,0:0:0:0:
192,192,191309,1,0,0:0:0:0:
320,192,191309,1,0,0:0:0:0:
64,192,191429,1,0,0:0:0:0:
192,192,191429,1,0,0:0:0:0:
320,192,191429,1,0,0:0:0:0:
448,192,191429,1,0,0:0:0:0:
64,192,191550,1,0,0:0:0:0:
320,192,191550,1,0,0:0:0:0:
64,192,191671,1,0,0:0:0:0:
320,192,191671,1,0,0:0:0:0:
448,192,191671,1,0,0:0:0:0:
192,192,191671,1,0,0:0:0:0:
192,192,191792,1,0,0:0:0:0:
448,192,191792,1,0,0:0:0:0:
448,192,191913,1,0,0:0:0:0:
320,192,191913,1,0,0:0:0:0:
192,192,191913,1,0,0:0:0:0:
64,192,191913,1,0,0:0:0:0:
192,192,192034,1,0,0:0:0:0:
320,192,192034,1,0,0:0:0:0:
64,192,192155,1,0,0:0:0:0:
192,192,192155,1,0,0:0:0:0:
320,192,192155,1,0,0:0:0:0:
448,192,192155,1,0,0:0:0:0:
448,192,192276,1,0,0:0:0:0:
64,192,192276,1,0,0:0:0:0:
192,192,192397,1,0,0:0:0:0:
448,192,192397,1,0,0:0:0:0:
320,192,192397,1,0,0:0:0:0:
64,192,192397,1,0,0:0:0:0:
64,192,192518,1,0,0:0:0:0:
192,192,192518,1,0,0:0:0:0:
64,192,192639,1,0,0:0:0:0:
192,192,192639,1,0,0:0:0:0:
320,192,192639,1,0,0:0:0:0:
448,192,192639,1,0,0:0:0:0:
448,192,192760,1,0,0:0:0:0:
320,192,192760,1,0,0:0:0:0:
448,192,192881,1,0,0:0:0:0:
320,192,192881,1,0,0:0:0:0:
192,192,192881,1,0,0:0:0:0:
64,192,192881,1,0,0:0:0:0:
64,192,193002,1,0,0:0:0:0:
64,192,193123,1,0,0:0:0:0:
192,192,193123,1,0,0:0:0:0:
192,192,193244,1,0,0:0:0:0:
320,192,193244,1,0,0:0:0:0:
64,192,193244,1,0,0:0:0:0:
64,192,193365,1,0,0:0:0:0:
192,192,193365,1,0,0:0:0:0:
448,192,193365,1,0,0:0:0:0:
320,192,193365,1,0,0:0:0:0:
192,192,193486,1,0,0:0:0:0:
320,192,193486,1,0,0:0:0:0:
64,192,193607,128,0,193728:0:0:0:0:
192,192,193607,128,0,193728:0:0:0:0:
320,192,193607,128,0,193728:0:0:0:0:
448,192,193607,128,0,193728:0:0:0:0:
448,192,193849,128,0,193909:0:0:0:0:
320,192,193970,128,0,194030:0:0:0:0:
64,192,194091,1,0,0:0:0:0:
192,192,194091,1,0,0:0:0:0:
448,192,194091,1,0,0:0:0:0:
320,192,194212,128,0,194333:0:0:0:0:
192,192,194454,1,0,0:0:0:0:
64,192,194575,128,0,194635:0:0:0:0:
320,192,194575,128,0,194635:0:0:0:0:
192,192,194696,1,0,0:0:0:0:
192,192,194817,128,0,194877:0:0:0:0:
448,192,194817,128,0,194877:0:0:0:0:
320,192,194938,1,0,0:0:0:0:
64,192,195059,1,0,0:0:0:0:
192,192,195059,1,0,0:0:0:0:
448,192,195059,1,0,0:0:0:0:
448,192,195179,128,0,195240:0:0:0:0:
320,192,195300,128,0,195361:0:0:0:0:
192,192,195421,128,0,195482:0:0:0:0:
64,192,195542,1,0,0:0:0:0:
320,192,195542,1,0,0:0:0:0:
448,192,195542,1,0,0:0:0:0:
320,192,195663,1,0,0:0:0:0:
192,192,195784,128,0,195905:0:0:0:0:
64,192,195905,128,0,196026:0:0:0:0:
320,192,196026,1,0,0:0:0:0:
448,192,196026,1,0,0:0:0:0:
64,192,196147,128,0,196268:0:0:0:0:
192,192,196268,1,0,0:0:0:0:
448,192,196389,128,0,196450:0:0:0:0:
320,192,196510,1,0,0:0:0:0:
192,192,196631,1,0,0:0:0:0:
192,192,196752,1,0,0:0:0:0:
320,192,196873,1,0,0:0:0:0:
64,192,196994,1,0,0:0:0:0:
448,192,196994,1,0,0:0:0:0:
192,192,196994,1,0,0:0:0:0:
192,192,197115,1,0,0:0:0:0:
320,192,197236,128,0,197417:0:0:0:0:
448,192,197236,128,0,197417:0:0:0:0:
64,192,197478,128,0,197599:0:0:0:0:
192,192,197478,128,0,197599:0:0:0:0:
320,192,197478,128,0,197599:0:0:0:0:
448,192,197478,128,0,197599:0:0:0:0:
448,192,197720,128,0,197780:0:0:0:0:
320,192,197841,128,0,197901:0:0:0:0:
64,192,197962,1,0,0:0:0:0:
192,192,197962,1,0,0:0:0:0:
448,192,197962,1,0,0:0:0:0:
320,192,198083,128,0,198204:0:0:0:0:
192,192,198325,1,0,0:0:0:0:
64,192,198446,128,0,198506:0:0:0:0:
320,192,198446,128,0,198506:0:0:0:0:
192,192,198567,1,0,0:0:0:0:
192,192,198688,128,0,198748:0:0:0:0:
448,192,198688,128,0,198748:0:0:0:0:
320,192,198809,1,0,0:0:0:0:
64,192,198929,1,0,0:0:0:0:
192,192,198929,1,0,0:0:0:0:
448,192,198929,1,0,0:0:0:0:
448,192,199050,128,0,199111:0:0:0:0:
320,192,199171,128,0,199232:0:0:0:0:
192,192,199292,128,0,199353:0:0:0:0:
64,192,199413,1,0,0:0:0:0:
320,192,199413,1,0,0:0:0:0:
448,192,199413,1,0,0:0:0:0:
320,192,199534,1,0,0:0:0:0:
192,192,199655,128,0,199776:0:0:0:0:
64,192,199776,128,0,199897:0:0:0:0:
320,192,199897,1,0,0:0:0:0:
448,192,199897,1,0,0:0:0:0:
64,192,200018,128,0,200139:0:0:0:0:
192,192,200018,1,0,0:0:0:0:
192,192,200139,128,0,200260:0:0:0:0:
320,192,200139,1,0,0:0:0:0:
320,192,200260,128,0,200381:0:0:0:0:
448,192,200260,1,0,0:0:0:0:
448,192,200381,1,0,0:0:0:0:
192,192,200502,128,0,200623:0:0:0:0:
64,192,200502,1,0,0:0:0:0:
64,192,200623,1,0,0:0:0:0:
448,192,200623,1,0,0:0:0:0:
192,192,200744,1,0,0:0:0:0:
320,192,200744,1,0,0:0:0:0:
64,192,200865,1,0,0:0:0:0:
448,192,200865,1,0,0:0:0:0:
192,192,200865,1,0,0:0:0:0:
192,192,200986,1,0,0:0:0:0:
320,192,201107,128,0,201228:0:0:0:0:
448,192,201107,128,0,201228:0:0:0:0:
192,192,201228,1,0,0:0:0:0:
64,192,201349,1,0,0:0:0:0:
192,192,201349,1,0,0:0:0:0:
64,192,201470,128,0,201591:0:0:0:0:
192,192,201470,128,0,201591:0:0:0:0:
320,192,201470,128,0,201591:0:0:0:0:
448,192,201470,128,0,201591:0:0:0:0:
448,192,201712,128,0,201772:0:0:0:0:
320,192,201833,128,0,201893:0:0:0:0:
64,192,201954,1,0,0:0:0:0:
192,192,201954,1,0,0:0:0:0:
448,192,201954,1,0,0:0:0:0:
320,192,202075,128,0,202196:0:0:0:0:
192,192,202317,1,0,0:0:0:0:
64,192,202438,128,0,202498:0:0:0:0:
320,192,202438,128,0,202498:0:0:0:0:
192,192,202559,1,0,0:0:0:0:
192,192,202679,128,0,202740:0:0:0:0:
448,192,202679,128,0,202740:0:0:0:0:
320,192,202800,1,0,0:0:0:0:
64,192,202921,1,0,0:0:0:0:
192,192,202921,1,0,0:0:0:0:
448,192,202921,1,0,0:0:0:0:
448,192,203042,128,0,203103:0:0:0:0:
320,192,203163,128,0,203224:0:0:0:0:
192,192,203284,128,0,203345:0:0:0:0:
64,192,203405,1,0,0:0:0:0:
320,192,203405,1,0,0:0:0:0:
448,192,203405,1,0,0:0:0:0:
320,192,203526,1,0,0:0:0:0:
192,192,203647,128,0,203768:0:0:0:0:
64,192,203768,128,0,203889:0:0:0:0:
320,192,203889,1,0,0:0:0:0:
448,192,203889,1,0,0:0:0:0:
448,192,204131,128,0,204192:0:0:0:0:
320,192,204252,1,0,0:0:0:0:
192,192,204373,1,0,0:0:0:0:
192,192,204494,1,0,0:0:0:0:
320,192,204615,1,0,0:0:0:0:
64,192,204736,1,0,0:0:0:0:
448,192,204736,1,0,0:0:0:0:
192,192,204736,1,0,0:0:0:0:
192,192,204857,1,0,0:0:0:0:
320,192,204978,128,0,205159:0:0:0:0:
448,192,204978,128,0,205159:0:0:0:0:
64,192,205220,128,0,205341:0:0:0:0:
192,192,205220,128,0,205341:0:0:0:0:
320,192,205220,128,0,205341:0:0:0:0:
448,192,205220,128,0,205341:0:0:0:0:
448,192,205462,128,0,205522:0:0:0:0:
320,192,205583,128,0,205643:0:0:0:0:
64,192,205704,1,0,0:0:0:0:
192,192,205704,1,0,0:0:0:0:
448,192,205704,1,0,0:0:0:0:
320,192,205825,128,0,205946:0:0:0:0:
192,192,206067,1,0,0:0:0:0:
64,192,206188,128,0,206248:0:0:0:0:
320,192,206188,128,0,206248:0:0:0:0:
192,192,206309,1,0,0:0:0:0:
192,192,206429,128,0,206490:0:0:0:0:
448,192,206429,128,0,206490:0:0:0:0:
320,192,206550,1,0,0:0:0:0:
64,192,206671,1,0,0:0:0:0:
192,192,206671,1,0,0:0:0:0:
448,192,206671,1,0,0:0:0:0:
448,192,206792,128,0,206853:0:0:0:0:
320,192,206913,128,0,206974:0:0:0:0:
192,192,207034,128,0,207095:0:0:0:0:
320,192,207155,1,0,0:0:0:0:
448,192,207155,1,0,0:0:0:0:
320,192,207276,1,0,0:0:0:0:
64,192,207397,128,0,207639:0:0:0:0:
192,192,207397,128,0,207639:0:0:0:0:
320,192,207639,1,0,0:0:0:0:
448,192,207639,1,0,0:0:0:0:
320,192,207760,128,0,208002:0:0:0:0:
448,192,207760,128,0,208002:0:0:0:0:
64,192,208002,1,0,0:0:0:0:
192,192,208002,1,0,0:0:0:0:
64,192,208123,128,0,208244:0:0:0:0:
192,192,208123,128,0,208244:0:0:0:0:
320,192,208123,128,0,208244:0:0:0:0:
448,192,208123,128,0,208244:0:0:0:0:
64,192,208365,128,0,208546:0:0:0:0:
192,192,208365,128,0,208546:0:0:0:0:
320,192,208365,128,0,208546:0:0:0:0:
192,192,208607,128,0,208788:0:0:0:0:
320,192,208607,128,0,208788:0:0:0:0:
448,192,208607,128,0,208788:0:0:0:0:
64,192,208849,128,0,209030:0:0:0:0:
192,192,208849,128,0,209030:0:0:0:0:
320,192,208849,128,0,209030:0:0:0:0:
