osu file format v14

[General]
AudioFilename: audio110.mp3
AudioLeadIn: 0
PreviewTime: -1
Countdown: 0
SampleSet: None
StackLeniency: 0.7
Mode: 3
LetterboxInBreaks: 0
SpecialStyle: 0
WidescreenStoryboard: 0

[Editor]
DistanceSpacing: 1
BeatDivisor: 8
GridSize: 4
TimelineZoom: 2.899999

[Metadata]
Title:Cinema
TitleUnicode:シネマ
Artist:Ayase (CV: Vivid BAD SQUAD x KAITO)
ArtistUnicode:Ayase (CV: Vivid BAD SQUAD x KAITO)
Creator:Dereck101026
Version:Mirai 1.1x
Source:
Tags:
BeatmapID:4511947
BeatmapSetID:2142396

[Difficulty]
HPDrainRate:8
CircleSize:4
OverallDifficulty:8
ApproachRate:5
SliderMultiplier:1.4
SliderTickRate:1

[Events]
//Background and Video events
0,0,"E8_zBMPXIAE-Zjq.jpg",0,0
//Break Periods
//Storyboard Layer 0 (Background)
//Storyboard Layer 1 (Fail)
//Storyboard Layer 2 (Pass)
//Storyboard Layer 3 (Foreground)
//Storyboard Layer 4 (Overlay)
//Storyboard Sound Samples

[TimingPoints]
3613,439.882697947214,4,1,0,100,1,0

[HitObjects]
64,192,3613,5,0,0:0:0:0:
320,192,3613,1,0,0:0:0:0:
320,192,4052,1,0,0:0:0:0:
192,192,4052,1,0,0:0:0:0:
64,192,4052,1,0,0:0:0:0:
448,192,4492,1,0,0:0:0:0:
192,192,4492,1,0,0:0:0:0:
448,192,4932,1,0,0:0:0:0:
320,192,4932,1,0,0:0:0:0:
192,192,4932,1,0,0:0:0:0:
64,192,5372,1,0,0:0:0:0:
192,192,5372,1,0,0:0:0:0:
448,192,5812,1,0,0:0:0:0:
192,192,5812,1,0,0:0:0:0:
64,192,5812,1,0,0:0:0:0:
448,192,6252,1,0,0:0:0:0:
320,192,6252,1,0,0:0:0:0:
448,192,6692,1,0,0:0:0:0:
320,192,6692,1,0,0:0:0:0:
64,192,6692,1,0,0:0:0:0:
320,192,7131,1,0,0:0:0:0:
192,192,7131,1,0,0:0:0:0:
448,192,7571,1,0,0:0:0:0:
320,192,7571,1,0,0:0:0:0:
192,192,7571,1,0,0:0:0:0:
320,192,8011,1,0,0:0:0:0:
192,192,8011,1,0,0:0:0:0:
64,192,8451,1,0,0:0:0:0:
192,192,8451,1,0,0:0:0:0:
320,192,8451,1,0,0:0:0:0:
448,192,8891,1,0,0:0:0:0:
64,192,8891,1,0,0:0:0:0:
448,192,9331,1,0,0:0:0:0:
320,192,9331,1,0,0:0:0:0:
192,192,9331,1,0,0:0:0:0:
448,192,9771,1,0,0:0:0:0:
64,192,9771,1,0,0:0:0:0:
64,192,10211,1,0,0:0:0:0:
192,192,10211,1,0,0:0:0:0:
320,192,10211,1,0,0:0:0:0:
448,192,10321,1,0,0:0:0:0:
320,192,10430,1,0,0:0:0:0:
192,192,10540,1,0,0:0:0:0:
64,192,10650,1,0,0:0:0:0:
192,192,10650,1,0,0:0:0:0:
320,192,10650,1,0,0:0:0:0:
448,192,10650,1,0,0:0:0:0:
320,192,10760,1,0,0:0:0:0:
320,192,10870,1,0,0:0:0:0:
448,192,10870,1,0,0:0:0:0:
192,192,10980,1,0,0:0:0:0:
64,192,11090,1,0,0:0:0:0:
192,192,11090,1,0,0:0:0:0:
320,192,11090,1,0,0:0:0:0:
320,192,11200,1,0,0:0:0:0:
320,192,11310,1,0,0:0:0:0:
448,192,11310,1,0,0:0:0:0:
192,192,11420,1,0,0:0:0:0:
64,192,11530,1,0,0:0:0:0:
320,192,11530,1,0,0:0:0:0:
192,192,11640,1,0,0:0:0:0:
64,192,11750,1,0,0:0:0:0:
320,192,11750,1,0,0:0:0:0:
448,192,11750,1,0,0:0:0:0:
192,192,11860,1,0,0:0:0:0:
320,192,11860,1,0,0:0:0:0:
320,192,11970,1,0,0:0:0:0:
448,192,11970,1,0,0:0:0:0:
64,192,11970,1,0,0:0:0:0:
64,192,12080,1,0,0:0:0:0:
192,192,12190,1,0,0:0:0:0:
320,192,12300,1,0,0:0:0:0:
320,192,12410,1,0,0:0:0:0:
448,192,12410,1,0,0:0:0:0:
64,192,12410,1,0,0:0:0:0:
192,192,12410,1,0,0:0:0:0:
192,192,12520,1,0,0:0:0:0:
192,192,12630,1,0,0:0:0:0:
64,192,12630,1,0,0:0:0:0:
320,192,12740,1,0,0:0:0:0:
448,192,12850,1,0,0:0:0:0:
320,192,12850,1,0,0:0:0:0:
192,192,12850,1,0,0:0:0:0:
192,192,12960,1,0,0:0:0:0:
192,192,13070,1,0,0:0:0:0:
64,192,13070,1,0,0:0:0:0:
320,192,13180,1,0,0:0:0:0:
448,192,13290,1,0,0:0:0:0:
192,192,13290,1,0,0:0:0:0:
320,192,13400,1,0,0:0:0:0:
448,192,13510,1,0,0:0:0:0:
192,192,13510,1,0,0:0:0:0:
64,192,13510,1,0,0:0:0:0:
192,192,13620,1,0,0:0:0:0:
320,192,13620,1,0,0:0:0:0:
64,192,13730,1,0,0:0:0:0:
448,192,13730,1,0,0:0:0:0:
192,192,13730,1,0,0:0:0:0:
64,192,13949,1,0,0:0:0:0:
192,192,13949,1,0,0:0:0:0:
320,192,14059,1,0,0:0:0:0:
64,192,14169,1,0,0:0:0:0:
320,192,14169,1,0,0:0:0:0:
448,192,14169,1,0,0:0:0:0:
192,192,14169,1,0,0:0:0:0:
64,192,14279,1,0,0:0:0:0:
64,192,14389,1,0,0:0:0:0:
192,192,14389,1,0,0:0:0:0:
320,192,14499,1,0,0:0:0:0:
448,192,14499,1,0,0:0:0:0:
192,192,14609,1,0,0:0:0:0:
320,192,14609,1,0,0:0:0:0:
448,192,14609,1,0,0:0:0:0:
64,192,14719,1,0,0:0:0:0:
192,192,14829,1,0,0:0:0:0:
320,192,14939,1,0,0:0:0:0:
448,192,14939,1,0,0:0:0:0:
64,192,15049,1,0,0:0:0:0:
192,192,15159,1,0,0:0:0:0:
320,192,15269,1,0,0:0:0:0:
448,192,15269,1,0,0:0:0:0:
192,192,15269,1,0,0:0:0:0:
64,192,15379,1,0,0:0:0:0:
64,192,15489,1,0,0:0:0:0:
192,192,15489,1,0,0:0:0:0:
192,192,15599,1,0,0:0:0:0:
448,192,15709,1,0,0:0:0:0:
320,192,15709,1,0,0:0:0:0:
64,192,15709,1,0,0:0:0:0:
192,192,15819,1,0,0:0:0:0:
320,192,15929,1,0,0:0:0:0:
448,192,15929,1,0,0:0:0:0:
192,192,16039,1,0,0:0:0:0:
192,192,16149,1,0,0:0:0:0:
320,192,16149,1,0,0:0:0:0:
448,192,16149,1,0,0:0:0:0:
320,192,16259,1,0,0:0:0:0:
64,192,16369,1,0,0:0:0:0:
320,192,16369,1,0,0:0:0:0:
448,192,16369,1,0,0:0:0:0:
192,192,16369,1,0,0:0:0:0:
64,192,16479,1,0,0:0:0:0:
448,192,16479,1,0,0:0:0:0:
192,192,16589,1,0,0:0:0:0:
320,192,16589,1,0,0:0:0:0:
448,192,16589,1,0,0:0:0:0:
192,192,16699,1,0,0:0:0:0:
320,192,16699,1,0,0:0:0:0:
64,192,16809,1,0,0:0:0:0:
192,192,16809,1,0,0:0:0:0:
320,192,16809,1,0,0:0:0:0:
448,192,16809,1,0,0:0:0:0:
192,192,16919,1,0,0:0:0:0:
320,192,17029,1,0,0:0:0:0:
448,192,17139,1,0,0:0:0:0:
192,192,17139,1,0,0:0:0:0:
64,192,17248,1,0,0:0:0:0:
320,192,17248,1,0,0:0:0:0:
448,192,17358,1,0,0:0:0:0:
320,192,17358,1,0,0:0:0:0:
64,192,17468,1,0,0:0:0:0:
192,192,17468,1,0,0:0:0:0:
320,192,17578,1,0,0:0:0:0:
192,192,17688,1,0,0:0:0:0:
64,192,17688,1,0,0:0:0:0:
320,192,17688,1,0,0:0:0:0:
448,192,17688,1,0,0:0:0:0:
64,192,17798,1,0,0:0:0:0:
320,192,17798,1,0,0:0:0:0:
192,192,17908,1,0,0:0:0:0:
320,192,17908,1,0,0:0:0:0:
448,192,17908,1,0,0:0:0:0:
192,192,18018,1,0,0:0:0:0:
320,192,18018,1,0,0:0:0:0:
64,192,18128,1,0,0:0:0:0:
192,192,18128,1,0,0:0:0:0:
320,192,18128,1,0,0:0:0:0:
448,192,18128,1,0,0:0:0:0:
320,192,18238,1,0,0:0:0:0:
448,192,18238,1,0,0:0:0:0:
320,192,18348,1,0,0:0:0:0:
448,192,18348,1,0,0:0:0:0:
64,192,18348,1,0,0:0:0:0:
192,192,18348,1,0,0:0:0:0:
64,192,18458,1,0,0:0:0:0:
192,192,18458,1,0,0:0:0:0:
64,192,18568,1,0,0:0:0:0:
192,192,18568,1,0,0:0:0:0:
320,192,18568,1,0,0:0:0:0:
448,192,18568,1,0,0:0:0:0:
192,192,18678,1,0,0:0:0:0:
448,192,18678,1,0,0:0:0:0:
64,192,18788,1,0,0:0:0:0:
320,192,18788,1,0,0:0:0:0:
192,192,18788,1,0,0:0:0:0:
64,192,18898,1,0,0:0:0:0:
320,192,18898,1,0,0:0:0:0:
64,192,19008,1,0,0:0:0:0:
192,192,19008,1,0,0:0:0:0:
320,192,19008,1,0,0:0:0:0:
448,192,19008,1,0,0:0:0:0:
64,192,19118,1,0,0:0:0:0:
320,192,19118,1,0,0:0:0:0:
192,192,19228,1,0,0:0:0:0:
320,192,19228,1,0,0:0:0:0:
448,192,19338,1,0,0:0:0:0:
192,192,19338,1,0,0:0:0:0:
64,192,19448,1,0,0:0:0:0:
192,192,19448,1,0,0:0:0:0:
320,192,19448,1,0,0:0:0:0:
448,192,19448,1,0,0:0:0:0:
320,192,19558,1,0,0:0:0:0:
448,192,19558,1,0,0:0:0:0:
320,192,19668,1,0,0:0:0:0:
448,192,19668,1,0,0:0:0:0:
192,192,19778,1,0,0:0:0:0:
320,192,19778,1,0,0:0:0:0:
64,192,19888,1,0,0:0:0:0:
192,192,19888,1,0,0:0:0:0:
320,192,19888,1,0,0:0:0:0:
448,192,19888,1,0,0:0:0:0:
320,192,19998,1,0,0:0:0:0:
64,192,20108,1,0,0:0:0:0:
192,192,20108,1,0,0:0:0:0:
320,192,20218,1,0,0:0:0:0:
64,192,20328,1,0,0:0:0:0:
192,192,20328,1,0,0:0:0:0:
448,192,20328,1,0,0:0:0:0:
192,192,20548,1,0,0:0:0:0:
320,192,20548,1,0,0:0:0:0:
64,192,20767,1,0,0:0:0:0:
192,192,20767,1,0,0:0:0:0:
320,192,20767,1,0,0:0:0:0:
448,192,20767,1,0,0:0:0:0:
64,192,20877,1,0,0:0:0:0:
192,192,20987,1,0,0:0:0:0:
320,192,21097,1,0,0:0:0:0:
448,192,21097,1,0,0:0:0:0:
192,192,21207,1,0,0:0:0:0:
64,192,21207,1,0,0:0:0:0:
320,192,21207,1,0,0:0:0:0:
448,192,21207,1,0,0:0:0:0:
64,192,21317,1,0,0:0:0:0:
320,192,21317,1,0,0:0:0:0:
192,192,21427,1,0,0:0:0:0:
320,192,21427,1,0,0:0:0:0:
448,192,21427,1,0,0:0:0:0:
192,192,21537,1,0,0:0:0:0:
320,192,21537,1,0,0:0:0:0:
64,192,21647,1,0,0:0:0:0:
192,192,21647,1,0,0:0:0:0:
320,192,21647,1,0,0:0:0:0:
448,192,21647,1,0,0:0:0:0:
320,192,21757,1,0,0:0:0:0:
448,192,21757,1,0,0:0:0:0:
320,192,21867,1,0,0:0:0:0:
448,192,21867,1,0,0:0:0:0:
64,192,21867,1,0,0:0:0:0:
192,192,21867,1,0,0:0:0:0:
64,192,21977,1,0,0:0:0:0:
192,192,21977,1,0,0:0:0:0:
64,192,22087,1,0,0:0:0:0:
192,192,22087,1,0,0:0:0:0:
320,192,22087,1,0,0:0:0:0:
448,192,22087,1,0,0:0:0:0:
192,192,22197,1,0,0:0:0:0:
448,192,22197,1,0,0:0:0:0:
64,192,22307,1,0,0:0:0:0:
320,192,22307,1,0,0:0:0:0:
192,192,22307,1,0,0:0:0:0:
64,192,22417,1,0,0:0:0:0:
320,192,22417,1,0,0:0:0:0:
64,192,22527,1,0,0:0:0:0:
192,192,22527,1,0,0:0:0:0:
320,192,22527,1,0,0:0:0:0:
448,192,22527,1,0,0:0:0:0:
64,192,22637,1,0,0:0:0:0:
320,192,22637,1,0,0:0:0:0:
192,192,22747,1,0,0:0:0:0:
320,192,22747,1,0,0:0:0:0:
448,192,22857,1,0,0:0:0:0:
192,192,22857,1,0,0:0:0:0:
64,192,22967,1,0,0:0:0:0:
192,192,22967,1,0,0:0:0:0:
320,192,22967,1,0,0:0:0:0:
448,192,22967,1,0,0:0:0:0:
320,192,23077,1,0,0:0:0:0:
448,192,23077,1,0,0:0:0:0:
320,192,23187,1,0,0:0:0:0:
448,192,23187,1,0,0:0:0:0:
192,192,23297,1,0,0:0:0:0:
320,192,23297,1,0,0:0:0:0:
64,192,23407,1,0,0:0:0:0:
192,192,23407,1,0,0:0:0:0:
320,192,23407,1,0,0:0:0:0:
448,192,23407,1,0,0:0:0:0:
64,192,23517,1,0,0:0:0:0:
448,192,23627,1,0,0:0:0:0:
192,192,23627,1,0,0:0:0:0:
448,192,23737,1,0,0:0:0:0:
64,192,23737,1,0,0:0:0:0:
320,192,23847,1,0,0:0:0:0:
448,192,23847,1,0,0:0:0:0:
192,192,23847,1,0,0:0:0:0:
320,192,23957,1,0,0:0:0:0:
320,192,24066,1,0,0:0:0:0:
448,192,24066,1,0,0:0:0:0:
64,192,24066,1,0,0:0:0:0:
192,192,24176,1,0,0:0:0:0:
320,192,24286,1,0,0:0:0:0:
448,192,24286,1,0,0:0:0:0:
64,192,24396,1,0,0:0:0:0:
192,192,24506,1,0,0:0:0:0:
320,192,24506,1,0,0:0:0:0:
448,192,24616,1,0,0:0:0:0:
320,192,24616,1,0,0:0:0:0:
64,192,24726,1,0,0:0:0:0:
192,192,24726,1,0,0:0:0:0:
448,192,24726,1,0,0:0:0:0:
320,192,24726,1,0,0:0:0:0:
64,192,24836,1,0,0:0:0:0:
192,192,24836,1,0,0:0:0:0:
64,192,24946,1,0,0:0:0:0:
192,192,24946,1,0,0:0:0:0:
448,192,24946,1,0,0:0:0:0:
320,192,24946,1,0,0:0:0:0:
320,192,25056,1,0,0:0:0:0:
448,192,25056,1,0,0:0:0:0:
64,192,25166,1,0,0:0:0:0:
320,192,25166,1,0,0:0:0:0:
448,192,25166,1,0,0:0:0:0:
192,192,25166,1,0,0:0:0:0:
448,192,25276,1,0,0:0:0:0:
448,192,25386,1,0,0:0:0:0:
64,192,25386,1,0,0:0:0:0:
192,192,25386,1,0,0:0:0:0:
64,192,25496,1,0,0:0:0:0:
64,192,25606,1,0,0:0:0:0:
320,192,25606,1,0,0:0:0:0:
64,192,25716,1,0,0:0:0:0:
448,192,25716,1,0,0:0:0:0:
64,192,25826,1,0,0:0:0:0:
192,192,25826,1,0,0:0:0:0:
320,192,25826,1,0,0:0:0:0:
192,192,25936,1,0,0:0:0:0:
320,192,25936,1,0,0:0:0:0:
64,192,26046,1,0,0:0:0:0:
192,192,26046,1,0,0:0:0:0:
448,192,26046,1,0,0:0:0:0:
320,192,26046,1,0,0:0:0:0:
320,192,26156,1,0,0:0:0:0:
448,192,26156,1,0,0:0:0:0:
192,192,26266,1,0,0:0:0:0:
320,192,26266,1,0,0:0:0:0:
192,192,26376,1,0,0:0:0:0:
64,192,26376,1,0,0:0:0:0:
448,192,26486,1,0,0:0:0:0:
320,192,26486,1,0,0:0:0:0:
320,192,26596,1,0,0:0:0:0:
448,192,26596,1,0,0:0:0:0:
320,192,26706,1,0,0:0:0:0:
448,192,26706,1,0,0:0:0:0:
64,192,26706,1,0,0:0:0:0:
192,192,26706,1,0,0:0:0:0:
64,192,26816,1,0,0:0:0:0:
192,192,26816,1,0,0:0:0:0:
64,192,26926,1,0,0:0:0:0:
192,192,26926,1,0,0:0:0:0:
320,192,26926,1,0,0:0:0:0:
448,192,26926,1,0,0:0:0:0:
64,192,27036,1,0,0:0:0:0:
448,192,27146,1,0,0:0:0:0:
64,192,27146,1,0,0:0:0:0:
320,192,27146,1,0,0:0:0:0:
448,192,27256,1,0,0:0:0:0:
448,192,27366,1,0,0:0:0:0:
192,192,27366,1,0,0:0:0:0:
448,192,27475,1,0,0:0:0:0:
320,192,27475,1,0,0:0:0:0:
64,192,27585,1,0,0:0:0:0:
192,192,27585,1,0,0:0:0:0:
448,192,27585,1,0,0:0:0:0:
192,192,27695,1,0,0:0:0:0:
320,192,27695,1,0,0:0:0:0:
64,192,27805,1,0,0:0:0:0:
192,192,27805,1,0,0:0:0:0:
320,192,27805,1,0,0:0:0:0:
448,192,27805,1,0,0:0:0:0:
320,192,28025,1,0,0:0:0:0:
448,192,28025,1,0,0:0:0:0:
320,192,28135,1,0,0:0:0:0:
192,192,28245,1,0,0:0:0:0:
64,192,28245,1,0,0:0:0:0:
320,192,28245,1,0,0:0:0:0:
192,192,28355,1,0,0:0:0:0:
192,192,28465,1,0,0:0:0:0:
64,192,28465,1,0,0:0:0:0:
448,192,28465,1,0,0:0:0:0:
192,192,28575,1,0,0:0:0:0:
320,192,28575,1,0,0:0:0:0:
192,192,28685,1,0,0:0:0:0:
320,192,28685,1,0,0:0:0:0:
448,192,28685,1,0,0:0:0:0:
64,192,28685,1,0,0:0:0:0:
64,192,28795,1,0,0:0:0:0:
64,192,28905,1,0,0:0:0:0:
448,192,28905,1,0,0:0:0:0:
448,192,29015,1,0,0:0:0:0:
448,192,29125,1,0,0:0:0:0:
320,192,29125,1,0,0:0:0:0:
64,192,29125,1,0,0:0:0:0:
192,192,29125,1,0,0:0:0:0:
192,192,29235,1,0,0:0:0:0:
320,192,29235,1,0,0:0:0:0:
192,192,29345,1,0,0:0:0:0:
320,192,29345,1,0,0:0:0:0:
64,192,29345,1,0,0:0:0:0:
448,192,29345,1,0,0:0:0:0:
64,192,29455,1,0,0:0:0:0:
448,192,29455,1,0,0:0:0:0:
64,192,29565,1,0,0:0:0:0:
192,192,29565,1,0,0:0:0:0:
320,192,29565,1,0,0:0:0:0:
448,192,29565,1,0,0:0:0:0:
64,192,29675,1,0,0:0:0:0:
192,192,29675,1,0,0:0:0:0:
64,192,29785,1,0,0:0:0:0:
192,192,29785,1,0,0:0:0:0:
320,192,29785,1,0,0:0:0:0:
448,192,29785,1,0,0:0:0:0:
320,192,29895,1,0,0:0:0:0:
448,192,29895,1,0,0:0:0:0:
320,192,30005,1,0,0:0:0:0:
448,192,30005,1,0,0:0:0:0:
64,192,30005,1,0,0:0:0:0:
192,192,30005,1,0,0:0:0:0:
192,192,30115,1,0,0:0:0:0:
320,192,30115,1,0,0:0:0:0:
64,192,30225,1,0,0:0:0:0:
192,192,30225,1,0,0:0:0:0:
448,192,30225,1,0,0:0:0:0:
320,192,30225,1,0,0:0:0:0:
64,192,30335,1,0,0:0:0:0:
448,192,30335,1,0,0:0:0:0:
64,192,30445,1,0,0:0:0:0:
192,192,30445,1,0,0:0:0:0:
448,192,30445,1,0,0:0:0:0:
320,192,30445,1,0,0:0:0:0:
64,192,30555,1,0,0:0:0:0:
192,192,30555,1,0,0:0:0:0:
320,192,30665,1,0,0:0:0:0:
448,192,30665,1,0,0:0:0:0:
320,192,30775,1,0,0:0:0:0:
448,192,30775,1,0,0:0:0:0:
64,192,30885,1,0,0:0:0:0:
192,192,30885,1,0,0:0:0:0:
64,192,30995,1,0,0:0:0:0:
192,192,30995,1,0,0:0:0:0:
320,192,31105,1,0,0:0:0:0:
448,192,31105,1,0,0:0:0:0:
64,192,31215,1,0,0:0:0:0:
192,192,31215,1,0,0:0:0:0:
320,192,31325,1,0,0:0:0:0:
448,192,31325,1,0,0:0:0:0:
64,192,31435,1,0,0:0:0:0:
192,192,31435,1,0,0:0:0:0:
320,192,31545,1,0,0:0:0:0:
448,192,31545,1,0,0:0:0:0:
192,192,31655,1,0,0:0:0:0:
64,192,31765,1,0,0:0:0:0:
192,192,31765,1,0,0:0:0:0:
320,192,31765,1,0,0:0:0:0:
448,192,31765,1,0,0:0:0:0:
320,192,31875,1,0,0:0:0:0:
64,192,31985,1,0,0:0:0:0:
192,192,31985,1,0,0:0:0:0:
448,192,31985,1,0,0:0:0:0:
320,192,31985,1,0,0:0:0:0:
192,192,32095,1,0,0:0:0:0:
192,192,32205,1,0,0:0:0:0:
320,192,32205,1,0,0:0:0:0:
448,192,32205,1,0,0:0:0:0:
64,192,32205,1,0,0:0:0:0:
192,192,32315,1,0,0:0:0:0:
64,192,32315,1,0,0:0:0:0:
64,192,32425,1,0,0:0:0:0:
320,192,32535,1,0,0:0:0:0:
64,192,32645,1,0,0:0:0:0:
192,192,32645,1,0,0:0:0:0:
320,192,32645,1,0,0:0:0:0:
448,192,32645,1,0,0:0:0:0:
320,192,32755,1,0,0:0:0:0:
64,192,32865,1,0,0:0:0:0:
192,192,32865,1,0,0:0:0:0:
64,192,32975,1,0,0:0:0:0:
320,192,33085,1,0,0:0:0:0:
448,192,33085,1,0,0:0:0:0:
64,192,33085,1,0,0:0:0:0:
192,192,33085,1,0,0:0:0:0:
192,192,33195,1,0,0:0:0:0:
192,192,33305,1,0,0:0:0:0:
320,192,33305,1,0,0:0:0:0:
448,192,33305,1,0,0:0:0:0:
320,192,33415,1,0,0:0:0:0:
64,192,33525,1,0,0:0:0:0:
192,192,33525,1,0,0:0:0:0:
320,192,33525,1,0,0:0:0:0:
448,192,33525,1,0,0:0:0:0:
192,192,33635,1,0,0:0:0:0:
64,192,33745,1,0,0:0:0:0:
192,192,33745,1,0,0:0:0:0:
320,192,33855,1,0,0:0:0:0:
64,192,33965,1,0,0:0:0:0:
192,192,33965,1,0,0:0:0:0:
448,192,33965,1,0,0:0:0:0:
320,192,33965,1,0,0:0:0:0:
320,192,34075,1,0,0:0:0:0:
320,192,34185,1,0,0:0:0:0:
192,192,34185,1,0,0:0:0:0:
64,192,34185,1,0,0:0:0:0:
64,192,34294,1,0,0:0:0:0:
64,192,34404,1,0,0:0:0:0:
192,192,34404,1,0,0:0:0:0:
320,192,34404,1,0,0:0:0:0:
448,192,34404,1,0,0:0:0:0:
64,192,34514,1,0,0:0:0:0:
448,192,34514,1,0,0:0:0:0:
64,192,34624,1,0,0:0:0:0:
192,192,34624,1,0,0:0:0:0:
320,192,34624,1,0,0:0:0:0:
448,192,34624,1,0,0:0:0:0:
192,192,34734,1,0,0:0:0:0:
320,192,34734,1,0,0:0:0:0:
64,192,34844,1,0,0:0:0:0:
448,192,34844,1,0,0:0:0:0:
192,192,34844,1,0,0:0:0:0:
320,192,34844,1,0,0:0:0:0:
192,192,35064,1,0,0:0:0:0:
320,192,35064,1,0,0:0:0:0:
448,192,35064,1,0,0:0:0:0:
320,192,35174,1,0,0:0:0:0:
64,192,35284,1,0,0:0:0:0:
192,192,35284,1,0,0:0:0:0:
320,192,35284,1,0,0:0:0:0:
448,192,35284,1,0,0:0:0:0:
192,192,35394,1,0,0:0:0:0:
64,192,35504,1,0,0:0:0:0:
192,192,35504,1,0,0:0:0:0:
448,192,35504,1,0,0:0:0:0:
320,192,35504,1,0,0:0:0:0:
320,192,35614,1,0,0:0:0:0:
192,192,35724,1,0,0:0:0:0:
320,192,35724,1,0,0:0:0:0:
448,192,35724,1,0,0:0:0:0:
64,192,35724,1,0,0:0:0:0:
448,192,35834,1,0,0:0:0:0:
320,192,35834,1,0,0:0:0:0:
448,192,35944,1,0,0:0:0:0:
192,192,36054,1,0,0:0:0:0:
64,192,36164,1,0,0:0:0:0:
192,192,36164,1,0,0:0:0:0:
320,192,36164,1,0,0:0:0:0:
448,192,36164,1,0,0:0:0:0:
192,192,36274,1,0,0:0:0:0:
320,192,36384,1,0,0:0:0:0:
448,192,36384,1,0,0:0:0:0:
448,192,36494,1,0,0:0:0:0:
320,192,36604,1,0,0:0:0:0:
448,192,36604,1,0,0:0:0:0:
64,192,36604,1,0,0:0:0:0:
192,192,36604,1,0,0:0:0:0:
320,192,36714,1,0,0:0:0:0:
192,192,36824,1,0,0:0:0:0:
320,192,36824,1,0,0:0:0:0:
448,192,36824,1,0,0:0:0:0:
192,192,36934,1,0,0:0:0:0:
64,192,37044,1,0,0:0:0:0:
192,192,37044,1,0,0:0:0:0:
320,192,37044,1,0,0:0:0:0:
448,192,37044,1,0,0:0:0:0:
320,192,37154,1,0,0:0:0:0:
320,192,37264,1,0,0:0:0:0:
448,192,37264,1,0,0:0:0:0:
192,192,37374,1,0,0:0:0:0:
64,192,37484,1,0,0:0:0:0:
192,192,37484,1,0,0:0:0:0:
448,192,37484,1,0,0:0:0:0:
320,192,37484,1,0,0:0:0:0:
192,192,37594,1,0,0:0:0:0:
448,192,37703,1,0,0:0:0:0:
320,192,37703,1,0,0:0:0:0:
192,192,37703,1,0,0:0:0:0:
320,192,37813,1,0,0:0:0:0:
64,192,37923,1,0,0:0:0:0:
192,192,37923,1,0,0:0:0:0:
320,192,37923,1,0,0:0:0:0:
448,192,37923,1,0,0:0:0:0:
192,192,38033,1,0,0:0:0:0:
320,192,38033,1,0,0:0:0:0:
64,192,38143,1,0,0:0:0:0:
192,192,38143,1,0,0:0:0:0:
320,192,38143,1,0,0:0:0:0:
448,192,38143,1,0,0:0:0:0:
64,192,38253,1,0,0:0:0:0:
448,192,38253,1,0,0:0:0:0:
64,192,38363,1,0,0:0:0:0:
448,192,38363,1,0,0:0:0:0:
192,192,38363,1,0,0:0:0:0:
320,192,38363,1,0,0:0:0:0:
192,192,38473,1,0,0:0:0:0:
320,192,38583,1,0,0:0:0:0:
448,192,38583,1,0,0:0:0:0:
320,192,38693,1,0,0:0:0:0:
448,192,38693,1,0,0:0:0:0:
64,192,38803,1,0,0:0:0:0:
192,192,38803,1,0,0:0:0:0:
320,192,38803,1,0,0:0:0:0:
448,192,38803,1,0,0:0:0:0:
320,192,38913,1,0,0:0:0:0:
192,192,39023,1,0,0:0:0:0:
64,192,39023,1,0,0:0:0:0:
192,192,39133,1,0,0:0:0:0:
64,192,39243,1,0,0:0:0:0:
192,192,39243,1,0,0:0:0:0:
320,192,39243,1,0,0:0:0:0:
448,192,39243,1,0,0:0:0:0:
320,192,39353,1,0,0:0:0:0:
192,192,39463,1,0,0:0:0:0:
448,192,39463,1,0,0:0:0:0:
320,192,39463,1,0,0:0:0:0:
192,192,39573,1,0,0:0:0:0:
64,192,39683,1,0,0:0:0:0:
320,192,39683,1,0,0:0:0:0:
448,192,39683,1,0,0:0:0:0:
192,192,39683,1,0,0:0:0:0:
64,192,39793,1,0,0:0:0:0:
448,192,39793,1,0,0:0:0:0:
64,192,39903,1,0,0:0:0:0:
192,192,39903,1,0,0:0:0:0:
320,192,39903,1,0,0:0:0:0:
448,192,39903,1,0,0:0:0:0:
192,192,40013,1,0,0:0:0:0:
64,192,40123,1,0,0:0:0:0:
192,192,40123,1,0,0:0:0:0:
448,192,40123,1,0,0:0:0:0:
320,192,40123,1,0,0:0:0:0:
320,192,40233,1,0,0:0:0:0:
64,192,40343,1,0,0:0:0:0:
192,192,40343,1,0,0:0:0:0:
192,192,40453,1,0,0:0:0:0:
64,192,40453,1,0,0:0:0:0:
64,192,40563,1,0,0:0:0:0:
192,192,40563,1,0,0:0:0:0:
320,192,40563,1,0,0:0:0:0:
448,192,40563,1,0,0:0:0:0:
192,192,40673,1,0,0:0:0:0:
448,192,40783,1,0,0:0:0:0:
320,192,40783,1,0,0:0:0:0:
320,192,40893,1,0,0:0:0:0:
64,192,41003,1,0,0:0:0:0:
192,192,41003,1,0,0:0:0:0:
320,192,41003,1,0,0:0:0:0:
448,192,41003,1,0,0:0:0:0:
192,192,41112,1,0,0:0:0:0:
192,192,41222,1,0,0:0:0:0:
448,192,41222,1,0,0:0:0:0:
320,192,41222,1,0,0:0:0:0:
320,192,41332,1,0,0:0:0:0:
64,192,41442,1,0,0:0:0:0:
320,192,41442,1,0,0:0:0:0:
448,192,41442,1,0,0:0:0:0:
192,192,41442,1,0,0:0:0:0:
64,192,41552,1,0,0:0:0:0:
448,192,41552,1,0,0:0:0:0:
64,192,41662,1,0,0:0:0:0:
192,192,41662,1,0,0:0:0:0:
320,192,41662,1,0,0:0:0:0:
448,192,41662,1,0,0:0:0:0:
320,192,41772,1,0,0:0:0:0:
64,192,41882,1,0,0:0:0:0:
192,192,41882,1,0,0:0:0:0:
448,192,41882,1,0,0:0:0:0:
320,192,41882,1,0,0:0:0:0:
64,192,42102,128,0,42872:0:0:0:0:
192,192,42322,128,0,43092:0:0:0:0:
320,192,42542,128,0,43312:0:0:0:0:
448,192,42762,128,0,43532:0:0:0:0:
64,192,42982,128,0,43752:0:0:0:0:
192,192,43202,128,0,43752:0:0:0:0:
320,192,43422,128,0,44521:0:0:0:0:
448,192,43642,128,0,44521:0:0:0:0:
64,192,43862,128,0,44521:0:0:0:0:
192,192,43862,128,0,44521:0:0:0:0:
64,192,44741,128,0,44851:0:0:0:0:
192,192,44741,128,0,44851:0:0:0:0:
320,192,44741,128,0,44851:0:0:0:0:
448,192,44741,128,0,44851:0:0:0:0:
64,192,44961,128,0,45071:0:0:0:0:
192,192,44961,128,0,45071:0:0:0:0:
320,192,44961,128,0,45071:0:0:0:0:
448,192,44961,128,0,45071:0:0:0:0:
64,192,45181,128,0,45236:0:0:0:0:
192,192,45181,128,0,45236:0:0:0:0:
320,192,45181,128,0,45236:0:0:0:0:
448,192,45181,128,0,45236:0:0:0:0:
64,192,45401,128,0,45456:0:0:0:0:
320,192,45401,128,0,45456:0:0:0:0:
192,192,45401,128,0,45456:0:0:0:0:
448,192,45401,128,0,45456:0:0:0:0:
64,192,45621,128,0,45676:0:0:0:0:
192,192,45621,128,0,45676:0:0:0:0:
448,192,45621,128,0,45676:0:0:0:0:
320,192,45621,128,0,45676:0:0:0:0:
64,192,45841,5,0,0:0:0:0:
192,192,45841,1,0,0:0:0:0:
448,192,45841,1,0,0:0:0:0:
64,192,45951,1,0,0:0:0:0:
192,192,45951,1,0,0:0:0:0:
448,192,45951,1,0,0:0:0:0:
64,192,46061,1,0,0:0:0:0:
192,192,46061,1,0,0:0:0:0:
448,192,46061,1,0,0:0:0:0:
64,192,46171,1,0,0:0:0:0:
192,192,46171,1,0,0:0:0:0:
448,192,46171,1,0,0:0:0:0:
448,192,46281,1,0,0:0:0:0:
64,192,46281,1,0,0:0:0:0:
320,192,46281,1,0,0:0:0:0:
64,192,46391,1,0,0:0:0:0:
320,192,46391,1,0,0:0:0:0:
448,192,46391,1,0,0:0:0:0:
320,192,46501,1,0,0:0:0:0:
448,192,46501,1,0,0:0:0:0:
64,192,46501,1,0,0:0:0:0:
448,192,46611,1,0,0:0:0:0:
320,192,46611,1,0,0:0:0:0:
64,192,46611,1,0,0:0:0:0:
64,192,46721,1,0,0:0:0:0:
192,192,46721,1,0,0:0:0:0:
448,192,46721,1,0,0:0:0:0:
320,192,46721,1,0,0:0:0:0:
64,192,46831,1,0,0:0:0:0:
320,192,46831,1,0,0:0:0:0:
192,192,46941,1,0,0:0:0:0:
320,192,46941,1,0,0:0:0:0:
448,192,46941,1,0,0:0:0:0:
192,192,47051,1,0,0:0:0:0:
320,192,47051,1,0,0:0:0:0:
64,192,47161,1,0,0:0:0:0:
192,192,47161,1,0,0:0:0:0:
320,192,47161,1,0,0:0:0:0:
448,192,47161,1,0,0:0:0:0:
64,192,47271,1,0,0:0:0:0:
192,192,47271,1,0,0:0:0:0:
64,192,47381,1,0,0:0:0:0:
192,192,47381,1,0,0:0:0:0:
320,192,47381,1,0,0:0:0:0:
448,192,47381,1,0,0:0:0:0:
320,192,47491,1,0,0:0:0:0:
448,192,47491,1,0,0:0:0:0:
320,192,47601,1,0,0:0:0:0:
448,192,47601,1,0,0:0:0:0:
64,192,47601,1,0,0:0:0:0:
192,192,47601,1,0,0:0:0:0:
64,192,47711,1,0,0:0:0:0:
320,192,47711,1,0,0:0:0:0:
64,192,47821,1,0,0:0:0:0:
192,192,47821,1,0,0:0:0:0:
320,192,47821,1,0,0:0:0:0:
448,192,47821,1,0,0:0:0:0:
192,192,47930,1,0,0:0:0:0:
320,192,47930,1,0,0:0:0:0:
64,192,48040,1,0,0:0:0:0:
192,192,48040,1,0,0:0:0:0:
320,192,48040,1,0,0:0:0:0:
448,192,48040,1,0,0:0:0:0:
320,192,48150,1,0,0:0:0:0:
448,192,48150,1,0,0:0:0:0:
64,192,48260,1,0,0:0:0:0:
192,192,48260,1,0,0:0:0:0:
448,192,48260,1,0,0:0:0:0:
320,192,48260,1,0,0:0:0:0:
64,192,48370,1,0,0:0:0:0:
448,192,48370,1,0,0:0:0:0:
64,192,48480,1,0,0:0:0:0:
192,192,48480,1,0,0:0:0:0:
320,192,48480,1,0,0:0:0:0:
448,192,48480,1,0,0:0:0:0:
64,192,48700,1,0,0:0:0:0:
192,192,48700,1,0,0:0:0:0:
320,192,48700,1,0,0:0:0:0:
448,192,48700,1,0,0:0:0:0:
64,192,48810,1,0,0:0:0:0:
320,192,48810,1,0,0:0:0:0:
64,192,48920,1,0,0:0:0:0:
192,192,48920,1,0,0:0:0:0:
320,192,48920,1,0,0:0:0:0:
448,192,48920,1,0,0:0:0:0:
192,192,49030,1,0,0:0:0:0:
448,192,49030,1,0,0:0:0:0:
448,192,49140,1,0,0:0:0:0:
320,192,49140,1,0,0:0:0:0:
192,192,49140,1,0,0:0:0:0:
64,192,49140,1,0,0:0:0:0:
192,192,49250,1,0,0:0:0:0:
320,192,49250,1,0,0:0:0:0:
64,192,49360,5,0,0:0:0:0:
448,192,49360,1,0,0:0:0:0:
192,192,49360,1,0,0:0:0:0:
448,192,49470,1,0,0:0:0:0:
64,192,49470,1,0,0:0:0:0:
192,192,49470,1,0,0:0:0:0:
448,192,49580,1,0,0:0:0:0:
192,192,49580,1,0,0:0:0:0:
64,192,49580,1,0,0:0:0:0:
192,192,49690,1,0,0:0:0:0:
64,192,49690,1,0,0:0:0:0:
448,192,49690,1,0,0:0:0:0:
448,192,49800,1,0,0:0:0:0:
320,192,49800,1,0,0:0:0:0:
64,192,49800,1,0,0:0:0:0:
448,192,49910,1,0,0:0:0:0:
320,192,49910,1,0,0:0:0:0:
64,192,49910,1,0,0:0:0:0:
448,192,50020,1,0,0:0:0:0:
64,192,50020,1,0,0:0:0:0:
320,192,50020,1,0,0:0:0:0:
448,192,50130,1,0,0:0:0:0:
64,192,50130,1,0,0:0:0:0:
320,192,50130,1,0,0:0:0:0:
64,192,50240,1,0,0:0:0:0:
192,192,50240,1,0,0:0:0:0:
320,192,50240,1,0,0:0:0:0:
448,192,50240,1,0,0:0:0:0:
64,192,50350,1,0,0:0:0:0:
448,192,50350,1,0,0:0:0:0:
448,192,50460,1,0,0:0:0:0:
320,192,50460,1,0,0:0:0:0:
192,192,50460,1,0,0:0:0:0:
64,192,50460,1,0,0:0:0:0:
192,192,50570,1,0,0:0:0:0:
320,192,50570,1,0,0:0:0:0:
64,192,50680,1,0,0:0:0:0:
192,192,50680,1,0,0:0:0:0:
448,192,50680,1,0,0:0:0:0:
320,192,50680,1,0,0:0:0:0:
320,192,50790,1,0,0:0:0:0:
448,192,50790,1,0,0:0:0:0:
320,192,50900,1,0,0:0:0:0:
448,192,50900,1,0,0:0:0:0:
64,192,50900,1,0,0:0:0:0:
192,192,50900,1,0,0:0:0:0:
64,192,51010,1,0,0:0:0:0:
192,192,51010,1,0,0:0:0:0:
64,192,51120,1,0,0:0:0:0:
192,192,51120,1,0,0:0:0:0:
320,192,51120,1,0,0:0:0:0:
448,192,51120,1,0,0:0:0:0:
448,192,51230,1,0,0:0:0:0:
192,192,51230,1,0,0:0:0:0:
64,192,51339,1,0,0:0:0:0:
192,192,51339,1,0,0:0:0:0:
320,192,51339,1,0,0:0:0:0:
448,192,51339,1,0,0:0:0:0:
64,192,51449,1,0,0:0:0:0:
320,192,51449,1,0,0:0:0:0:
64,192,51559,1,0,0:0:0:0:
192,192,51559,1,0,0:0:0:0:
448,192,51559,1,0,0:0:0:0:
320,192,51559,1,0,0:0:0:0:
192,192,51669,1,0,0:0:0:0:
320,192,51669,1,0,0:0:0:0:
64,192,51779,1,0,0:0:0:0:
192,192,51779,1,0,0:0:0:0:
448,192,51779,1,0,0:0:0:0:
320,192,51779,1,0,0:0:0:0:
64,192,51889,1,0,0:0:0:0:
320,192,51889,1,0,0:0:0:0:
64,192,51999,1,0,0:0:0:0:
320,192,51999,1,0,0:0:0:0:
192,192,51999,1,0,0:0:0:0:
448,192,51999,1,0,0:0:0:0:
64,192,52109,1,0,0:0:0:0:
320,192,52109,1,0,0:0:0:0:
192,192,52109,1,0,0:0:0:0:
64,192,52219,1,0,0:0:0:0:
192,192,52219,1,0,0:0:0:0:
320,192,52219,1,0,0:0:0:0:
448,192,52219,1,0,0:0:0:0:
64,192,52439,128,0,52549:0:0:0:0:
192,192,52439,128,0,52549:0:0:0:0:
320,192,52439,128,0,52549:0:0:0:0:
448,192,52439,128,0,52549:0:0:0:0:
64,192,52659,128,0,52769:0:0:0:0:
192,192,52659,128,0,52769:0:0:0:0:
320,192,52659,128,0,52769:0:0:0:0:
448,192,52659,128,0,52769:0:0:0:0:
64,192,52879,1,0,0:0:0:0:
192,192,52879,1,0,0:0:0:0:
320,192,52879,1,0,0:0:0:0:
192,192,52989,1,0,0:0:0:0:
64,192,52989,1,0,0:0:0:0:
320,192,52989,1,0,0:0:0:0:
64,192,53099,1,0,0:0:0:0:
192,192,53099,1,0,0:0:0:0:
320,192,53099,1,0,0:0:0:0:
192,192,53209,1,0,0:0:0:0:
320,192,53209,1,0,0:0:0:0:
64,192,53209,1,0,0:0:0:0:
192,192,53319,1,0,0:0:0:0:
320,192,53319,1,0,0:0:0:0:
448,192,53319,1,0,0:0:0:0:
192,192,53429,1,0,0:0:0:0:
320,192,53429,1,0,0:0:0:0:
448,192,53429,1,0,0:0:0:0:
192,192,53539,1,0,0:0:0:0:
320,192,53539,1,0,0:0:0:0:
448,192,53539,1,0,0:0:0:0:
192,192,53649,1,0,0:0:0:0:
448,192,53649,1,0,0:0:0:0:
320,192,53649,1,0,0:0:0:0:
192,192,53759,1,0,0:0:0:0:
320,192,53759,1,0,0:0:0:0:
448,192,53759,1,0,0:0:0:0:
64,192,53759,1,0,0:0:0:0:
64,192,53869,1,0,0:0:0:0:
192,192,53869,1,0,0:0:0:0:
64,192,53979,1,0,0:0:0:0:
192,192,53979,1,0,0:0:0:0:
320,192,53979,1,0,0:0:0:0:
448,192,53979,1,0,0:0:0:0:
320,192,54089,1,0,0:0:0:0:
448,192,54089,1,0,0:0:0:0:
320,192,54199,1,0,0:0:0:0:
448,192,54199,1,0,0:0:0:0:
64,192,54199,1,0,0:0:0:0:
192,192,54199,1,0,0:0:0:0:
192,192,54309,1,0,0:0:0:0:
320,192,54309,1,0,0:0:0:0:
64,192,54419,1,0,0:0:0:0:
448,192,54419,1,0,0:0:0:0:
320,192,54419,1,0,0:0:0:0:
192,192,54419,1,0,0:0:0:0:
64,192,54529,1,0,0:0:0:0:
448,192,54529,1,0,0:0:0:0:
448,192,54639,1,0,0:0:0:0:
192,192,54639,1,0,0:0:0:0:
64,192,54639,1,0,0:0:0:0:
320,192,54639,1,0,0:0:0:0:
64,192,54748,1,0,0:0:0:0:
320,192,54748,1,0,0:0:0:0:
192,192,54748,1,0,0:0:0:0:
64,192,54858,1,0,0:0:0:0:
192,192,54858,1,0,0:0:0:0:
320,192,54858,1,0,0:0:0:0:
448,192,54858,1,0,0:0:0:0:
192,192,54968,1,0,0:0:0:0:
448,192,54968,1,0,0:0:0:0:
320,192,54968,1,0,0:0:0:0:
64,192,55078,1,0,0:0:0:0:
192,192,55078,1,0,0:0:0:0:
320,192,55078,1,0,0:0:0:0:
448,192,55078,1,0,0:0:0:0:
192,192,55188,1,0,0:0:0:0:
320,192,55188,1,0,0:0:0:0:
64,192,55298,1,0,0:0:0:0:
192,192,55298,1,0,0:0:0:0:
320,192,55298,1,0,0:0:0:0:
448,192,55298,1,0,0:0:0:0:
64,192,55408,1,0,0:0:0:0:
192,192,55408,1,0,0:0:0:0:
320,192,55408,1,0,0:0:0:0:
448,192,55408,1,0,0:0:0:0:
64,192,55518,1,0,0:0:0:0:
192,192,55518,1,0,0:0:0:0:
320,192,55518,1,0,0:0:0:0:
448,192,55518,1,0,0:0:0:0:
64,192,55628,1,0,0:0:0:0:
192,192,55628,1,0,0:0:0:0:
320,192,55628,1,0,0:0:0:0:
448,192,55628,1,0,0:0:0:0:
448,192,55738,1,0,0:0:0:0:
320,192,55738,1,0,0:0:0:0:
192,192,55738,1,0,0:0:0:0:
64,192,55738,1,0,0:0:0:0:
64,192,55848,1,0,0:0:0:0:
192,192,55848,1,0,0:0:0:0:
448,192,55848,1,0,0:0:0:0:
320,192,55848,1,0,0:0:0:0:
320,192,55958,1,0,0:0:0:0:
192,192,55958,1,0,0:0:0:0:
64,192,55958,1,0,0:0:0:0:
448,192,55958,1,0,0:0:0:0:
192,192,56068,1,0,0:0:0:0:
320,192,56068,1,0,0:0:0:0:
64,192,56178,1,0,0:0:0:0:
192,192,56178,1,0,0:0:0:0:
320,192,56178,1,0,0:0:0:0:
448,192,56178,1,0,0:0:0:0:
64,192,56288,1,0,0:0:0:0:
320,192,56288,1,0,0:0:0:0:
64,192,56398,1,0,0:0:0:0:
320,192,56398,1,0,0:0:0:0:
448,192,56398,1,0,0:0:0:0:
192,192,56398,1,0,0:0:0:0:
192,192,56508,1,0,0:0:0:0:
448,192,56508,1,0,0:0:0:0:
448,192,56618,1,0,0:0:0:0:
320,192,56618,1,0,0:0:0:0:
192,192,56618,1,0,0:0:0:0:
64,192,56618,1,0,0:0:0:0:
192,192,56728,1,0,0:0:0:0:
320,192,56728,1,0,0:0:0:0:
64,192,56838,1,0,0:0:0:0:
192,192,56838,1,0,0:0:0:0:
320,192,56838,1,0,0:0:0:0:
448,192,56838,1,0,0:0:0:0:
448,192,56948,1,0,0:0:0:0:
64,192,56948,1,0,0:0:0:0:
192,192,57058,1,0,0:0:0:0:
448,192,57058,1,0,0:0:0:0:
320,192,57058,1,0,0:0:0:0:
64,192,57058,1,0,0:0:0:0:
64,192,57168,1,0,0:0:0:0:
192,192,57168,1,0,0:0:0:0:
64,192,57278,1,0,0:0:0:0:
192,192,57278,1,0,0:0:0:0:
320,192,57278,1,0,0:0:0:0:
448,192,57278,1,0,0:0:0:0:
448,192,57388,1,0,0:0:0:0:
320,192,57388,1,0,0:0:0:0:
448,192,57498,1,0,0:0:0:0:
320,192,57498,1,0,0:0:0:0:
192,192,57498,1,0,0:0:0:0:
64,192,57498,1,0,0:0:0:0:
64,192,57608,1,0,0:0:0:0:
64,192,57718,1,0,0:0:0:0:
192,192,57718,1,0,0:0:0:0:
192,192,57828,1,0,0:0:0:0:
320,192,57828,1,0,0:0:0:0:
64,192,57828,1,0,0:0:0:0:
64,192,57938,1,0,0:0:0:0:
192,192,57938,1,0,0:0:0:0:
448,192,57938,1,0,0:0:0:0:
320,192,57938,1,0,0:0:0:0:
192,192,58048,1,0,0:0:0:0:
320,192,58048,1,0,0:0:0:0:
64,192,58157,1,0,0:0:0:0:
192,192,58157,1,0,0:0:0:0:
448,192,58157,1,0,0:0:0:0:
320,192,58157,1,0,0:0:0:0:
64,192,58267,1,0,0:0:0:0:
192,192,58267,1,0,0:0:0:0:
320,192,58377,1,0,0:0:0:0:
448,192,58487,1,0,0:0:0:0:
320,192,58597,1,0,0:0:0:0:
448,192,58597,1,0,0:0:0:0:
64,192,58707,1,0,0:0:0:0:
64,192,58817,1,0,0:0:0:0:
64,192,58927,1,0,0:0:0:0:
192,192,58927,1,0,0:0:0:0:
320,192,59037,1,0,0:0:0:0:
448,192,59037,1,0,0:0:0:0:
448,192,59147,1,0,0:0:0:0:
320,192,59257,1,0,0:0:0:0:
448,192,59257,1,0,0:0:0:0:
192,192,59367,1,0,0:0:0:0:
64,192,59477,1,0,0:0:0:0:
192,192,59477,1,0,0:0:0:0:
320,192,59587,1,0,0:0:0:0:
320,192,59697,1,0,0:0:0:0:
448,192,59697,1,0,0:0:0:0:
320,192,59807,1,0,0:0:0:0:
192,192,59917,1,0,0:0:0:0:
320,192,59917,1,0,0:0:0:0:
448,192,59917,1,0,0:0:0:0:
64,192,60027,1,0,0:0:0:0:
192,192,60027,1,0,0:0:0:0:
64,192,60137,1,0,0:0:0:0:
320,192,60247,1,0,0:0:0:0:
64,192,60357,1,0,0:0:0:0:
192,192,60357,1,0,0:0:0:0:
320,192,60357,1,0,0:0:0:0:
64,192,60467,1,0,0:0:0:0:
192,192,60467,1,0,0:0:0:0:
64,192,60577,1,0,0:0:0:0:
192,192,60687,1,0,0:0:0:0:
448,192,60687,1,0,0:0:0:0:
64,192,60797,1,0,0:0:0:0:
192,192,60797,1,0,0:0:0:0:
320,192,60797,1,0,0:0:0:0:
192,192,60907,1,0,0:0:0:0:
64,192,61017,1,0,0:0:0:0:
320,192,61017,1,0,0:0:0:0:
320,192,61127,1,0,0:0:0:0:
192,192,61237,1,0,0:0:0:0:
320,192,61237,1,0,0:0:0:0:
448,192,61237,1,0,0:0:0:0:
320,192,61347,1,0,0:0:0:0:
320,192,61457,1,0,0:0:0:0:
64,192,61457,1,0,0:0:0:0:
192,192,61566,1,0,0:0:0:0:
64,192,61676,1,0,0:0:0:0:
192,192,61676,1,0,0:0:0:0:
320,192,61676,1,0,0:0:0:0:
448,192,61676,1,0,0:0:0:0:
320,192,61786,1,0,0:0:0:0:
320,192,61896,1,0,0:0:0:0:
448,192,62006,1,0,0:0:0:0:
320,192,62116,1,0,0:0:0:0:
448,192,62116,1,0,0:0:0:0:
64,192,62226,1,0,0:0:0:0:
64,192,62336,1,0,0:0:0:0:
64,192,62446,1,0,0:0:0:0:
192,192,62446,1,0,0:0:0:0:
320,192,62556,1,0,0:0:0:0:
448,192,62556,1,0,0:0:0:0:
448,192,62666,1,0,0:0:0:0:
320,192,62776,1,0,0:0:0:0:
448,192,62776,1,0,0:0:0:0:
192,192,62886,1,0,0:0:0:0:
64,192,62996,1,0,0:0:0:0:
192,192,62996,1,0,0:0:0:0:
320,192,63106,1,0,0:0:0:0:
320,192,63216,1,0,0:0:0:0:
448,192,63216,1,0,0:0:0:0:
320,192,63326,1,0,0:0:0:0:
192,192,63436,1,0,0:0:0:0:
320,192,63436,1,0,0:0:0:0:
448,192,63436,1,0,0:0:0:0:
64,192,63546,1,0,0:0:0:0:
192,192,63546,1,0,0:0:0:0:
64,192,63656,1,0,0:0:0:0:
320,192,63766,1,0,0:0:0:0:
64,192,63876,1,0,0:0:0:0:
192,192,63876,1,0,0:0:0:0:
320,192,63876,1,0,0:0:0:0:
64,192,63986,1,0,0:0:0:0:
192,192,63986,1,0,0:0:0:0:
64,192,64096,1,0,0:0:0:0:
192,192,64206,1,0,0:0:0:0:
64,192,64316,1,0,0:0:0:0:
192,192,64316,1,0,0:0:0:0:
320,192,64316,1,0,0:0:0:0:
320,192,64426,1,0,0:0:0:0:
320,192,64536,1,0,0:0:0:0:
448,192,64536,1,0,0:0:0:0:
64,192,64646,1,0,0:0:0:0:
192,192,64646,1,0,0:0:0:0:
448,192,64756,1,0,0:0:0:0:
320,192,64811,1,0,0:0:0:0:
192,192,64866,1,0,0:0:0:0:
64,192,64866,1,0,0:0:0:0:
192,192,64975,1,0,0:0:0:0:
448,192,64975,1,0,0:0:0:0:
320,192,65085,1,0,0:0:0:0:
448,192,65085,1,0,0:0:0:0:
64,192,65195,1,0,0:0:0:0:
192,192,65195,1,0,0:0:0:0:
448,192,65195,1,0,0:0:0:0:
320,192,65195,1,0,0:0:0:0:
64,192,65305,1,0,0:0:0:0:
192,192,65305,1,0,0:0:0:0:
320,192,65415,1,0,0:0:0:0:
448,192,65525,1,0,0:0:0:0:
320,192,65635,1,0,0:0:0:0:
448,192,65635,1,0,0:0:0:0:
64,192,65745,1,0,0:0:0:0:
64,192,65855,1,0,0:0:0:0:
64,192,65965,1,0,0:0:0:0:
192,192,65965,1,0,0:0:0:0:
320,192,66075,1,0,0:0:0:0:
448,192,66075,1,0,0:0:0:0:
448,192,66185,1,0,0:0:0:0:
320,192,66295,1,0,0:0:0:0:
448,192,66295,1,0,0:0:0:0:
192,192,66405,1,0,0:0:0:0:
64,192,66515,1,0,0:0:0:0:
192,192,66515,1,0,0:0:0:0:
320,192,66625,1,0,0:0:0:0:
320,192,66735,1,0,0:0:0:0:
448,192,66735,1,0,0:0:0:0:
320,192,66845,1,0,0:0:0:0:
192,192,66955,1,0,0:0:0:0:
320,192,66955,1,0,0:0:0:0:
448,192,66955,1,0,0:0:0:0:
64,192,67065,1,0,0:0:0:0:
192,192,67065,1,0,0:0:0:0:
64,192,67175,1,0,0:0:0:0:
320,192,67285,1,0,0:0:0:0:
64,192,67395,1,0,0:0:0:0:
192,192,67395,1,0,0:0:0:0:
320,192,67395,1,0,0:0:0:0:
64,192,67505,1,0,0:0:0:0:
192,192,67505,1,0,0:0:0:0:
64,192,67615,1,0,0:0:0:0:
192,192,67725,1,0,0:0:0:0:
448,192,67725,1,0,0:0:0:0:
64,192,67835,1,0,0:0:0:0:
192,192,67835,1,0,0:0:0:0:
320,192,67835,1,0,0:0:0:0:
192,192,67945,1,0,0:0:0:0:
64,192,68055,1,0,0:0:0:0:
320,192,68055,1,0,0:0:0:0:
320,192,68165,1,0,0:0:0:0:
192,192,68275,1,0,0:0:0:0:
320,192,68275,1,0,0:0:0:0:
448,192,68275,1,0,0:0:0:0:
320,192,68385,1,0,0:0:0:0:
320,192,68495,1,0,0:0:0:0:
64,192,68495,1,0,0:0:0:0:
192,192,68605,1,0,0:0:0:0:
64,192,68715,1,0,0:0:0:0:
192,192,68715,1,0,0:0:0:0:
448,192,68715,1,0,0:0:0:0:
320,192,68715,1,0,0:0:0:0:
64,192,68825,1,0,0:0:0:0:
192,192,68825,1,0,0:0:0:0:
320,192,68935,1,0,0:0:0:0:
448,192,69045,1,0,0:0:0:0:
320,192,69155,1,0,0:0:0:0:
448,192,69155,1,0,0:0:0:0:
64,192,69265,1,0,0:0:0:0:
64,192,69375,1,0,0:0:0:0:
64,192,69485,1,0,0:0:0:0:
192,192,69485,1,0,0:0:0:0:
320,192,69595,1,0,0:0:0:0:
448,192,69595,1,0,0:0:0:0:
448,192,69705,1,0,0:0:0:0:
320,192,69815,1,0,0:0:0:0:
448,192,69815,1,0,0:0:0:0:
192,192,69925,1,0,0:0:0:0:
64,192,70035,1,0,0:0:0:0:
192,192,70035,1,0,0:0:0:0:
320,192,70145,1,0,0:0:0:0:
320,192,70255,1,0,0:0:0:0:
448,192,70255,1,0,0:0:0:0:
320,192,70365,1,0,0:0:0:0:
192,192,70475,1,0,0:0:0:0:
320,192,70475,1,0,0:0:0:0:
448,192,70475,1,0,0:0:0:0:
192,192,70585,1,0,0:0:0:0:
64,192,70695,1,0,0:0:0:0:
192,192,70695,1,0,0:0:0:0:
320,192,70695,1,0,0:0:0:0:
320,192,70805,1,0,0:0:0:0:
64,192,70915,1,0,0:0:0:0:
192,192,70915,1,0,0:0:0:0:
320,192,70915,1,0,0:0:0:0:
448,192,70915,1,0,0:0:0:0:
64,192,71025,1,0,0:0:0:0:
192,192,71025,1,0,0:0:0:0:
64,192,71135,1,0,0:0:0:0:
320,192,71135,1,0,0:0:0:0:
192,192,71245,1,0,0:0:0:0:
448,192,71245,1,0,0:0:0:0:
192,192,71355,128,0,71519:0:0:0:0:
64,192,71355,128,0,71519:0:0:0:0:
320,192,71355,128,0,71519:0:0:0:0:
192,192,71575,128,0,71739:0:0:0:0:
320,192,71575,128,0,71739:0:0:0:0:
448,192,71575,128,0,71739:0:0:0:0:
64,192,71794,128,0,71959:0:0:0:0:
192,192,71794,128,0,71959:0:0:0:0:
448,192,71794,128,0,71959:0:0:0:0:
64,192,72014,128,0,72179:0:0:0:0:
320,192,72014,128,0,72179:0:0:0:0:
448,192,72014,128,0,72179:0:0:0:0:
64,192,72234,1,0,0:0:0:0:
192,192,72234,1,0,0:0:0:0:
192,192,72344,1,0,0:0:0:0:
64,192,72454,1,0,0:0:0:0:
192,192,72454,1,0,0:0:0:0:
192,192,72564,1,0,0:0:0:0:
320,192,72674,1,0,0:0:0:0:
448,192,72674,1,0,0:0:0:0:
192,192,72674,1,0,0:0:0:0:
192,192,72784,1,0,0:0:0:0:
192,192,72894,1,0,0:0:0:0:
448,192,72894,1,0,0:0:0:0:
192,192,73004,1,0,0:0:0:0:
64,192,73114,1,0,0:0:0:0:
192,192,73114,1,0,0:0:0:0:
320,192,73114,1,0,0:0:0:0:
64,192,73334,1,0,0:0:0:0:
448,192,73334,1,0,0:0:0:0:
320,192,73444,1,0,0:0:0:0:
448,192,73554,1,0,0:0:0:0:
192,192,73554,1,0,0:0:0:0:
320,192,73664,1,0,0:0:0:0:
448,192,73774,1,0,0:0:0:0:
192,192,73774,1,0,0:0:0:0:
448,192,73884,1,0,0:0:0:0:
320,192,73994,1,0,0:0:0:0:
64,192,73994,1,0,0:0:0:0:
320,192,74104,1,0,0:0:0:0:
320,192,74214,1,0,0:0:0:0:
64,192,74214,1,0,0:0:0:0:
320,192,74324,1,0,0:0:0:0:
320,192,74434,1,0,0:0:0:0:
448,192,74434,1,0,0:0:0:0:
64,192,74434,1,0,0:0:0:0:
320,192,74544,1,0,0:0:0:0:
320,192,74654,1,0,0:0:0:0:
192,192,74654,1,0,0:0:0:0:
320,192,74764,1,0,0:0:0:0:
448,192,74874,1,0,0:0:0:0:
192,192,74874,1,0,0:0:0:0:
320,192,74874,1,0,0:0:0:0:
448,192,74984,1,0,0:0:0:0:
320,192,75094,1,0,0:0:0:0:
192,192,75094,1,0,0:0:0:0:
448,192,75203,1,0,0:0:0:0:
64,192,75203,1,0,0:0:0:0:
192,192,75313,1,0,0:0:0:0:
448,192,75313,1,0,0:0:0:0:
64,192,75313,1,0,0:0:0:0:
448,192,75533,1,0,0:0:0:0:
192,192,75533,1,0,0:0:0:0:
320,192,75643,1,0,0:0:0:0:
64,192,75753,1,0,0:0:0:0:
192,192,75753,1,0,0:0:0:0:
448,192,75753,1,0,0:0:0:0:
64,192,75863,1,0,0:0:0:0:
64,192,75973,1,0,0:0:0:0:
320,192,75973,1,0,0:0:0:0:
64,192,76083,1,0,0:0:0:0:
448,192,76193,1,0,0:0:0:0:
64,192,76193,1,0,0:0:0:0:
192,192,76193,1,0,0:0:0:0:
64,192,76303,1,0,0:0:0:0:
64,192,76413,1,0,0:0:0:0:
192,192,76413,1,0,0:0:0:0:
64,192,76523,1,0,0:0:0:0:
64,192,76633,1,0,0:0:0:0:
320,192,76633,1,0,0:0:0:0:
192,192,76633,1,0,0:0:0:0:
192,192,76853,1,0,0:0:0:0:
448,192,76853,1,0,0:0:0:0:
320,192,76963,1,0,0:0:0:0:
64,192,77073,1,0,0:0:0:0:
448,192,77073,1,0,0:0:0:0:
64,192,77183,1,0,0:0:0:0:
192,192,77293,1,0,0:0:0:0:
320,192,77403,1,0,0:0:0:0:
448,192,77513,1,0,0:0:0:0:
192,192,77513,1,0,0:0:0:0:
448,192,77623,1,0,0:0:0:0:
448,192,77733,1,0,0:0:0:0:
320,192,77733,1,0,0:0:0:0:
448,192,77843,1,0,0:0:0:0:
448,192,77953,1,0,0:0:0:0:
64,192,77953,1,0,0:0:0:0:
320,192,77953,1,0,0:0:0:0:
448,192,78063,1,0,0:0:0:0:
448,192,78173,1,0,0:0:0:0:
192,192,78173,1,0,0:0:0:0:
448,192,78283,1,0,0:0:0:0:
448,192,78393,1,0,0:0:0:0:
64,192,78393,1,0,0:0:0:0:
192,192,78393,1,0,0:0:0:0:
192,192,78503,1,0,0:0:0:0:
64,192,78612,1,0,0:0:0:0:
320,192,78612,1,0,0:0:0:0:
320,192,78722,1,0,0:0:0:0:
64,192,78832,1,0,0:0:0:0:
192,192,78832,1,0,0:0:0:0:
448,192,78832,1,0,0:0:0:0:
192,192,79052,1,0,0:0:0:0:
448,192,79052,1,0,0:0:0:0:
320,192,79162,1,0,0:0:0:0:
64,192,79272,1,0,0:0:0:0:
192,192,79272,1,0,0:0:0:0:
192,192,79382,1,0,0:0:0:0:
64,192,79492,1,0,0:0:0:0:
192,192,79492,1,0,0:0:0:0:
192,192,79602,1,0,0:0:0:0:
320,192,79712,1,0,0:0:0:0:
448,192,79712,1,0,0:0:0:0:
192,192,79712,1,0,0:0:0:0:
192,192,79822,1,0,0:0:0:0:
192,192,79932,1,0,0:0:0:0:
448,192,79932,1,0,0:0:0:0:
192,192,80042,1,0,0:0:0:0:
64,192,80152,1,0,0:0:0:0:
192,192,80152,1,0,0:0:0:0:
320,192,80152,1,0,0:0:0:0:
64,192,80262,1,0,0:0:0:0:
192,192,80372,1,0,0:0:0:0:
320,192,80482,1,0,0:0:0:0:
448,192,80592,1,0,0:0:0:0:
192,192,80592,1,0,0:0:0:0:
64,192,80592,1,0,0:0:0:0:
320,192,80702,1,0,0:0:0:0:
448,192,80812,1,0,0:0:0:0:
192,192,80812,1,0,0:0:0:0:
448,192,80922,1,0,0:0:0:0:
320,192,81032,1,0,0:0:0:0:
64,192,81032,1,0,0:0:0:0:
320,192,81142,1,0,0:0:0:0:
320,192,81252,1,0,0:0:0:0:
192,192,81252,1,0,0:0:0:0:
320,192,81362,1,0,0:0:0:0:
320,192,81472,1,0,0:0:0:0:
448,192,81472,1,0,0:0:0:0:
64,192,81472,1,0,0:0:0:0:
320,192,81582,1,0,0:0:0:0:
320,192,81692,1,0,0:0:0:0:
192,192,81692,1,0,0:0:0:0:
320,192,81802,1,0,0:0:0:0:
448,192,81912,1,0,0:0:0:0:
192,192,81912,1,0,0:0:0:0:
320,192,81912,1,0,0:0:0:0:
448,192,82021,1,0,0:0:0:0:
320,192,82131,1,0,0:0:0:0:
192,192,82131,1,0,0:0:0:0:
448,192,82241,1,0,0:0:0:0:
64,192,82241,1,0,0:0:0:0:
192,192,82351,1,0,0:0:0:0:
448,192,82351,1,0,0:0:0:0:
64,192,82351,1,0,0:0:0:0:
448,192,82571,1,0,0:0:0:0:
192,192,82571,1,0,0:0:0:0:
320,192,82681,1,0,0:0:0:0:
64,192,82791,1,0,0:0:0:0:
192,192,82791,1,0,0:0:0:0:
448,192,82791,1,0,0:0:0:0:
64,192,82901,1,0,0:0:0:0:
64,192,83011,1,0,0:0:0:0:
320,192,83011,1,0,0:0:0:0:
64,192,83121,1,0,0:0:0:0:
448,192,83231,5,0,0:0:0:0:
64,192,83231,1,0,0:0:0:0:
192,192,83231,1,0,0:0:0:0:
64,192,83341,1,0,0:0:0:0:
64,192,83451,1,0,0:0:0:0:
192,192,83451,1,0,0:0:0:0:
64,192,83561,1,0,0:0:0:0:
64,192,83671,1,0,0:0:0:0:
320,192,83671,1,0,0:0:0:0:
192,192,83671,1,0,0:0:0:0:
448,192,83781,1,0,0:0:0:0:
320,192,83891,1,0,0:0:0:0:
192,192,84001,1,0,0:0:0:0:
64,192,84111,1,0,0:0:0:0:
448,192,84111,1,0,0:0:0:0:
320,192,84111,1,0,0:0:0:0:
320,192,84221,5,0,0:0:0:0:
64,192,84221,1,0,0:0:0:0:
192,192,84331,1,0,0:0:0:0:
320,192,84331,1,0,0:0:0:0:
192,192,84441,1,0,0:0:0:0:
64,192,84551,1,0,0:0:0:0:
192,192,84551,1,0,0:0:0:0:
320,192,84551,1,0,0:0:0:0:
192,192,84661,1,0,0:0:0:0:
320,192,84771,1,0,0:0:0:0:
448,192,84881,1,0,0:0:0:0:
320,192,84991,1,0,0:0:0:0:
448,192,84991,1,0,0:0:0:0:
64,192,84991,1,0,0:0:0:0:
320,192,85101,1,0,0:0:0:0:
192,192,85211,1,0,0:0:0:0:
64,192,85321,1,0,0:0:0:0:
64,192,85430,1,0,0:0:0:0:
192,192,85430,1,0,0:0:0:0:
448,192,85430,1,0,0:0:0:0:
192,192,85540,1,0,0:0:0:0:
320,192,85540,1,0,0:0:0:0:
64,192,85650,128,0,85705:0:0:0:0:
192,192,85650,128,0,85705:0:0:0:0:
320,192,85650,128,0,85705:0:0:0:0:
448,192,85650,128,0,85705:0:0:0:0:
64,192,85870,128,0,85925:0:0:0:0:
192,192,85870,128,0,85925:0:0:0:0:
320,192,85870,128,0,85925:0:0:0:0:
448,192,85870,128,0,85925:0:0:0:0:
64,192,86090,128,0,86145:0:0:0:0:
192,192,86090,128,0,86145:0:0:0:0:
320,192,86090,128,0,86145:0:0:0:0:
448,192,86090,128,0,86145:0:0:0:0:
64,192,86310,5,0,0:0:0:0:
192,192,86310,1,0,0:0:0:0:
448,192,86310,1,0,0:0:0:0:
64,192,86420,1,0,0:0:0:0:
192,192,86420,1,0,0:0:0:0:
448,192,86420,1,0,0:0:0:0:
64,192,86530,1,0,0:0:0:0:
192,192,86530,1,0,0:0:0:0:
448,192,86530,1,0,0:0:0:0:
64,192,86640,1,0,0:0:0:0:
192,192,86640,1,0,0:0:0:0:
448,192,86640,1,0,0:0:0:0:
448,192,86750,1,0,0:0:0:0:
64,192,86750,1,0,0:0:0:0:
320,192,86750,1,0,0:0:0:0:
64,192,86860,1,0,0:0:0:0:
320,192,86860,1,0,0:0:0:0:
448,192,86860,1,0,0:0:0:0:
320,192,86970,1,0,0:0:0:0:
448,192,86970,1,0,0:0:0:0:
64,192,86970,1,0,0:0:0:0:
448,192,87080,1,0,0:0:0:0:
320,192,87080,1,0,0:0:0:0:
64,192,87080,1,0,0:0:0:0:
64,192,87190,1,0,0:0:0:0:
192,192,87190,1,0,0:0:0:0:
448,192,87190,1,0,0:0:0:0:
320,192,87190,1,0,0:0:0:0:
64,192,87300,1,0,0:0:0:0:
320,192,87300,1,0,0:0:0:0:
192,192,87410,1,0,0:0:0:0:
320,192,87410,1,0,0:0:0:0:
448,192,87410,1,0,0:0:0:0:
192,192,87520,1,0,0:0:0:0:
320,192,87520,1,0,0:0:0:0:
64,192,87630,1,0,0:0:0:0:
192,192,87630,1,0,0:0:0:0:
320,192,87630,1,0,0:0:0:0:
448,192,87630,1,0,0:0:0:0:
64,192,87740,1,0,0:0:0:0:
192,192,87740,1,0,0:0:0:0:
64,192,87850,1,0,0:0:0:0:
192,192,87850,1,0,0:0:0:0:
320,192,87850,1,0,0:0:0:0:
448,192,87850,1,0,0:0:0:0:
320,192,87960,1,0,0:0:0:0:
448,192,87960,1,0,0:0:0:0:
320,192,88070,1,0,0:0:0:0:
448,192,88070,1,0,0:0:0:0:
64,192,88070,1,0,0:0:0:0:
192,192,88070,1,0,0:0:0:0:
64,192,88180,1,0,0:0:0:0:
320,192,88180,1,0,0:0:0:0:
64,192,88290,1,0,0:0:0:0:
192,192,88290,1,0,0:0:0:0:
320,192,88290,1,0,0:0:0:0:
448,192,88290,1,0,0:0:0:0:
192,192,88400,1,0,0:0:0:0:
320,192,88400,1,0,0:0:0:0:
64,192,88510,1,0,0:0:0:0:
192,192,88510,1,0,0:0:0:0:
320,192,88510,1,0,0:0:0:0:
448,192,88510,1,0,0:0:0:0:
320,192,88620,1,0,0:0:0:0:
448,192,88620,1,0,0:0:0:0:
64,192,88730,1,0,0:0:0:0:
192,192,88730,1,0,0:0:0:0:
448,192,88730,1,0,0:0:0:0:
320,192,88730,1,0,0:0:0:0:
64,192,88839,1,0,0:0:0:0:
448,192,88839,1,0,0:0:0:0:
64,192,88949,1,0,0:0:0:0:
192,192,88949,1,0,0:0:0:0:
320,192,88949,1,0,0:0:0:0:
448,192,88949,1,0,0:0:0:0:
64,192,89169,1,0,0:0:0:0:
192,192,89169,1,0,0:0:0:0:
320,192,89169,1,0,0:0:0:0:
448,192,89169,1,0,0:0:0:0:
64,192,89279,1,0,0:0:0:0:
320,192,89279,1,0,0:0:0:0:
64,192,89389,1,0,0:0:0:0:
192,192,89389,1,0,0:0:0:0:
320,192,89389,1,0,0:0:0:0:
448,192,89389,1,0,0:0:0:0:
192,192,89499,1,0,0:0:0:0:
448,192,89499,1,0,0:0:0:0:
448,192,89609,1,0,0:0:0:0:
320,192,89609,1,0,0:0:0:0:
192,192,89609,1,0,0:0:0:0:
64,192,89609,1,0,0:0:0:0:
192,192,89719,1,0,0:0:0:0:
320,192,89719,1,0,0:0:0:0:
64,192,89829,5,0,0:0:0:0:
448,192,89829,1,0,0:0:0:0:
192,192,89829,1,0,0:0:0:0:
448,192,89939,1,0,0:0:0:0:
64,192,89939,1,0,0:0:0:0:
192,192,89939,1,0,0:0:0:0:
448,192,90049,1,0,0:0:0:0:
192,192,90049,1,0,0:0:0:0:
64,192,90049,1,0,0:0:0:0:
192,192,90159,1,0,0:0:0:0:
64,192,90159,1,0,0:0:0:0:
448,192,90159,1,0,0:0:0:0:
448,192,90269,1,0,0:0:0:0:
320,192,90269,1,0,0:0:0:0:
64,192,90269,1,0,0:0:0:0:
448,192,90379,1,0,0:0:0:0:
320,192,90379,1,0,0:0:0:0:
64,192,90379,1,0,0:0:0:0:
448,192,90489,1,0,0:0:0:0:
64,192,90489,1,0,0:0:0:0:
320,192,90489,1,0,0:0:0:0:
448,192,90599,1,0,0:0:0:0:
64,192,90599,1,0,0:0:0:0:
320,192,90599,1,0,0:0:0:0:
64,192,90709,1,0,0:0:0:0:
192,192,90709,1,0,0:0:0:0:
320,192,90709,1,0,0:0:0:0:
448,192,90709,1,0,0:0:0:0:
64,192,90819,1,0,0:0:0:0:
448,192,90819,1,0,0:0:0:0:
448,192,90929,1,0,0:0:0:0:
320,192,90929,1,0,0:0:0:0:
192,192,90929,1,0,0:0:0:0:
64,192,90929,1,0,0:0:0:0:
192,192,91039,1,0,0:0:0:0:
320,192,91039,1,0,0:0:0:0:
64,192,91149,1,0,0:0:0:0:
192,192,91149,1,0,0:0:0:0:
448,192,91149,1,0,0:0:0:0:
320,192,91149,1,0,0:0:0:0:
320,192,91259,1,0,0:0:0:0:
448,192,91259,1,0,0:0:0:0:
320,192,91369,1,0,0:0:0:0:
448,192,91369,1,0,0:0:0:0:
64,192,91369,1,0,0:0:0:0:
192,192,91369,1,0,0:0:0:0:
64,192,91479,1,0,0:0:0:0:
192,192,91479,1,0,0:0:0:0:
64,192,91589,1,0,0:0:0:0:
192,192,91589,1,0,0:0:0:0:
320,192,91589,1,0,0:0:0:0:
448,192,91589,1,0,0:0:0:0:
448,192,91699,1,0,0:0:0:0:
192,192,91699,1,0,0:0:0:0:
64,192,91809,1,0,0:0:0:0:
192,192,91809,1,0,0:0:0:0:
320,192,91809,1,0,0:0:0:0:
448,192,91809,1,0,0:0:0:0:
64,192,91919,1,0,0:0:0:0:
320,192,91919,1,0,0:0:0:0:
64,192,92029,1,0,0:0:0:0:
192,192,92029,1,0,0:0:0:0:
448,192,92029,1,0,0:0:0:0:
320,192,92029,1,0,0:0:0:0:
192,192,92139,1,0,0:0:0:0:
320,192,92139,1,0,0:0:0:0:
64,192,92248,1,0,0:0:0:0:
192,192,92248,1,0,0:0:0:0:
448,192,92248,1,0,0:0:0:0:
320,192,92248,1,0,0:0:0:0:
64,192,92358,1,0,0:0:0:0:
320,192,92358,1,0,0:0:0:0:
64,192,92468,1,0,0:0:0:0:
320,192,92468,1,0,0:0:0:0:
192,192,92468,1,0,0:0:0:0:
448,192,92468,1,0,0:0:0:0:
64,192,92578,1,0,0:0:0:0:
320,192,92578,1,0,0:0:0:0:
192,192,92578,1,0,0:0:0:0:
64,192,92688,1,0,0:0:0:0:
192,192,92688,1,0,0:0:0:0:
320,192,92688,1,0,0:0:0:0:
448,192,92688,1,0,0:0:0:0:
64,192,92908,128,0,93018:0:0:0:0:
192,192,92908,128,0,93018:0:0:0:0:
320,192,92908,128,0,93018:0:0:0:0:
448,192,92908,128,0,93018:0:0:0:0:
64,192,93128,128,0,93238:0:0:0:0:
192,192,93128,128,0,93238:0:0:0:0:
320,192,93128,128,0,93238:0:0:0:0:
448,192,93128,128,0,93238:0:0:0:0:
64,192,93348,1,0,0:0:0:0:
192,192,93348,1,0,0:0:0:0:
320,192,93348,1,0,0:0:0:0:
192,192,93458,1,0,0:0:0:0:
64,192,93458,1,0,0:0:0:0:
320,192,93458,1,0,0:0:0:0:
64,192,93568,1,0,0:0:0:0:
192,192,93568,1,0,0:0:0:0:
320,192,93568,1,0,0:0:0:0:
192,192,93678,1,0,0:0:0:0:
320,192,93678,1,0,0:0:0:0:
64,192,93678,1,0,0:0:0:0:
192,192,93788,1,0,0:0:0:0:
320,192,93788,1,0,0:0:0:0:
448,192,93788,1,0,0:0:0:0:
192,192,93898,1,0,0:0:0:0:
320,192,93898,1,0,0:0:0:0:
448,192,93898,1,0,0:0:0:0:
192,192,94008,1,0,0:0:0:0:
320,192,94008,1,0,0:0:0:0:
448,192,94008,1,0,0:0:0:0:
192,192,94118,1,0,0:0:0:0:
448,192,94118,1,0,0:0:0:0:
320,192,94118,1,0,0:0:0:0:
192,192,94228,1,0,0:0:0:0:
320,192,94228,1,0,0:0:0:0:
448,192,94228,1,0,0:0:0:0:
64,192,94228,1,0,0:0:0:0:
64,192,94338,1,0,0:0:0:0:
192,192,94338,1,0,0:0:0:0:
64,192,94448,1,0,0:0:0:0:
192,192,94448,1,0,0:0:0:0:
320,192,94448,1,0,0:0:0:0:
448,192,94448,1,0,0:0:0:0:
320,192,94558,1,0,0:0:0:0:
448,192,94558,1,0,0:0:0:0:
320,192,94668,1,0,0:0:0:0:
448,192,94668,1,0,0:0:0:0:
64,192,94668,1,0,0:0:0:0:
192,192,94668,1,0,0:0:0:0:
192,192,94778,1,0,0:0:0:0:
320,192,94778,1,0,0:0:0:0:
64,192,94888,1,0,0:0:0:0:
448,192,94888,1,0,0:0:0:0:
320,192,94888,1,0,0:0:0:0:
192,192,94888,1,0,0:0:0:0:
64,192,94998,1,0,0:0:0:0:
448,192,94998,1,0,0:0:0:0:
448,192,95108,1,0,0:0:0:0:
192,192,95108,1,0,0:0:0:0:
64,192,95108,1,0,0:0:0:0:
320,192,95108,1,0,0:0:0:0:
64,192,95218,1,0,0:0:0:0:
320,192,95218,1,0,0:0:0:0:
192,192,95218,1,0,0:0:0:0:
64,192,95328,1,0,0:0:0:0:
192,192,95328,1,0,0:0:0:0:
320,192,95328,1,0,0:0:0:0:
448,192,95328,1,0,0:0:0:0:
192,192,95438,1,0,0:0:0:0:
448,192,95438,1,0,0:0:0:0:
320,192,95438,1,0,0:0:0:0:
64,192,95548,1,0,0:0:0:0:
192,192,95548,1,0,0:0:0:0:
320,192,95548,1,0,0:0:0:0:
448,192,95548,1,0,0:0:0:0:
192,192,95657,1,0,0:0:0:0:
320,192,95657,1,0,0:0:0:0:
64,192,95767,1,0,0:0:0:0:
192,192,95767,1,0,0:0:0:0:
320,192,95767,1,0,0:0:0:0:
448,192,95767,1,0,0:0:0:0:
64,192,95877,1,0,0:0:0:0:
192,192,95877,1,0,0:0:0:0:
320,192,95877,1,0,0:0:0:0:
448,192,95877,1,0,0:0:0:0:
64,192,95987,1,0,0:0:0:0:
192,192,95987,1,0,0:0:0:0:
320,192,95987,1,0,0:0:0:0:
448,192,95987,1,0,0:0:0:0:
64,192,96097,1,0,0:0:0:0:
192,192,96097,1,0,0:0:0:0:
320,192,96097,1,0,0:0:0:0:
448,192,96097,1,0,0:0:0:0:
448,192,96207,1,0,0:0:0:0:
320,192,96207,1,0,0:0:0:0:
192,192,96207,1,0,0:0:0:0:
64,192,96207,1,0,0:0:0:0:
64,192,96317,1,0,0:0:0:0:
192,192,96317,1,0,0:0:0:0:
448,192,96317,1,0,0:0:0:0:
320,192,96317,1,0,0:0:0:0:
320,192,96427,1,0,0:0:0:0:
192,192,96427,1,0,0:0:0:0:
64,192,96427,1,0,0:0:0:0:
448,192,96427,1,0,0:0:0:0:
192,192,96537,1,0,0:0:0:0:
320,192,96537,1,0,0:0:0:0:
64,192,96647,1,0,0:0:0:0:
192,192,96647,1,0,0:0:0:0:
320,192,96647,1,0,0:0:0:0:
448,192,96647,1,0,0:0:0:0:
64,192,96757,1,0,0:0:0:0:
320,192,96757,1,0,0:0:0:0:
64,192,96867,1,0,0:0:0:0:
320,192,96867,1,0,0:0:0:0:
448,192,96867,1,0,0:0:0:0:
192,192,96867,1,0,0:0:0:0:
192,192,96977,1,0,0:0:0:0:
448,192,96977,1,0,0:0:0:0:
448,192,97087,1,0,0:0:0:0:
320,192,97087,1,0,0:0:0:0:
192,192,97087,1,0,0:0:0:0:
64,192,97087,1,0,0:0:0:0:
192,192,97197,1,0,0:0:0:0:
320,192,97197,1,0,0:0:0:0:
64,192,97307,1,0,0:0:0:0:
192,192,97307,1,0,0:0:0:0:
320,192,97307,1,0,0:0:0:0:
448,192,97307,1,0,0:0:0:0:
448,192,97417,1,0,0:0:0:0:
64,192,97417,1,0,0:0:0:0:
192,192,97527,1,0,0:0:0:0:
448,192,97527,1,0,0:0:0:0:
320,192,97527,1,0,0:0:0:0:
64,192,97527,1,0,0:0:0:0:
64,192,97637,1,0,0:0:0:0:
192,192,97637,1,0,0:0:0:0:
64,192,97747,1,0,0:0:0:0:
192,192,97747,1,0,0:0:0:0:
320,192,97747,1,0,0:0:0:0:
448,192,97747,1,0,0:0:0:0:
448,192,97857,1,0,0:0:0:0:
320,192,97857,1,0,0:0:0:0:
448,192,97967,1,0,0:0:0:0:
320,192,97967,1,0,0:0:0:0:
192,192,97967,1,0,0:0:0:0:
64,192,97967,1,0,0:0:0:0:
64,192,98077,1,0,0:0:0:0:
64,192,98187,1,0,0:0:0:0:
192,192,98187,1,0,0:0:0:0:
192,192,98297,1,0,0:0:0:0:
320,192,98297,1,0,0:0:0:0:
64,192,98297,1,0,0:0:0:0:
64,192,98407,1,0,0:0:0:0:
192,192,98407,1,0,0:0:0:0:
448,192,98407,1,0,0:0:0:0:
320,192,98407,1,0,0:0:0:0:
192,192,98517,1,0,0:0:0:0:
320,192,98517,1,0,0:0:0:0:
64,192,98627,128,0,98737:0:0:0:0:
192,192,98627,128,0,98737:0:0:0:0:
320,192,98627,128,0,98737:0:0:0:0:
448,192,98627,128,0,98737:0:0:0:0:
448,192,98847,128,0,98902:0:0:0:0:
320,192,98957,128,0,99012:0:0:0:0:
64,192,99066,128,0,99122:0:0:0:0:
192,192,99066,128,0,99122:0:0:0:0:
320,192,99176,128,0,99232:0:0:0:0:
448,192,99286,128,0,99342:0:0:0:0:
320,192,99396,1,0,0:0:0:0:
64,192,99506,128,0,99562:0:0:0:0:
192,192,99506,128,0,99562:0:0:0:0:
320,192,99616,128,0,99672:0:0:0:0:
448,192,99726,128,0,99836:0:0:0:0:
320,192,99836,128,0,99892:0:0:0:0:
64,192,99946,128,0,100002:0:0:0:0:
192,192,99946,128,0,100002:0:0:0:0:
448,192,100056,128,0,100112:0:0:0:0:
448,192,100166,128,0,100222:0:0:0:0:
448,192,100276,128,0,100332:0:0:0:0:
64,192,100386,128,0,100442:0:0:0:0:
192,192,100386,128,0,100442:0:0:0:0:
320,192,100496,128,0,100552:0:0:0:0:
192,192,100606,128,0,100662:0:0:0:0:
64,192,100716,128,0,100771:0:0:0:0:
320,192,100771,128,0,100826:0:0:0:0:
64,192,100826,128,0,100881:0:0:0:0:
320,192,100881,128,0,100936:0:0:0:0:
64,192,100991,1,0,0:0:0:0:
192,192,100991,1,0,0:0:0:0:
320,192,101046,128,0,101156:0:0:0:0:
448,192,101156,128,0,101266:0:0:0:0:
64,192,101266,128,0,101596:0:0:0:0:
192,192,101376,128,0,101596:0:0:0:0:
320,192,101486,128,0,101706:0:0:0:0:
448,192,101596,128,0,101816:0:0:0:0:
64,192,101706,128,0,102091:0:0:0:0:
192,192,101706,128,0,102091:0:0:0:0:
320,192,101816,128,0,102091:0:0:0:0:
448,192,101926,128,0,102091:0:0:0:0:
64,192,102146,128,0,102201:0:0:0:0:
192,192,102146,128,0,102201:0:0:0:0:
448,192,102146,128,0,102201:0:0:0:0:
320,192,102256,128,0,102311:0:0:0:0:
192,192,102366,128,0,102421:0:0:0:0:
64,192,102475,128,0,102531:0:0:0:0:
320,192,102585,128,0,102641:0:0:0:0:
448,192,102585,128,0,102641:0:0:0:0:
192,192,102695,128,0,102751:0:0:0:0:
64,192,102805,128,0,102861:0:0:0:0:
192,192,102915,128,0,102971:0:0:0:0:
320,192,103025,1,0,0:0:0:0:
448,192,103025,1,0,0:0:0:0:
320,192,103135,1,0,0:0:0:0:
64,192,103245,1,0,0:0:0:0:
192,192,103245,1,0,0:0:0:0:
192,192,103355,1,0,0:0:0:0:
64,192,103465,128,0,103521:0:0:0:0:
320,192,103465,128,0,103521:0:0:0:0:
448,192,103465,128,0,103521:0:0:0:0:
192,192,103575,128,0,103631:0:0:0:0:
320,192,103685,128,0,103741:0:0:0:0:
448,192,103795,128,0,103851:0:0:0:0:
64,192,103905,128,0,103961:0:0:0:0:
192,192,103905,128,0,103961:0:0:0:0:
320,192,104015,128,0,104071:0:0:0:0:
448,192,104125,128,0,104180:0:0:0:0:
320,192,104235,128,0,104290:0:0:0:0:
64,192,104345,128,0,104400:0:0:0:0:
192,192,104345,128,0,104400:0:0:0:0:
448,192,104455,128,0,104510:0:0:0:0:
320,192,104565,128,0,104620:0:0:0:0:
192,192,104675,128,0,104730:0:0:0:0:
64,192,104785,1,0,0:0:0:0:
192,192,104785,1,0,0:0:0:0:
320,192,104895,1,0,0:0:0:0:
448,192,104895,1,0,0:0:0:0:
448,192,105005,1,0,0:0:0:0:
64,192,105005,1,0,0:0:0:0:
64,192,105115,1,0,0:0:0:0:
320,192,105115,1,0,0:0:0:0:
192,192,105225,1,0,0:0:0:0:
320,192,105225,1,0,0:0:0:0:
192,192,105335,1,0,0:0:0:0:
448,192,105335,1,0,0:0:0:0:
64,192,105445,1,0,0:0:0:0:
320,192,105445,1,0,0:0:0:0:
448,192,105555,1,0,0:0:0:0:
192,192,105555,1,0,0:0:0:0:
320,192,105665,1,0,0:0:0:0:
448,192,105775,1,0,0:0:0:0:
448,192,105885,1,0,0:0:0:0:
320,192,105885,1,0,0:0:0:0:
64,192,105995,1,0,0:0:0:0:
64,192,106105,1,0,0:0:0:0:
192,192,106215,1,0,0:0:0:0:
64,192,106215,1,0,0:0:0:0:
448,192,106325,1,0,0:0:0:0:
320,192,106325,1,0,0:0:0:0:
448,192,106435,1,0,0:0:0:0:
448,192,106545,1,0,0:0:0:0:
320,192,106545,1,0,0:0:0:0:
192,192,106655,1,0,0:0:0:0:
192,192,106765,1,0,0:0:0:0:
64,192,106765,1,0,0:0:0:0:
320,192,106875,1,0,0:0:0:0:
448,192,106985,1,0,0:0:0:0:
320,192,106985,1,0,0:0:0:0:
320,192,107095,1,0,0:0:0:0:
448,192,107205,1,0,0:0:0:0:
320,192,107205,1,0,0:0:0:0:
192,192,107205,1,0,0:0:0:0:
192,192,107315,1,0,0:0:0:0:
64,192,107315,1,0,0:0:0:0:
64,192,107425,1,0,0:0:0:0:
320,192,107535,1,0,0:0:0:0:
320,192,107645,1,0,0:0:0:0:
192,192,107645,1,0,0:0:0:0:
64,192,107645,1,0,0:0:0:0:
192,192,107755,1,0,0:0:0:0:
64,192,107755,1,0,0:0:0:0:
64,192,107865,1,0,0:0:0:0:
448,192,107975,1,0,0:0:0:0:
192,192,107975,1,0,0:0:0:0:
320,192,108085,1,0,0:0:0:0:
192,192,108085,1,0,0:0:0:0:
64,192,108085,1,0,0:0:0:0:
192,192,108195,1,0,0:0:0:0:
64,192,108305,1,0,0:0:0:0:
192,192,108359,1,0,0:0:0:0:
320,192,108415,1,0,0:0:0:0:
448,192,108469,1,0,0:0:0:0:
64,192,108525,1,0,0:0:0:0:
192,192,108579,1,0,0:0:0:0:
320,192,108635,1,0,0:0:0:0:
448,192,108689,128,0,108745:0:0:0:0:
64,192,108745,1,0,0:0:0:0:
192,192,108745,1,0,0:0:0:0:
320,192,108799,1,0,0:0:0:0:
192,192,108855,1,0,0:0:0:0:
64,192,108909,1,0,0:0:0:0:
448,192,108965,1,0,0:0:0:0:
320,192,109019,1,0,0:0:0:0:
192,192,109075,1,0,0:0:0:0:
64,192,109129,1,0,0:0:0:0:
192,192,109185,1,0,0:0:0:0:
320,192,109185,1,0,0:0:0:0:
448,192,109185,1,0,0:0:0:0:
320,192,109404,1,0,0:0:0:0:
448,192,109404,1,0,0:0:0:0:
320,192,109514,1,0,0:0:0:0:
192,192,109624,1,0,0:0:0:0:
320,192,109624,1,0,0:0:0:0:
448,192,109624,1,0,0:0:0:0:
64,192,109624,1,0,0:0:0:0:
64,192,109734,1,0,0:0:0:0:
192,192,109734,1,0,0:0:0:0:
192,192,109844,1,0,0:0:0:0:
320,192,109844,1,0,0:0:0:0:
320,192,109954,1,0,0:0:0:0:
448,192,109954,1,0,0:0:0:0:
448,192,110064,1,0,0:0:0:0:
64,192,110064,1,0,0:0:0:0:
192,192,110064,1,0,0:0:0:0:
320,192,110064,1,0,0:0:0:0:
64,192,110284,1,0,0:0:0:0:
320,192,110284,1,0,0:0:0:0:
192,192,110394,1,0,0:0:0:0:
448,192,110394,1,0,0:0:0:0:
64,192,110504,1,0,0:0:0:0:
192,192,110504,1,0,0:0:0:0:
320,192,110504,1,0,0:0:0:0:
448,192,110504,1,0,0:0:0:0:
192,192,110614,1,0,0:0:0:0:
64,192,110614,1,0,0:0:0:0:
192,192,110724,1,0,0:0:0:0:
448,192,110724,1,0,0:0:0:0:
64,192,110834,1,0,0:0:0:0:
320,192,110834,1,0,0:0:0:0:
64,192,110944,1,0,0:0:0:0:
320,192,110944,1,0,0:0:0:0:
192,192,110944,1,0,0:0:0:0:
192,192,111054,1,0,0:0:0:0:
192,192,111164,1,0,0:0:0:0:
320,192,111164,1,0,0:0:0:0:
448,192,111164,1,0,0:0:0:0:
320,192,111274,1,0,0:0:0:0:
64,192,111384,1,0,0:0:0:0:
192,192,111384,1,0,0:0:0:0:
192,192,111494,1,0,0:0:0:0:
64,192,111494,1,0,0:0:0:0:
448,192,111494,1,0,0:0:0:0:
320,192,111824,1,0,0:0:0:0:
448,192,111824,1,0,0:0:0:0:
192,192,111824,1,0,0:0:0:0:
320,192,111934,1,0,0:0:0:0:
448,192,111934,1,0,0:0:0:0:
64,192,112044,1,0,0:0:0:0:
192,192,112044,1,0,0:0:0:0:
320,192,112154,1,0,0:0:0:0:
448,192,112154,1,0,0:0:0:0:
64,192,112264,1,0,0:0:0:0:
192,192,112264,1,0,0:0:0:0:
320,192,112264,1,0,0:0:0:0:
448,192,112264,1,0,0:0:0:0:
64,192,112484,1,0,0:0:0:0:
320,192,112484,1,0,0:0:0:0:
64,192,112703,1,0,0:0:0:0:
192,192,112703,1,0,0:0:0:0:
320,192,112703,1,0,0:0:0:0:
448,192,112703,1,0,0:0:0:0:
320,192,112813,1,0,0:0:0:0:
64,192,112923,1,0,0:0:0:0:
192,192,112923,1,0,0:0:0:0:
448,192,112923,1,0,0:0:0:0:
320,192,112923,1,0,0:0:0:0:
192,192,113033,1,0,0:0:0:0:
192,192,113143,1,0,0:0:0:0:
320,192,113143,1,0,0:0:0:0:
448,192,113143,1,0,0:0:0:0:
64,192,113143,1,0,0:0:0:0:
192,192,113253,1,0,0:0:0:0:
64,192,113253,1,0,0:0:0:0:
64,192,113363,1,0,0:0:0:0:
320,192,113473,1,0,0:0:0:0:
64,192,113583,1,0,0:0:0:0:
192,192,113583,1,0,0:0:0:0:
320,192,113583,1,0,0:0:0:0:
448,192,113583,1,0,0:0:0:0:
320,192,113693,1,0,0:0:0:0:
64,192,113803,1,0,0:0:0:0:
192,192,113803,1,0,0:0:0:0:
64,192,113913,1,0,0:0:0:0:
320,192,114023,1,0,0:0:0:0:
448,192,114023,1,0,0:0:0:0:
64,192,114023,1,0,0:0:0:0:
192,192,114023,1,0,0:0:0:0:
192,192,114133,1,0,0:0:0:0:
192,192,114243,1,0,0:0:0:0:
320,192,114243,1,0,0:0:0:0:
448,192,114243,1,0,0:0:0:0:
320,192,114353,1,0,0:0:0:0:
64,192,114463,1,0,0:0:0:0:
192,192,114463,1,0,0:0:0:0:
320,192,114463,1,0,0:0:0:0:
448,192,114463,1,0,0:0:0:0:
192,192,114573,1,0,0:0:0:0:
64,192,114683,1,0,0:0:0:0:
192,192,114683,1,0,0:0:0:0:
320,192,114793,1,0,0:0:0:0:
64,192,114903,1,0,0:0:0:0:
192,192,114903,1,0,0:0:0:0:
448,192,114903,1,0,0:0:0:0:
320,192,114903,1,0,0:0:0:0:
320,192,115013,1,0,0:0:0:0:
320,192,115123,1,0,0:0:0:0:
192,192,115123,1,0,0:0:0:0:
64,192,115123,1,0,0:0:0:0:
64,192,115233,1,0,0:0:0:0:
64,192,115343,1,0,0:0:0:0:
192,192,115343,1,0,0:0:0:0:
320,192,115343,1,0,0:0:0:0:
448,192,115343,1,0,0:0:0:0:
64,192,115453,1,0,0:0:0:0:
448,192,115453,1,0,0:0:0:0:
64,192,115563,1,0,0:0:0:0:
192,192,115563,1,0,0:0:0:0:
320,192,115563,1,0,0:0:0:0:
448,192,115563,1,0,0:0:0:0:
192,192,115673,1,0,0:0:0:0:
320,192,115673,1,0,0:0:0:0:
64,192,115783,1,0,0:0:0:0:
448,192,115783,1,0,0:0:0:0:
192,192,115783,1,0,0:0:0:0:
320,192,115783,1,0,0:0:0:0:
192,192,116003,1,0,0:0:0:0:
320,192,116003,1,0,0:0:0:0:
448,192,116003,1,0,0:0:0:0:
320,192,116112,1,0,0:0:0:0:
64,192,116222,1,0,0:0:0:0:
192,192,116222,1,0,0:0:0:0:
320,192,116222,1,0,0:0:0:0:
448,192,116222,1,0,0:0:0:0:
192,192,116332,1,0,0:0:0:0:
64,192,116442,1,0,0:0:0:0:
192,192,116442,1,0,0:0:0:0:
448,192,116442,1,0,0:0:0:0:
320,192,116442,1,0,0:0:0:0:
320,192,116552,1,0,0:0:0:0:
192,192,116662,1,0,0:0:0:0:
320,192,116662,1,0,0:0:0:0:
448,192,116662,1,0,0:0:0:0:
64,192,116662,1,0,0:0:0:0:
448,192,116772,1,0,0:0:0:0:
320,192,116772,1,0,0:0:0:0:
448,192,116882,1,0,0:0:0:0:
192,192,116992,1,0,0:0:0:0:
64,192,117102,1,0,0:0:0:0:
192,192,117102,1,0,0:0:0:0:
320,192,117102,1,0,0:0:0:0:
448,192,117102,1,0,0:0:0:0:
192,192,117212,1,0,0:0:0:0:
320,192,117322,1,0,0:0:0:0:
448,192,117322,1,0,0:0:0:0:
448,192,117432,1,0,0:0:0:0:
320,192,117542,1,0,0:0:0:0:
448,192,117542,1,0,0:0:0:0:
64,192,117542,1,0,0:0:0:0:
192,192,117542,1,0,0:0:0:0:
320,192,117652,1,0,0:0:0:0:
192,192,117762,1,0,0:0:0:0:
320,192,117762,1,0,0:0:0:0:
448,192,117762,1,0,0:0:0:0:
192,192,117872,1,0,0:0:0:0:
64,192,117982,1,0,0:0:0:0:
192,192,117982,1,0,0:0:0:0:
320,192,117982,1,0,0:0:0:0:
448,192,117982,1,0,0:0:0:0:
320,192,118092,1,0,0:0:0:0:
320,192,118202,1,0,0:0:0:0:
448,192,118202,1,0,0:0:0:0:
192,192,118312,1,0,0:0:0:0:
64,192,118422,1,0,0:0:0:0:
192,192,118422,1,0,0:0:0:0:
448,192,118422,1,0,0:0:0:0:
320,192,118422,1,0,0:0:0:0:
192,192,118532,1,0,0:0:0:0:
448,192,118642,1,0,0:0:0:0:
320,192,118642,1,0,0:0:0:0:
192,192,118642,1,0,0:0:0:0:
320,192,118752,1,0,0:0:0:0:
64,192,118862,1,0,0:0:0:0:
192,192,118862,1,0,0:0:0:0:
320,192,118862,1,0,0:0:0:0:
448,192,118862,1,0,0:0:0:0:
192,192,118972,1,0,0:0:0:0:
320,192,118972,1,0,0:0:0:0:
64,192,119082,1,0,0:0:0:0:
192,192,119082,1,0,0:0:0:0:
320,192,119082,1,0,0:0:0:0:
448,192,119082,1,0,0:0:0:0:
64,192,119192,1,0,0:0:0:0:
448,192,119192,1,0,0:0:0:0:
64,192,119302,1,0,0:0:0:0:
448,192,119302,1,0,0:0:0:0:
192,192,119302,1,0,0:0:0:0:
320,192,119302,1,0,0:0:0:0:
192,192,119412,1,0,0:0:0:0:
320,192,119521,1,0,0:0:0:0:
448,192,119521,1,0,0:0:0:0:
320,192,119631,1,0,0:0:0:0:
448,192,119631,1,0,0:0:0:0:
64,192,119741,1,0,0:0:0:0:
192,192,119741,1,0,0:0:0:0:
320,192,119741,1,0,0:0:0:0:
448,192,119741,1,0,0:0:0:0:
320,192,119851,1,0,0:0:0:0:
192,192,119961,1,0,0:0:0:0:
64,192,119961,1,0,0:0:0:0:
192,192,120071,1,0,0:0:0:0:
64,192,120181,1,0,0:0:0:0:
192,192,120181,1,0,0:0:0:0:
320,192,120181,1,0,0:0:0:0:
448,192,120181,1,0,0:0:0:0:
320,192,120291,1,0,0:0:0:0:
192,192,120401,1,0,0:0:0:0:
448,192,120401,1,0,0:0:0:0:
320,192,120401,1,0,0:0:0:0:
192,192,120511,1,0,0:0:0:0:
64,192,120621,1,0,0:0:0:0:
320,192,120621,1,0,0:0:0:0:
448,192,120621,1,0,0:0:0:0:
192,192,120621,1,0,0:0:0:0:
64,192,120731,1,0,0:0:0:0:
448,192,120731,1,0,0:0:0:0:
64,192,120841,1,0,0:0:0:0:
192,192,120841,1,0,0:0:0:0:
320,192,120841,1,0,0:0:0:0:
448,192,120841,1,0,0:0:0:0:
192,192,120951,1,0,0:0:0:0:
64,192,121061,1,0,0:0:0:0:
192,192,121061,1,0,0:0:0:0:
448,192,121061,1,0,0:0:0:0:
320,192,121061,1,0,0:0:0:0:
320,192,121171,1,0,0:0:0:0:
64,192,121281,1,0,0:0:0:0:
192,192,121281,1,0,0:0:0:0:
192,192,121391,1,0,0:0:0:0:
64,192,121391,1,0,0:0:0:0:
64,192,121501,1,0,0:0:0:0:
192,192,121501,1,0,0:0:0:0:
320,192,121501,1,0,0:0:0:0:
448,192,121501,1,0,0:0:0:0:
192,192,121611,1,0,0:0:0:0:
448,192,121721,1,0,0:0:0:0:
320,192,121721,1,0,0:0:0:0:
320,192,121831,1,0,0:0:0:0:
64,192,121941,1,0,0:0:0:0:
192,192,121941,1,0,0:0:0:0:
320,192,121941,1,0,0:0:0:0:
448,192,121941,1,0,0:0:0:0:
192,192,122051,1,0,0:0:0:0:
192,192,122161,1,0,0:0:0:0:
448,192,122161,1,0,0:0:0:0:
320,192,122161,1,0,0:0:0:0:
320,192,122271,1,0,0:0:0:0:
64,192,122381,1,0,0:0:0:0:
320,192,122381,1,0,0:0:0:0:
448,192,122381,1,0,0:0:0:0:
192,192,122381,1,0,0:0:0:0:
64,192,122491,1,0,0:0:0:0:
448,192,122491,1,0,0:0:0:0:
64,192,122601,1,0,0:0:0:0:
192,192,122601,1,0,0:0:0:0:
320,192,122601,1,0,0:0:0:0:
448,192,122601,1,0,0:0:0:0:
320,192,122711,1,0,0:0:0:0:
64,192,122821,1,0,0:0:0:0:
192,192,122821,1,0,0:0:0:0:
448,192,122821,1,0,0:0:0:0:
320,192,122821,1,0,0:0:0:0:
64,192,123040,128,0,123810:0:0:0:0:
192,192,123260,128,0,124030:0:0:0:0:
320,192,123480,128,0,124250:0:0:0:0:
448,192,123700,128,0,124470:0:0:0:0:
64,192,123920,128,0,124690:0:0:0:0:
192,192,124140,128,0,124690:0:0:0:0:
320,192,124360,128,0,124470:0:0:0:0:
320,192,124580,128,0,124965:0:0:0:0:
448,192,124580,128,0,124965:0:0:0:0:
64,192,124800,128,0,124965:0:0:0:0:
192,192,124800,128,0,124965:0:0:0:0:
64,192,125020,128,0,125130:0:0:0:0:
192,192,125020,128,0,125130:0:0:0:0:
320,192,125020,128,0,125130:0:0:0:0:
448,192,125020,128,0,125130:0:0:0:0:
64,192,125350,128,0,125460:0:0:0:0:
192,192,125350,128,0,125460:0:0:0:0:
320,192,125350,128,0,125460:0:0:0:0:
448,192,125350,128,0,125460:0:0:0:0:
64,192,125680,128,0,125790:0:0:0:0:
192,192,125680,128,0,125790:0:0:0:0:
320,192,125680,128,0,125790:0:0:0:0:
448,192,125680,128,0,125790:0:0:0:0:
320,192,126779,1,0,0:0:0:0:
448,192,126779,1,0,0:0:0:0:
320,192,127659,1,0,0:0:0:0:
448,192,127659,1,0,0:0:0:0:
64,192,128099,1,0,0:0:0:0:
192,192,128099,1,0,0:0:0:0:
192,192,128539,1,0,0:0:0:0:
320,192,128539,1,0,0:0:0:0:
448,192,128539,1,0,0:0:0:0:
64,192,129419,1,0,0:0:0:0:
192,192,129639,1,0,0:0:0:0:
320,192,129858,1,0,0:0:0:0:
448,192,130078,1,0,0:0:0:0:
64,192,130298,1,0,0:0:0:0:
192,192,130298,1,0,0:0:0:0:
320,192,131178,1,0,0:0:0:0:
448,192,131178,1,0,0:0:0:0:
64,192,131398,1,0,0:0:0:0:
192,192,131618,1,0,0:0:0:0:
320,192,131838,1,0,0:0:0:0:
448,192,132058,1,0,0:0:0:0:
64,192,132938,1,0,0:0:0:0:
192,192,132938,1,0,0:0:0:0:
448,192,133157,1,0,0:0:0:0:
192,192,133213,1,0,0:0:0:0:
448,192,133267,1,0,0:0:0:0:
192,192,133323,1,0,0:0:0:0:
64,192,133377,1,0,0:0:0:0:
320,192,133377,1,0,0:0:0:0:
448,192,133377,1,0,0:0:0:0:
64,192,133817,1,0,0:0:0:0:
192,192,133817,1,0,0:0:0:0:
320,192,133817,1,0,0:0:0:0:
64,192,134257,1,0,0:0:0:0:
192,192,134257,1,0,0:0:0:0:
320,192,134697,1,0,0:0:0:0:
448,192,134697,1,0,0:0:0:0:
192,192,134917,1,0,0:0:0:0:
320,192,134917,1,0,0:0:0:0:
448,192,134917,1,0,0:0:0:0:
320,192,135137,1,0,0:0:0:0:
448,192,135137,1,0,0:0:0:0:
64,192,135357,1,0,0:0:0:0:
192,192,135357,1,0,0:0:0:0:
64,192,135577,1,0,0:0:0:0:
192,192,135577,1,0,0:0:0:0:
320,192,135577,1,0,0:0:0:0:
64,192,136017,1,0,0:0:0:0:
192,192,136017,1,0,0:0:0:0:
320,192,136017,1,0,0:0:0:0:
320,192,136457,1,0,0:0:0:0:
448,192,136457,1,0,0:0:0:0:
192,192,136676,1,0,0:0:0:0:
320,192,136676,1,0,0:0:0:0:
448,192,136676,1,0,0:0:0:0:
320,192,136896,1,0,0:0:0:0:
448,192,136896,1,0,0:0:0:0:
192,192,137116,1,0,0:0:0:0:
64,192,137116,1,0,0:0:0:0:
64,192,137336,1,0,0:0:0:0:
192,192,137336,1,0,0:0:0:0:
320,192,137336,1,0,0:0:0:0:
64,192,137776,1,0,0:0:0:0:
320,192,137776,1,0,0:0:0:0:
448,192,137776,1,0,0:0:0:0:
192,192,138216,1,0,0:0:0:0:
320,192,138216,1,0,0:0:0:0:
64,192,138436,1,0,0:0:0:0:
192,192,138436,1,0,0:0:0:0:
448,192,138436,1,0,0:0:0:0:
64,192,138656,1,0,0:0:0:0:
320,192,138656,1,0,0:0:0:0:
448,192,138656,1,0,0:0:0:0:
64,192,138876,1,0,0:0:0:0:
448,192,138876,1,0,0:0:0:0:
64,192,139096,128,0,139151:0:0:0:0:
192,192,139096,128,0,139151:0:0:0:0:
320,192,139096,128,0,139151:0:0:0:0:
448,192,139096,128,0,139151:0:0:0:0:
64,192,139316,128,0,139426:0:0:0:0:
192,192,139426,1,0,0:0:0:0:
320,192,139536,1,0,0:0:0:0:
448,192,139536,1,0,0:0:0:0:
448,192,139756,128,0,139866:0:0:0:0:
320,192,139866,1,0,0:0:0:0:
64,192,139975,1,0,0:0:0:0:
192,192,139975,1,0,0:0:0:0:
64,192,140195,128,0,140251:0:0:0:0:
192,192,140195,128,0,140251:0:0:0:0:
320,192,140195,128,0,140251:0:0:0:0:
192,192,140415,128,0,140471:0:0:0:0:
320,192,140415,128,0,140471:0:0:0:0:
448,192,140415,128,0,140471:0:0:0:0:
64,192,140635,128,0,140691:0:0:0:0:
192,192,140635,128,0,140691:0:0:0:0:
320,192,140635,128,0,140691:0:0:0:0:
192,192,140855,1,0,0:0:0:0:
320,192,140855,1,0,0:0:0:0:
448,192,140855,1,0,0:0:0:0:
320,192,140965,1,0,0:0:0:0:
64,192,141075,1,0,0:0:0:0:
192,192,141075,1,0,0:0:0:0:
320,192,141075,1,0,0:0:0:0:
192,192,141185,1,0,0:0:0:0:
64,192,141295,1,0,0:0:0:0:
192,192,141295,1,0,0:0:0:0:
320,192,141295,1,0,0:0:0:0:
448,192,141295,1,0,0:0:0:0:
64,192,141515,128,0,141680:0:0:0:0:
192,192,141515,128,0,141680:0:0:0:0:
448,192,141515,128,0,141680:0:0:0:0:
64,192,141735,128,0,141900:0:0:0:0:
320,192,141735,128,0,141900:0:0:0:0:
448,192,141735,128,0,141900:0:0:0:0:
64,192,141955,128,0,142120:0:0:0:0:
192,192,141955,128,0,142120:0:0:0:0:
320,192,141955,128,0,142120:0:0:0:0:
192,192,142175,128,0,142340:0:0:0:0:
320,192,142175,128,0,142340:0:0:0:0:
448,192,142175,128,0,142340:0:0:0:0:
64,192,142395,128,0,142560:0:0:0:0:
192,192,142395,128,0,142560:0:0:0:0:
320,192,142395,128,0,142560:0:0:0:0:
64,192,142615,5,0,0:0:0:0:
192,192,142615,1,0,0:0:0:0:
448,192,142615,1,0,0:0:0:0:
64,192,142725,1,0,0:0:0:0:
192,192,142725,1,0,0:0:0:0:
448,192,142725,1,0,0:0:0:0:
64,192,142835,1,0,0:0:0:0:
192,192,142835,1,0,0:0:0:0:
448,192,142835,1,0,0:0:0:0:
64,192,142945,1,0,0:0:0:0:
192,192,142945,1,0,0:0:0:0:
448,192,142945,1,0,0:0:0:0:
448,192,143055,1,0,0:0:0:0:
64,192,143055,1,0,0:0:0:0:
320,192,143055,1,0,0:0:0:0:
64,192,143165,1,0,0:0:0:0:
320,192,143165,1,0,0:0:0:0:
448,192,143165,1,0,0:0:0:0:
320,192,143275,1,0,0:0:0:0:
448,192,143275,1,0,0:0:0:0:
64,192,143275,1,0,0:0:0:0:
448,192,143385,1,0,0:0:0:0:
320,192,143385,1,0,0:0:0:0:
64,192,143385,1,0,0:0:0:0:
64,192,143495,1,0,0:0:0:0:
192,192,143495,1,0,0:0:0:0:
448,192,143495,1,0,0:0:0:0:
320,192,143495,1,0,0:0:0:0:
64,192,143605,1,0,0:0:0:0:
320,192,143605,1,0,0:0:0:0:
192,192,143715,1,0,0:0:0:0:
320,192,143715,1,0,0:0:0:0:
448,192,143715,1,0,0:0:0:0:
192,192,143825,1,0,0:0:0:0:
320,192,143825,1,0,0:0:0:0:
64,192,143935,1,0,0:0:0:0:
192,192,143935,1,0,0:0:0:0:
320,192,143935,1,0,0:0:0:0:
448,192,143935,1,0,0:0:0:0:
64,192,144045,1,0,0:0:0:0:
192,192,144045,1,0,0:0:0:0:
64,192,144155,1,0,0:0:0:0:
192,192,144155,1,0,0:0:0:0:
320,192,144155,1,0,0:0:0:0:
448,192,144155,1,0,0:0:0:0:
320,192,144265,1,0,0:0:0:0:
448,192,144265,1,0,0:0:0:0:
320,192,144375,1,0,0:0:0:0:
448,192,144375,1,0,0:0:0:0:
64,192,144375,1,0,0:0:0:0:
192,192,144375,1,0,0:0:0:0:
64,192,144485,1,0,0:0:0:0:
320,192,144485,1,0,0:0:0:0:
64,192,144595,1,0,0:0:0:0:
192,192,144595,1,0,0:0:0:0:
320,192,144595,1,0,0:0:0:0:
448,192,144595,1,0,0:0:0:0:
192,192,144705,1,0,0:0:0:0:
320,192,144705,1,0,0:0:0:0:
64,192,144815,1,0,0:0:0:0:
192,192,144815,1,0,0:0:0:0:
320,192,144815,1,0,0:0:0:0:
448,192,144815,1,0,0:0:0:0:
320,192,144925,1,0,0:0:0:0:
448,192,144925,1,0,0:0:0:0:
64,192,145035,1,0,0:0:0:0:
192,192,145035,1,0,0:0:0:0:
448,192,145035,1,0,0:0:0:0:
320,192,145035,1,0,0:0:0:0:
64,192,145145,1,0,0:0:0:0:
448,192,145145,1,0,0:0:0:0:
64,192,145255,1,0,0:0:0:0:
192,192,145255,1,0,0:0:0:0:
320,192,145255,1,0,0:0:0:0:
448,192,145255,1,0,0:0:0:0:
64,192,145475,1,0,0:0:0:0:
192,192,145475,1,0,0:0:0:0:
320,192,145475,1,0,0:0:0:0:
448,192,145475,1,0,0:0:0:0:
64,192,145585,1,0,0:0:0:0:
320,192,145585,1,0,0:0:0:0:
64,192,145695,1,0,0:0:0:0:
192,192,145695,1,0,0:0:0:0:
320,192,145695,1,0,0:0:0:0:
448,192,145695,1,0,0:0:0:0:
192,192,145805,1,0,0:0:0:0:
448,192,145805,1,0,0:0:0:0:
448,192,145915,1,0,0:0:0:0:
320,192,145915,1,0,0:0:0:0:
192,192,145915,1,0,0:0:0:0:
64,192,145915,1,0,0:0:0:0:
192,192,146025,1,0,0:0:0:0:
320,192,146025,1,0,0:0:0:0:
64,192,146135,5,0,0:0:0:0:
448,192,146135,1,0,0:0:0:0:
192,192,146135,1,0,0:0:0:0:
448,192,146245,1,0,0:0:0:0:
64,192,146245,1,0,0:0:0:0:
192,192,146245,1,0,0:0:0:0:
448,192,146355,1,0,0:0:0:0:
192,192,146355,1,0,0:0:0:0:
64,192,146355,1,0,0:0:0:0:
192,192,146465,1,0,0:0:0:0:
64,192,146465,1,0,0:0:0:0:
448,192,146465,1,0,0:0:0:0:
448,192,146575,1,0,0:0:0:0:
320,192,146575,1,0,0:0:0:0:
64,192,146575,1,0,0:0:0:0:
448,192,146685,1,0,0:0:0:0:
320,192,146685,1,0,0:0:0:0:
64,192,146685,1,0,0:0:0:0:
448,192,146794,1,0,0:0:0:0:
64,192,146794,1,0,0:0:0:0:
320,192,146794,1,0,0:0:0:0:
448,192,146904,1,0,0:0:0:0:
64,192,146904,1,0,0:0:0:0:
320,192,146904,1,0,0:0:0:0:
64,192,147014,1,0,0:0:0:0:
192,192,147014,1,0,0:0:0:0:
320,192,147014,1,0,0:0:0:0:
448,192,147014,1,0,0:0:0:0:
64,192,147124,1,0,0:0:0:0:
448,192,147124,1,0,0:0:0:0:
448,192,147234,1,0,0:0:0:0:
320,192,147234,1,0,0:0:0:0:
192,192,147234,1,0,0:0:0:0:
64,192,147234,1,0,0:0:0:0:
192,192,147344,1,0,0:0:0:0:
320,192,147344,1,0,0:0:0:0:
64,192,147454,1,0,0:0:0:0:
192,192,147454,1,0,0:0:0:0:
448,192,147454,1,0,0:0:0:0:
320,192,147454,1,0,0:0:0:0:
320,192,147564,1,0,0:0:0:0:
448,192,147564,1,0,0:0:0:0:
320,192,147674,1,0,0:0:0:0:
448,192,147674,1,0,0:0:0:0:
64,192,147674,1,0,0:0:0:0:
192,192,147674,1,0,0:0:0:0:
64,192,147784,1,0,0:0:0:0:
192,192,147784,1,0,0:0:0:0:
64,192,147894,1,0,0:0:0:0:
192,192,147894,1,0,0:0:0:0:
320,192,147894,1,0,0:0:0:0:
448,192,147894,1,0,0:0:0:0:
448,192,148004,1,0,0:0:0:0:
192,192,148004,1,0,0:0:0:0:
64,192,148114,1,0,0:0:0:0:
192,192,148114,1,0,0:0:0:0:
320,192,148114,1,0,0:0:0:0:
448,192,148114,1,0,0:0:0:0:
64,192,148224,1,0,0:0:0:0:
320,192,148224,1,0,0:0:0:0:
64,192,148334,1,0,0:0:0:0:
192,192,148334,1,0,0:0:0:0:
448,192,148334,1,0,0:0:0:0:
320,192,148334,1,0,0:0:0:0:
192,192,148444,1,0,0:0:0:0:
320,192,148444,1,0,0:0:0:0:
64,192,148554,1,0,0:0:0:0:
192,192,148554,1,0,0:0:0:0:
448,192,148554,1,0,0:0:0:0:
320,192,148554,1,0,0:0:0:0:
64,192,148664,1,0,0:0:0:0:
320,192,148664,1,0,0:0:0:0:
64,192,148774,1,0,0:0:0:0:
320,192,148774,1,0,0:0:0:0:
192,192,148774,1,0,0:0:0:0:
448,192,148774,1,0,0:0:0:0:
64,192,148884,1,0,0:0:0:0:
320,192,148884,1,0,0:0:0:0:
192,192,148884,1,0,0:0:0:0:
64,192,148994,1,0,0:0:0:0:
192,192,148994,1,0,0:0:0:0:
320,192,148994,1,0,0:0:0:0:
448,192,148994,1,0,0:0:0:0:
64,192,149214,128,0,149324:0:0:0:0:
192,192,149214,128,0,149324:0:0:0:0:
320,192,149214,128,0,149324:0:0:0:0:
448,192,149214,128,0,149324:0:0:0:0:
64,192,149434,128,0,149544:0:0:0:0:
192,192,149434,128,0,149544:0:0:0:0:
320,192,149434,128,0,149544:0:0:0:0:
448,192,149434,128,0,149544:0:0:0:0:
64,192,149654,1,0,0:0:0:0:
192,192,149654,1,0,0:0:0:0:
320,192,149654,1,0,0:0:0:0:
192,192,149764,1,0,0:0:0:0:
64,192,149764,1,0,0:0:0:0:
320,192,149764,1,0,0:0:0:0:
64,192,149874,1,0,0:0:0:0:
192,192,149874,1,0,0:0:0:0:
320,192,149874,1,0,0:0:0:0:
192,192,149984,1,0,0:0:0:0:
320,192,149984,1,0,0:0:0:0:
64,192,149984,1,0,0:0:0:0:
192,192,150094,1,0,0:0:0:0:
320,192,150094,1,0,0:0:0:0:
448,192,150094,1,0,0:0:0:0:
192,192,150203,1,0,0:0:0:0:
320,192,150203,1,0,0:0:0:0:
448,192,150203,1,0,0:0:0:0:
192,192,150313,1,0,0:0:0:0:
320,192,150313,1,0,0:0:0:0:
448,192,150313,1,0,0:0:0:0:
192,192,150423,1,0,0:0:0:0:
448,192,150423,1,0,0:0:0:0:
320,192,150423,1,0,0:0:0:0:
192,192,150533,1,0,0:0:0:0:
320,192,150533,1,0,0:0:0:0:
448,192,150533,1,0,0:0:0:0:
64,192,150533,1,0,0:0:0:0:
64,192,150643,1,0,0:0:0:0:
192,192,150643,1,0,0:0:0:0:
64,192,150753,1,0,0:0:0:0:
192,192,150753,1,0,0:0:0:0:
320,192,150753,1,0,0:0:0:0:
448,192,150753,1,0,0:0:0:0:
320,192,150863,1,0,0:0:0:0:
448,192,150863,1,0,0:0:0:0:
320,192,150973,1,0,0:0:0:0:
448,192,150973,1,0,0:0:0:0:
64,192,150973,1,0,0:0:0:0:
192,192,150973,1,0,0:0:0:0:
192,192,151083,1,0,0:0:0:0:
320,192,151083,1,0,0:0:0:0:
64,192,151193,1,0,0:0:0:0:
448,192,151193,1,0,0:0:0:0:
320,192,151193,1,0,0:0:0:0:
192,192,151193,1,0,0:0:0:0:
64,192,151303,1,0,0:0:0:0:
448,192,151303,1,0,0:0:0:0:
448,192,151413,1,0,0:0:0:0:
192,192,151413,1,0,0:0:0:0:
64,192,151413,1,0,0:0:0:0:
320,192,151413,1,0,0:0:0:0:
64,192,151523,1,0,0:0:0:0:
320,192,151523,1,0,0:0:0:0:
192,192,151523,1,0,0:0:0:0:
64,192,151633,1,0,0:0:0:0:
192,192,151633,1,0,0:0:0:0:
320,192,151633,1,0,0:0:0:0:
448,192,151633,1,0,0:0:0:0:
192,192,151743,1,0,0:0:0:0:
448,192,151743,1,0,0:0:0:0:
320,192,151743,1,0,0:0:0:0:
64,192,151853,1,0,0:0:0:0:
192,192,151853,1,0,0:0:0:0:
320,192,151853,1,0,0:0:0:0:
448,192,151853,1,0,0:0:0:0:
192,192,151963,1,0,0:0:0:0:
320,192,151963,1,0,0:0:0:0:
64,192,152073,1,0,0:0:0:0:
192,192,152073,1,0,0:0:0:0:
320,192,152073,1,0,0:0:0:0:
448,192,152073,1,0,0:0:0:0:
64,192,152183,1,0,0:0:0:0:
192,192,152183,1,0,0:0:0:0:
320,192,152183,1,0,0:0:0:0:
448,192,152183,1,0,0:0:0:0:
64,192,152293,1,0,0:0:0:0:
192,192,152293,1,0,0:0:0:0:
320,192,152293,1,0,0:0:0:0:
448,192,152293,1,0,0:0:0:0:
64,192,152403,1,0,0:0:0:0:
192,192,152403,1,0,0:0:0:0:
320,192,152403,1,0,0:0:0:0:
448,192,152403,1,0,0:0:0:0:
448,192,152513,1,0,0:0:0:0:
320,192,152513,1,0,0:0:0:0:
192,192,152513,1,0,0:0:0:0:
64,192,152513,1,0,0:0:0:0:
64,192,152623,1,0,0:0:0:0:
192,192,152623,1,0,0:0:0:0:
448,192,152623,1,0,0:0:0:0:
320,192,152623,1,0,0:0:0:0:
320,192,152733,1,0,0:0:0:0:
192,192,152733,1,0,0:0:0:0:
64,192,152733,1,0,0:0:0:0:
448,192,152733,1,0,0:0:0:0:
192,192,152843,1,0,0:0:0:0:
320,192,152843,1,0,0:0:0:0:
64,192,152953,1,0,0:0:0:0:
192,192,152953,1,0,0:0:0:0:
320,192,152953,1,0,0:0:0:0:
448,192,152953,1,0,0:0:0:0:
64,192,153063,1,0,0:0:0:0:
320,192,153063,1,0,0:0:0:0:
64,192,153173,1,0,0:0:0:0:
320,192,153173,1,0,0:0:0:0:
448,192,153173,1,0,0:0:0:0:
192,192,153173,1,0,0:0:0:0:
192,192,153283,1,0,0:0:0:0:
448,192,153283,1,0,0:0:0:0:
448,192,153393,1,0,0:0:0:0:
320,192,153393,1,0,0:0:0:0:
192,192,153393,1,0,0:0:0:0:
64,192,153393,1,0,0:0:0:0:
192,192,153503,1,0,0:0:0:0:
320,192,153503,1,0,0:0:0:0:
64,192,153612,1,0,0:0:0:0:
192,192,153612,1,0,0:0:0:0:
320,192,153612,1,0,0:0:0:0:
448,192,153612,1,0,0:0:0:0:
448,192,153722,1,0,0:0:0:0:
64,192,153722,1,0,0:0:0:0:
192,192,153832,1,0,0:0:0:0:
448,192,153832,1,0,0:0:0:0:
320,192,153832,1,0,0:0:0:0:
64,192,153832,1,0,0:0:0:0:
64,192,153942,1,0,0:0:0:0:
192,192,153942,1,0,0:0:0:0:
64,192,154052,1,0,0:0:0:0:
192,192,154052,1,0,0:0:0:0:
320,192,154052,1,0,0:0:0:0:
448,192,154052,1,0,0:0:0:0:
448,192,154162,1,0,0:0:0:0:
320,192,154162,1,0,0:0:0:0:
448,192,154272,1,0,0:0:0:0:
320,192,154272,1,0,0:0:0:0:
192,192,154272,1,0,0:0:0:0:
64,192,154272,1,0,0:0:0:0:
64,192,154382,1,0,0:0:0:0:
64,192,154492,1,0,0:0:0:0:
192,192,154492,1,0,0:0:0:0:
192,192,154602,1,0,0:0:0:0:
320,192,154602,1,0,0:0:0:0:
64,192,154602,1,0,0:0:0:0:
64,192,154712,1,0,0:0:0:0:
192,192,154712,1,0,0:0:0:0:
448,192,154712,1,0,0:0:0:0:
320,192,154712,1,0,0:0:0:0:
320,192,154822,1,0,0:0:0:0:
192,192,154932,1,0,0:0:0:0:
320,192,154932,1,0,0:0:0:0:
448,192,154932,1,0,0:0:0:0:
64,192,155042,1,0,0:0:0:0:
320,192,155042,1,0,0:0:0:0:
64,192,155152,1,0,0:0:0:0:
320,192,155152,1,0,0:0:0:0:
448,192,155152,1,0,0:0:0:0:
192,192,155262,1,0,0:0:0:0:
320,192,155262,1,0,0:0:0:0:
64,192,155372,1,0,0:0:0:0:
192,192,155372,1,0,0:0:0:0:
320,192,155372,1,0,0:0:0:0:
448,192,155372,1,0,0:0:0:0:
64,192,155592,128,0,155646:0:0:0:0:
192,192,155592,128,0,155646:0:0:0:0:
320,192,155592,128,0,155646:0:0:0:0:
192,192,155812,128,0,155866:0:0:0:0:
320,192,155812,128,0,155866:0:0:0:0:
448,192,155812,128,0,155866:0:0:0:0:
64,192,156032,128,0,156086:0:0:0:0:
192,192,156032,128,0,156086:0:0:0:0:
320,192,156032,128,0,156086:0:0:0:0:
64,192,156252,128,0,156306:0:0:0:0:
192,192,156252,128,0,156306:0:0:0:0:
448,192,156252,128,0,156306:0:0:0:0:
64,192,156472,128,0,156526:0:0:0:0:
320,192,156472,128,0,156526:0:0:0:0:
448,192,156472,128,0,156526:0:0:0:0:
64,192,156692,5,0,0:0:0:0:
192,192,156692,1,0,0:0:0:0:
448,192,156692,1,0,0:0:0:0:
64,192,156802,1,0,0:0:0:0:
192,192,156802,1,0,0:0:0:0:
448,192,156802,1,0,0:0:0:0:
64,192,156912,1,0,0:0:0:0:
192,192,156912,1,0,0:0:0:0:
448,192,156912,1,0,0:0:0:0:
64,192,157021,1,0,0:0:0:0:
192,192,157021,1,0,0:0:0:0:
448,192,157021,1,0,0:0:0:0:
448,192,157131,1,0,0:0:0:0:
64,192,157131,1,0,0:0:0:0:
320,192,157131,1,0,0:0:0:0:
64,192,157241,1,0,0:0:0:0:
320,192,157241,1,0,0:0:0:0:
448,192,157241,1,0,0:0:0:0:
320,192,157351,1,0,0:0:0:0:
448,192,157351,1,0,0:0:0:0:
64,192,157351,1,0,0:0:0:0:
448,192,157461,1,0,0:0:0:0:
320,192,157461,1,0,0:0:0:0:
64,192,157461,1,0,0:0:0:0:
64,192,157571,1,0,0:0:0:0:
192,192,157571,1,0,0:0:0:0:
448,192,157571,1,0,0:0:0:0:
320,192,157571,1,0,0:0:0:0:
64,192,157681,1,0,0:0:0:0:
320,192,157681,1,0,0:0:0:0:
192,192,157791,1,0,0:0:0:0:
320,192,157791,1,0,0:0:0:0:
448,192,157791,1,0,0:0:0:0:
192,192,157901,1,0,0:0:0:0:
320,192,157901,1,0,0:0:0:0:
64,192,158011,1,0,0:0:0:0:
192,192,158011,1,0,0:0:0:0:
320,192,158011,1,0,0:0:0:0:
448,192,158011,1,0,0:0:0:0:
64,192,158121,1,0,0:0:0:0:
192,192,158121,1,0,0:0:0:0:
64,192,158231,1,0,0:0:0:0:
192,192,158231,1,0,0:0:0:0:
320,192,158231,1,0,0:0:0:0:
448,192,158231,1,0,0:0:0:0:
320,192,158341,1,0,0:0:0:0:
448,192,158341,1,0,0:0:0:0:
320,192,158451,1,0,0:0:0:0:
448,192,158451,1,0,0:0:0:0:
64,192,158451,1,0,0:0:0:0:
192,192,158451,1,0,0:0:0:0:
64,192,158561,1,0,0:0:0:0:
320,192,158561,1,0,0:0:0:0:
64,192,158671,1,0,0:0:0:0:
192,192,158671,1,0,0:0:0:0:
320,192,158671,1,0,0:0:0:0:
448,192,158671,1,0,0:0:0:0:
192,192,158781,1,0,0:0:0:0:
320,192,158781,1,0,0:0:0:0:
64,192,158891,1,0,0:0:0:0:
192,192,158891,1,0,0:0:0:0:
320,192,158891,1,0,0:0:0:0:
448,192,158891,1,0,0:0:0:0:
320,192,159001,1,0,0:0:0:0:
448,192,159001,1,0,0:0:0:0:
64,192,159111,1,0,0:0:0:0:
192,192,159111,1,0,0:0:0:0:
448,192,159111,1,0,0:0:0:0:
320,192,159111,1,0,0:0:0:0:
64,192,159221,1,0,0:0:0:0:
448,192,159221,1,0,0:0:0:0:
64,192,159331,1,0,0:0:0:0:
192,192,159331,1,0,0:0:0:0:
320,192,159331,1,0,0:0:0:0:
448,192,159331,1,0,0:0:0:0:
64,192,159551,1,0,0:0:0:0:
192,192,159551,1,0,0:0:0:0:
320,192,159551,1,0,0:0:0:0:
448,192,159551,1,0,0:0:0:0:
64,192,159661,1,0,0:0:0:0:
320,192,159661,1,0,0:0:0:0:
64,192,159771,1,0,0:0:0:0:
192,192,159771,1,0,0:0:0:0:
320,192,159771,1,0,0:0:0:0:
448,192,159771,1,0,0:0:0:0:
192,192,159881,1,0,0:0:0:0:
448,192,159881,1,0,0:0:0:0:
448,192,159991,1,0,0:0:0:0:
320,192,159991,1,0,0:0:0:0:
192,192,159991,1,0,0:0:0:0:
64,192,159991,1,0,0:0:0:0:
192,192,160101,1,0,0:0:0:0:
320,192,160101,1,0,0:0:0:0:
64,192,160211,5,0,0:0:0:0:
448,192,160211,1,0,0:0:0:0:
192,192,160211,1,0,0:0:0:0:
448,192,160321,1,0,0:0:0:0:
64,192,160321,1,0,0:0:0:0:
192,192,160321,1,0,0:0:0:0:
448,192,160430,1,0,0:0:0:0:
192,192,160430,1,0,0:0:0:0:
64,192,160430,1,0,0:0:0:0:
192,192,160540,1,0,0:0:0:0:
64,192,160540,1,0,0:0:0:0:
448,192,160540,1,0,0:0:0:0:
448,192,160650,1,0,0:0:0:0:
320,192,160650,1,0,0:0:0:0:
64,192,160650,1,0,0:0:0:0:
448,192,160760,1,0,0:0:0:0:
320,192,160760,1,0,0:0:0:0:
64,192,160760,1,0,0:0:0:0:
448,192,160870,1,0,0:0:0:0:
64,192,160870,1,0,0:0:0:0:
320,192,160870,1,0,0:0:0:0:
448,192,160980,1,0,0:0:0:0:
64,192,160980,1,0,0:0:0:0:
320,192,160980,1,0,0:0:0:0:
64,192,161090,1,0,0:0:0:0:
192,192,161090,1,0,0:0:0:0:
320,192,161090,1,0,0:0:0:0:
448,192,161090,1,0,0:0:0:0:
64,192,161200,1,0,0:0:0:0:
448,192,161200,1,0,0:0:0:0:
448,192,161310,1,0,0:0:0:0:
320,192,161310,1,0,0:0:0:0:
192,192,161310,1,0,0:0:0:0:
64,192,161310,1,0,0:0:0:0:
192,192,161420,1,0,0:0:0:0:
320,192,161420,1,0,0:0:0:0:
64,192,161530,1,0,0:0:0:0:
192,192,161530,1,0,0:0:0:0:
448,192,161530,1,0,0:0:0:0:
320,192,161530,1,0,0:0:0:0:
320,192,161640,1,0,0:0:0:0:
448,192,161640,1,0,0:0:0:0:
320,192,161750,1,0,0:0:0:0:
448,192,161750,1,0,0:0:0:0:
64,192,161750,1,0,0:0:0:0:
192,192,161750,1,0,0:0:0:0:
64,192,161860,1,0,0:0:0:0:
192,192,161860,1,0,0:0:0:0:
64,192,161970,1,0,0:0:0:0:
192,192,161970,1,0,0:0:0:0:
320,192,161970,1,0,0:0:0:0:
448,192,161970,1,0,0:0:0:0:
448,192,162080,1,0,0:0:0:0:
192,192,162080,1,0,0:0:0:0:
64,192,162190,1,0,0:0:0:0:
192,192,162190,1,0,0:0:0:0:
320,192,162190,1,0,0:0:0:0:
448,192,162190,1,0,0:0:0:0:
64,192,162300,1,0,0:0:0:0:
320,192,162300,1,0,0:0:0:0:
64,192,162410,1,0,0:0:0:0:
192,192,162410,1,0,0:0:0:0:
448,192,162410,1,0,0:0:0:0:
320,192,162410,1,0,0:0:0:0:
192,192,162520,1,0,0:0:0:0:
320,192,162520,1,0,0:0:0:0:
64,192,162630,1,0,0:0:0:0:
192,192,162630,1,0,0:0:0:0:
448,192,162630,1,0,0:0:0:0:
320,192,162630,1,0,0:0:0:0:
64,192,162740,1,0,0:0:0:0:
320,192,162740,1,0,0:0:0:0:
64,192,162850,1,0,0:0:0:0:
320,192,162850,1,0,0:0:0:0:
192,192,162850,1,0,0:0:0:0:
448,192,162850,1,0,0:0:0:0:
64,192,162960,1,0,0:0:0:0:
320,192,162960,1,0,0:0:0:0:
192,192,162960,1,0,0:0:0:0:
64,192,163070,128,0,163180:0:0:0:0:
192,192,163070,128,0,163180:0:0:0:0:
320,192,163070,128,0,163180:0:0:0:0:
448,192,163070,128,0,163180:0:0:0:0:
64,192,163290,128,0,163400:0:0:0:0:
192,192,163290,128,0,163400:0:0:0:0:
320,192,163290,128,0,163400:0:0:0:0:
448,192,163290,128,0,163400:0:0:0:0:
64,192,163510,128,0,163620:0:0:0:0:
192,192,163510,128,0,163620:0:0:0:0:
320,192,163510,128,0,163620:0:0:0:0:
448,192,163510,128,0,163620:0:0:0:0:
64,192,163730,1,0,0:0:0:0:
192,192,163730,1,0,0:0:0:0:
320,192,163730,1,0,0:0:0:0:
192,192,163839,1,0,0:0:0:0:
64,192,163839,1,0,0:0:0:0:
320,192,163839,1,0,0:0:0:0:
64,192,163949,1,0,0:0:0:0:
192,192,163949,1,0,0:0:0:0:
320,192,163949,1,0,0:0:0:0:
192,192,164059,1,0,0:0:0:0:
320,192,164059,1,0,0:0:0:0:
64,192,164059,1,0,0:0:0:0:
192,192,164169,1,0,0:0:0:0:
320,192,164169,1,0,0:0:0:0:
448,192,164169,1,0,0:0:0:0:
192,192,164279,1,0,0:0:0:0:
320,192,164279,1,0,0:0:0:0:
448,192,164279,1,0,0:0:0:0:
192,192,164389,1,0,0:0:0:0:
320,192,164389,1,0,0:0:0:0:
448,192,164389,1,0,0:0:0:0:
192,192,164499,1,0,0:0:0:0:
448,192,164499,1,0,0:0:0:0:
320,192,164499,1,0,0:0:0:0:
192,192,164609,1,0,0:0:0:0:
320,192,164609,1,0,0:0:0:0:
448,192,164609,1,0,0:0:0:0:
64,192,164609,1,0,0:0:0:0:
64,192,164719,1,0,0:0:0:0:
192,192,164719,1,0,0:0:0:0:
64,192,164829,1,0,0:0:0:0:
192,192,164829,1,0,0:0:0:0:
320,192,164829,1,0,0:0:0:0:
448,192,164829,1,0,0:0:0:0:
320,192,164939,1,0,0:0:0:0:
448,192,164939,1,0,0:0:0:0:
320,192,165049,1,0,0:0:0:0:
448,192,165049,1,0,0:0:0:0:
64,192,165049,1,0,0:0:0:0:
192,192,165049,1,0,0:0:0:0:
192,192,165159,1,0,0:0:0:0:
320,192,165159,1,0,0:0:0:0:
64,192,165269,1,0,0:0:0:0:
448,192,165269,1,0,0:0:0:0:
320,192,165269,1,0,0:0:0:0:
192,192,165269,1,0,0:0:0:0:
64,192,165379,1,0,0:0:0:0:
448,192,165379,1,0,0:0:0:0:
448,192,165489,1,0,0:0:0:0:
192,192,165489,1,0,0:0:0:0:
64,192,165489,1,0,0:0:0:0:
320,192,165489,1,0,0:0:0:0:
64,192,165599,1,0,0:0:0:0:
320,192,165599,1,0,0:0:0:0:
192,192,165599,1,0,0:0:0:0:
64,192,165709,1,0,0:0:0:0:
192,192,165709,1,0,0:0:0:0:
320,192,165709,1,0,0:0:0:0:
448,192,165709,1,0,0:0:0:0:
192,192,165819,1,0,0:0:0:0:
448,192,165819,1,0,0:0:0:0:
320,192,165819,1,0,0:0:0:0:
64,192,165929,1,0,0:0:0:0:
192,192,165929,1,0,0:0:0:0:
320,192,165929,1,0,0:0:0:0:
448,192,165929,1,0,0:0:0:0:
192,192,166039,1,0,0:0:0:0:
320,192,166039,1,0,0:0:0:0:
64,192,166149,1,0,0:0:0:0:
192,192,166149,1,0,0:0:0:0:
320,192,166149,1,0,0:0:0:0:
448,192,166149,1,0,0:0:0:0:
64,192,166259,1,0,0:0:0:0:
192,192,166259,1,0,0:0:0:0:
320,192,166259,1,0,0:0:0:0:
448,192,166259,1,0,0:0:0:0:
64,192,166369,1,0,0:0:0:0:
192,192,166369,1,0,0:0:0:0:
320,192,166369,1,0,0:0:0:0:
448,192,166369,1,0,0:0:0:0:
64,192,166479,1,0,0:0:0:0:
192,192,166479,1,0,0:0:0:0:
320,192,166479,1,0,0:0:0:0:
448,192,166479,1,0,0:0:0:0:
448,192,166589,1,0,0:0:0:0:
320,192,166589,1,0,0:0:0:0:
192,192,166589,1,0,0:0:0:0:
64,192,166589,1,0,0:0:0:0:
64,192,166699,1,0,0:0:0:0:
192,192,166699,1,0,0:0:0:0:
448,192,166699,1,0,0:0:0:0:
320,192,166699,1,0,0:0:0:0:
320,192,166809,1,0,0:0:0:0:
192,192,166809,1,0,0:0:0:0:
64,192,166809,1,0,0:0:0:0:
448,192,166809,1,0,0:0:0:0:
192,192,166919,1,0,0:0:0:0:
320,192,166919,1,0,0:0:0:0:
64,192,167029,1,0,0:0:0:0:
192,192,167029,1,0,0:0:0:0:
320,192,167029,1,0,0:0:0:0:
448,192,167029,1,0,0:0:0:0:
64,192,167139,1,0,0:0:0:0:
320,192,167139,1,0,0:0:0:0:
64,192,167248,1,0,0:0:0:0:
320,192,167248,1,0,0:0:0:0:
448,192,167248,1,0,0:0:0:0:
192,192,167248,1,0,0:0:0:0:
192,192,167358,1,0,0:0:0:0:
448,192,167358,1,0,0:0:0:0:
448,192,167468,1,0,0:0:0:0:
320,192,167468,1,0,0:0:0:0:
192,192,167468,1,0,0:0:0:0:
64,192,167468,1,0,0:0:0:0:
192,192,167578,1,0,0:0:0:0:
320,192,167578,1,0,0:0:0:0:
64,192,167688,1,0,0:0:0:0:
192,192,167688,1,0,0:0:0:0:
320,192,167688,1,0,0:0:0:0:
448,192,167688,1,0,0:0:0:0:
448,192,167798,1,0,0:0:0:0:
64,192,167798,1,0,0:0:0:0:
192,192,167908,1,0,0:0:0:0:
448,192,167908,1,0,0:0:0:0:
320,192,167908,1,0,0:0:0:0:
64,192,167908,1,0,0:0:0:0:
64,192,168018,1,0,0:0:0:0:
192,192,168018,1,0,0:0:0:0:
64,192,168128,1,0,0:0:0:0:
192,192,168128,1,0,0:0:0:0:
320,192,168128,1,0,0:0:0:0:
448,192,168128,1,0,0:0:0:0:
448,192,168238,1,0,0:0:0:0:
320,192,168238,1,0,0:0:0:0:
448,192,168348,1,0,0:0:0:0:
320,192,168348,1,0,0:0:0:0:
192,192,168348,1,0,0:0:0:0:
64,192,168348,1,0,0:0:0:0:
64,192,168458,1,0,0:0:0:0:
64,192,168568,1,0,0:0:0:0:
192,192,168568,1,0,0:0:0:0:
192,192,168678,1,0,0:0:0:0:
320,192,168678,1,0,0:0:0:0:
64,192,168678,1,0,0:0:0:0:
64,192,168788,1,0,0:0:0:0:
192,192,168788,1,0,0:0:0:0:
448,192,168788,1,0,0:0:0:0:
320,192,168788,1,0,0:0:0:0:
320,192,168898,1,0,0:0:0:0:
192,192,169008,1,0,0:0:0:0:
320,192,169008,1,0,0:0:0:0:
448,192,169008,1,0,0:0:0:0:
64,192,169118,1,0,0:0:0:0:
320,192,169118,1,0,0:0:0:0:
64,192,169228,1,0,0:0:0:0:
320,192,169228,1,0,0:0:0:0:
448,192,169228,1,0,0:0:0:0:
192,192,169338,1,0,0:0:0:0:
64,192,169448,1,0,0:0:0:0:
192,192,169448,1,0,0:0:0:0:
320,192,169448,1,0,0:0:0:0:
192,192,169558,1,0,0:0:0:0:
448,192,169558,1,0,0:0:0:0:
448,192,169668,1,0,0:0:0:0:
64,192,169668,1,0,0:0:0:0:
192,192,169668,1,0,0:0:0:0:
64,192,169888,1,0,0:0:0:0:
192,192,169888,1,0,0:0:0:0:
320,192,169888,1,0,0:0:0:0:
448,192,169888,1,0,0:0:0:0:
320,192,169998,1,0,0:0:0:0:
448,192,169998,1,0,0:0:0:0:
192,192,170108,1,0,0:0:0:0:
320,192,170108,1,0,0:0:0:0:
64,192,170218,1,0,0:0:0:0:
192,192,170218,1,0,0:0:0:0:
192,192,170328,1,0,0:0:0:0:
320,192,170328,1,0,0:0:0:0:
64,192,170328,1,0,0:0:0:0:
64,192,170438,1,0,0:0:0:0:
192,192,170438,1,0,0:0:0:0:
192,192,170548,1,0,0:0:0:0:
320,192,170548,1,0,0:0:0:0:
320,192,170657,1,0,0:0:0:0:
448,192,170657,1,0,0:0:0:0:
64,192,170767,1,0,0:0:0:0:
192,192,170767,1,0,0:0:0:0:
320,192,170767,1,0,0:0:0:0:
192,192,170877,1,0,0:0:0:0:
64,192,170877,1,0,0:0:0:0:
320,192,170877,1,0,0:0:0:0:
64,192,170987,1,0,0:0:0:0:
192,192,170987,1,0,0:0:0:0:
320,192,170987,1,0,0:0:0:0:
192,192,171097,1,0,0:0:0:0:
320,192,171097,1,0,0:0:0:0:
64,192,171097,1,0,0:0:0:0:
192,192,171207,1,0,0:0:0:0:
320,192,171207,1,0,0:0:0:0:
448,192,171207,1,0,0:0:0:0:
192,192,171317,1,0,0:0:0:0:
320,192,171317,1,0,0:0:0:0:
448,192,171317,1,0,0:0:0:0:
192,192,171427,1,0,0:0:0:0:
320,192,171427,1,0,0:0:0:0:
448,192,171427,1,0,0:0:0:0:
192,192,171537,1,0,0:0:0:0:
448,192,171537,1,0,0:0:0:0:
320,192,171537,1,0,0:0:0:0:
192,192,171647,1,0,0:0:0:0:
320,192,171647,1,0,0:0:0:0:
448,192,171647,1,0,0:0:0:0:
64,192,171647,1,0,0:0:0:0:
64,192,171757,1,0,0:0:0:0:
192,192,171757,1,0,0:0:0:0:
64,192,171867,1,0,0:0:0:0:
192,192,171867,1,0,0:0:0:0:
320,192,171867,1,0,0:0:0:0:
448,192,171867,1,0,0:0:0:0:
320,192,171977,1,0,0:0:0:0:
448,192,171977,1,0,0:0:0:0:
320,192,172087,1,0,0:0:0:0:
448,192,172087,1,0,0:0:0:0:
64,192,172087,1,0,0:0:0:0:
192,192,172087,1,0,0:0:0:0:
192,192,172197,1,0,0:0:0:0:
320,192,172197,1,0,0:0:0:0:
64,192,172307,1,0,0:0:0:0:
448,192,172307,1,0,0:0:0:0:
320,192,172307,1,0,0:0:0:0:
192,192,172307,1,0,0:0:0:0:
64,192,172417,1,0,0:0:0:0:
448,192,172417,1,0,0:0:0:0:
448,192,172527,1,0,0:0:0:0:
192,192,172527,1,0,0:0:0:0:
64,192,172527,1,0,0:0:0:0:
320,192,172527,1,0,0:0:0:0:
64,192,172637,1,0,0:0:0:0:
320,192,172637,1,0,0:0:0:0:
192,192,172637,1,0,0:0:0:0:
64,192,172747,1,0,0:0:0:0:
192,192,172747,1,0,0:0:0:0:
320,192,172747,1,0,0:0:0:0:
448,192,172747,1,0,0:0:0:0:
192,192,172857,1,0,0:0:0:0:
448,192,172857,1,0,0:0:0:0:
320,192,172857,1,0,0:0:0:0:
64,192,172967,1,0,0:0:0:0:
192,192,172967,1,0,0:0:0:0:
320,192,172967,1,0,0:0:0:0:
448,192,172967,1,0,0:0:0:0:
192,192,173077,1,0,0:0:0:0:
320,192,173077,1,0,0:0:0:0:
64,192,173187,1,0,0:0:0:0:
192,192,173187,1,0,0:0:0:0:
320,192,173187,1,0,0:0:0:0:
448,192,173187,1,0,0:0:0:0:
64,192,173297,1,0,0:0:0:0:
192,192,173297,1,0,0:0:0:0:
320,192,173297,1,0,0:0:0:0:
448,192,173297,1,0,0:0:0:0:
64,192,173407,1,0,0:0:0:0:
192,192,173407,1,0,0:0:0:0:
320,192,173407,1,0,0:0:0:0:
448,192,173407,1,0,0:0:0:0:
64,192,173517,1,0,0:0:0:0:
192,192,173517,1,0,0:0:0:0:
320,192,173517,1,0,0:0:0:0:
448,192,173517,1,0,0:0:0:0:
448,192,173627,1,0,0:0:0:0:
320,192,173627,1,0,0:0:0:0:
192,192,173627,1,0,0:0:0:0:
64,192,173627,1,0,0:0:0:0:
64,192,173737,1,0,0:0:0:0:
192,192,173737,1,0,0:0:0:0:
448,192,173737,1,0,0:0:0:0:
320,192,173737,1,0,0:0:0:0:
320,192,173847,1,0,0:0:0:0:
192,192,173847,1,0,0:0:0:0:
64,192,173847,1,0,0:0:0:0:
448,192,173847,1,0,0:0:0:0:
192,192,173957,1,0,0:0:0:0:
320,192,173957,1,0,0:0:0:0:
64,192,174066,1,0,0:0:0:0:
192,192,174066,1,0,0:0:0:0:
320,192,174066,1,0,0:0:0:0:
448,192,174066,1,0,0:0:0:0:
64,192,174176,1,0,0:0:0:0:
320,192,174176,1,0,0:0:0:0:
64,192,174286,1,0,0:0:0:0:
320,192,174286,1,0,0:0:0:0:
448,192,174286,1,0,0:0:0:0:
192,192,174286,1,0,0:0:0:0:
192,192,174396,1,0,0:0:0:0:
448,192,174396,1,0,0:0:0:0:
448,192,174506,1,0,0:0:0:0:
320,192,174506,1,0,0:0:0:0:
192,192,174506,1,0,0:0:0:0:
64,192,174506,1,0,0:0:0:0:
192,192,174616,1,0,0:0:0:0:
320,192,174616,1,0,0:0:0:0:
64,192,174726,1,0,0:0:0:0:
192,192,174726,1,0,0:0:0:0:
320,192,174726,1,0,0:0:0:0:
448,192,174726,1,0,0:0:0:0:
448,192,174836,1,0,0:0:0:0:
64,192,174836,1,0,0:0:0:0:
192,192,174946,1,0,0:0:0:0:
448,192,174946,1,0,0:0:0:0:
320,192,174946,1,0,0:0:0:0:
64,192,174946,1,0,0:0:0:0:
64,192,175056,1,0,0:0:0:0:
192,192,175056,1,0,0:0:0:0:
64,192,175166,1,0,0:0:0:0:
192,192,175166,1,0,0:0:0:0:
320,192,175166,1,0,0:0:0:0:
448,192,175166,1,0,0:0:0:0:
448,192,175276,1,0,0:0:0:0:
320,192,175276,1,0,0:0:0:0:
448,192,175386,1,0,0:0:0:0:
320,192,175386,1,0,0:0:0:0:
192,192,175386,1,0,0:0:0:0:
64,192,175386,1,0,0:0:0:0:
64,192,175496,1,0,0:0:0:0:
64,192,175606,1,0,0:0:0:0:
192,192,175606,1,0,0:0:0:0:
192,192,175716,1,0,0:0:0:0:
320,192,175716,1,0,0:0:0:0:
64,192,175716,1,0,0:0:0:0:
64,192,175826,1,0,0:0:0:0:
192,192,175826,1,0,0:0:0:0:
448,192,175826,1,0,0:0:0:0:
320,192,175826,1,0,0:0:0:0:
192,192,175936,1,0,0:0:0:0:
320,192,175936,1,0,0:0:0:0:
64,192,176046,128,0,176156:0:0:0:0:
192,192,176046,128,0,176156:0:0:0:0:
320,192,176046,128,0,176156:0:0:0:0:
448,192,176046,128,0,176156:0:0:0:0:
448,192,176266,128,0,176321:0:0:0:0:
320,192,176376,128,0,176431:0:0:0:0:
64,192,176486,1,0,0:0:0:0:
192,192,176486,1,0,0:0:0:0:
448,192,176486,1,0,0:0:0:0:
320,192,176596,128,0,176706:0:0:0:0:
192,192,176816,1,0,0:0:0:0:
64,192,176926,128,0,176981:0:0:0:0:
320,192,176926,128,0,176981:0:0:0:0:
192,192,177036,1,0,0:0:0:0:
192,192,177146,128,0,177201:0:0:0:0:
448,192,177146,128,0,177201:0:0:0:0:
320,192,177256,1,0,0:0:0:0:
64,192,177366,1,0,0:0:0:0:
192,192,177366,1,0,0:0:0:0:
448,192,177366,1,0,0:0:0:0:
448,192,177475,128,0,177531:0:0:0:0:
320,192,177585,128,0,177641:0:0:0:0:
192,192,177695,128,0,177751:0:0:0:0:
64,192,177805,1,0,0:0:0:0:
320,192,177805,1,0,0:0:0:0:
448,192,177805,1,0,0:0:0:0:
320,192,177915,1,0,0:0:0:0:
192,192,178025,128,0,178135:0:0:0:0:
64,192,178135,128,0,178245:0:0:0:0:
320,192,178245,1,0,0:0:0:0:
448,192,178245,1,0,0:0:0:0:
64,192,178355,128,0,178465:0:0:0:0:
192,192,178465,1,0,0:0:0:0:
448,192,178575,128,0,178631:0:0:0:0:
320,192,178685,1,0,0:0:0:0:
192,192,178795,1,0,0:0:0:0:
192,192,178905,1,0,0:0:0:0:
320,192,179015,1,0,0:0:0:0:
64,192,179125,1,0,0:0:0:0:
448,192,179125,1,0,0:0:0:0:
192,192,179125,1,0,0:0:0:0:
192,192,179235,1,0,0:0:0:0:
320,192,179345,128,0,179510:0:0:0:0:
448,192,179345,128,0,179510:0:0:0:0:
64,192,179565,128,0,179675:0:0:0:0:
192,192,179565,128,0,179675:0:0:0:0:
320,192,179565,128,0,179675:0:0:0:0:
448,192,179565,128,0,179675:0:0:0:0:
448,192,179785,128,0,179840:0:0:0:0:
320,192,179895,128,0,179950:0:0:0:0:
64,192,180005,1,0,0:0:0:0:
192,192,180005,1,0,0:0:0:0:
448,192,180005,1,0,0:0:0:0:
320,192,180115,128,0,180225:0:0:0:0:
192,192,180335,1,0,0:0:0:0:
64,192,180445,128,0,180500:0:0:0:0:
320,192,180445,128,0,180500:0:0:0:0:
192,192,180555,1,0,0:0:0:0:
192,192,180665,128,0,180720:0:0:0:0:
448,192,180665,128,0,180720:0:0:0:0:
320,192,180775,1,0,0:0:0:0:
64,192,180885,1,0,0:0:0:0:
192,192,180885,1,0,0:0:0:0:
448,192,180885,1,0,0:0:0:0:
448,192,180995,128,0,181050:0:0:0:0:
320,192,181105,128,0,181160:0:0:0:0:
192,192,181215,128,0,181270:0:0:0:0:
64,192,181325,1,0,0:0:0:0:
320,192,181325,1,0,0:0:0:0:
448,192,181325,1,0,0:0:0:0:
320,192,181435,1,0,0:0:0:0:
192,192,181545,128,0,181655:0:0:0:0:
64,192,181655,128,0,181765:0:0:0:0:
320,192,181765,1,0,0:0:0:0:
448,192,181765,1,0,0:0:0:0:
64,192,181875,128,0,181985:0:0:0:0:
192,192,181875,1,0,0:0:0:0:
192,192,181985,128,0,182095:0:0:0:0:
320,192,181985,1,0,0:0:0:0:
320,192,182095,128,0,182205:0:0:0:0:
448,192,182095,1,0,0:0:0:0:
448,192,182205,1,0,0:0:0:0:
192,192,182315,128,0,182425:0:0:0:0:
64,192,182315,1,0,0:0:0:0:
64,192,182425,1,0,0:0:0:0:
448,192,182425,1,0,0:0:0:0:
192,192,182535,1,0,0:0:0:0:
320,192,182535,1,0,0:0:0:0:
64,192,182645,1,0,0:0:0:0:
448,192,182645,1,0,0:0:0:0:
192,192,182645,1,0,0:0:0:0:
192,192,182755,1,0,0:0:0:0:
320,192,182865,128,0,182975:0:0:0:0:
448,192,182865,128,0,182975:0:0:0:0:
192,192,182975,1,0,0:0:0:0:
64,192,183085,1,0,0:0:0:0:
192,192,183085,1,0,0:0:0:0:
64,192,183195,128,0,183305:0:0:0:0:
192,192,183195,128,0,183305:0:0:0:0:
320,192,183195,128,0,183305:0:0:0:0:
448,192,183195,128,0,183305:0:0:0:0:
448,192,183415,128,0,183469:0:0:0:0:
320,192,183525,128,0,183579:0:0:0:0:
64,192,183635,1,0,0:0:0:0:
192,192,183635,1,0,0:0:0:0:
448,192,183635,1,0,0:0:0:0:
320,192,183745,128,0,183855:0:0:0:0:
192,192,183965,1,0,0:0:0:0:
64,192,184075,128,0,184129:0:0:0:0:
320,192,184075,128,0,184129:0:0:0:0:
192,192,184185,1,0,0:0:0:0:
192,192,184294,128,0,184349:0:0:0:0:
448,192,184294,128,0,184349:0:0:0:0:
320,192,184404,1,0,0:0:0:0:
64,192,184514,1,0,0:0:0:0:
192,192,184514,1,0,0:0:0:0:
448,192,184514,1,0,0:0:0:0:
448,192,184624,128,0,184679:0:0:0:0:
320,192,184734,128,0,184789:0:0:0:0:
192,192,184844,128,0,184899:0:0:0:0:
64,192,184954,1,0,0:0:0:0:
320,192,184954,1,0,0:0:0:0:
448,192,184954,1,0,0:0:0:0:
320,192,185064,1,0,0:0:0:0:
192,192,185174,128,0,185284:0:0:0:0:
64,192,185284,128,0,185394:0:0:0:0:
320,192,185394,1,0,0:0:0:0:
448,192,185394,1,0,0:0:0:0:
448,192,185614,128,0,185669:0:0:0:0:
320,192,185724,1,0,0:0:0:0:
192,192,185834,1,0,0:0:0:0:
192,192,185944,1,0,0:0:0:0:
320,192,186054,1,0,0:0:0:0:
64,192,186164,1,0,0:0:0:0:
448,192,186164,1,0,0:0:0:0:
192,192,186164,1,0,0:0:0:0:
192,192,186274,1,0,0:0:0:0:
320,192,186384,128,0,186548:0:0:0:0:
448,192,186384,128,0,186548:0:0:0:0:
64,192,186604,128,0,186714:0:0:0:0:
192,192,186604,128,0,186714:0:0:0:0:
320,192,186604,128,0,186714:0:0:0:0:
448,192,186604,128,0,186714:0:0:0:0:
448,192,186824,128,0,186878:0:0:0:0:
320,192,186934,128,0,186988:0:0:0:0:
64,192,187044,1,0,0:0:0:0:
192,192,187044,1,0,0:0:0:0:
448,192,187044,1,0,0:0:0:0:
320,192,187154,128,0,187264:0:0:0:0:
192,192,187374,1,0,0:0:0:0:
64,192,187484,128,0,187538:0:0:0:0:
320,192,187484,128,0,187538:0:0:0:0:
192,192,187594,1,0,0:0:0:0:
192,192,187703,128,0,187758:0:0:0:0:
448,192,187703,128,0,187758:0:0:0:0:
320,192,187813,1,0,0:0:0:0:
64,192,187923,1,0,0:0:0:0:
192,192,187923,1,0,0:0:0:0:
448,192,187923,1,0,0:0:0:0:
448,192,188033,128,0,188088:0:0:0:0:
320,192,188143,128,0,188198:0:0:0:0:
192,192,188253,128,0,188308:0:0:0:0:
320,192,188363,1,0,0:0:0:0:
448,192,188363,1,0,0:0:0:0:
320,192,188473,1,0,0:0:0:0:
64,192,188583,128,0,188803:0:0:0:0:
192,192,188583,128,0,188803:0:0:0:0:
320,192,188803,1,0,0:0:0:0:
448,192,188803,1,0,0:0:0:0:
320,192,188913,128,0,189133:0:0:0:0:
448,192,188913,128,0,189133:0:0:0:0:
64,192,189133,1,0,0:0:0:0:
192,192,189133,1,0,0:0:0:0:
64,192,189243,128,0,189353:0:0:0:0:
192,192,189243,128,0,189353:0:0:0:0:
320,192,189243,128,0,189353:0:0:0:0:
448,192,189243,128,0,189353:0:0:0:0:
64,192,189463,128,0,189627:0:0:0:0:
192,192,189463,128,0,189627:0:0:0:0:
320,192,189463,128,0,189627:0:0:0:0:
192,192,189683,128,0,189847:0:0:0:0:
320,192,189683,128,0,189847:0:0:0:0:
448,192,189683,128,0,189847:0:0:0:0:
64,192,189903,128,0,190067:0:0:0:0:
192,192,189903,128,0,190067:0:0:0:0:
320,192,189903,128,0,190067:0:0:0:0:
