osu file format v14

[General]
AudioFilename: audio.mp3
AudioLeadIn: 0
PreviewTime: 181653
Countdown: 0
SampleSet: Normal
StackLeniency: 0.7
Mode: 1
LetterboxInBreaks: 0
WidescreenStoryboard: 1

[Editor]
DistanceSpacing: 0.6
BeatDivisor: 3
GridSize: 32
TimelineZoom: 2

[Metadata]
Title:Kou ! Tetsu ! Ketsu ! Sen ! -Ironbottom Sound-
TitleUnicode:鋼!鉄!決!戦!-Ironbottom Sound-
Artist:Ayasa
ArtistUnicode:Ayasa
Creator:S a n d
Version:No Regret
Source:艦隊これくしょん -艦これ-
Tags:バイオリンで艦これ Kancolle Kantai Collection violin cover sand COOL&CREATE
BeatmapID:1103738
BeatmapSetID:519566

[Difficulty]
HPDrainRate:6
CircleSize:2
OverallDifficulty:6
ApproachRate:5
SliderMultiplier:1.4
SliderTickRate:1

[Events]
//Background and Video events
0,0,"thumb-1920-702813.jpg",0,60
//Break Periods
//Storyboard Layer 0 (Background)
//Storyboard Layer 1 (Fail)
//Storyboard Layer 2 (Pass)
//Storyboard Layer 3 (Foreground)
//Storyboard Sound Samples

[TimingPoints]
2256,342.857142857143,4,1,0,80,1,0
3627,-90.9090909090909,4,1,0,80,0,0
7741,346.820809248555,4,1,0,80,1,0
7741,-90.0900900900901,4,1,0,80,0,0
8434,340.909090909091,4,1,0,80,1,8
8434,-91.743119266055,4,1,0,80,0,0
9115,342.857142857143,4,1,0,80,1,1
20086,-100,4,1,0,80,0,0
39286,343.839541547278,4,1,0,80,1,0
42036,343.839541547278,4,1,0,80,1,1
51663,338.983050847458,4,1,0,80,1,0
51663,-101.010101010101,4,1,0,80,0,0
52679,363.636363636364,4,1,0,80,1,8
52679,-94.3396226415094,4,1,0,80,0,0
53058,342.857142857143,4,1,0,80,1,1
57172,344.827586206897,4,1,0,80,1,1
57516,342.857142857143,4,1,0,80,1,9
57858,333.333333333333,4,1,0,80,1,9
57858,-103.092783505155,4,1,0,80,0,1
58191,342.857142857143,4,1,0,80,1,9
58533,342.857142857143,4,1,0,80,1,1
59904,340.909090909091,4,1,0,80,1,1
60926,375,4,1,0,80,1,9
60926,-91.743119266055,4,1,0,80,0,1
61301,337.078651685393,4,1,0,80,1,1
61301,-102.040816326531,4,1,0,80,0,1
62649,348.837209302326,4,1,0,80,1,1
62649,-98.0392156862745,4,1,0,80,0,1
63346,377.358490566038,4,1,0,80,1,9
63346,-90.9090909090909,4,1,0,80,0,1
63723,266.666666666667,4,1,0,80,1,9
63723,-128.205128205128,4,1,0,80,0,1
63989,338.983050847458,4,1,0,80,1,0
63989,-101.010101010101,4,1,0,80,0,0
65344,342.857142857143,4,1,0,80,1,0
70486,352.941176470588,4,1,0,80,1,8
70486,-97.0873786407767,4,1,0,80,0,0
70838,342.857142857143,4,1,0,80,1,0
71866,348.837209302326,4,1,0,80,1,8
71866,-98.0392156862745,4,1,0,80,0,0
72214,342.857142857143,4,1,0,80,1,0
72899,337.078651685393,4,1,0,80,1,8
72899,-102.040816326531,4,1,0,80,0,0
73236,350.877192982456,4,1,0,80,1,0
73236,-98.0392156862745,4,1,0,80,0,0
73586,338.983050847458,4,1,0,80,1,8
73586,-101.010101010101,4,1,0,80,0,0
73924,342.857142857143,4,1,0,80,1,8
74609,348.837209302326,4,1,0,80,1,8
74609,-98.0392156862745,4,1,0,80,0,0
74957,344.827586206897,4,1,0,80,1,0
79094,342.857142857143,4,1,0,80,1,0
85608,355.029585798817,4,1,0,80,1,8
85608,-96.1538461538461,4,1,0,80,0,0
85785,363.636363636364,4,1,0,80,1,8
85785,-94.3396226415094,4,1,0,80,0,0
85966,342.857142857143,4,1,0,80,1,1
91451,344.827586206897,4,1,0,80,1,1
94037,500,4,1,0,80,1,9
94037,-68.4931506849315,4,1,0,80,0,1
94287,342.857142857143,4,1,0,80,1,0
95658,352.941176470588,4,1,0,80,1,8
95658,-97.0873786407767,4,1,0,80,0,0
96010,346.820809248555,4,1,0,80,1,0
96010,-98.0392156862745,4,1,0,80,0,0
96703,337.078651685393,4,1,0,80,1,8
96703,-102.040816326531,4,1,0,80,0,0
97040,340.909090909091,4,1,0,80,1,0
98403,340.909090909091,3,1,0,80,1,1
104540,346.820809248555,4,1,0,80,1,9
104540,-99.009900990099,4,1,0,80,0,1
105927,346.820809248555,4,1,0,80,1,9
106620,257.510729613734,4,1,0,80,1,0
106620,-133.333333333333,4,1,0,80,0,0
107907,275.229357798165,4,1,0,80,1,8
107907,-125,4,1,0,80,0,0
108732,230.769230769231,4,1,0,80,1,0
108732,-149.253731343284,4,1,0,80,0,0
109193,262.008733624454,4,1,0,80,1,8
109193,-131.578947368421,4,1,0,80,0,0
109717,250,4,1,0,80,1,0
109717,-136.986301369863,4,1,0,80,0,0
110217,255.31914893617,4,1,0,80,1,8
110217,-135.135135135135,4,1,0,80,0,0
110727,262.008733624454,4,1,0,80,1,0
110727,-131.578947368421,4,1,0,80,0,0
111251,260.869565217391,4,1,0,80,1,8
111251,-131.578947368421,4,1,0,80,0,0
111772,342.857142857143,4,1,0,80,1,0
135086,344.827586206897,4,1,0,80,1,0
136465,342.857142857143,4,1,0,80,1,1
145722,352.941176470588,4,1,0,80,1,9
145722,-97.0873786407767,4,1,0,80,0,1
146074,342.857142857143,4,1,0,80,1,1
149845,355.029585798817,4,1,0,80,1,9
149845,-96.1538461538461,4,1,0,80,0,1
150200,342.857142857143,4,1,0,80,1,1
151571,333.333333333333,4,1,0,80,1,1
151571,-103.092783505155,4,1,0,80,0,1
152237,342.857142857143,4,1,0,80,1,9
152922,342.857142857143,4,1,0,80,1,9
154294,340.909090909091,4,1,0,80,1,9
155316,363.636363636364,4,1,0,80,1,9
155316,-94.3396226415094,4,1,0,80,0,1
155679,346.820809248555,4,1,0,80,1,1
155679,-99.009900990099,4,1,0,80,0,1
157066,-99.009900990099,4,1,0,80,0,0
157239,-99.009900990099,4,1,0,80,0,0
158453,335.195530726257,4,1,0,80,1,0
158453,-102.040816326531,4,1,0,80,0,0
159793,342.857142857143,4,1,0,80,1,0
159793,-133.333333333333,4,1,0,80,0,0
165278,-100,4,1,0,80,0,0
170421,355.029585798817,4,1,0,80,1,8
170421,-96.1538461538461,4,1,0,80,0,0
170776,337.078651685393,4,1,0,80,1,0
170776,-102.040816326531,4,1,0,80,0,1
172124,342.857142857143,4,1,0,80,1,1
176238,-100,4,1,0,80,0,0
178981,344.827586206897,4,1,0,80,1,0
181739,342.857142857143,4,1,0,80,1,1
189967,344.827586206897,4,1,0,80,1,1
191346,-100,4,1,0,80,0,0
191691,348.837209302326,4,1,0,80,1,8
191691,-98.0392156862745,4,1,0,80,0,0
192388,352.941176470588,4,1,0,80,1,8
192388,-97.0873786407767,4,1,0,80,0,0
192740,322.58064516129,4,1,0,80,1,1
192740,-106.382978723404,4,1,0,80,0,1
193385,342.857142857143,4,1,0,80,1,9
193727,359.281437125748,4,1,0,80,1,9
193727,-95.2380952380952,4,1,0,80,0,1
194086,342.857142857143,4,1,0,80,1,1
203000,357.142857142857,4,1,0,80,1,9
203000,-96.1538461538461,4,1,0,80,0,1
203714,340.909090909091,4,1,0,80,1,0
209168,342.857142857143,4,1,0,80,1,0
211225,348.837209302326,4,1,0,80,1,8
211225,-98.0392156862745,4,1,0,80,0,0
211573,352.941176470588,4,1,0,80,1,8
211573,-97.0873786407767,4,1,0,80,0,0
211925,342.857142857143,4,1,0,80,1,0
218782,344.827586206897,4,1,0,80,1,0
219471,342.857142857143,4,1,0,80,1,8
220156,342.857142857143,4,1,0,80,1,0
222556,350.877192982456,4,1,0,80,1,0
222556,-98.0392156862745,4,1,0,80,0,0
222731,372.670807453416,4,1,0,80,1,8
222731,-91.743119266055,4,1,0,80,0,0
222917,327.868852459016,4,1,0,80,1,8
222917,-104.166666666667,4,1,0,80,0,1
223244,342.857142857143,4,1,0,80,1,9
224272,342.857142857143,4,1,0,80,1,1
228386,337.078651685393,4,1,0,80,1,1
228386,-102.040816326531,4,1,0,80,0,0
228723,348.837209302326,4,1,0,80,1,8
228723,-98.0392156862745,4,1,0,80,0,0
229420,340.909090909091,4,1,0,80,1,0
230101,342.857142857143,4,1,0,80,1,0
231472,-100,4,1,0,80,0,1
234215,-100,4,1,0,80,0,0

[HitObjects]
288,128,2255,5,8,0:0:0:0:
256,192,2598,5,8,0:0:0:0:
256,192,2941,1,8,0:0:0:0:
288,192,3113,1,0,0:0:0:0:
288,192,3198,1,0,0:0:0:0:
256,192,3284,1,8,0:0:0:0:
288,192,3627,1,4,0:0:0:0:
256,128,3970,1,8,0:0:0:0:
256,128,4084,1,8,0:0:0:0:
256,128,4198,1,8,0:0:0:0:
288,192,4313,1,4,0:0:0:0:
256,128,4570,1,8,0:0:0:0:
256,128,4827,1,8,0:0:0:0:
288,192,4998,1,4,0:0:0:0:
320,160,5341,1,8,0:0:0:0:
320,160,5456,1,8,0:0:0:0:
320,160,5570,1,8,0:0:0:0:
288,192,5684,1,4,0:0:0:0:
320,160,5913,1,8,0:0:0:0:
320,160,6141,1,8,0:0:0:0:
256,160,6370,1,4,0:0:0:0:
320,160,6713,1,8,0:0:0:0:
320,160,6827,1,8,0:0:0:0:
320,160,6941,1,8,0:0:0:0:
256,160,7056,1,4,0:0:0:0:
320,160,7284,1,8,0:0:0:0:
320,160,7513,1,8,0:0:0:0:
256,160,7741,1,4,0:0:0:0:
256,192,7972,1,8,0:0:0:0:
256,192,8203,1,0,0:0:0:0:
256,192,8319,1,0,0:0:0:0:
256,192,8434,1,8,0:0:0:0:
256,192,9115,1,0,0:0:0:0:
256,192,9200,1,8,0:0:0:0:
256,192,9286,1,0,0:0:0:0:
256,192,9372,1,0,0:0:0:0:
256,192,9457,1,8,0:0:0:0:
256,128,9543,1,8,0:0:0:0:
224,128,9629,1,0,0:0:0:0:
224,128,9715,1,8,0:0:0:0:
224,128,9800,1,0,0:0:0:0:
224,128,9886,1,0,0:0:0:0:
224,128,9972,1,8,0:0:0:0:
224,128,10057,1,0,0:0:0:0:
224,128,10143,1,8,0:0:0:0:
256,128,10229,1,8,0:0:0:0:
224,128,10315,1,0,0:0:0:0:
224,128,10400,1,0,0:0:0:0:
224,128,10486,1,8,0:0:0:0:
224,128,10572,1,0,0:0:0:0:
224,128,10657,1,8,0:0:0:0:
224,128,10743,1,8,0:0:0:0:
224,128,10829,1,0,0:0:0:0:
224,128,10915,1,0,0:0:0:0:
224,128,11000,1,8,0:0:0:0:
224,128,11086,1,0,0:0:0:0:
224,128,11172,1,8,0:0:0:0:
224,128,11257,1,8,0:0:0:0:
224,128,11343,1,0,0:0:0:0:
224,128,11429,1,0,0:0:0:0:
224,128,11515,1,8,0:0:0:0:
224,128,11600,1,8,0:0:0:0:
224,128,11686,1,0,0:0:0:0:
224,128,11772,1,0,0:0:0:0:
224,128,11857,1,0,0:0:0:0:
256,192,11943,1,8,0:0:0:0:
256,192,12029,1,0,0:0:0:0:
256,192,12115,1,0,0:0:0:0:
256,192,12200,1,8,0:0:0:0:
256,128,12286,1,8,0:0:0:0:
224,128,12372,1,0,0:0:0:0:
224,128,12457,1,8,0:0:0:0:
224,128,12543,1,0,0:0:0:0:
224,128,12629,1,0,0:0:0:0:
224,128,12715,1,8,0:0:0:0:
224,128,12800,1,0,0:0:0:0:
224,128,12886,1,8,0:0:0:0:
256,128,12972,1,8,0:0:0:0:
224,128,13057,1,0,0:0:0:0:
224,128,13143,1,0,0:0:0:0:
224,128,13229,1,8,0:0:0:0:
224,128,13315,1,8,0:0:0:0:
224,128,13400,1,0,0:0:0:0:
224,128,13486,1,8,0:0:0:0:
224,128,13572,1,0,0:0:0:0:
224,128,13657,1,0,0:0:0:0:
224,128,13743,1,8,0:0:0:0:
224,128,13829,1,8,0:0:0:0:
224,128,13915,1,0,0:0:0:0:
224,128,14000,1,8,0:0:0:0:
224,128,14086,1,0,0:0:0:0:
224,128,14172,1,0,0:0:0:0:
224,128,14257,1,8,0:0:0:0:
224,128,14343,1,8,0:0:0:0:
224,128,14429,1,0,0:0:0:0:
224,128,14515,1,0,0:0:0:0:
224,128,14600,1,0,0:0:0:0:
256,192,14686,1,8,0:0:0:0:
256,192,14772,1,0,0:0:0:0:
256,192,14857,1,0,0:0:0:0:
256,192,14943,1,8,0:0:0:0:
256,128,15029,1,8,0:0:0:0:
224,128,15115,1,0,0:0:0:0:
224,128,15200,1,8,0:0:0:0:
224,128,15286,1,0,0:0:0:0:
224,128,15372,1,0,0:0:0:0:
224,128,15457,1,8,0:0:0:0:
224,128,15543,1,0,0:0:0:0:
224,128,15629,1,8,0:0:0:0:
256,128,15715,1,8,0:0:0:0:
224,128,15800,1,0,0:0:0:0:
224,128,15886,1,0,0:0:0:0:
224,128,15972,1,8,0:0:0:0:
224,128,16057,1,0,0:0:0:0:
224,128,16143,1,8,0:0:0:0:
224,128,16229,1,8,0:0:0:0:
224,128,16315,1,0,0:0:0:0:
224,128,16400,1,0,0:0:0:0:
224,128,16486,1,8,0:0:0:0:
224,128,16572,1,0,0:0:0:0:
224,128,16657,1,8,0:0:0:0:
224,128,16743,1,8,0:0:0:0:
224,128,16829,1,0,0:0:0:0:
224,128,16915,1,0,0:0:0:0:
224,128,17000,1,8,0:0:0:0:
224,128,17086,1,8,0:0:0:0:
224,128,17172,1,0,0:0:0:0:
224,128,17257,1,0,0:0:0:0:
224,128,17343,1,0,0:0:0:0:
256,160,17515,1,8,0:0:0:0:
256,160,17600,1,8,0:0:0:0:
256,160,17686,1,0,0:0:0:0:
256,160,17857,1,0,0:0:0:0:
288,192,18029,1,0,0:0:0:0:
288,192,18115,1,8,0:0:0:0:
288,192,18200,1,8,0:0:0:0:
288,192,18286,1,8,0:0:0:0:
288,192,18372,1,0,0:0:0:0:
288,192,18543,1,0,0:0:0:0:
192,160,18629,1,8,0:0:0:0:
256,192,18715,1,0,0:0:0:0:
256,192,18800,1,8,0:0:0:0:
256,192,18886,1,8,0:0:0:0:
256,192,19057,1,0,0:0:0:0:
224,128,19143,1,8,0:0:0:0:
256,192,19229,1,8,0:0:0:0:
256,192,19400,1,0,0:0:0:0:
256,192,19486,1,8,0:0:0:0:
256,192,19572,1,8,0:0:0:0:
256,192,19743,1,0,0:0:0:0:
256,192,19829,1,8,0:0:0:0:
256,192,19915,1,8,0:0:0:0:
256,192,20000,1,8,0:0:0:0:
256,192,20086,1,0,0:0:0:0:
288,96,20257,1,0,0:0:0:0:
288,96,20429,1,8,0:0:0:0:
288,96,20515,1,0,0:0:0:0:
288,96,20686,1,0,0:0:0:0:
224,192,20772,1,8,0:0:0:0:
288,96,20943,1,0,0:0:0:0:
288,96,21115,1,8,0:0:0:0:
224,192,21200,1,8,0:0:0:0:
224,192,21286,1,0,0:0:0:0:
224,192,21372,1,0,0:0:0:0:
256,160,21457,1,8,0:0:0:0:
256,160,21629,1,0,0:0:0:0:
256,160,21800,1,8,0:0:0:0:
256,160,21886,1,0,0:0:0:0:
256,160,22057,1,0,0:0:0:0:
256,160,22143,1,8,0:0:0:0:
256,160,22315,1,0,0:0:0:0:
256,160,22486,1,8,0:0:0:0:
224,192,22572,1,8,0:0:0:0:
224,192,22657,1,0,0:0:0:0:
224,192,22829,1,8,0:0:0:0:
288,160,23000,1,0,0:0:0:0:
288,160,23086,1,0,0:0:0:0:
288,160,23172,1,8,0:0:0:0:
288,160,23343,1,0,0:0:0:0:
288,160,23429,1,8,0:0:0:0:
288,160,23515,1,0,0:0:0:0:
288,160,23600,1,0,0:0:0:0:
288,160,23686,1,8,0:0:0:0:
256,160,23857,1,8,0:0:0:0:
256,160,23943,1,8,0:0:0:0:
256,160,24029,1,0,0:0:0:0:
256,160,24115,1,0,0:0:0:0:
256,160,24200,1,8,0:0:0:0:
256,160,24372,1,0,0:0:0:0:
256,160,24457,1,8,0:0:0:0:
256,160,24629,1,8,0:0:0:0:
256,160,24715,1,0,0:0:0:0:
256,160,24886,1,8,0:0:0:0:
256,160,25057,1,0,0:0:0:0:
256,160,25143,1,8,0:0:0:0:
256,160,25315,1,8,0:0:0:0:
256,160,25400,1,0,0:0:0:0:
256,160,25572,1,8,0:0:0:0:
224,192,25743,1,0,0:0:0:0:
224,192,25829,1,0,0:0:0:0:
224,192,25915,1,8,0:0:0:0:
224,192,26086,1,0,0:0:0:0:
224,192,26172,1,8,0:0:0:0:
224,192,26257,1,0,0:0:0:0:
224,192,26343,1,0,0:0:0:0:
224,192,26429,1,8,0:0:0:0:
256,192,26600,1,0,0:0:0:0:
256,192,26686,1,8,0:0:0:0:
256,192,26772,1,0,0:0:0:0:
256,192,26857,1,0,0:0:0:0:
256,192,26943,1,8,0:0:0:0:
256,192,27115,1,0,0:0:0:0:
256,192,27200,1,8,0:0:0:0:
256,192,27372,1,0,0:0:0:0:
256,192,27457,1,8,0:0:0:0:
256,192,27629,1,0,0:0:0:0:
256,192,27800,1,0,0:0:0:0:
256,192,27886,1,0,0:0:0:0:
256,64,27972,1,8,0:0:0:0:
256,64,28057,1,8,0:0:0:0:
256,192,28143,1,0,0:0:0:0:
256,192,28315,1,8,0:0:0:0:
224,128,28486,1,0,0:0:0:0:
224,128,28572,1,0,0:0:0:0:
224,128,28657,1,8,0:0:0:0:
224,128,28743,1,8,0:0:0:0:
224,128,28829,1,8,0:0:0:0:
224,128,28915,1,8,0:0:0:0:
224,128,29000,1,0,0:0:0:0:
224,128,29086,1,0,0:0:0:0:
224,128,29172,1,8,0:0:0:0:
224,128,29257,1,0,0:0:0:0:
224,128,29343,1,8,0:0:0:0:
224,128,29429,1,8,0:0:0:0:
224,128,29515,1,0,0:0:0:0:
224,128,29600,1,0,0:0:0:0:
224,128,29686,1,8,0:0:0:0:
224,128,29772,1,8,0:0:0:0:
224,128,29857,1,0,0:0:0:0:
224,128,29943,1,0,0:0:0:0:
224,128,30029,1,8,0:0:0:0:
224,128,30115,1,8,0:0:0:0:
224,128,30200,1,0,0:0:0:0:
224,128,30286,1,0,0:0:0:0:
224,128,30372,1,8,0:0:0:0:
224,128,30457,1,8,0:0:0:0:
160,160,30543,1,8,0:0:0:0:
224,128,30629,1,0,0:0:0:0:
224,128,30715,1,8,0:0:0:0:
224,128,30800,1,8,0:0:0:0:
192,160,30886,1,8,0:0:0:0:
224,128,30972,1,0,0:0:0:0:
224,128,31057,1,8,0:0:0:0:
256,192,31229,1,0,0:0:0:0:
256,192,31400,1,8,0:0:0:0:
256,192,31572,1,0,0:0:0:0:
256,192,31657,1,0,0:0:0:0:
256,192,31743,1,8,0:0:0:0:
288,192,31915,1,0,0:0:0:0:
288,192,32086,1,8,0:0:0:0:
288,192,32172,1,0,0:0:0:0:
288,192,32257,1,0,0:0:0:0:
288,192,32343,1,0,0:0:0:0:
288,192,32429,1,8,0:0:0:0:
288,192,32600,1,8,0:0:0:0:
288,192,32772,1,0,0:0:0:0:
288,128,32857,1,0,0:0:0:0:
288,192,32943,1,8,0:0:0:0:
288,192,33115,1,0,0:0:0:0:
288,192,33286,1,8,0:0:0:0:
256,128,33372,1,8,0:0:0:0:
288,192,33457,1,0,0:0:0:0:
288,192,33629,1,8,0:0:0:0:
288,192,33800,1,0,0:0:0:0:
256,128,33972,1,8,0:0:0:0:
256,128,34057,1,0,0:0:0:0:
256,128,34229,1,0,0:0:0:0:
256,128,34315,1,8,0:0:0:0:
256,128,34486,1,0,0:0:0:0:
288,128,34657,1,8,0:0:0:0:
288,128,34743,1,0,0:0:0:0:
288,128,34915,1,0,0:0:0:0:
288,128,35000,1,8,0:0:0:0:
288,96,35086,1,8,0:0:0:0:
288,128,35172,1,0,0:0:0:0:
288,96,35343,1,8,0:0:0:0:
288,96,35429,1,0,0:0:0:0:
288,96,35600,1,0,0:0:0:0:
288,96,35686,1,8,0:0:0:0:
288,96,35857,1,8,0:0:0:0:
288,96,36029,1,0,0:0:0:0:
288,96,36115,1,8,0:0:0:0:
288,96,36286,1,8,0:0:0:0:
288,96,36372,1,0,0:0:0:0:
288,96,36457,1,0,0:0:0:0:
288,96,36543,1,8,0:0:0:0:
288,96,36715,1,8,0:0:0:0:
288,96,36886,1,0,0:0:0:0:
288,96,36972,1,0,0:0:0:0:
288,96,37057,1,8,0:0:0:0:
288,96,37229,1,0,0:0:0:0:
288,96,37400,1,8,0:0:0:0:
288,96,37486,1,8,0:0:0:0:
288,96,37572,1,0,0:0:0:0:
288,96,37657,1,0,0:0:0:0:
288,96,37743,1,8,0:0:0:0:
288,96,37829,1,0,0:0:0:0:
288,96,37915,1,8,0:0:0:0:
288,96,38086,1,0,0:0:0:0:
288,96,38172,1,8,0:0:0:0:
288,96,38343,1,8,0:0:0:0:
288,96,38429,1,0,0:0:0:0:
288,96,38600,1,8,0:0:0:0:
288,96,38686,1,8,0:0:0:0:
288,96,38772,1,8,0:0:0:0:
288,96,38857,1,8,0:0:0:0:
288,96,38943,1,0,0:0:0:0:
288,96,39029,1,0,0:0:0:0:
288,96,39115,1,0,0:0:0:0:
288,96,39200,1,0,0:0:0:0:
288,96,39286,1,8,0:0:0:0:
288,96,39457,1,0,0:0:0:0:
288,96,39543,1,0,0:0:0:0:
256,160,39629,1,8,0:0:0:0:
256,160,39715,1,8,0:0:0:0:
288,96,39801,1,8,0:0:0:0:
288,96,39887,1,0,0:0:0:0:
256,160,39973,1,0,0:0:0:0:
256,160,40059,1,0,0:0:0:0:
256,160,40145,1,8,0:0:0:0:
256,160,40231,1,8,0:0:0:0:
256,160,40317,1,0,0:0:0:0:
256,160,40403,1,0,0:0:0:0:
256,160,40489,1,8,0:0:0:0:
256,160,40575,1,0,0:0:0:0:
256,160,40661,1,8,0:0:0:0:
256,160,40833,1,8,0:0:0:0:
256,160,41005,1,0,0:0:0:0:
256,160,41091,1,0,0:0:0:0:
256,160,41177,1,8,0:0:0:0:
256,160,41349,1,8,0:0:0:0:
256,160,41520,1,0,0:0:0:0:
256,160,41606,1,0,0:0:0:0:
256,160,41692,1,8,0:0:0:0:
256,160,41778,1,8,0:0:0:0:
256,160,41864,1,0,0:0:0:0:
256,160,41950,1,0,0:0:0:0:
256,160,42036,1,8,0:0:0:0:
256,160,42379,1,8,0:0:0:0:
320,160,42551,1,0,0:0:0:0:
320,160,42637,1,0,0:0:0:0:
320,160,42723,1,8,0:0:0:0:
320,160,42809,1,0,0:0:0:0:
320,160,42981,1,8,0:0:0:0:
320,160,43067,1,0,0:0:0:0:
320,160,43239,1,8,0:0:0:0:
320,160,43325,1,0,0:0:0:0:
320,160,43411,1,8,0:0:0:0:
288,160,43755,1,8,0:0:0:0:
288,160,43927,1,8,0:0:0:0:
288,160,44013,1,0,0:0:0:0:
288,160,44099,1,8,0:0:0:0:
288,160,44184,1,0,0:0:0:0:
288,160,44356,1,8,0:0:0:0:
288,160,44442,1,0,0:0:0:0:
288,160,44614,1,0,0:0:0:0:
256,192,44700,1,0,0:0:0:0:
288,160,44786,1,8,0:0:0:0:
256,192,45130,1,8,0:0:0:0:
256,192,45302,1,0,0:0:0:0:
256,192,45388,1,8,0:0:0:0:
256,192,45474,1,0,0:0:0:0:
256,192,45560,1,0,0:0:0:0:
256,192,45732,1,8,0:0:0:0:
256,192,45818,1,0,0:0:0:0:
256,192,45990,1,8,0:0:0:0:
256,192,46076,1,0,0:0:0:0:
256,192,46162,1,8,0:0:0:0:
256,192,46333,1,0,0:0:0:0:
256,192,46419,1,0,0:0:0:0:
256,192,46505,1,8,0:0:0:0:
256,192,46591,1,0,0:0:0:0:
256,192,46677,1,8,0:0:0:0:
256,192,46849,1,8,0:0:0:0:
256,192,46935,1,0,0:0:0:0:
256,192,47107,1,8,0:0:0:0:
256,192,47193,1,0,0:0:0:0:
256,192,47365,1,8,0:0:0:0:
256,192,47451,1,0,0:0:0:0:
256,192,47537,1,8,0:0:0:0:
224,192,47881,1,8,0:0:0:0:
224,192,48053,1,0,0:0:0:0:
224,192,48139,1,8,0:0:0:0:
224,192,48225,1,8,0:0:0:0:
224,192,48397,1,0,0:0:0:0:
224,192,48482,1,8,0:0:0:0:
224,192,48654,1,0,0:0:0:0:
224,192,48740,1,8,0:0:0:0:
224,192,48826,1,0,0:0:0:0:
224,192,48912,1,8,0:0:0:0:
192,128,49170,1,8,0:0:0:0:
192,128,49428,1,8,0:0:0:0:
192,128,49514,1,0,0:0:0:0:
192,128,49600,1,8,0:0:0:0:
192,128,49686,1,8,0:0:0:0:
192,128,49772,1,0,0:0:0:0:
192,128,49858,1,0,0:0:0:0:
192,128,49944,1,8,0:0:0:0:
256,192,50288,1,4,0:0:0:0:
256,192,50460,1,0,0:0:0:0:
256,192,50546,1,0,0:0:0:0:
256,192,50631,1,8,0:0:0:0:
256,192,50803,1,12,0:0:0:0:
128,128,50975,1,0,0:0:0:0:
128,128,51061,1,0,0:0:0:0:
256,192,51147,1,8,0:0:0:0:
256,192,51319,1,4,0:0:0:0:
256,192,51491,1,8,0:0:0:0:
256,128,51663,1,0,0:0:0:0:
256,128,51747,1,8,0:0:0:0:
256,128,51832,1,0,0:0:0:0:
256,128,51917,1,0,0:0:0:0:
256,128,52001,1,8,0:0:0:0:
256,128,52171,1,0,0:0:0:0:
256,128,52256,1,8,0:0:0:0:
256,128,52340,1,0,0:0:0:0:
224,128,52425,1,0,0:0:0:0:
224,128,52510,1,8,0:0:0:0:
224,128,52595,1,0,0:0:0:0:
224,128,52679,1,8,0:0:0:0:
224,128,52769,1,8,0:0:0:0:
224,128,52860,1,8,0:0:0:0:
288,96,52951,1,0,0:0:0:0:
288,96,53042,1,8,0:0:0:0:
224,128,53229,1,0,0:0:0:0:
256,160,53400,1,8,0:0:0:0:
320,160,53572,1,0,0:0:0:0:
320,160,53658,1,0,0:0:0:0:
320,160,53744,1,8,0:0:0:0:
320,160,53829,1,0,0:0:0:0:
320,160,54001,1,8,0:0:0:0:
320,160,54086,1,0,0:0:0:0:
320,160,54258,1,8,0:0:0:0:
320,160,54344,1,0,0:0:0:0:
320,160,54429,1,8,0:0:0:0:
224,128,54601,1,0,0:0:0:0:
288,160,54772,1,8,0:0:0:0:
288,160,54944,1,8,0:0:0:0:
288,160,55029,1,0,0:0:0:0:
288,160,55115,1,8,0:0:0:0:
288,160,55201,1,0,0:0:0:0:
288,160,55372,1,8,0:0:0:0:
288,160,55458,1,0,0:0:0:0:
288,160,55629,1,0,0:0:0:0:
256,192,55715,1,0,0:0:0:0:
288,160,55801,1,8,0:0:0:0:
224,128,55972,1,0,0:0:0:0:
256,192,56144,1,8,0:0:0:0:
256,192,56315,1,0,0:0:0:0:
256,192,56401,1,8,0:0:0:0:
256,192,56486,1,0,0:0:0:0:
256,192,56572,1,0,0:0:0:0:
256,192,56744,1,8,0:0:0:0:
256,192,56829,1,0,0:0:0:0:
256,192,57001,1,8,0:0:0:0:
256,192,57086,1,0,0:0:0:0:
256,192,57172,1,8,0:0:0:0:
256,96,57258,1,8,0:0:0:0:
256,192,57344,1,0,0:0:0:0:
256,192,57430,1,0,0:0:0:0:
256,96,57516,1,8,0:0:0:0:
256,96,57602,1,8,0:0:0:0:
256,192,57687,1,0,0:0:0:0:
256,192,57773,1,0,0:0:0:0:
256,192,57859,1,8,0:0:0:0:
256,192,57941,1,0,0:0:0:0:
256,192,58108,1,0,0:0:0:0:
256,192,58191,1,8,0:0:0:0:
256,96,58276,1,0,0:0:0:0:
256,192,58362,1,0,0:0:0:0:
256,192,58448,1,0,0:0:0:0:
256,192,58533,1,8,0:0:0:0:
256,96,58704,1,0,0:0:0:0:
224,192,58876,1,8,0:0:0:0:
224,192,59047,1,0,0:0:0:0:
224,192,59133,1,8,0:0:0:0:
224,192,59219,1,8,0:0:0:0:
224,192,59390,1,0,0:0:0:0:
224,192,59476,1,8,0:0:0:0:
224,192,59647,1,0,0:0:0:0:
224,192,59733,1,8,0:0:0:0:
224,192,59904,1,12,0:0:0:0:
192,128,60131,1,0,0:0:0:0:
160,160,60244,1,0,0:0:0:0:
192,128,60358,1,0,0:0:0:0:
192,128,60585,1,12,0:0:0:0:
320,96,60813,1,0,0:0:0:0:
224,96,60926,1,0,0:0:0:0:
224,96,61051,1,0,0:0:0:0:
256,192,61301,1,12,0:0:0:0:
192,96,61638,1,0,0:0:0:0:
192,96,61723,1,0,0:0:0:0:
192,96,61807,1,0,0:0:0:0:
192,96,61975,1,12,0:0:0:0:
192,96,62312,1,0,0:0:0:0:
192,96,62397,1,0,0:0:0:0:
192,96,62481,1,0,0:0:0:0:
192,96,62650,1,12,0:0:0:0:
192,96,62997,1,12,0:0:0:0:
192,96,63346,1,12,0:0:0:0:
192,96,63723,1,12,0:0:0:0:
256,192,63989,1,8,0:0:0:0:
256,192,64073,1,0,0:0:0:0:
256,192,64158,1,0,0:0:0:0:
256,192,64243,1,8,0:0:0:0:
256,192,64327,1,0,0:0:0:0:
256,192,64412,1,0,0:0:0:0:
256,192,64497,1,8,0:0:0:0:
256,192,64582,1,0,0:0:0:0:
256,192,64666,1,0,0:0:0:0:
256,192,64751,1,8,0:0:0:0:
256,192,64836,1,0,0:0:0:0:
256,192,64921,1,0,0:0:0:0:
256,192,65005,1,8,0:0:0:0:
256,192,65090,1,0,0:0:0:0:
256,192,65175,1,8,0:0:0:0:
256,192,65260,1,0,0:0:0:0:
256,192,65344,1,8,0:0:0:0:
256,192,65429,1,8,0:0:0:0:
256,192,65515,1,0,0:0:0:0:
256,192,65601,1,8,0:0:0:0:
256,192,65686,1,0,0:0:0:0:
256,192,65772,1,0,0:0:0:0:
256,192,65858,1,8,0:0:0:0:
256,192,65944,1,0,0:0:0:0:
256,192,66029,1,8,0:0:0:0:
256,192,66115,1,8,0:0:0:0:
256,192,66201,1,0,0:0:0:0:
256,192,66286,1,8,0:0:0:0:
256,192,66372,1,8,0:0:0:0:
256,192,66458,1,0,0:0:0:0:
256,192,66544,1,8,0:0:0:0:
256,192,66629,1,0,0:0:0:0:
256,192,66715,1,8,0:0:0:0:
256,192,66801,1,0,0:0:0:0:
256,192,66886,1,0,0:0:0:0:
256,192,66972,1,8,0:0:0:0:
256,192,67058,1,0,0:0:0:0:
256,192,67144,1,0,0:0:0:0:
256,192,67229,1,8,0:0:0:0:
256,192,67315,1,0,0:0:0:0:
256,192,67401,1,0,0:0:0:0:
256,192,67486,1,8,0:0:0:0:
256,192,67572,1,0,0:0:0:0:
256,192,67658,1,0,0:0:0:0:
256,192,67744,1,8,0:0:0:0:
256,192,67829,1,0,0:0:0:0:
256,192,67915,1,8,0:0:0:0:
256,192,68001,1,0,0:0:0:0:
256,192,68086,1,8,0:0:0:0:
256,192,68172,1,8,0:0:0:0:
256,192,68258,1,0,0:0:0:0:
256,192,68344,1,8,0:0:0:0:
256,192,68429,1,0,0:0:0:0:
256,192,68515,1,0,0:0:0:0:
256,192,68601,1,8,0:0:0:0:
256,192,68686,1,0,0:0:0:0:
256,192,68772,1,8,0:0:0:0:
256,192,68858,1,0,0:0:0:0:
256,192,68944,1,0,0:0:0:0:
256,192,69029,1,8,0:0:0:0:
256,192,69115,1,0,0:0:0:0:
256,192,69201,1,0,0:0:0:0:
256,192,69286,1,8,0:0:0:0:
160,160,69372,1,0,0:0:0:0:
256,192,69458,1,8,0:0:0:0:
256,192,69544,1,0,0:0:0:0:
256,192,69629,1,0,0:0:0:0:
256,192,69715,1,8,0:0:0:0:
256,192,69801,1,0,0:0:0:0:
256,192,69886,1,0,0:0:0:0:
256,192,69972,1,8,0:0:0:0:
256,192,70058,1,0,0:0:0:0:
256,192,70144,1,0,0:0:0:0:
256,192,70229,1,8,0:0:0:0:
256,192,70315,1,0,0:0:0:0:
256,192,70401,1,0,0:0:0:0:
256,192,70486,1,8,0:0:0:0:
256,192,70574,1,0,0:0:0:0:
256,192,70662,1,8,0:0:0:0:
256,192,70750,1,0,0:0:0:0:
256,192,70838,1,8,0:0:0:0:
256,192,70923,1,8,0:0:0:0:
256,192,71009,1,0,0:0:0:0:
256,192,71095,1,8,0:0:0:0:
256,192,71180,1,0,0:0:0:0:
256,192,71266,1,0,0:0:0:0:
256,192,71352,1,8,0:0:0:0:
256,192,71438,1,0,0:0:0:0:
256,192,71523,1,8,0:0:0:0:
256,192,71609,1,8,0:0:0:0:
256,192,71695,1,0,0:0:0:0:
256,192,71780,1,8,0:0:0:0:
256,192,71866,1,8,0:0:0:0:
256,192,71953,1,0,0:0:0:0:
256,192,72040,1,8,0:0:0:0:
256,192,72127,1,0,0:0:0:0:
256,192,72214,1,8,0:0:0:0:
256,192,72299,1,0,0:0:0:0:
256,192,72385,1,0,0:0:0:0:
256,192,72471,1,8,0:0:0:0:
256,192,72556,1,0,0:0:0:0:
256,192,72642,1,0,0:0:0:0:
256,192,72728,1,8,0:0:0:0:
256,192,72814,1,0,0:0:0:0:
256,192,72899,1,0,0:0:0:0:
256,192,72983,1,8,0:0:0:0:
256,192,73067,1,0,0:0:0:0:
256,192,73151,1,0,0:0:0:0:
256,192,73236,1,8,0:0:0:0:
256,192,73323,1,0,0:0:0:0:
256,192,73411,1,8,0:0:0:0:
256,192,73499,1,0,0:0:0:0:
256,192,73586,1,8,0:0:0:0:
256,192,73670,1,8,0:0:0:0:
288,128,73755,1,0,0:0:0:0:
256,192,73840,1,0,0:0:0:0:
256,192,73924,1,8,0:0:0:0:
256,192,74009,1,8,0:0:0:0:
256,192,74095,1,0,0:0:0:0:
256,192,74181,1,0,0:0:0:0:
256,192,74266,1,8,0:0:0:0:
256,192,74352,1,0,0:0:0:0:
256,192,74438,1,8,0:0:0:0:
256,192,74524,1,0,0:0:0:0:
256,192,74609,1,8,0:0:0:0:
256,192,74696,1,8,0:0:0:0:
256,192,74783,1,8,0:0:0:0:
256,192,74870,1,8,0:0:0:0:
256,192,74957,1,0,0:0:0:0:
256,128,75129,1,8,0:0:0:0:
256,128,75301,1,0,0:0:0:0:
256,128,75388,1,0,0:0:0:0:
256,128,75474,1,8,0:0:0:0:
256,128,75646,1,0,0:0:0:0:
256,128,75819,1,8,0:0:0:0:
256,128,75991,1,0,0:0:0:0:
256,128,76077,1,0,0:0:0:0:
256,128,76163,1,8,0:0:0:0:
256,128,76250,1,8,0:0:0:0:
256,128,76336,1,0,0:0:0:0:
256,128,76508,1,8,0:0:0:0:
256,128,76681,1,0,0:0:0:0:
256,128,76767,1,0,0:0:0:0:
256,128,76853,1,8,0:0:0:0:
256,128,77025,1,0,0:0:0:0:
256,128,77198,1,8,0:0:0:0:
256,128,77370,1,0,0:0:0:0:
256,128,77457,1,0,0:0:0:0:
256,128,77543,1,8,0:0:0:0:
256,160,77629,1,0,0:0:0:0:
256,160,77715,1,0,0:0:0:0:
256,160,77888,1,8,0:0:0:0:
256,160,78060,1,0,0:0:0:0:
256,160,78146,1,0,0:0:0:0:
256,160,78232,1,8,0:0:0:0:
256,160,78405,1,0,0:0:0:0:
256,160,78577,1,8,0:0:0:0:
256,160,78750,1,0,0:0:0:0:
224,96,78836,1,0,0:0:0:0:
224,96,78922,1,8,0:0:0:0:
224,96,79094,1,0,0:0:0:0:
224,96,79265,1,8,0:0:0:0:
224,96,79351,1,0,0:0:0:0:
224,96,79522,1,0,0:0:0:0:
224,96,79608,1,8,0:0:0:0:
224,96,79779,1,8,0:0:0:0:
224,96,79951,1,0,0:0:0:0:
224,96,80036,1,0,0:0:0:0:
224,96,80122,1,8,0:0:0:0:
224,96,80208,1,8,0:0:0:0:
224,96,80294,1,0,0:0:0:0:
256,96,80379,1,8,0:0:0:0:
192,32,80465,1,0,0:0:0:0:
256,128,80636,1,8,0:0:0:0:
256,128,80808,1,0,0:0:0:0:
256,128,80894,1,0,0:0:0:0:
256,128,80979,1,8,0:0:0:0:
256,128,81151,1,0,0:0:0:0:
256,128,81322,1,8,0:0:0:0:
256,128,81494,1,0,0:0:0:0:
256,128,81579,1,0,0:0:0:0:
256,128,81665,1,8,0:0:0:0:
256,128,81751,1,8,0:0:0:0:
256,128,81836,1,0,0:0:0:0:
256,128,82008,1,8,0:0:0:0:
256,128,82179,1,0,0:0:0:0:
256,128,82265,1,0,0:0:0:0:
256,128,82351,1,8,0:0:0:0:
256,128,82522,1,0,0:0:0:0:
256,128,82694,1,8,0:0:0:0:
256,128,82865,1,0,0:0:0:0:
256,128,82951,1,0,0:0:0:0:
256,128,83036,1,8,0:0:0:0:
192,64,83122,1,0,0:0:0:0:
192,64,83208,1,8,0:0:0:0:
256,160,83380,1,0,0:0:0:0:
256,160,83465,1,0,0:0:0:0:
256,160,83551,1,8,0:0:0:0:
224,96,83722,1,8,0:0:0:0:
192,96,83894,1,0,0:0:0:0:
192,96,83979,1,0,0:0:0:0:
256,160,84065,1,8,0:0:0:0:
256,160,84236,1,0,0:0:0:0:
224,96,84322,1,8,0:0:0:0:
192,64,84408,1,0,0:0:0:0:
192,64,84494,1,0,0:0:0:0:
224,96,84579,1,8,0:0:0:0:
224,96,84751,1,8,0:0:0:0:
224,96,84836,1,0,0:0:0:0:
224,96,85008,1,0,0:0:0:0:
224,96,85094,1,8,0:0:0:0:
192,64,85265,1,8,0:0:0:0:
192,64,85351,1,8,0:0:0:0:
224,96,85436,1,0,0:0:0:0:
224,96,85522,1,0,0:0:0:0:
224,96,85608,1,8,0:0:0:0:
224,96,85696,1,8,0:0:0:0:
224,96,85785,1,0,0:0:0:0:
256,96,85875,1,8,0:0:0:0:
192,32,85966,1,0,0:0:0:0:
192,0,86051,1,0,0:0:0:0:
192,0,86137,1,0,0:0:0:0:
192,64,86223,1,0,0:0:0:0:
256,64,86308,1,8,0:0:0:0:
256,64,86480,1,8,0:0:0:0:
256,64,86566,1,8,0:0:0:0:
256,64,86651,1,0,0:0:0:0:
256,64,86823,1,8,0:0:0:0:
256,64,86994,1,0,0:0:0:0:
256,64,87080,1,0,0:0:0:0:
256,64,87166,1,8,0:0:0:0:
192,32,87337,1,0,0:0:0:0:
192,0,87423,1,0,0:0:0:0:
192,0,87508,1,0,0:0:0:0:
192,64,87594,1,0,0:0:0:0:
256,64,87680,1,8,0:0:0:0:
256,96,87851,1,8,0:0:0:0:
224,64,87937,1,8,0:0:0:0:
256,64,88023,1,0,0:0:0:0:
256,64,88194,1,8,0:0:0:0:
256,64,88366,1,0,0:0:0:0:
256,64,88451,1,0,0:0:0:0:
256,64,88537,1,8,0:0:0:0:
224,64,88708,1,0,0:0:0:0:
224,64,88794,1,0,0:0:0:0:
224,64,88880,1,0,0:0:0:0:
224,64,88966,1,0,0:0:0:0:
224,64,89051,1,8,0:0:0:0:
224,64,89223,1,8,0:0:0:0:
256,160,89308,1,8,0:0:0:0:
256,160,89394,1,0,0:0:0:0:
224,96,89566,1,8,0:0:0:0:
224,64,89737,1,8,0:0:0:0:
224,64,89823,1,0,0:0:0:0:
224,64,89908,1,0,0:0:0:0:
224,64,89994,1,0,0:0:0:0:
224,64,90080,1,8,0:0:0:0:
256,192,90251,1,0,0:0:0:0:
256,192,90337,1,0,0:0:0:0:
256,192,90423,1,8,0:0:0:0:
256,192,90508,1,8,0:0:0:0:
256,192,90594,1,0,0:0:0:0:
256,192,90680,1,0,0:0:0:0:
256,192,90766,1,8,0:0:0:0:
256,192,90851,1,0,0:0:0:0:
256,192,90937,1,0,0:0:0:0:
256,192,91023,1,8,0:0:0:0:
256,192,91108,1,0,0:0:0:0:
256,192,91194,1,0,0:0:0:0:
256,192,91280,1,8,0:0:0:0:
256,192,91366,1,0,0:0:0:0:
256,192,91451,1,8,0:0:0:0:
192,0,91537,1,8,0:0:0:0:
192,0,91623,1,0,0:0:0:0:
192,64,91709,1,0,0:0:0:0:
256,64,91795,1,8,0:0:0:0:
256,64,91968,1,8,0:0:0:0:
256,64,92054,1,8,0:0:0:0:
256,64,92140,1,0,0:0:0:0:
256,64,92313,1,8,0:0:0:0:
256,64,92485,1,0,0:0:0:0:
256,64,92571,1,0,0:0:0:0:
256,64,92657,1,8,0:0:0:0:
288,192,92830,1,12,0:0:0:0:
288,192,93060,1,4,0:0:0:0:
288,192,93290,1,12,0:0:0:0:
288,192,93519,1,12,0:0:0:0:
288,192,93749,1,4,0:0:0:0:
288,192,94037,1,12,0:0:0:0:
288,160,94287,1,0,0:0:0:0:
288,160,94401,1,8,0:0:0:0:
288,160,94515,1,0,0:0:0:0:
256,128,94629,1,0,0:0:0:0:
256,128,94744,1,8,0:0:0:0:
256,128,94858,1,8,0:0:0:0:
256,128,94972,1,0,0:0:0:0:
256,128,95087,1,8,0:0:0:0:
256,128,95201,1,0,0:0:0:0:
256,128,95315,1,0,0:0:0:0:
256,128,95429,1,8,0:0:0:0:
256,128,95544,1,8,0:0:0:0:
352,128,95658,1,8,0:0:0:0:
352,128,95746,1,0,0:0:0:0:
352,128,95834,1,8,0:0:0:0:
352,128,95922,1,8,0:0:0:0:
352,128,96010,1,0,0:0:0:0:
352,128,96096,1,0,0:0:0:0:
352,128,96183,1,8,0:0:0:0:
352,128,96270,1,8,0:0:0:0:
352,128,96356,1,8,0:0:0:0:
352,128,96443,1,0,0:0:0:0:
352,128,96530,1,8,0:0:0:0:
352,128,96616,1,8,0:0:0:0:
352,128,96703,1,0,0:0:0:0:
352,128,96787,1,0,0:0:0:0:
352,128,96871,1,8,0:0:0:0:
352,128,96955,1,0,0:0:0:0:
352,128,97040,1,8,0:0:0:0:
352,128,97125,1,8,0:0:0:0:
352,128,97210,1,0,0:0:0:0:
352,128,97295,1,8,0:0:0:0:
352,128,97380,1,8,0:0:0:0:
352,128,97466,1,0,0:0:0:0:
352,128,97551,1,8,0:0:0:0:
352,128,97636,1,8,0:0:0:0:
352,128,97721,1,0,0:0:0:0:
352,128,97807,1,8,0:0:0:0:
352,128,97892,1,8,0:0:0:0:
352,128,97977,1,0,0:0:0:0:
352,128,98062,1,8,0:0:0:0:
352,128,98147,1,8,0:0:0:0:
352,128,98233,1,0,0:0:0:0:
352,128,98318,1,8,0:0:0:0:
352,128,98403,1,8,0:0:0:0:
256,160,98574,1,0,0:0:0:0:
256,160,98659,1,0,0:0:0:0:
256,160,98744,1,8,0:0:0:0:
256,160,98915,1,0,0:0:0:0:
256,160,99000,1,0,0:0:0:0:
256,160,99085,1,8,0:0:0:0:
256,160,99255,1,0,0:0:0:0:
256,160,99341,1,8,0:0:0:0:
256,160,99426,1,8,0:0:0:0:
256,160,99596,1,0,0:0:0:0:
256,160,99682,1,8,0:0:0:0:
256,160,99767,1,8,0:0:0:0:
256,160,99937,1,0,0:0:0:0:
256,160,100022,1,8,0:0:0:0:
256,160,100108,1,8,0:0:0:0:
256,160,100278,1,8,0:0:0:0:
256,160,100363,1,8,0:0:0:0:
256,160,100449,1,8,0:0:0:0:
224,128,100619,1,8,0:0:0:0:
224,128,100704,1,8,0:0:0:0:
224,128,100790,1,8,0:0:0:0:
224,128,100960,1,8,0:0:0:0:
224,128,101045,1,8,0:0:0:0:
224,128,101130,1,8,0:0:0:0:
224,128,101301,1,0,0:0:0:0:
224,128,101386,1,8,0:0:0:0:
224,128,101471,1,8,0:0:0:0:
224,128,101642,1,0,0:0:0:0:
256,128,101727,1,8,0:0:0:0:
224,128,101812,1,8,0:0:0:0:
224,128,101983,1,0,0:0:0:0:
224,128,102068,1,8,0:0:0:0:
224,128,102153,1,8,0:0:0:0:
224,128,102324,1,0,0:0:0:0:
256,128,102409,1,0,0:0:0:0:
224,128,102494,1,8,0:0:0:0:
256,128,102579,1,8,0:0:0:0:
256,128,102665,1,8,0:0:0:0:
256,128,102750,1,0,0:0:0:0:
256,128,102835,1,8,0:0:0:0:
256,128,102920,1,8,0:0:0:0:
256,128,103005,1,0,0:0:0:0:
256,128,103091,1,0,0:0:0:0:
256,128,103176,1,8,0:0:0:0:
256,128,103261,1,8,0:0:0:0:
256,128,103346,1,0,0:0:0:0:
192,96,103432,1,0,0:0:0:0:
192,96,103517,1,8,0:0:0:0:
288,160,103602,1,8,0:0:0:0:
288,160,103687,1,8,0:0:0:0:
288,160,103772,1,0,0:0:0:0:
288,160,103858,1,8,0:0:0:0:
288,160,103943,1,8,0:0:0:0:
288,160,104028,1,0,0:0:0:0:
288,160,104113,1,0,0:0:0:0:
288,160,104199,1,8,0:0:0:0:
288,160,104284,1,8,0:0:0:0:
288,160,104369,1,0,0:0:0:0:
288,160,104454,1,0,0:0:0:0:
288,160,104540,1,8,0:0:0:0:
288,160,104626,1,8,0:0:0:0:
288,160,104713,1,8,0:0:0:0:
288,160,104800,1,0,0:0:0:0:
288,160,104886,1,8,0:0:0:0:
288,160,104973,1,8,0:0:0:0:
288,160,105060,1,0,0:0:0:0:
288,160,105146,1,0,0:0:0:0:
288,160,105233,1,8,0:0:0:0:
288,160,105320,1,8,0:0:0:0:
288,160,105407,1,0,0:0:0:0:
288,160,105493,1,0,0:0:0:0:
288,160,105580,1,8,0:0:0:0:
224,128,105753,1,8,0:0:0:0:
224,128,105927,1,0,0:0:0:0:
224,128,106013,1,0,0:0:0:0:
224,128,106100,1,8,0:0:0:0:
256,192,106620,1,4,0:0:0:0:
352,128,106791,1,8,0:0:0:0:
192,128,106877,1,8,0:0:0:0:
192,128,106963,1,8,0:0:0:0:
192,128,107135,1,4,0:0:0:0:
224,96,107306,1,8,0:0:0:0:
224,96,107478,1,8,0:0:0:0:
224,96,107650,1,4,0:0:0:0:
256,96,107821,1,8,0:0:0:0:
256,96,107907,1,8,0:0:0:0:
256,96,107998,1,8,0:0:0:0:
256,96,108182,1,4,0:0:0:0:
256,96,108365,1,8,0:0:0:0:
256,96,108549,1,8,0:0:0:0:
256,96,108732,1,4,0:0:0:0:
256,96,108885,1,8,0:0:0:0:
256,96,108962,1,8,0:0:0:0:
256,96,109039,1,0,0:0:0:0:
256,96,109193,1,4,0:0:0:0:
256,96,109367,1,8,0:0:0:0:
256,96,109542,1,8,0:0:0:0:
256,160,109717,1,8,0:0:0:0:
256,160,109800,1,8,0:0:0:0:
256,160,109883,1,0,0:0:0:0:
256,128,109967,1,0,0:0:0:0:
256,160,110050,1,0,0:0:0:0:
256,160,110217,1,8,0:0:0:0:
256,160,110302,1,8,0:0:0:0:
256,160,110387,1,0,0:0:0:0:
256,128,110472,1,0,0:0:0:0:
256,160,110557,1,0,0:0:0:0:
256,160,110727,1,8,0:0:0:0:
192,128,110814,1,8,0:0:0:0:
192,128,110901,1,0,0:0:0:0:
192,128,110989,1,0,0:0:0:0:
192,128,111076,1,0,0:0:0:0:
192,128,111163,1,0,0:0:0:0:
192,128,111251,1,8,0:0:0:0:
192,128,111337,1,8,0:0:0:0:
192,128,111424,1,0,0:0:0:0:
192,128,111511,1,0,0:0:0:0:
192,128,111598,1,0,0:0:0:0:
192,128,111685,1,0,0:0:0:0:
192,128,111772,1,8,0:0:0:0:
224,128,111943,1,0,0:0:0:0:
224,128,112029,1,0,0:0:0:0:
224,128,112114,1,8,0:0:0:0:
224,128,112286,1,0,0:0:0:0:
224,128,112457,1,8,0:0:0:0:
224,128,112629,1,0,0:0:0:0:
224,128,112714,1,0,0:0:0:0:
224,128,112800,1,8,0:0:0:0:
192,96,112972,1,0,0:0:0:0:
224,128,113143,1,8,0:0:0:0:
224,128,113229,1,0,0:0:0:0:
224,128,113314,1,0,0:0:0:0:
192,160,113400,1,0,0:0:0:0:
224,128,113486,1,8,0:0:0:0:
224,128,113657,1,0,0:0:0:0:
224,128,113829,1,8,0:0:0:0:
224,128,113914,1,0,0:0:0:0:
224,128,114000,1,0,0:0:0:0:
192,160,114086,1,0,0:0:0:0:
224,128,114172,1,8,0:0:0:0:
224,128,114343,1,0,0:0:0:0:
224,128,114514,1,8,0:0:0:0:
192,160,114600,1,8,0:0:0:0:
224,128,114686,1,0,0:0:0:0:
224,128,114772,1,0,0:0:0:0:
224,128,114857,1,8,0:0:0:0:
192,160,114943,1,8,0:0:0:0:
224,128,115029,1,0,0:0:0:0:
224,128,115200,1,8,0:0:0:0:
192,160,115286,1,8,0:0:0:0:
224,128,115372,1,0,0:0:0:0:
224,128,115457,1,0,0:0:0:0:
224,128,115543,1,8,0:0:0:0:
192,160,115629,1,8,0:0:0:0:
224,128,115714,1,0,0:0:0:0:
256,192,115886,1,8,0:0:0:0:
256,192,115972,1,0,0:0:0:0:
256,192,116057,1,0,0:0:0:0:
256,192,116143,1,8,0:0:0:0:
256,192,116229,1,0,0:0:0:0:
256,192,116314,1,0,0:0:0:0:
256,192,116400,1,8,0:0:0:0:
256,192,116486,1,0,0:0:0:0:
256,192,116572,1,0,0:0:0:0:
256,192,116657,1,8,0:0:0:0:
256,192,116743,1,0,0:0:0:0:
256,192,116829,1,0,0:0:0:0:
256,192,116914,1,8,0:0:0:0:
256,192,117000,1,0,0:0:0:0:
256,192,117086,1,8,0:0:0:0:
256,192,117172,1,0,0:0:0:0:
256,192,117257,1,8,0:0:0:0:
256,192,117343,1,8,0:0:0:0:
256,192,117429,1,0,0:0:0:0:
256,192,117514,1,8,0:0:0:0:
256,192,117600,1,0,0:0:0:0:
256,192,117686,1,0,0:0:0:0:
256,192,117772,1,8,0:0:0:0:
256,192,117857,1,0,0:0:0:0:
256,192,117943,1,8,0:0:0:0:
256,192,118029,1,8,0:0:0:0:
256,192,118114,1,0,0:0:0:0:
256,192,118200,1,8,0:0:0:0:
256,192,118286,1,8,0:0:0:0:
256,192,118372,1,0,0:0:0:0:
256,192,118457,1,8,0:0:0:0:
256,192,118543,1,0,0:0:0:0:
256,192,118629,1,8,0:0:0:0:
256,192,118714,1,0,0:0:0:0:
256,192,118800,1,0,0:0:0:0:
256,192,118886,1,8,0:0:0:0:
256,192,118972,1,0,0:0:0:0:
256,192,119057,1,0,0:0:0:0:
256,192,119143,1,8,0:0:0:0:
256,192,119229,1,0,0:0:0:0:
256,192,119314,1,0,0:0:0:0:
256,192,119400,1,8,0:0:0:0:
256,192,119486,1,0,0:0:0:0:
256,192,119572,1,0,0:0:0:0:
256,192,119657,1,8,0:0:0:0:
256,192,119743,1,0,0:0:0:0:
256,192,119829,1,8,0:0:0:0:
256,192,119914,1,0,0:0:0:0:
256,192,120000,1,8,0:0:0:0:
256,192,120086,1,8,0:0:0:0:
256,192,120172,1,0,0:0:0:0:
256,192,120257,1,8,0:0:0:0:
256,192,120343,1,0,0:0:0:0:
256,192,120429,1,0,0:0:0:0:
256,192,120514,1,8,0:0:0:0:
256,192,120600,1,0,0:0:0:0:
256,192,120686,1,8,0:0:0:0:
256,192,120772,1,0,0:0:0:0:
256,192,120857,1,0,0:0:0:0:
256,192,120943,1,8,0:0:0:0:
256,192,121029,1,0,0:0:0:0:
256,192,121114,1,0,0:0:0:0:
256,192,121200,1,8,0:0:0:0:
256,192,121286,1,0,0:0:0:0:
256,192,121372,1,8,0:0:0:0:
256,192,121457,1,0,0:0:0:0:
256,192,121543,1,0,0:0:0:0:
256,192,121629,1,8,0:0:0:0:
256,192,121714,1,0,0:0:0:0:
256,192,121800,1,0,0:0:0:0:
256,192,121886,1,8,0:0:0:0:
256,192,121972,1,0,0:0:0:0:
256,192,122057,1,0,0:0:0:0:
256,192,122143,1,8,0:0:0:0:
256,192,122229,1,0,0:0:0:0:
256,192,122314,1,0,0:0:0:0:
256,192,122400,1,8,0:0:0:0:
256,192,122486,1,0,0:0:0:0:
256,192,122572,1,8,0:0:0:0:
256,192,122657,1,0,0:0:0:0:
256,192,122743,1,8,0:0:0:0:
256,192,122829,1,8,0:0:0:0:
256,192,122914,1,0,0:0:0:0:
256,192,123000,1,0,0:0:0:0:
256,192,123086,1,8,0:0:0:0:
256,192,123172,1,8,0:0:0:0:
256,192,123257,1,0,0:0:0:0:
256,192,123343,1,0,0:0:0:0:
256,192,123429,1,8,0:0:0:0:
256,192,123514,1,8,0:0:0:0:
256,192,123600,1,0,0:0:0:0:
256,192,123686,1,0,0:0:0:0:
256,192,123772,1,8,0:0:0:0:
256,192,123857,1,8,0:0:0:0:
256,192,123943,1,0,0:0:0:0:
256,192,124029,1,0,0:0:0:0:
256,192,124114,1,8,0:0:0:0:
256,192,124200,1,8,0:0:0:0:
256,192,124286,1,0,0:0:0:0:
256,192,124372,1,8,0:0:0:0:
256,192,124457,1,0,0:0:0:0:
256,192,124543,1,0,0:0:0:0:
256,192,124629,1,8,0:0:0:0:
256,192,124714,1,8,0:0:0:0:
256,192,124800,1,0,0:0:0:0:
256,192,124886,1,8,0:0:0:0:
256,192,124972,1,0,0:0:0:0:
256,192,125057,1,0,0:0:0:0:
256,192,125143,1,8,0:0:0:0:
256,192,125229,1,8,0:0:0:0:
256,192,125314,1,0,0:0:0:0:
256,192,125400,1,0,0:0:0:0:
256,192,125486,1,8,0:0:0:0:
256,192,125572,1,8,0:0:0:0:
288,128,125657,1,8,0:0:0:0:
256,192,125743,1,8,0:0:0:0:
256,192,125829,1,0,0:0:0:0:
256,192,125914,1,0,0:0:0:0:
256,192,126000,1,0,0:0:0:0:
256,192,126086,1,0,0:0:0:0:
256,192,126172,1,8,0:0:0:0:
256,192,126257,1,8,0:0:0:0:
256,192,126343,1,0,0:0:0:0:
256,192,126429,1,0,0:0:0:0:
256,192,126514,1,8,0:0:0:0:
256,192,126600,1,0,0:0:0:0:
256,192,126686,1,0,0:0:0:0:
256,192,126857,1,8,0:0:0:0:
256,192,126943,1,0,0:0:0:0:
256,192,127029,1,0,0:0:0:0:
256,192,127114,1,8,0:0:0:0:
256,192,127200,1,0,0:0:0:0:
256,192,127286,1,0,0:0:0:0:
256,192,127372,1,8,0:0:0:0:
256,192,127457,1,0,0:0:0:0:
256,192,127543,1,0,0:0:0:0:
256,192,127629,1,8,0:0:0:0:
256,192,127714,1,0,0:0:0:0:
256,192,127800,1,0,0:0:0:0:
256,192,127886,1,8,0:0:0:0:
256,192,127972,1,0,0:0:0:0:
256,192,128057,1,8,0:0:0:0:
256,192,128143,1,0,0:0:0:0:
256,192,128229,1,8,0:0:0:0:
256,192,128314,1,8,0:0:0:0:
256,192,128400,1,0,0:0:0:0:
256,192,128486,1,8,0:0:0:0:
256,192,128572,1,0,0:0:0:0:
256,192,128657,1,0,0:0:0:0:
256,192,128743,1,8,0:0:0:0:
256,192,128829,1,0,0:0:0:0:
256,192,128914,1,8,0:0:0:0:
256,192,129000,1,8,0:0:0:0:
256,192,129086,1,0,0:0:0:0:
256,192,129172,1,8,0:0:0:0:
256,192,129257,1,8,0:0:0:0:
256,192,129343,1,0,0:0:0:0:
256,192,129429,1,8,0:0:0:0:
256,192,129514,1,0,0:0:0:0:
256,192,129600,1,8,0:0:0:0:
256,192,129686,1,0,0:0:0:0:
256,192,129772,1,0,0:0:0:0:
256,192,129857,1,8,0:0:0:0:
256,192,129943,1,0,0:0:0:0:
256,192,130029,1,0,0:0:0:0:
256,192,130114,1,8,0:0:0:0:
256,192,130200,1,0,0:0:0:0:
256,192,130286,1,0,0:0:0:0:
256,192,130372,1,8,0:0:0:0:
256,192,130457,1,0,0:0:0:0:
256,192,130543,1,0,0:0:0:0:
256,192,130629,1,8,0:0:0:0:
256,192,130714,1,0,0:0:0:0:
256,192,130800,1,8,0:0:0:0:
256,192,130886,1,0,0:0:0:0:
256,192,130972,1,8,0:0:0:0:
256,192,131057,1,8,0:0:0:0:
256,192,131143,1,0,0:0:0:0:
256,192,131229,1,8,0:0:0:0:
256,192,131314,1,0,0:0:0:0:
256,192,131400,1,0,0:0:0:0:
256,192,131486,1,8,0:0:0:0:
256,192,131572,1,0,0:0:0:0:
256,192,131657,1,8,0:0:0:0:
256,192,131743,1,0,0:0:0:0:
256,192,131829,1,0,0:0:0:0:
256,192,131914,1,8,0:0:0:0:
256,192,132000,1,0,0:0:0:0:
256,192,132086,1,0,0:0:0:0:
256,192,132172,1,8,0:0:0:0:
256,192,132257,1,0,0:0:0:0:
256,192,132343,1,8,0:0:0:0:
256,192,132429,1,0,0:0:0:0:
256,192,132514,1,0,0:0:0:0:
256,192,132600,1,8,0:0:0:0:
256,192,132686,1,0,0:0:0:0:
256,192,132772,1,0,0:0:0:0:
256,192,132857,1,8,0:0:0:0:
256,192,132943,1,0,0:0:0:0:
256,192,133029,1,0,0:0:0:0:
256,192,133114,1,8,0:0:0:0:
256,192,133200,1,0,0:0:0:0:
256,192,133286,1,0,0:0:0:0:
256,192,133372,1,8,0:0:0:0:
256,192,133457,1,0,0:0:0:0:
256,192,133543,1,8,0:0:0:0:
256,192,133629,1,0,0:0:0:0:
256,192,133714,1,8,0:0:0:0:
256,192,133800,1,8,0:0:0:0:
256,192,133886,1,0,0:0:0:0:
256,192,133972,1,8,0:0:0:0:
256,192,134057,1,0,0:0:0:0:
256,192,134143,1,0,0:0:0:0:
256,192,134229,1,8,0:0:0:0:
256,192,134314,1,0,0:0:0:0:
256,192,134400,1,8,0:0:0:0:
256,192,134486,1,0,0:0:0:0:
256,192,134572,1,0,0:0:0:0:
256,192,134657,1,8,0:0:0:0:
256,192,134743,1,0,0:0:0:0:
256,192,134829,1,0,0:0:0:0:
256,192,134914,1,8,0:0:0:0:
256,160,135000,1,0,0:0:0:0:
256,192,135086,1,8,0:0:0:0:
256,192,135172,1,8,0:0:0:0:
256,192,135258,1,0,0:0:0:0:
256,192,135344,1,8,0:0:0:0:
256,192,135430,1,8,0:0:0:0:
256,192,135517,1,0,0:0:0:0:
256,192,135603,1,8,0:0:0:0:
256,192,135689,1,8,0:0:0:0:
256,192,135775,1,0,0:0:0:0:
256,192,135861,1,8,0:0:0:0:
256,192,135948,1,8,0:0:0:0:
256,192,136034,1,0,0:0:0:0:
256,192,136120,1,8,0:0:0:0:
256,192,136206,1,0,0:0:0:0:
256,192,136292,1,0,0:0:0:0:
256,192,136465,1,8,0:0:0:0:
256,192,136550,1,8,0:0:0:0:
288,128,136636,1,0,0:0:0:0:
256,192,136722,1,0,0:0:0:0:
256,192,136807,1,8,0:0:0:0:
256,192,136893,1,8,0:0:0:0:
256,192,136979,1,0,0:0:0:0:
256,192,137065,1,0,0:0:0:0:
256,192,137150,1,8,0:0:0:0:
256,192,137236,1,8,0:0:0:0:
256,192,137322,1,0,0:0:0:0:
256,192,137407,1,0,0:0:0:0:
256,192,137493,1,8,0:0:0:0:
256,192,137579,1,8,0:0:0:0:
256,192,137665,1,0,0:0:0:0:
256,192,137750,1,0,0:0:0:0:
256,192,137836,1,8,0:0:0:0:
320,160,137922,1,8,0:0:0:0:
320,160,138007,1,0,0:0:0:0:
320,160,138093,1,8,0:0:0:0:
320,160,138179,1,8,0:0:0:0:
320,160,138265,1,0,0:0:0:0:
320,160,138350,1,8,0:0:0:0:
320,160,138436,1,8,0:0:0:0:
320,160,138522,1,8,0:0:0:0:
320,160,138607,1,0,0:0:0:0:
320,160,138693,1,0,0:0:0:0:
320,160,138779,1,8,0:0:0:0:
320,160,138865,1,0,0:0:0:0:
320,160,138950,1,0,0:0:0:0:
320,160,139036,1,8,0:0:0:0:
192,160,139207,1,8,0:0:0:0:
256,192,139293,1,8,0:0:0:0:
288,128,139379,1,0,0:0:0:0:
256,192,139465,1,0,0:0:0:0:
256,192,139550,1,8,0:0:0:0:
256,192,139636,1,8,0:0:0:0:
256,192,139722,1,0,0:0:0:0:
256,192,139807,1,0,0:0:0:0:
256,192,139893,1,8,0:0:0:0:
256,192,139979,1,8,0:0:0:0:
256,192,140065,1,0,0:0:0:0:
256,192,140150,1,0,0:0:0:0:
256,192,140236,1,8,0:0:0:0:
256,192,140322,1,8,0:0:0:0:
256,192,140407,1,0,0:0:0:0:
256,192,140493,1,0,0:0:0:0:
256,192,140579,1,8,0:0:0:0:
320,160,140665,1,8,0:0:0:0:
320,160,140750,1,0,0:0:0:0:
320,160,140836,1,8,0:0:0:0:
320,160,140922,1,8,0:0:0:0:
320,160,141008,1,0,0:0:0:0:
320,160,141093,1,8,0:0:0:0:
320,160,141179,1,8,0:0:0:0:
320,160,141265,1,8,0:0:0:0:
320,160,141350,1,0,0:0:0:0:
320,160,141436,1,0,0:0:0:0:
320,160,141522,1,8,0:0:0:0:
320,160,141608,1,0,0:0:0:0:
320,160,141693,1,0,0:0:0:0:
320,160,141779,1,8,0:0:0:0:
192,160,141950,1,8,0:0:0:0:
256,160,142036,1,0,0:0:0:0:
256,160,142122,1,8,0:0:0:0:
256,160,142207,1,0,0:0:0:0:
256,160,142293,1,8,0:0:0:0:
256,160,142379,1,0,0:0:0:0:
256,160,142465,1,8,0:0:0:0:
256,160,142550,1,0,0:0:0:0:
256,160,142636,1,8,0:0:0:0:
256,160,142722,1,0,0:0:0:0:
256,160,142807,1,8,0:0:0:0:
256,160,142893,1,0,0:0:0:0:
256,160,142979,1,8,0:0:0:0:
256,160,143065,1,0,0:0:0:0:
256,160,143150,1,8,0:0:0:0:
256,160,143236,1,0,0:0:0:0:
256,192,143322,1,8,0:0:0:0:
320,160,143408,1,8,0:0:0:0:
320,160,143493,1,0,0:0:0:0:
320,160,143579,1,8,0:0:0:0:
320,160,143665,1,8,0:0:0:0:
320,160,143751,1,0,0:0:0:0:
320,160,143836,1,8,0:0:0:0:
320,160,143922,1,8,0:0:0:0:
320,160,144008,1,8,0:0:0:0:
320,160,144093,1,0,0:0:0:0:
320,160,144179,1,0,0:0:0:0:
320,160,144265,1,8,0:0:0:0:
320,160,144351,1,0,0:0:0:0:
320,160,144436,1,0,0:0:0:0:
320,160,144522,1,8,0:0:0:0:
256,192,144693,1,8,0:0:0:0:
320,160,144779,1,8,0:0:0:0:
320,160,144864,1,0,0:0:0:0:
320,160,144950,1,8,0:0:0:0:
320,160,145036,1,8,0:0:0:0:
320,160,145122,1,0,0:0:0:0:
320,160,145207,1,8,0:0:0:0:
320,160,145293,1,8,0:0:0:0:
320,160,145379,1,8,0:0:0:0:
320,160,145464,1,0,0:0:0:0:
320,160,145550,1,8,0:0:0:0:
320,160,145636,1,8,0:0:0:0:
320,160,145722,1,0,0:0:0:0:
320,160,145810,1,0,0:0:0:0:
320,160,145898,1,8,0:0:0:0:
224,128,146074,1,4,0:0:0:0:
224,128,146245,1,8,0:0:0:0:
224,128,146416,1,0,0:0:0:0:
224,128,146502,1,0,0:0:0:0:
224,128,146588,1,8,0:0:0:0:
224,128,146759,1,0,0:0:0:0:
224,128,146931,1,8,0:0:0:0:
224,128,147102,1,0,0:0:0:0:
224,128,147188,1,0,0:0:0:0:
224,128,147274,1,8,0:0:0:0:
224,128,147359,1,8,0:0:0:0:
224,128,147445,1,0,0:0:0:0:
256,192,147616,1,8,0:0:0:0:
256,192,147788,1,0,0:0:0:0:
256,192,147874,1,0,0:0:0:0:
256,192,147959,1,8,0:0:0:0:
224,128,148131,1,0,0:0:0:0:
224,64,148302,1,8,0:0:0:0:
224,64,148388,1,0,0:0:0:0:
224,64,148559,1,0,0:0:0:0:
224,64,148645,1,8,0:0:0:0:
224,160,148731,1,8,0:0:0:0:
224,64,148816,1,0,0:0:0:0:
224,160,148988,1,8,0:0:0:0:
224,160,149159,1,0,0:0:0:0:
224,160,149245,1,0,0:0:0:0:
224,160,149331,1,8,0:0:0:0:
224,160,149502,1,0,0:0:0:0:
224,160,149674,1,8,0:0:0:0:
224,160,149845,1,0,0:0:0:0:
224,160,149933,1,0,0:0:0:0:
224,160,150022,1,8,0:0:0:0:
224,128,150200,1,4,0:0:0:0:
224,128,150542,1,4,0:0:0:0:
224,128,150885,1,4,0:0:0:0:
224,128,151228,1,4,0:0:0:0:
224,128,151571,1,12,0:0:0:0:
256,160,151737,1,8,0:0:0:0:
256,160,151904,1,0,0:0:0:0:
256,160,151988,1,0,0:0:0:0:
256,160,152071,1,8,0:0:0:0:
256,160,152237,1,0,0:0:0:0:
256,160,152409,1,8,0:0:0:0:
256,160,152580,1,0,0:0:0:0:
256,160,152666,1,0,0:0:0:0:
256,160,152752,1,8,0:0:0:0:
256,160,152923,1,0,0:0:0:0:
256,160,153007,1,0,0:0:0:0:
256,160,153093,1,0,0:0:0:0:
256,160,153179,1,0,0:0:0:0:
256,160,153264,1,8,0:0:0:0:
256,160,153437,1,0,0:0:0:0:
256,160,153523,1,0,0:0:0:0:
256,160,153607,1,0,0:0:0:0:
256,160,153693,1,0,0:0:0:0:
256,160,153780,1,8,0:0:0:0:
256,160,153950,1,0,0:0:0:0:
256,160,154037,1,0,0:0:0:0:
256,160,154123,1,8,0:0:0:0:
256,160,154294,1,4,0:0:0:0:
256,160,154464,1,4,0:0:0:0:
256,160,154975,1,4,0:0:0:0:
256,160,155146,1,4,0:0:0:0:
256,192,155679,1,8,0:0:0:0:
288,192,155852,1,8,0:0:0:0:
224,160,155939,1,8,0:0:0:0:
288,192,156025,1,0,0:0:0:0:
288,192,156199,1,0,0:0:0:0:
224,160,156372,1,8,0:0:0:0:
224,160,156459,1,8,0:0:0:0:
288,192,156546,1,0,0:0:0:0:
288,192,156719,1,8,0:0:0:0:
288,224,156892,1,0,0:0:0:0:
288,224,157066,1,12,0:0:0:0:
256,192,157239,12,0,159626,0:0:0:0:
256,128,159793,5,0,0:0:0:0:
256,128,160478,1,8,0:0:0:0:
320,192,160993,1,8,0:0:0:0:
320,192,161164,1,0,0:0:0:0:
320,192,161507,1,0,0:0:0:0:
320,192,161850,1,8,0:0:0:0:
320,192,162193,1,8,0:0:0:0:
320,192,162535,1,0,0:0:0:0:
320,160,163050,1,0,0:0:0:0:
320,160,163221,1,8,0:0:0:0:
256,128,163735,1,8,0:0:0:0:
256,128,163907,1,0,0:0:0:0:
256,128,164250,1,8,0:0:0:0:
256,128,164593,1,0,0:0:0:0:
256,128,164764,1,0,0:0:0:0:
256,128,164850,1,0,0:0:0:0:
256,128,164935,1,8,0:0:0:0:
256,128,165278,1,4,0:0:0:0:
256,128,165450,1,4,0:0:0:0:
256,128,165793,1,4,0:0:0:0:
256,128,165964,1,4,0:0:0:0:
256,128,166135,1,4,0:0:0:0:
288,96,166307,1,12,0:0:0:0:
224,128,166478,1,12,0:0:0:0:
224,128,166821,1,4,0:0:0:0:
224,128,166993,1,4,0:0:0:0:
224,128,167164,1,12,0:0:0:0:
224,128,167335,1,12,0:0:0:0:
224,128,167678,1,12,0:0:0:0:
224,128,168021,1,4,0:0:0:0:
224,96,168193,1,0,0:0:0:0:
224,96,168278,1,0,0:0:0:0:
224,96,168364,1,8,0:0:0:0:
224,96,168535,1,0,0:0:0:0:
224,96,168707,1,8,0:0:0:0:
224,96,168793,1,8,0:0:0:0:
224,96,168878,1,0,0:0:0:0:
224,96,168964,1,0,0:0:0:0:
224,96,169050,1,0,0:0:0:0:
224,96,169221,1,0,0:0:0:0:
224,96,169393,1,12,0:0:0:0:
288,160,169735,1,12,0:0:0:0:
224,96,169964,1,0,0:0:0:0:
224,96,170078,1,8,0:0:0:0:
224,96,170193,1,8,0:0:0:0:
256,96,170307,1,8,0:0:0:0:
224,96,170421,1,8,0:0:0:0:
224,96,170598,1,8,0:0:0:0:
224,96,170776,1,4,0:0:0:0:
256,192,171113,1,8,0:0:0:0:
256,192,171450,1,0,0:0:0:0:
256,192,171618,1,0,0:0:0:0:
256,192,171702,1,0,0:0:0:0:
256,192,171787,1,8,0:0:0:0:
256,192,171955,1,4,0:0:0:0:
256,192,172295,1,0,0:0:0:0:
256,192,172466,1,8,0:0:0:0:
256,192,172724,1,8,0:0:0:0:
256,192,172809,1,0,0:0:0:0:
256,192,172895,1,8,0:0:0:0:
256,192,172981,1,0,0:0:0:0:
256,192,173152,1,8,0:0:0:0:
256,96,173495,1,4,0:0:0:0:
192,96,173838,1,8,0:0:0:0:
256,96,174181,1,0,0:0:0:0:
160,160,174352,1,0,0:0:0:0:
256,96,174438,1,0,0:0:0:0:
256,96,174524,1,8,0:0:0:0:
256,96,174695,1,4,0:0:0:0:
256,96,175038,1,0,0:0:0:0:
256,96,175209,1,8,0:0:0:0:
224,160,175381,1,0,0:0:0:0:
320,128,175466,1,0,0:0:0:0:
320,128,175552,1,8,0:0:0:0:
320,128,175638,1,0,0:0:0:0:
320,128,175724,1,0,0:0:0:0:
320,128,175895,1,8,0:0:0:0:
256,128,176238,1,0,0:0:0:0:
256,128,176352,1,8,0:0:0:0:
256,128,176466,1,8,0:0:0:0:
256,128,176581,1,0,0:0:0:0:
256,128,176695,1,8,0:0:0:0:
256,128,176809,1,8,0:0:0:0:
256,128,176924,1,0,0:0:0:0:
256,128,177038,1,8,0:0:0:0:
256,128,177152,1,8,0:0:0:0:
256,128,177266,1,0,0:0:0:0:
256,128,177381,1,8,0:0:0:0:
256,128,177495,1,8,0:0:0:0:
256,160,177609,1,8,0:0:0:0:
256,160,177724,1,0,0:0:0:0:
256,160,177838,1,8,0:0:0:0:
256,160,177952,1,8,0:0:0:0:
256,160,178066,1,0,0:0:0:0:
256,160,178181,1,8,0:0:0:0:
256,160,178295,1,8,0:0:0:0:
256,160,178409,1,0,0:0:0:0:
256,160,178524,1,8,0:0:0:0:
256,160,178638,1,8,0:0:0:0:
256,160,178752,1,0,0:0:0:0:
256,160,178866,1,8,0:0:0:0:
256,160,178981,1,8,0:0:0:0:
352,96,179067,1,0,0:0:0:0:
352,96,179153,1,0,0:0:0:0:
352,96,179239,1,0,0:0:0:0:
352,96,179325,1,8,0:0:0:0:
352,96,179412,1,0,0:0:0:0:
352,96,179498,1,0,0:0:0:0:
352,96,179584,1,0,0:0:0:0:
352,96,179670,1,8,0:0:0:0:
352,96,179756,1,8,0:0:0:0:
352,96,179843,1,0,0:0:0:0:
352,96,179929,1,0,0:0:0:0:
352,96,180015,1,8,0:0:0:0:
352,96,180101,1,8,0:0:0:0:
352,96,180187,1,0,0:0:0:0:
352,96,180274,1,0,0:0:0:0:
352,96,180360,1,8,0:0:0:0:
288,160,180446,1,0,0:0:0:0:
288,160,180532,1,0,0:0:0:0:
288,160,180618,1,0,0:0:0:0:
288,160,180705,1,8,0:0:0:0:
288,160,180791,1,0,0:0:0:0:
288,160,180877,1,0,0:0:0:0:
288,160,180963,1,0,0:0:0:0:
288,160,181049,1,8,0:0:0:0:
288,160,181222,1,8,0:0:0:0:
288,160,181308,1,0,0:0:0:0:
288,160,181394,1,8,0:0:0:0:
288,160,181567,1,8,0:0:0:0:
288,160,181739,1,4,0:0:0:0:
224,64,181910,1,8,0:0:0:0:
224,64,181996,1,8,0:0:0:0:
224,64,182081,1,0,0:0:0:0:
192,96,182253,1,8,0:0:0:0:
192,96,182339,1,8,0:0:0:0:
192,96,182424,1,0,0:0:0:0:
192,96,182510,1,8,0:0:0:0:
192,96,182681,1,0,0:0:0:0:
192,96,182767,1,8,0:0:0:0:
192,96,182853,1,8,0:0:0:0:
224,96,182939,1,0,0:0:0:0:
224,96,183024,1,0,0:0:0:0:
192,96,183110,1,8,0:0:0:0:
192,64,183281,1,0,0:0:0:0:
192,64,183367,1,0,0:0:0:0:
192,64,183453,1,8,0:0:0:0:
192,64,183624,1,0,0:0:0:0:
192,64,183710,1,0,0:0:0:0:
192,64,183796,1,8,0:0:0:0:
192,64,183881,1,0,0:0:0:0:
192,64,184053,1,0,0:0:0:0:
192,64,184139,1,8,0:0:0:0:
192,64,184224,1,8,0:0:0:0:
192,64,184310,1,0,0:0:0:0:
192,64,184396,1,0,0:0:0:0:
192,64,184481,1,8,0:0:0:0:
192,64,184653,1,0,0:0:0:0:
192,64,184739,1,0,0:0:0:0:
192,64,184824,1,8,0:0:0:0:
192,64,184996,1,0,0:0:0:0:
192,64,185081,1,8,0:0:0:0:
192,64,185167,1,8,0:0:0:0:
192,64,185253,1,0,0:0:0:0:
192,64,185424,1,8,0:0:0:0:
192,64,185510,1,0,0:0:0:0:
192,64,185596,1,0,0:0:0:0:
192,64,185681,1,8,0:0:0:0:
192,64,185853,1,8,0:0:0:0:
192,64,186024,1,0,0:0:0:0:
192,64,186110,1,0,0:0:0:0:
192,64,186196,1,8,0:0:0:0:
192,64,186281,1,8,0:0:0:0:
192,64,186367,1,0,0:0:0:0:
192,64,186453,1,0,0:0:0:0:
192,64,186539,1,8,0:0:0:0:
192,64,186624,1,0,0:0:0:0:
192,64,186796,1,0,0:0:0:0:
192,64,186881,1,8,0:0:0:0:
192,64,186967,1,0,0:0:0:0:
192,64,187053,1,8,0:0:0:0:
192,64,187139,1,8,0:0:0:0:
192,64,187224,1,0,0:0:0:0:
224,64,187396,1,8,0:0:0:0:
224,64,187481,1,8,0:0:0:0:
224,64,187567,1,0,0:0:0:0:
192,96,187739,1,8,0:0:0:0:
192,96,187824,1,8,0:0:0:0:
192,96,187910,1,0,0:0:0:0:
192,96,187996,1,8,0:0:0:0:
192,96,188167,1,0,0:0:0:0:
192,96,188253,1,8,0:0:0:0:
192,96,188339,1,8,0:0:0:0:
224,96,188424,1,0,0:0:0:0:
224,96,188510,1,0,0:0:0:0:
192,96,188596,1,8,0:0:0:0:
192,64,188767,1,0,0:0:0:0:
192,64,188853,1,0,0:0:0:0:
192,64,188939,1,8,0:0:0:0:
192,64,189110,1,0,0:0:0:0:
192,64,189196,1,0,0:0:0:0:
192,64,189281,1,8,0:0:0:0:
192,128,189367,1,8,0:0:0:0:
192,128,189453,1,0,0:0:0:0:
192,64,189539,1,0,0:0:0:0:
192,64,189624,1,8,0:0:0:0:
192,64,189796,1,0,0:0:0:0:
192,64,189967,1,8,0:0:0:0:
192,64,190139,1,0,0:0:0:0:
192,64,190225,1,0,0:0:0:0:
192,64,190311,1,8,0:0:0:0:
192,64,190484,1,0,0:0:0:0:
192,64,190570,1,8,0:0:0:0:
192,64,190656,1,8,0:0:0:0:
192,64,190742,1,0,0:0:0:0:
192,64,190915,1,8,0:0:0:0:
192,64,191001,1,0,0:0:0:0:
192,64,191087,1,0,0:0:0:0:
192,64,191173,1,8,0:0:0:0:
192,64,191346,1,8,0:0:0:0:
192,64,191518,1,0,0:0:0:0:
192,64,191604,1,0,0:0:0:0:
192,64,191691,1,8,0:0:0:0:
192,64,191778,1,8,0:0:0:0:
192,64,191865,1,0,0:0:0:0:
192,64,191952,1,8,0:0:0:0:
192,64,192039,1,0,0:0:0:0:
192,64,192127,1,0,0:0:0:0:
192,32,192214,1,8,0:0:0:0:
192,64,192301,1,8,0:0:0:0:
192,64,192388,1,0,0:0:0:0:
192,64,192476,1,8,0:0:0:0:
192,64,192564,1,8,0:0:0:0:
192,64,192652,1,8,0:0:0:0:
192,64,192740,1,0,0:0:0:0:
224,64,192901,1,8,0:0:0:0:
224,64,192981,1,8,0:0:0:0:
224,64,193062,1,0,0:0:0:0:
192,96,193223,1,8,0:0:0:0:
192,96,193304,1,8,0:0:0:0:
192,96,193385,1,0,0:0:0:0:
192,96,193470,1,8,0:0:0:0:
192,96,193642,1,0,0:0:0:0:
192,96,193727,1,8,0:0:0:0:
192,96,193816,1,8,0:0:0:0:
224,96,193906,1,0,0:0:0:0:
224,96,193996,1,0,0:0:0:0:
192,96,194086,1,8,0:0:0:0:
192,64,194257,1,0,0:0:0:0:
192,64,194343,1,0,0:0:0:0:
192,64,194428,1,8,0:0:0:0:
192,64,194600,1,0,0:0:0:0:
192,64,194686,1,0,0:0:0:0:
192,64,194771,1,8,0:0:0:0:
192,64,194857,1,0,0:0:0:0:
192,64,195028,1,0,0:0:0:0:
192,64,195114,1,8,0:0:0:0:
192,64,195200,1,8,0:0:0:0:
192,64,195286,1,0,0:0:0:0:
192,64,195371,1,0,0:0:0:0:
192,64,195457,1,8,0:0:0:0:
192,64,195628,1,0,0:0:0:0:
192,64,195714,1,0,0:0:0:0:
192,64,195800,1,8,0:0:0:0:
192,64,195971,1,0,0:0:0:0:
192,64,196057,1,8,0:0:0:0:
192,64,196143,1,8,0:0:0:0:
192,64,196228,1,0,0:0:0:0:
192,64,196400,1,8,0:0:0:0:
192,64,196486,1,0,0:0:0:0:
192,64,196571,1,0,0:0:0:0:
192,64,196657,1,8,0:0:0:0:
192,64,196828,1,8,0:0:0:0:
192,64,197000,1,0,0:0:0:0:
192,64,197086,1,0,0:0:0:0:
192,64,197171,1,8,0:0:0:0:
192,64,197257,1,8,0:0:0:0:
192,64,197343,1,0,0:0:0:0:
192,64,197428,1,0,0:0:0:0:
192,64,197514,1,8,0:0:0:0:
192,64,197600,1,0,0:0:0:0:
192,64,197771,1,0,0:0:0:0:
192,64,197857,1,8,0:0:0:0:
192,64,197943,1,0,0:0:0:0:
192,64,198028,1,8,0:0:0:0:
192,64,198114,1,8,0:0:0:0:
192,64,198200,1,0,0:0:0:0:
224,64,198371,1,8,0:0:0:0:
224,64,198457,1,8,0:0:0:0:
224,64,198543,1,0,0:0:0:0:
192,96,198714,1,8,0:0:0:0:
192,96,198800,1,8,0:0:0:0:
192,96,198886,1,0,0:0:0:0:
192,96,198971,1,8,0:0:0:0:
192,96,199143,1,0,0:0:0:0:
192,96,199228,1,8,0:0:0:0:
192,96,199314,1,8,0:0:0:0:
224,96,199400,1,0,0:0:0:0:
192,96,199571,1,12,0:0:0:0:
192,128,199800,1,0,0:0:0:0:
192,128,199914,1,0,0:0:0:0:
192,128,200028,1,0,0:0:0:0:
192,128,200257,1,12,0:0:0:0:
192,96,200486,1,0,0:0:0:0:
192,96,200600,1,0,0:0:0:0:
192,96,200714,1,0,0:0:0:0:
192,64,200943,1,12,0:0:0:0:
160,128,201286,1,0,0:0:0:0:
160,128,201371,1,0,0:0:0:0:
160,128,201457,1,0,0:0:0:0:
192,64,201628,1,12,0:0:0:0:
192,64,201971,1,0,0:0:0:0:
192,64,202057,1,0,0:0:0:0:
192,64,202143,1,0,0:0:0:0:
192,64,202314,1,12,0:0:0:0:
224,128,202657,1,12,0:0:0:0:
224,128,203000,1,12,0:0:0:0:
224,128,203357,1,12,0:0:0:0:
256,160,203714,1,4,0:0:0:0:
256,160,203884,1,0,0:0:0:0:
256,160,203969,1,0,0:0:0:0:
256,160,204054,1,8,0:0:0:0:
256,160,204225,1,0,0:0:0:0:
256,160,204310,1,0,0:0:0:0:
256,160,204395,1,8,0:0:0:0:
256,160,204481,1,0,0:0:0:0:
256,160,204566,1,0,0:0:0:0:
256,160,204736,1,8,0:0:0:0:
256,160,204907,1,0,0:0:0:0:
256,160,204992,1,0,0:0:0:0:
256,160,205077,1,8,0:0:0:0:
256,128,205248,1,0,0:0:0:0:
256,128,205333,1,0,0:0:0:0:
256,128,205418,1,8,0:0:0:0:
256,128,205503,1,0,0:0:0:0:
256,128,205589,1,8,0:0:0:0:
256,128,205759,1,0,0:0:0:0:
256,128,205844,1,0,0:0:0:0:
256,128,205929,1,8,0:0:0:0:
256,128,206100,1,0,0:0:0:0:
256,128,206185,1,0,0:0:0:0:
256,128,206270,1,8,0:0:0:0:
256,128,206356,1,8,0:0:0:0:
256,128,206441,1,0,0:0:0:0:
256,128,206611,1,8,0:0:0:0:
192,64,206696,1,0,0:0:0:0:
192,64,206782,1,0,0:0:0:0:
256,128,206867,1,0,0:0:0:0:
256,128,206952,1,8,0:0:0:0:
256,128,207123,1,0,0:0:0:0:
256,128,207293,1,8,0:0:0:0:
256,128,207378,1,0,0:0:0:0:
192,64,207464,1,0,0:0:0:0:
256,128,207549,1,0,0:0:0:0:
256,128,207634,1,8,0:0:0:0:
256,128,207804,1,0,0:0:0:0:
256,128,207975,1,8,0:0:0:0:
256,128,208060,1,0,0:0:0:0:
192,64,208145,1,0,0:0:0:0:
256,128,208231,1,0,0:0:0:0:
256,128,208316,1,8,0:0:0:0:
256,128,208486,1,8,0:0:0:0:
256,128,208571,1,0,0:0:0:0:
256,128,208657,1,0,0:0:0:0:
256,128,208742,1,0,0:0:0:0:
256,128,208827,1,8,0:0:0:0:
256,128,208912,1,8,0:0:0:0:
256,128,208998,1,8,0:0:0:0:
256,128,209083,1,8,0:0:0:0:
256,128,209168,1,0,0:0:0:0:
256,160,209339,1,0,0:0:0:0:
256,160,209425,1,0,0:0:0:0:
256,160,209510,1,8,0:0:0:0:
256,160,209682,1,0,0:0:0:0:
256,160,209768,1,0,0:0:0:0:
256,160,209853,1,8,0:0:0:0:
256,160,209939,1,8,0:0:0:0:
256,160,210025,1,0,0:0:0:0:
256,160,210196,1,8,0:0:0:0:
256,160,210368,1,0,0:0:0:0:
256,160,210453,1,0,0:0:0:0:
256,160,210539,1,8,0:0:0:0:
256,128,210710,1,0,0:0:0:0:
256,128,210796,1,8,0:0:0:0:
256,128,210882,1,8,0:0:0:0:
256,128,210968,1,0,0:0:0:0:
256,128,211053,1,8,0:0:0:0:
256,128,211225,1,0,0:0:0:0:
256,128,211312,1,8,0:0:0:0:
256,128,211399,1,8,0:0:0:0:
256,128,211573,1,0,0:0:0:0:
256,128,211661,1,8,0:0:0:0:
256,128,211749,1,8,0:0:0:0:
256,128,211837,1,8,0:0:0:0:
256,128,211925,1,0,0:0:0:0:
256,128,212096,1,8,0:0:0:0:
192,160,212182,1,8,0:0:0:0:
224,128,212267,1,0,0:0:0:0:
256,128,212353,1,0,0:0:0:0:
256,128,212439,1,8,0:0:0:0:
256,128,212610,1,0,0:0:0:0:
256,128,212782,1,8,0:0:0:0:
256,128,212867,1,8,0:0:0:0:
224,128,212953,1,0,0:0:0:0:
256,128,213039,1,0,0:0:0:0:
256,128,213125,1,8,0:0:0:0:
256,128,213296,1,0,0:0:0:0:
256,128,213467,1,8,0:0:0:0:
256,128,213553,1,8,0:0:0:0:
224,128,213639,1,0,0:0:0:0:
256,128,213725,1,0,0:0:0:0:
256,128,213810,1,8,0:0:0:0:
224,128,213896,1,0,0:0:0:0:
256,128,213982,1,8,0:0:0:0:
256,128,214067,1,8,0:0:0:0:
256,128,214153,1,0,0:0:0:0:
256,128,214239,1,0,0:0:0:0:
256,128,214325,1,8,0:0:0:0:
256,128,214410,1,8,0:0:0:0:
256,128,214496,1,8,0:0:0:0:
256,128,214582,1,8,0:0:0:0:
256,128,214667,1,0,0:0:0:0:
256,160,214839,1,0,0:0:0:0:
256,160,214925,1,0,0:0:0:0:
256,160,215010,1,8,0:0:0:0:
256,160,215182,1,0,0:0:0:0:
256,160,215267,1,0,0:0:0:0:
256,160,215353,1,8,0:0:0:0:
256,160,215439,1,0,0:0:0:0:
256,160,215525,1,0,0:0:0:0:
256,160,215696,1,8,0:0:0:0:
256,160,215867,1,0,0:0:0:0:
256,160,215953,1,0,0:0:0:0:
256,160,216039,1,8,0:0:0:0:
256,128,216210,1,0,0:0:0:0:
256,128,216296,1,0,0:0:0:0:
256,128,216382,1,8,0:0:0:0:
256,128,216467,1,0,0:0:0:0:
256,128,216553,1,8,0:0:0:0:
256,128,216725,1,0,0:0:0:0:
256,128,216810,1,0,0:0:0:0:
256,128,216896,1,8,0:0:0:0:
256,128,217067,1,0,0:0:0:0:
256,128,217153,1,0,0:0:0:0:
256,128,217239,1,8,0:0:0:0:
256,128,217325,1,8,0:0:0:0:
256,128,217410,1,0,0:0:0:0:
256,128,217582,1,8,0:0:0:0:
256,128,217667,1,0,0:0:0:0:
224,128,217753,1,0,0:0:0:0:
256,128,217839,1,0,0:0:0:0:
256,128,217925,1,8,0:0:0:0:
256,128,218096,1,0,0:0:0:0:
256,128,218267,1,8,0:0:0:0:
256,128,218353,1,0,0:0:0:0:
224,128,218439,1,0,0:0:0:0:
256,128,218525,1,0,0:0:0:0:
256,128,218610,1,8,0:0:0:0:
256,128,218782,1,0,0:0:0:0:
256,128,218954,1,8,0:0:0:0:
256,128,219040,1,0,0:0:0:0:
224,128,219126,1,0,0:0:0:0:
256,128,219213,1,0,0:0:0:0:
256,128,219299,1,8,0:0:0:0:
256,128,219471,1,8,0:0:0:0:
256,128,219556,1,0,0:0:0:0:
256,128,219642,1,0,0:0:0:0:
256,128,219728,1,0,0:0:0:0:
256,128,219813,1,8,0:0:0:0:
256,128,219899,1,8,0:0:0:0:
256,128,219985,1,8,0:0:0:0:
256,128,220071,1,8,0:0:0:0:
256,128,220156,1,0,0:0:0:0:
256,160,220327,1,0,0:0:0:0:
256,160,220413,1,0,0:0:0:0:
256,160,220498,1,8,0:0:0:0:
256,160,220670,1,0,0:0:0:0:
256,160,220756,1,0,0:0:0:0:
256,160,220841,1,8,0:0:0:0:
256,160,220927,1,8,0:0:0:0:
256,160,221013,1,0,0:0:0:0:
256,160,221184,1,8,0:0:0:0:
256,160,221356,1,0,0:0:0:0:
256,160,221441,1,0,0:0:0:0:
256,160,221527,1,8,0:0:0:0:
256,128,221698,1,0,0:0:0:0:
256,128,221784,1,8,0:0:0:0:
256,128,221870,1,8,0:0:0:0:
256,128,221956,1,0,0:0:0:0:
256,128,222041,1,8,0:0:0:0:
256,128,222213,1,0,0:0:0:0:
256,128,222298,1,8,0:0:0:0:
256,128,222384,1,8,0:0:0:0:
256,128,222556,1,0,0:0:0:0:
256,128,222643,1,8,0:0:0:0:
256,128,222731,1,8,0:0:0:0:
256,128,222824,1,8,0:0:0:0:
256,128,222917,1,0,0:0:0:0:
256,192,222998,1,8,0:0:0:0:
256,192,223080,1,0,0:0:0:0:
256,192,223162,1,0,0:0:0:0:
256,192,223244,1,8,0:0:0:0:
256,128,223329,1,8,0:0:0:0:
224,128,223415,1,0,0:0:0:0:
224,128,223501,1,8,0:0:0:0:
224,128,223586,1,0,0:0:0:0:
224,128,223672,1,0,0:0:0:0:
224,128,223758,1,8,0:0:0:0:
224,128,223844,1,0,0:0:0:0:
224,128,223929,1,8,0:0:0:0:
256,128,224015,1,8,0:0:0:0:
224,128,224101,1,0,0:0:0:0:
224,128,224186,1,0,0:0:0:0:
224,128,224272,1,8,0:0:0:0:
224,128,224357,1,0,0:0:0:0:
224,128,224443,1,8,0:0:0:0:
224,128,224529,1,8,0:0:0:0:
224,128,224614,1,0,0:0:0:0:
224,128,224700,1,0,0:0:0:0:
224,128,224786,1,8,0:0:0:0:
224,128,224872,1,0,0:0:0:0:
224,128,224957,1,8,0:0:0:0:
224,128,225043,1,8,0:0:0:0:
224,128,225129,1,0,0:0:0:0:
224,128,225214,1,0,0:0:0:0:
224,128,225300,1,8,0:0:0:0:
224,128,225386,1,8,0:0:0:0:
224,128,225472,1,0,0:0:0:0:
224,128,225557,1,0,0:0:0:0:
224,128,225643,1,0,0:0:0:0:
256,192,225729,1,8,0:0:0:0:
256,192,225814,1,0,0:0:0:0:
256,192,225900,1,0,0:0:0:0:
256,192,225986,1,8,0:0:0:0:
256,128,226072,1,8,0:0:0:0:
224,128,226157,1,0,0:0:0:0:
224,128,226243,1,8,0:0:0:0:
224,128,226329,1,0,0:0:0:0:
224,128,226414,1,0,0:0:0:0:
224,128,226500,1,8,0:0:0:0:
224,128,226586,1,0,0:0:0:0:
224,128,226672,1,8,0:0:0:0:
256,128,226757,1,8,0:0:0:0:
224,128,226843,1,0,0:0:0:0:
224,128,226929,1,0,0:0:0:0:
224,128,227014,1,8,0:0:0:0:
224,128,227100,1,8,0:0:0:0:
224,128,227186,1,0,0:0:0:0:
224,128,227272,1,8,0:0:0:0:
224,128,227357,1,0,0:0:0:0:
224,128,227443,1,0,0:0:0:0:
224,128,227529,1,8,0:0:0:0:
224,128,227614,1,8,0:0:0:0:
224,128,227700,1,0,0:0:0:0:
224,128,227786,1,8,0:0:0:0:
224,128,227872,1,0,0:0:0:0:
224,128,227957,1,0,0:0:0:0:
224,128,228043,1,8,0:0:0:0:
224,128,228129,1,8,0:0:0:0:
224,128,228214,1,0,0:0:0:0:
224,128,228300,1,0,0:0:0:0:
224,128,228386,1,0,0:0:0:0:
256,192,228554,1,0,0:0:0:0:
256,192,228638,1,0,0:0:0:0:
256,192,228723,1,8,0:0:0:0:
224,128,228955,1,0,0:0:0:0:
224,128,229071,1,8,0:0:0:0:
224,128,229188,1,8,0:0:0:0:
224,128,229304,1,8,0:0:0:0:
224,128,229420,1,8,0:0:0:0:
224,96,229675,1,8,0:0:0:0:
160,128,230101,1,8,0:0:0:0:
160,128,230186,1,8,0:0:0:0:
160,128,230272,1,8,0:0:0:0:
160,128,230358,1,8,0:0:0:0:
160,128,230443,1,0,0:0:0:0:
160,128,230529,1,0,0:0:0:0:
160,128,230615,1,0,0:0:0:0:
160,128,230701,1,0,0:0:0:0:
352,64,230786,1,8,0:0:0:0:
288,64,230872,1,8,0:0:0:0:
288,64,230958,1,0,0:0:0:0:
288,64,231043,1,0,0:0:0:0:
288,64,231129,1,0,0:0:0:0:
64,128,231358,1,0,0:0:0:0:
256,192,231472,12,0,234215,0:0:0:0:
