osu file format v14

[General]
AudioFilename: audio.mp3
AudioLeadIn: 0
PreviewTime: 181653
Countdown: 0
SampleSet: Normal
StackLeniency: 0.7
Mode: 1
LetterboxInBreaks: 0
WidescreenStoryboard: 1

[Editor]
DistanceSpacing: 0.6
BeatDivisor: 4
GridSize: 32
TimelineZoom: 2

[Metadata]
Title:Kou ! Tetsu ! Ketsu ! Sen ! -Ironbottom Sound-
TitleUnicode:鋼!鉄!決!戦!-Ironbottom Sound-
Artist:Ayasa
ArtistUnicode:Ayasa
Creator:S a n d
Version:Futsuu
Source:艦隊これくしょん -艦これ-
Tags:バイオリンで艦これ Kancolle Kantai Collection violin cover sand COOL&CREATE
BeatmapID:1103734
BeatmapSetID:519566

[Difficulty]
HPDrainRate:6
CircleSize:2
OverallDifficulty:4
ApproachRate:5
SliderMultiplier:1.4
SliderTickRate:1

[Events]
//Background and Video events
0,0,"thumb-1920-702813.jpg",0,60
//Break Periods
//Storyboard Layer 0 (Background)
//Storyboard Layer 1 (Fail)
//Storyboard Layer 2 (Pass)
//Storyboard Layer 3 (Foreground)
//Storyboard Sound Samples

[TimingPoints]
2256,342.857142857143,4,1,0,80,1,0
7741,346.820809248555,4,1,0,80,1,0
7741,-99.009900990099,4,1,0,80,0,0
8434,340.909090909091,4,1,0,80,1,8
9115,342.857142857143,4,1,0,80,1,1
20086,-100,4,1,0,80,0,0
39286,343.839541547278,4,1,0,80,1,0
42036,343.839541547278,4,1,0,80,1,1
51663,338.983050847458,4,1,0,80,1,0
51663,-101.010101010101,4,1,0,80,0,0
52679,363.636363636364,4,1,0,80,1,8
52679,-94.3396226415094,4,1,0,80,0,0
53058,342.857142857143,4,1,0,80,1,1
57172,344.827586206897,4,1,0,80,1,1
57516,342.857142857143,4,1,0,80,1,9
57858,333.333333333333,4,1,0,80,1,9
57858,-103.092783505155,4,1,0,80,0,1
58191,342.857142857143,4,1,0,80,1,9
58533,342.857142857143,4,1,0,80,1,1
59904,340.909090909091,4,1,0,80,1,1
60926,375,4,1,0,80,1,9
60926,-91.743119266055,4,1,0,80,0,1
61301,337.078651685393,4,1,0,80,1,1
61301,-102.040816326531,4,1,0,80,0,1
62649,348.837209302326,4,1,0,80,1,1
62649,-98.0392156862745,4,1,0,80,0,1
63346,377.358490566038,4,1,0,80,1,9
63346,-90.9090909090909,4,1,0,80,0,1
63723,266.666666666667,4,1,0,80,1,9
63723,-128.205128205128,4,1,0,80,0,1
63989,338.983050847458,4,1,0,80,1,0
63989,-101.010101010101,4,1,0,80,0,0
65344,342.857142857143,4,1,0,80,1,0
70486,352.941176470588,4,1,0,80,1,8
70486,-97.0873786407767,4,1,0,80,0,0
70838,342.857142857143,4,1,0,80,1,0
71866,348.837209302326,4,1,0,80,1,8
71866,-98.0392156862745,4,1,0,80,0,0
72214,342.857142857143,4,1,0,80,1,0
72899,337.078651685393,4,1,0,80,1,8
72899,-102.040816326531,4,1,0,80,0,0
73236,350.877192982456,4,1,0,80,1,0
73236,-98.0392156862745,4,1,0,80,0,0
73586,338.983050847458,4,1,0,80,1,8
73586,-101.010101010101,4,1,0,80,0,0
73924,342.857142857143,4,1,0,80,1,8
74609,348.837209302326,4,1,0,80,1,8
74609,-98.0392156862745,4,1,0,80,0,0
74957,344.827586206897,4,1,0,80,1,0
79094,342.857142857143,4,1,0,80,1,0
85608,355.029585798817,4,1,0,80,1,8
85608,-96.1538461538461,4,1,0,80,0,0
85785,363.636363636364,4,1,0,80,1,8
85785,-94.3396226415094,4,1,0,80,0,0
85966,342.857142857143,4,1,0,80,1,1
91451,344.827586206897,4,1,0,80,1,1
94037,500,4,1,0,80,1,9
94037,-68.4931506849315,4,1,0,80,0,1
94287,342.857142857143,4,1,0,80,1,0
95658,352.941176470588,4,1,0,80,1,8
95658,-97.0873786407767,4,1,0,80,0,0
96010,346.820809248555,4,1,0,80,1,0
96010,-98.0392156862745,4,1,0,80,0,0
96703,337.078651685393,4,1,0,80,1,8
96703,-102.040816326531,4,1,0,80,0,0
97040,340.909090909091,4,1,0,80,1,0
98403,340.909090909091,3,1,0,80,1,1
104540,346.820809248555,4,1,0,80,1,9
104540,-99.009900990099,4,1,0,80,0,1
105927,346.820809248555,4,1,0,80,1,9
106620,257.510729613734,4,1,0,80,1,0
106620,-133.333333333333,4,1,0,80,0,0
107907,275.229357798165,4,1,0,80,1,8
107907,-125,4,1,0,80,0,0
108732,230.769230769231,4,1,0,80,1,0
108732,-149.253731343284,4,1,0,80,0,0
109193,262.008733624454,4,1,0,80,1,8
109193,-131.578947368421,4,1,0,80,0,0
109717,250,4,1,0,80,1,0
109717,-136.986301369863,4,1,0,80,0,0
110217,255.31914893617,4,1,0,80,1,8
110217,-135.135135135135,4,1,0,80,0,0
110727,262.008733624454,4,1,0,80,1,0
110727,-131.578947368421,4,1,0,80,0,0
111251,260.869565217391,4,1,0,80,1,8
111251,-131.578947368421,4,1,0,80,0,0
111772,342.857142857143,4,1,0,80,1,0
135086,344.827586206897,4,1,0,80,1,0
136465,342.857142857143,4,1,0,80,1,1
145722,352.941176470588,4,1,0,80,1,9
145722,-97.0873786407767,4,1,0,80,0,1
146074,342.857142857143,4,1,0,80,1,1
149845,355.029585798817,4,1,0,80,1,9
149845,-96.1538461538461,4,1,0,80,0,1
150200,342.857142857143,4,1,0,80,1,1
151571,333.333333333333,4,1,0,80,1,1
151571,-103.092783505155,4,1,0,80,0,1
152237,342.857142857143,4,1,0,80,1,9
152922,342.857142857143,4,1,0,80,1,9
154294,340.909090909091,4,1,0,80,1,9
155316,363.636363636364,4,1,0,80,1,9
155316,-94.3396226415094,4,1,0,80,0,1
155679,346.820809248555,4,1,0,80,1,1
155679,-99.009900990099,4,1,0,80,0,1
157066,-99.009900990099,4,1,0,80,0,0
157239,-99.009900990099,4,1,0,80,0,0
158453,335.195530726257,4,1,0,80,1,0
158453,-102.040816326531,4,1,0,80,0,0
159793,342.857142857143,4,1,0,80,1,0
170421,355.029585798817,4,1,0,80,1,8
170421,-96.1538461538461,4,1,0,80,0,0
170776,337.078651685393,4,1,0,80,1,0
170776,-102.040816326531,4,1,0,80,0,1
172124,342.857142857143,4,1,0,80,1,1
176238,-100,4,1,0,80,0,0
178981,344.827586206897,4,1,0,80,1,0
181739,342.857142857143,4,1,0,80,1,1
189967,344.827586206897,4,1,0,80,1,1
191346,-100,4,1,0,80,0,0
191691,348.837209302326,4,1,0,80,1,8
191691,-98.0392156862745,4,1,0,80,0,0
192388,352.941176470588,4,1,0,80,1,8
192388,-97.0873786407767,4,1,0,80,0,0
192740,322.58064516129,4,1,0,80,1,1
192740,-106.382978723404,4,1,0,80,0,1
193385,342.857142857143,4,1,0,80,1,9
193727,359.281437125748,4,1,0,80,1,9
193727,-95.2380952380952,4,1,0,80,0,1
194086,342.857142857143,4,1,0,80,1,1
203000,357.142857142857,4,1,0,80,1,9
203000,-96.1538461538461,4,1,0,80,0,1
203714,340.909090909091,4,1,0,80,1,0
209168,342.857142857143,4,1,0,80,1,0
211225,348.837209302326,4,1,0,80,1,8
211225,-98.0392156862745,4,1,0,80,0,0
211573,352.941176470588,4,1,0,80,1,8
211573,-97.0873786407767,4,1,0,80,0,0
211925,342.857142857143,4,1,0,80,1,0
218782,344.827586206897,4,1,0,80,1,0
219471,342.857142857143,4,1,0,80,1,8
220156,342.857142857143,4,1,0,80,1,0
222556,350.877192982456,4,1,0,80,1,0
222556,-98.0392156862745,4,1,0,80,0,0
222731,372.670807453416,4,1,0,80,1,8
222731,-91.743119266055,4,1,0,80,0,0
222917,327.868852459016,4,1,0,80,1,8
222917,-104.166666666667,4,1,0,80,0,1
223244,342.857142857143,4,1,0,80,1,9
224272,342.857142857143,4,1,0,80,1,1
228386,337.078651685393,4,1,0,80,1,1
228386,-102.040816326531,4,1,0,80,0,0
228723,348.837209302326,4,1,0,80,1,8
228723,-98.0392156862745,4,1,0,80,0,0
229420,340.909090909091,4,1,0,80,1,0
230101,342.857142857143,4,1,0,80,1,0
231472,-100,4,1,0,80,0,1
234215,-100,4,1,0,80,0,0

[HitObjects]
288,192,3627,5,4,0:0:0:0:
256,160,4313,1,4,0:0:0:0:
256,160,4998,1,4,0:0:0:0:
256,160,5684,1,4,0:0:0:0:
256,160,6370,1,4,0:0:0:0:
256,160,7056,1,4,0:0:0:0:
256,160,7741,1,4,0:0:0:0:
256,160,8434,1,12,0:0:0:0:
256,160,9115,1,0,0:0:0:0:
256,128,9457,1,8,0:0:0:0:
256,128,9972,1,8,0:0:0:0:
256,160,10486,1,12,0:0:0:0:
256,128,11000,1,8,0:0:0:0:
256,128,11515,1,8,0:0:0:0:
256,160,11857,1,0,0:0:0:0:
256,128,12200,1,8,0:0:0:0:
256,128,12715,1,8,0:0:0:0:
256,160,13229,1,12,0:0:0:0:
256,192,13743,1,8,0:0:0:0:
256,160,14257,1,8,0:0:0:0:
256,192,14600,1,0,0:0:0:0:
256,128,14943,1,8,0:0:0:0:
256,128,15457,1,8,0:0:0:0:
256,160,15972,1,12,0:0:0:0:
256,128,16486,1,8,0:0:0:0:
256,128,17000,1,8,0:0:0:0:
256,160,17343,1,4,0:0:0:0:
192,128,18029,1,0,0:0:0:0:
256,160,18715,1,0,0:0:0:0:
256,128,19057,1,8,0:0:0:0:
256,160,19400,1,0,0:0:0:0:
256,128,19743,1,8,0:0:0:0:
160,96,20086,2,0,L|416:224,1,280
36,164,21115,2,4,L|420:164,2,350
256,128,23172,1,8,0:0:0:0:
192,64,23686,1,8,0:0:0:0:
224,128,24200,1,12,0:0:0:0:
224,128,24886,1,8,0:0:0:0:
224,128,25572,1,8,0:0:0:0:
256,160,26943,1,4,0:0:0:0:
256,160,27457,1,8,0:0:0:0:
256,128,27972,1,8,0:0:0:0:
256,160,28315,1,4,0:0:0:0:
288,192,29343,1,0,0:0:0:0:
256,160,29686,1,8,0:0:0:0:
288,160,30029,1,8,0:0:0:0:
256,160,30372,1,8,0:0:0:0:
288,160,30715,1,8,0:0:0:0:
288,160,30886,1,8,0:0:0:0:
256,160,31057,1,12,0:0:0:0:
256,128,31400,1,8,0:0:0:0:
256,128,32086,1,8,0:0:0:0:
288,160,32257,1,8,0:0:0:0:
256,160,32429,1,0,0:0:0:0:
288,160,32943,1,0,0:0:0:0:
288,160,33457,1,8,0:0:0:0:
256,160,33800,1,0,0:0:0:0:
288,160,34315,1,8,0:0:0:0:
288,160,34829,1,8,0:0:0:0:
288,160,35000,1,8,0:0:0:0:
288,160,35172,1,0,0:0:0:0:
288,160,35686,1,8,0:0:0:0:
288,160,35857,1,0,0:0:0:0:
288,160,36200,1,8,0:0:0:0:
288,160,36543,1,0,0:0:0:0:
224,160,36886,1,8,0:0:0:0:
192,128,37400,1,8,0:0:0:0:
192,128,37572,1,8,0:0:0:0:
256,96,37915,1,0,0:0:0:0:
224,128,38429,1,8,0:0:0:0:
256,96,38943,1,8,0:0:0:0:
256,96,39286,1,0,0:0:0:0:
256,192,40661,1,4,0:0:0:0:
256,192,41177,1,12,0:0:0:0:
224,128,41692,1,0,0:0:0:0:
224,128,41864,1,0,0:0:0:0:
256,192,42036,1,12,0:0:0:0:
256,160,42723,1,8,0:0:0:0:
256,160,43067,1,0,0:0:0:0:
224,128,43239,1,0,0:0:0:0:
256,160,43411,1,8,0:0:0:0:
288,128,44099,1,8,0:0:0:0:
288,128,44442,1,0,0:0:0:0:
224,128,44614,1,0,0:0:0:0:
288,128,44786,1,8,0:0:0:0:
256,160,45474,1,8,0:0:0:0:
256,160,45818,1,0,0:0:0:0:
224,128,45990,1,0,0:0:0:0:
256,160,46162,1,8,0:0:0:0:
224,128,46505,1,0,0:0:0:0:
224,96,46677,1,8,0:0:0:0:
256,160,46849,1,0,0:0:0:0:
224,96,47193,1,0,0:0:0:0:
224,96,47365,1,0,0:0:0:0:
256,160,47537,1,12,0:0:0:0:
256,160,48225,1,8,0:0:0:0:
224,128,48568,1,8,0:0:0:0:
224,96,48740,1,0,0:0:0:0:
256,160,48912,1,8,0:0:0:0:
224,128,49600,1,8,0:0:0:0:
224,96,49772,1,8,0:0:0:0:
224,128,49944,1,8,0:0:0:0:
224,160,50288,1,0,0:0:0:0:
192,96,50803,1,8,0:0:0:0:
224,160,51319,1,0,0:0:0:0:
224,160,51663,1,8,0:0:0:0:
288,160,52171,1,8,0:0:0:0:
256,192,52679,1,8,0:0:0:0:
256,192,52860,1,8,0:0:0:0:
288,160,53058,1,12,0:0:0:0:
288,128,53743,1,8,0:0:0:0:
288,128,54086,1,0,0:0:0:0:
256,192,54258,1,0,0:0:0:0:
288,128,54429,1,8,0:0:0:0:
288,128,55115,1,8,0:0:0:0:
288,128,55458,1,0,0:0:0:0:
256,192,55629,1,0,0:0:0:0:
288,128,55800,1,8,0:0:0:0:
288,128,56486,1,8,0:0:0:0:
288,128,56829,1,0,0:0:0:0:
256,160,57000,1,0,0:0:0:0:
288,128,57172,1,8,0:0:0:0:
256,160,57516,1,0,0:0:0:0:
256,160,57687,1,8,0:0:0:0:
256,160,57858,1,0,0:0:0:0:
256,160,58191,1,0,0:0:0:0:
256,160,58362,1,0,0:0:0:0:
288,128,58533,1,12,0:0:0:0:
288,160,59218,1,8,0:0:0:0:
288,160,59561,1,8,0:0:0:0:
256,160,59733,1,0,0:0:0:0:
288,160,59904,1,12,0:0:0:0:
288,128,60585,1,12,0:0:0:0:
288,128,61301,1,4,0:0:0:0:
288,160,61975,1,4,0:0:0:0:
288,160,62649,1,12,0:0:0:0:
256,160,62997,1,12,0:0:0:0:
256,160,63346,1,12,0:0:0:0:
256,160,63723,1,12,0:0:0:0:
288,160,63989,1,4,0:0:0:0:
256,160,64497,1,8,0:0:0:0:
256,160,65005,1,8,0:0:0:0:
288,128,65344,1,4,0:0:0:0:
256,160,66029,1,8,0:0:0:0:
288,128,66715,1,4,0:0:0:0:
256,192,67229,1,8,0:0:0:0:
224,128,67744,1,8,0:0:0:0:
288,160,68086,1,4,0:0:0:0:
256,160,68772,1,0,0:0:0:0:
288,160,69458,1,4,0:0:0:0:
256,128,69801,1,8,0:0:0:0:
256,160,69972,1,8,0:0:0:0:
256,160,70486,1,8,0:0:0:0:
224,96,70838,1,4,0:0:0:0:
256,128,71180,1,8,0:0:0:0:
224,96,71352,1,8,0:0:0:0:
256,96,71523,1,8,0:0:0:0:
224,96,71866,1,8,0:0:0:0:
224,96,72214,1,4,0:0:0:0:
288,128,72728,1,8,0:0:0:0:
288,128,73236,1,8,0:0:0:0:
288,128,73586,1,4,0:0:0:0:
288,128,73924,1,4,0:0:0:0:
288,128,74266,1,4,0:0:0:0:
192,128,74438,1,4,0:0:0:0:
288,128,74609,1,4,0:0:0:0:
288,128,74957,1,4,0:0:0:0:
288,96,75301,1,8,0:0:0:0:
288,96,75991,1,8,0:0:0:0:
320,160,76336,1,0,0:0:0:0:
288,96,76853,1,8,0:0:0:0:
320,160,77370,1,8,0:0:0:0:
320,160,77715,1,0,0:0:0:0:
288,96,78232,1,8,0:0:0:0:
288,96,78750,1,8,0:0:0:0:
288,96,78922,1,8,0:0:0:0:
320,160,79094,1,0,0:0:0:0:
320,160,79608,1,0,0:0:0:0:
320,160,80122,1,0,0:0:0:0:
320,160,80465,1,0,0:0:0:0:
352,96,80808,1,8,0:0:0:0:
352,96,81494,1,8,0:0:0:0:
320,160,81836,1,0,0:0:0:0:
352,96,82351,1,8,0:0:0:0:
320,160,82865,1,8,0:0:0:0:
352,96,83208,1,8,0:0:0:0:
352,96,84408,1,0,0:0:0:0:
320,160,84579,1,8,0:0:0:0:
288,160,85094,1,8,0:0:0:0:
288,160,85608,1,8,0:0:0:0:
288,160,85966,1,4,0:0:0:0:
256,160,86651,1,8,0:0:0:0:
256,160,86994,1,8,0:0:0:0:
288,128,87166,1,8,0:0:0:0:
256,160,87337,1,0,0:0:0:0:
288,128,88023,1,8,0:0:0:0:
288,128,88366,1,8,0:0:0:0:
256,160,88537,1,8,0:0:0:0:
288,128,88708,1,0,0:0:0:0:
256,160,89394,1,8,0:0:0:0:
256,160,89737,1,0,0:0:0:0:
256,160,89908,1,0,0:0:0:0:
256,160,90080,1,8,0:0:0:0:
256,160,90423,1,0,0:0:0:0:
256,160,90594,1,8,0:0:0:0:
256,160,90766,1,0,0:0:0:0:
256,160,91108,1,8,0:0:0:0:
256,160,91280,1,8,0:0:0:0:
256,160,91451,1,0,0:0:0:0:
256,160,92140,1,8,0:0:0:0:
224,128,92485,1,8,0:0:0:0:
256,160,92657,1,0,0:0:0:0:
256,160,92830,1,12,0:0:0:0:
224,128,93519,1,12,0:0:0:0:
224,160,94287,1,12,0:0:0:0:
352,128,94629,1,8,0:0:0:0:
352,128,94972,1,8,0:0:0:0:
352,128,95315,1,8,0:0:0:0:
224,160,95658,1,0,0:0:0:0:
352,128,96010,1,8,0:0:0:0:
256,128,96356,1,0,0:0:0:0:
352,128,96703,1,8,0:0:0:0:
288,160,97040,1,0,0:0:0:0:
352,128,97380,1,0,0:0:0:0:
288,128,97721,1,0,0:0:0:0:
352,128,97892,1,0,0:0:0:0:
352,128,98062,1,0,0:0:0:0:
352,128,98233,1,0,0:0:0:0:
288,128,98403,1,8,0:0:0:0:
288,128,99085,1,8,0:0:0:0:
288,128,99426,1,8,0:0:0:0:
256,128,99596,1,8,0:0:0:0:
288,96,99767,1,8,0:0:0:0:
288,96,100108,1,8,0:0:0:0:
288,128,100449,1,8,0:0:0:0:
320,160,101130,1,8,0:0:0:0:
320,160,101471,1,8,0:0:0:0:
256,160,101812,1,8,0:0:0:0:
256,160,101983,1,8,0:0:0:0:
256,160,102153,1,8,0:0:0:0:
256,160,102324,1,8,0:0:0:0:
288,128,102494,1,0,0:0:0:0:
288,160,103176,1,0,0:0:0:0:
288,160,103517,1,0,0:0:0:0:
256,128,103687,1,0,0:0:0:0:
256,128,103858,1,0,0:0:0:0:
288,160,104199,1,0,0:0:0:0:
288,128,104540,1,8,0:0:0:0:
256,96,104886,1,0,0:0:0:0:
256,96,105060,1,0,0:0:0:0:
288,160,105233,1,8,0:0:0:0:
224,192,105580,1,8,0:0:0:0:
256,96,105753,1,8,0:0:0:0:
160,160,105927,1,0,0:0:0:0:
288,160,106100,1,8,0:0:0:0:
288,160,106620,1,4,0:0:0:0:
288,128,107135,1,8,0:0:0:0:
256,96,107650,1,12,0:0:0:0:
192,128,108182,1,0,0:0:0:0:
256,96,108732,1,12,0:0:0:0:
192,96,109193,1,0,0:0:0:0:
256,96,109717,1,12,0:0:0:0:
256,128,110217,1,12,0:0:0:0:
256,128,110727,1,12,0:0:0:0:
256,128,111251,1,12,0:0:0:0:
256,128,111772,1,4,0:0:0:0:
256,96,112457,1,8,0:0:0:0:
256,96,112800,1,8,0:0:0:0:
256,96,113143,1,0,0:0:0:0:
256,160,113829,1,0,0:0:0:0:
256,160,114514,1,12,0:0:0:0:
256,160,115200,1,12,0:0:0:0:
256,160,115886,1,4,0:0:0:0:
256,96,116400,1,8,0:0:0:0:
256,96,116914,1,8,0:0:0:0:
288,160,117257,1,4,0:0:0:0:
256,96,117772,1,8,0:0:0:0:
256,96,118286,1,8,0:0:0:0:
256,160,118629,1,4,0:0:0:0:
256,96,119143,1,8,0:0:0:0:
256,96,119657,1,8,0:0:0:0:
256,160,120000,1,4,0:0:0:0:
256,96,120686,1,4,0:0:0:0:
256,160,121372,1,4,0:0:0:0:
256,96,121886,1,8,0:0:0:0:
256,96,122400,1,8,0:0:0:0:
256,160,122743,1,0,0:0:0:0:
256,160,123086,1,8,0:0:0:0:
256,160,123429,1,8,0:0:0:0:
256,160,123772,1,8,0:0:0:0:
256,160,124114,1,4,0:0:0:0:
256,160,124629,1,8,0:0:0:0:
256,160,125143,1,8,0:0:0:0:
256,160,125486,1,4,0:0:0:0:
256,192,126172,1,8,0:0:0:0:
256,192,126343,1,8,0:0:0:0:
256,192,126514,1,8,0:0:0:0:
256,160,126857,1,4,0:0:0:0:
256,160,127372,1,8,0:0:0:0:
256,160,127886,1,8,0:0:0:0:
256,160,128229,1,4,0:0:0:0:
256,128,128914,1,8,0:0:0:0:
256,128,129086,1,8,0:0:0:0:
256,128,129257,1,8,0:0:0:0:
256,160,129600,1,4,0:0:0:0:
256,160,130114,1,8,0:0:0:0:
256,160,130629,1,8,0:0:0:0:
256,160,130972,1,4,0:0:0:0:
256,128,131657,1,8,0:0:0:0:
256,128,131829,1,8,0:0:0:0:
256,128,132000,1,8,0:0:0:0:
256,160,132343,1,4,0:0:0:0:
256,160,132857,1,8,0:0:0:0:
256,160,133372,1,8,0:0:0:0:
256,160,133714,1,4,0:0:0:0:
256,128,134400,1,8,0:0:0:0:
256,128,134572,1,8,0:0:0:0:
256,128,134743,1,8,0:0:0:0:
256,160,135086,1,12,0:0:0:0:
256,64,135430,1,0,0:0:0:0:
224,128,135775,1,8,0:0:0:0:
320,128,136120,1,0,0:0:0:0:
320,128,136292,1,0,0:0:0:0:
224,128,136465,1,8,0:0:0:0:
320,128,136807,1,8,0:0:0:0:
224,128,137150,1,8,0:0:0:0:
224,128,137493,1,8,0:0:0:0:
320,128,137665,1,8,0:0:0:0:
224,128,137836,1,8,0:0:0:0:
320,128,138522,1,8,0:0:0:0:
224,160,139207,1,8,0:0:0:0:
320,128,139550,1,8,0:0:0:0:
224,160,139893,1,8,0:0:0:0:
224,160,140236,1,8,0:0:0:0:
320,128,140407,1,8,0:0:0:0:
224,160,140579,1,8,0:0:0:0:
320,128,141265,1,8,0:0:0:0:
224,160,141950,1,8,0:0:0:0:
320,128,142293,1,8,0:0:0:0:
224,160,142636,1,8,0:0:0:0:
224,160,142979,1,8,0:0:0:0:
320,128,143150,1,8,0:0:0:0:
224,160,143322,1,8,0:0:0:0:
320,128,144007,1,8,0:0:0:0:
224,160,144693,1,8,0:0:0:0:
320,128,144865,1,8,0:0:0:0:
320,128,145036,1,8,0:0:0:0:
224,160,145379,1,8,0:0:0:0:
224,160,146074,1,4,0:0:0:0:
320,128,146416,1,0,0:0:0:0:
320,128,146759,1,0,0:0:0:0:
320,160,147102,1,0,0:0:0:0:
320,128,147274,1,0,0:0:0:0:
256,192,147445,1,8,0:0:0:0:
256,192,148131,1,0,0:0:0:0:
320,128,148474,1,8,0:0:0:0:
192,128,148645,1,8,0:0:0:0:
256,192,148816,1,0,0:0:0:0:
320,128,149159,1,0,0:0:0:0:
320,128,149502,1,0,0:0:0:0:
320,128,149845,1,0,0:0:0:0:
320,128,150022,1,0,0:0:0:0:
256,192,150200,1,12,0:0:0:0:
256,160,150542,1,12,0:0:0:0:
256,192,150885,1,4,0:0:0:0:
128,128,151228,1,4,0:0:0:0:
256,192,151571,1,12,0:0:0:0:
224,160,151904,1,8,0:0:0:0:
224,160,152237,1,8,0:0:0:0:
224,160,152579,1,8,0:0:0:0:
224,64,152751,1,8,0:0:0:0:
256,192,152922,1,8,0:0:0:0:
256,96,153608,1,8,0:0:0:0:
256,192,153951,1,8,0:0:0:0:
256,192,154294,1,4,0:0:0:0:
256,96,154464,1,4,0:0:0:0:
288,192,154975,1,4,0:0:0:0:
256,96,155146,1,4,0:0:0:0:
288,192,155679,1,12,0:0:0:0:
256,192,157066,12,0,159458,0:0:0:0:
224,160,159793,5,0,0:0:0:0:
224,160,160478,1,8,0:0:0:0:
256,96,161164,1,0,0:0:0:0:
256,96,161507,1,0,0:0:0:0:
256,192,161850,1,8,0:0:0:0:
256,192,162535,1,0,0:0:0:0:
256,192,163221,1,8,0:0:0:0:
192,128,163907,1,0,0:0:0:0:
256,96,164250,1,8,0:0:0:0:
256,96,164593,1,0,0:0:0:0:
256,192,164935,1,8,0:0:0:0:
256,160,165278,1,12,0:0:0:0:
256,160,165793,1,12,0:0:0:0:
256,160,166307,1,12,0:0:0:0:
256,160,166821,1,12,0:0:0:0:
256,160,167335,1,12,0:0:0:0:
256,96,167678,1,8,0:0:0:0:
256,160,168021,1,4,0:0:0:0:
256,96,168364,1,8,0:0:0:0:
288,160,168707,1,4,0:0:0:0:
256,96,169050,1,8,0:0:0:0:
256,96,169221,1,0,0:0:0:0:
288,160,169393,1,12,0:0:0:0:
288,128,169735,1,8,0:0:0:0:
256,128,170078,1,8,0:0:0:0:
256,128,170421,1,8,0:0:0:0:
256,128,170598,1,8,0:0:0:0:
288,160,170776,1,4,0:0:0:0:
320,192,171450,1,8,0:0:0:0:
288,128,171787,1,8,0:0:0:0:
288,128,171955,1,4,0:0:0:0:
320,192,172466,1,8,0:0:0:0:
288,128,172809,1,8,0:0:0:0:
320,192,173152,1,8,0:0:0:0:
320,160,173495,1,4,0:0:0:0:
320,160,174181,1,8,0:0:0:0:
288,128,174524,1,8,0:0:0:0:
288,128,174695,1,4,0:0:0:0:
288,128,175209,1,8,0:0:0:0:
288,128,175895,1,8,0:0:0:0:
288,128,176238,1,4,0:0:0:0:
224,128,176581,1,0,0:0:0:0:
224,128,176924,1,0,0:0:0:0:
224,128,177266,1,0,0:0:0:0:
288,160,177609,1,8,0:0:0:0:
224,128,177952,1,8,0:0:0:0:
224,128,178295,1,8,0:0:0:0:
224,128,178638,1,8,0:0:0:0:
288,160,178981,1,8,0:0:0:0:
288,96,179153,1,8,0:0:0:0:
288,96,179325,1,0,0:0:0:0:
288,160,179670,1,8,0:0:0:0:
288,96,179843,1,8,0:0:0:0:
288,96,180015,1,0,0:0:0:0:
288,160,180360,1,8,0:0:0:0:
288,96,180532,1,8,0:0:0:0:
288,96,180705,1,0,0:0:0:0:
288,160,181049,1,8,0:0:0:0:
288,96,181222,1,8,0:0:0:0:
288,96,181394,1,8,0:0:0:0:
288,128,181567,1,8,0:0:0:0:
288,160,181739,1,4,0:0:0:0:
256,160,182424,1,8,0:0:0:0:
256,160,182767,1,8,0:0:0:0:
256,128,182939,1,8,0:0:0:0:
256,160,183110,1,0,0:0:0:0:
288,128,183796,1,8,0:0:0:0:
288,128,184139,1,8,0:0:0:0:
256,128,184310,1,8,0:0:0:0:
288,128,184481,1,0,0:0:0:0:
256,160,185167,1,8,0:0:0:0:
256,160,185510,1,0,0:0:0:0:
256,128,185681,1,0,0:0:0:0:
256,160,185853,1,8,0:0:0:0:
256,128,186196,1,0,0:0:0:0:
256,128,186367,1,8,0:0:0:0:
256,128,186539,1,0,0:0:0:0:
256,128,186881,1,8,0:0:0:0:
256,128,187053,1,8,0:0:0:0:
256,160,187224,1,4,0:0:0:0:
256,160,187910,1,8,0:0:0:0:
224,128,188253,1,8,0:0:0:0:
256,128,188424,1,0,0:0:0:0:
256,160,188596,1,8,0:0:0:0:
224,128,189281,1,8,0:0:0:0:
224,128,189624,1,8,0:0:0:0:
256,128,189796,1,8,0:0:0:0:
224,160,189967,1,0,0:0:0:0:
192,96,190656,1,8,0:0:0:0:
256,128,191001,1,0,0:0:0:0:
256,128,191173,1,0,0:0:0:0:
224,160,191346,1,8,0:0:0:0:
288,160,191691,1,8,0:0:0:0:
288,128,192039,1,8,0:0:0:0:
288,128,192388,1,8,0:0:0:0:
288,160,192740,1,4,0:0:0:0:
288,128,193385,1,8,0:0:0:0:
288,128,193727,1,8,0:0:0:0:
320,128,193906,1,8,0:0:0:0:
288,128,194086,1,0,0:0:0:0:
288,128,194771,1,8,0:0:0:0:
288,128,195114,1,8,0:0:0:0:
320,128,195286,1,8,0:0:0:0:
288,128,195457,1,0,0:0:0:0:
288,128,196143,1,8,0:0:0:0:
288,128,196486,1,0,0:0:0:0:
320,128,196657,1,0,0:0:0:0:
288,128,196828,1,8,0:0:0:0:
352,128,197171,1,0,0:0:0:0:
352,128,197343,1,8,0:0:0:0:
352,128,197514,1,0,0:0:0:0:
352,128,197857,1,8,0:0:0:0:
352,128,198028,1,8,0:0:0:0:
288,128,198200,1,4,0:0:0:0:
288,160,198886,1,8,0:0:0:0:
288,160,199228,1,8,0:0:0:0:
288,160,199400,1,0,0:0:0:0:
288,160,199571,1,12,0:0:0:0:
288,128,200257,1,12,0:0:0:0:
288,128,200943,1,4,0:0:0:0:
288,160,201628,1,4,0:0:0:0:
288,160,202314,1,12,0:0:0:0:
288,128,202657,1,12,0:0:0:0:
288,128,203000,1,12,0:0:0:0:
288,128,203357,1,12,0:0:0:0:
288,160,203714,1,4,0:0:0:0:
288,128,204054,1,8,0:0:0:0:
288,128,204736,1,8,0:0:0:0:
256,192,205077,1,0,0:0:0:0:
256,192,205589,1,0,0:0:0:0:
256,192,206100,1,8,0:0:0:0:
256,192,206441,1,0,0:0:0:0:
288,160,206952,1,8,0:0:0:0:
288,160,207464,1,8,0:0:0:0:
288,160,207634,1,8,0:0:0:0:
256,192,207804,1,0,0:0:0:0:
192,128,208486,1,0,0:0:0:0:
192,128,208827,1,0,0:0:0:0:
288,160,208998,1,0,0:0:0:0:
192,128,209168,1,0,0:0:0:0:
288,160,209510,1,8,0:0:0:0:
288,160,210196,1,8,0:0:0:0:
256,192,210539,1,0,0:0:0:0:
288,160,211053,1,8,0:0:0:0:
288,160,211573,1,8,0:0:0:0:
256,192,211925,1,0,0:0:0:0:
256,128,212610,1,0,0:0:0:0:
256,128,212953,1,8,0:0:0:0:
256,128,213125,1,8,0:0:0:0:
256,192,213296,1,0,0:0:0:0:
256,160,213982,1,0,0:0:0:0:
256,160,214325,1,0,0:0:0:0:
256,128,214496,1,0,0:0:0:0:
256,192,214667,1,0,0:0:0:0:
320,32,215010,1,8,0:0:0:0:
320,32,215696,1,8,0:0:0:0:
320,32,215867,1,8,0:0:0:0:
256,160,216039,1,0,0:0:0:0:
320,32,216553,1,8,0:0:0:0:
320,64,217067,1,8,0:0:0:0:
256,160,217410,1,0,0:0:0:0:
320,96,218096,1,0,0:0:0:0:
224,160,218439,1,8,0:0:0:0:
320,96,218610,1,8,0:0:0:0:
256,160,218782,1,0,0:0:0:0:
224,64,219471,1,0,0:0:0:0:
224,64,219813,1,0,0:0:0:0:
96,128,219985,1,0,0:0:0:0:
224,160,220156,1,0,0:0:0:0:
288,128,220498,1,8,0:0:0:0:
288,128,221184,1,8,0:0:0:0:
224,160,221527,1,0,0:0:0:0:
256,96,222041,1,8,0:0:0:0:
224,128,222556,1,8,0:0:0:0:
224,128,222917,1,0,0:0:0:0:
224,128,223244,1,8,0:0:0:0:
224,128,223758,1,8,0:0:0:0:
224,128,224272,1,8,0:0:0:0:
224,128,224786,1,8,0:0:0:0:
224,128,225300,1,8,0:0:0:0:
288,96,225643,1,0,0:0:0:0:
256,128,225985,1,12,0:0:0:0:
256,128,226500,1,12,0:0:0:0:
256,128,227014,1,12,0:0:0:0:
256,128,227528,1,12,0:0:0:0:
256,128,228043,1,12,0:0:0:0:
256,160,228386,1,4,0:0:0:0:
256,160,228723,1,12,0:0:0:0:
128,192,230101,2,0,L|544:288,1,420
256,192,231472,12,0,234215,0:0:0:0:
