osu file format v14

[General]
AudioFilename: audio.mp3
AudioLeadIn: 0
PreviewTime: -1
Countdown: 1
SampleSet: None
StackLeniency: 0.7
Mode: 0
LetterboxInBreaks: 0
WidescreenStoryboard: 1

[Editor]
DistanceSpacing: 0.4
BeatDivisor: 2
GridSize: 8
TimelineZoom: 1

[Metadata]
Title:HIBIKE! CHIREI MY WAY!
TitleUnicode:響け! CHIREI MY WAY!
Artist:Ayaponzu*, Ayo, cheluce, Meramipop
ArtistUnicode:あやぽんず*, あよ, cheluce, めらみぽっぷ
Creator:ANuko
Version:CHIREI MY WAY!
Source:
Tags:
BeatmapID:2147475
BeatmapSetID:1024600

[Difficulty]
HPDrainRate:6
CircleSize:4
OverallDifficulty:6
ApproachRate:9
SliderMultiplier:2.4
SliderTickRate:1

[Events]
//Background and Video events
0,0,"kaenbyou_rin_komeiji_koishi_komeiji_satori_and_reiuji_utsuho_touhou_drawn_by_walzrj__1782e126a6c172d.png",0,0
//Break Periods
//Storyboard Layer 0 (Background)
//Storyboard Layer 1 (Fail)
//Storyboard Layer 2 (Pass)
//Storyboard Layer 3 (Foreground)
//Storyboard Layer 4 (Overlay)
//Storyboard Sound Samples

[TimingPoints]
1642,331.491712707182,4,1,0,100,1,0
1642,-399.999999999997,4,1,0,100,0,0
2967,-200,4,1,0,100,0,0
9597,-100,4,1,0,100,0,0
30482,331.491712707182,4,1,0,100,1,0
30482,-200,4,1,0,100,0,0
41088,-399.999999999997,4,1,0,100,0,0
41419,-100,4,1,0,100,0,0
51695,-200,4,1,0,100,0,0
62303,-100,4,1,0,100,0,0
72910,-200,4,1,0,100,0,0
74236,-66.6666666666667,4,1,0,100,0,0
75562,-399.999999999997,4,1,0,100,0,0
75894,-100,4,1,0,100,0,1
78214,-399.999999999997,4,1,0,100,0,0
78546,-100,4,1,0,100,0,1
80700,-100,4,1,0,100,0,0
86170,-399.999999999997,4,1,0,100,0,0
86502,-100,4,1,0,100,0,1
96778,-100,4,1,0,100,0,0
129927,-200,4,1,0,100,0,0
140535,-100,4,1,0,100,0,0
151142,-200,4,1,0,100,0,0
152468,-66.6666666666667,4,1,0,100,0,0
153794,-399.999999999997,4,1,0,100,0,0
154126,-100,4,1,0,100,0,1
156446,-399.999999999997,4,1,0,100,0,0
156778,-100,4,1,0,100,0,1
158933,-100,4,1,0,100,0,0
164402,-399.999999999997,4,1,0,100,0,0
164734,-100,4,1,0,100,0,1
177662,-100,4,1,0,100,0,0
229375,-200,4,1,0,100,0,0
230700,-100,4,1,0,100,0,0

[HitObjects]
67,323,1642,6,0,P|143:312|233:205,1,210
120,111,2967,2,0,P|112:153|118:177,1,60
236,61,3299,2,0,P|200:85|187:106,1,60
345,115,3630,2,0,P|302:107|279:113,1,60
373,226,3962,1,0,0:0:0:0:
372,210,4293,6,0,P|446:181|507:194,1,120
418,330,4956,2,0,P|344:359|283:346,1,120
213,260,5619,6,0,P|209:296|217:340,1,60
142,251,5951,2,0,P|113:273|88:310,1,60
96,194,6282,2,0,P|60:190|16:198,1,60
83,117,6614,1,0,0:0:0:0:
150,205,6945,6,0,P|222:217|356:104,1,240
447,194,7940,1,0,0:0:0:0:
398,303,8271,6,0,P|326:291|192:404,1,240
123,290,9266,1,0,0:0:0:0:
19,240,9597,6,0,P|1:182|0:123,1,120
118,20,9929,1,0,0:0:0:0:
130,113,10095,2,0,P|187:130|247:132,1,120
405,61,10426,1,0,0:0:0:0:
386,61,10509,1,0,0:0:0:0:
369,53,10592,5,0,0:0:0:0:
379,99,10675,1,0,0:0:0:0:
374,146,10758,1,0,0:0:0:0:
355,189,10840,1,0,0:0:0:0:
312,211,10923,6,0,P|261:254|250:343,1,120
341,304,11255,1,0,0:0:0:0:
301,187,11421,2,0,P|265:155|159:114,1,120
60,96,11752,1,0,0:0:0:0:
68,143,11835,1,0,0:0:0:0:
61,190,11918,1,0,0:0:0:0:
137,321,12083,5,0,0:0:0:0:
132,273,12166,1,0,0:0:0:0:
141,225,12249,5,0,0:0:0:0:
154,244,12332,1,0,0:0:0:0:
172,259,12415,1,0,0:0:0:0:
194,267,12498,1,0,0:0:0:0:
217,271,12581,1,0,0:0:0:0:
240,268,12664,1,0,0:0:0:0:
261,258,12746,1,0,0:0:0:0:
277,240,12829,1,0,0:0:0:0:
285,217,12912,1,0,0:0:0:0:
278,193,12995,1,0,0:0:0:0:
265,172,13078,1,0,0:0:0:0:
267,148,13161,1,0,0:0:0:0:
279,127,13244,1,0,0:0:0:0:
299,114,13327,1,0,0:0:0:0:
321,106,13409,6,0,P|241:94|158:44,1,120
292,8,13741,1,0,0:0:0:0:
192,69,13907,1,0,0:0:0:0:
98,187,14072,1,0,0:0:0:0:
119,69,14238,1,0,0:0:0:0:
159,290,14404,1,0,0:0:0:0:
193,157,14570,1,0,0:0:0:0:
84,370,14735,1,0,0:0:0:0:
274,320,14901,5,0,0:0:0:0:
295,309,14984,1,0,0:0:0:0:
313,293,15067,1,0,0:0:0:0:
323,271,15150,1,0,0:0:0:0:
345,279,15233,5,0,0:0:0:0:
360,260,15316,1,0,0:0:0:0:
365,236,15398,1,0,0:0:0:0:
357,213,15481,1,0,0:0:0:0:
377,200,15564,5,0,0:0:0:0:
367,177,15647,1,0,0:0:0:0:
348,161,15730,1,0,0:0:0:0:
324,155,15813,1,0,0:0:0:0:
282,213,15896,5,0,0:0:0:0:
258,210,15979,1,0,0:0:0:0:
237,198,16061,1,0,0:0:0:0:
220,180,16144,1,0,0:0:0:0:
151,158,16227,5,0,0:0:0:0:
143,135,16310,1,0,0:0:0:0:
145,111,16393,1,0,0:0:0:0:
158,91,16476,1,0,0:0:0:0:
202,33,16559,5,0,0:0:0:0:
215,52,16641,1,0,0:0:0:0:
235,65,16724,1,0,0:0:0:0:
257,73,16807,1,0,0:0:0:0:
250,96,16890,5,0,0:0:0:0:
267,112,16973,1,0,0:0:0:0:
290,117,17056,1,0,0:0:0:0:
313,118,17139,1,0,0:0:0:0:
384,106,17222,5,0,0:0:0:0:
381,129,17304,1,0,0:0:0:0:
380,153,17387,1,0,0:0:0:0:
384,176,17470,1,0,0:0:0:0:
428,232,17553,5,0,0:0:0:0:
402,257,17636,1,0,0:0:0:0:
367,267,17719,1,0,0:0:0:0:
331,262,17802,1,0,0:0:0:0:
339,296,17885,5,0,0:0:0:0:
304,288,17967,1,0,0:0:0:0:
273,268,18050,1,0,0:0:0:0:
263,233,18133,1,0,0:0:0:0:
199,178,18216,5,0,0:0:0:0:
207,200,18299,1,0,0:0:0:0:
205,224,18382,1,0,0:0:0:0:
191,243,18465,1,0,0:0:0:0:
193,267,18548,5,0,0:0:0:0:
170,274,18630,1,0,0:0:0:0:
146,272,18713,1,0,0:0:0:0:
124,261,18796,1,0,0:0:0:0:
109,280,18879,5,0,0:0:0:0:
86,270,18962,1,0,0:0:0:0:
75,248,19045,1,0,0:0:0:0:
79,224,19128,1,0,0:0:0:0:
129,172,19211,5,0,0:0:0:0:
107,162,19293,1,0,0:0:0:0:
89,145,19376,1,0,0:0:0:0:
75,124,19459,1,0,0:0:0:0:
141,90,19542,5,0,0:0:0:0:
134,60,19625,1,0,0:0:0:0:
119,33,19708,1,0,0:0:0:0:
95,14,19791,1,0,0:0:0:0:
25,33,19874,5,0,0:0:0:0:
32,55,19956,1,0,0:0:0:0:
49,71,20039,1,0,0:0:0:0:
70,81,20122,1,0,0:0:0:0:
64,104,20205,5,0,0:0:0:0:
83,118,20288,1,0,0:0:0:0:
105,126,20371,1,0,0:0:0:0:
128,128,20454,1,0,0:0:0:0:
135,150,20537,5,0,0:0:0:0:
170,153,20619,1,0,0:0:0:0:
205,147,20702,1,0,0:0:0:0:
233,125,20785,1,0,0:0:0:0:
242,159,20868,5,0,0:0:0:0:
277,153,20951,1,0,0:0:0:0:
307,133,21034,1,0,0:0:0:0:
326,102,21117,1,0,0:0:0:0:
346,131,21200,5,0,0:0:0:0:
367,102,21282,1,0,0:0:0:0:
379,68,21365,1,0,0:0:0:0:
374,32,21448,1,0,0:0:0:0:
302,21,21531,5,0,0:0:0:0:
282,34,21614,1,0,0:0:0:0:
258,40,21697,1,0,0:0:0:0:
234,43,21780,1,0,0:0:0:0:
237,66,21863,5,0,0:0:0:0:
215,75,21945,1,0,0:0:0:0:
190,74,22028,1,0,0:0:0:0:
167,65,22111,1,0,0:0:0:0:
174,87,22194,5,0,0:0:0:0:
153,99,22277,1,0,0:0:0:0:
129,102,22360,1,0,0:0:0:0:
105,99,22443,1,0,0:0:0:0:
58,154,22526,5,0,0:0:0:0:
73,171,22608,1,0,0:0:0:0:
81,193,22691,1,0,0:0:0:0:
79,216,22774,1,0,0:0:0:0:
16,252,22857,5,0,0:0:0:0:
24,274,22940,1,0,0:0:0:0:
39,292,23023,1,0,0:0:0:0:
60,303,23106,1,0,0:0:0:0:
127,278,23189,5,0,0:0:0:0:
150,275,23271,1,0,0:0:0:0:
173,277,23354,1,0,0:0:0:0:
195,284,23437,1,0,0:0:0:0:
249,331,23520,5,0,0:0:0:0:
270,319,23603,1,0,0:0:0:0:
282,298,23686,1,0,0:0:0:0:
277,274,23769,1,0,0:0:0:0:
223,225,23852,5,0,0:0:0:0:
209,205,23934,1,0,0:0:0:0:
210,180,24017,1,0,0:0:0:0:
222,159,24100,1,0,0:0:0:0:
291,140,24183,5,0,0:0:0:0:
272,109,24266,1,0,0:0:0:0:
243,86,24349,1,0,0:0:0:0:
207,79,24432,1,0,0:0:0:0:
216,44,24515,5,0,0:0:0:0:
183,29,24597,1,0,0:0:0:0:
146,27,24680,1,0,0:0:0:0:
112,40,24763,1,0,0:0:0:0:
88,67,24846,5,0,0:0:0:0:
138,268,25012,1,0,0:0:0:0:
201,105,25177,2,0,L|230:254,1,120
194,207,25509,1,0,0:0:0:0:
182,93,25675,2,0,L|171:237,1,120
167,222,26006,5,0,0:0:0:0:
153,224,26172,1,0,0:0:0:0:
209,76,26338,6,0,L|215:216,1,120
128,239,26669,1,0,0:0:0:0:
128,239,26835,1,0,0:0:0:0:
128,239,27001,1,0,0:0:0:0:
153,224,27166,1,0,0:0:0:0:
157,228,27249,1,0,0:0:0:0:
153,224,27332,1,0,0:0:0:0:
153,224,27498,1,0,0:0:0:0:
153,224,27664,1,0,0:0:0:0:
196,186,27829,5,0,0:0:0:0:
171,219,27995,1,0,0:0:0:0:
196,186,28161,5,0,0:0:0:0:
196,186,28327,1,0,0:0:0:0:
191,198,28492,5,0,0:0:0:0:
191,198,28658,1,0,0:0:0:0:
191,198,28824,5,0,0:0:0:0:
208,99,28990,2,0,L|218:256,1,120
176,211,29321,5,0,0:0:0:0:
177,213,29487,1,0,0:0:0:0:
176,211,29653,1,0,0:0:0:0:
170,102,29818,2,0,L|174:238,1,120
224,273,30067,1,0,0:0:0:0:
224,273,30150,1,0,0:0:0:0:
224,273,30233,1,0,0:0:0:0:
224,273,30316,1,0,0:0:0:0:
224,273,30398,1,0,0:0:0:0:
402,218,30482,6,0,P|380:188|341:167,1,60
358,263,30813,2,0,P|336:233|297:212,1,60
402,218,31144,6,0,P|380:188|341:167,1,60
358,263,31475,2,0,P|336:233|297:212,1,60
402,218,31807,6,0,P|380:188|341:167,1,60
358,263,32138,2,0,P|336:233|297:212,1,60
402,218,32470,6,0,P|380:188|341:167,1,60
358,263,32801,2,0,P|336:233|297:212,1,60
402,218,33133,6,0,P|380:188|341:167,1,60
358,263,33464,2,0,P|336:233|297:212,1,60
402,218,33796,6,0,P|380:188|341:167,1,60
358,263,34127,2,0,P|336:233|297:212,1,60
402,218,34459,6,0,P|380:188|341:167,1,60
358,263,34790,2,0,P|336:233|297:212,1,60
402,218,35122,6,0,P|380:188|341:167,1,60
358,263,35453,2,0,P|336:233|297:212,1,60
402,218,35785,6,0,P|380:188|341:167,1,60
358,263,36116,2,0,P|336:233|297:212,1,60
402,218,36448,6,0,P|380:188|341:167,1,60
358,263,36779,2,0,P|336:233|297:212,1,60
402,218,37111,6,0,P|380:188|341:167,1,60
358,263,37442,2,0,P|336:233|297:212,1,60
402,218,37774,6,0,P|380:188|341:167,1,60
358,263,38105,2,0,P|336:233|297:212,1,60
182,226,38437,5,0,0:0:0:0:
182,226,38603,1,0,0:0:0:0:
182,226,38769,1,0,0:0:0:0:
182,226,38935,1,0,0:0:0:0:
182,226,39017,1,0,0:0:0:0:
182,226,39100,1,0,0:0:0:0:
182,226,39266,1,0,0:0:0:0:
182,226,39432,1,0,0:0:0:0:
229,85,39598,2,0,L|222:166,1,60
149,163,39929,5,0,0:0:0:0:
149,163,40095,1,0,0:0:0:0:
149,163,40261,1,0,0:0:0:0:
195,93,40426,2,0,L|218:196,1,60
272,84,40758,2,0,L|275:197,1,60
191,311,41089,2,0,L|193:257,1,30
186,92,41421,2,0,L|165:301,1,120
