osu file format v14

[General]
AudioFilename: yakubyougami.ogg
AudioLeadIn: 0
PreviewTime: 185085
Countdown: 0
SampleSet: Normal
StackLeniency: 0.7
Mode: 1
LetterboxInBreaks: 0
WidescreenStoryboard: 0

[Editor]
Bookmarks: 1228,10370,19513,28656,37799,46942,56085,65228,74370,83513,92656,101799,110942,120085,129228,138370,147513,156656,165799,174942,185228,194370,205799,214942
DistanceSpacing: 1
BeatDivisor: 4
GridSize: 32
TimelineZoom: 3.199999

[Metadata]
Title:Yakubyougami
TitleUnicode:ヤクビョウガミ
Artist:ayaponzu*
ArtistUnicode:あやぽんず*
Creator:gaston_2199
Version:qoot8123's Muzukashii
Source:
Tags:chocolate pop* 歌い手 utaite 歌ってみた utattemita まふまふ mafumafu ボーカロイド vocaloid カバー cover みみぃ mimy C89 comiket japanese j-pop jpop jrock j-rock japanese female vocal qoot8123 Star Stream S.S
BeatmapID:1594631
BeatmapSetID:742938

[Difficulty]
HPDrainRate:6
CircleSize:2
OverallDifficulty:5
ApproachRate:10
SliderMultiplier:1.4
SliderTickRate:1

[Events]
//Background and Video events
0,0,"BG.jpg",0,0
//Break Periods
//Storyboard Layer 0 (Background)
//Storyboard Layer 1 (Fail)
//Storyboard Layer 2 (Pass)
//Storyboard Layer 3 (Foreground)
//Storyboard Layer 4 (Overlay)
//Storyboard Sound Samples

[TimingPoints]
228,285.714285714286,4,1,0,50,1,8
1079,-100,4,1,0,90,0,0
19654,-100,5,1,0,70,0,0
24221,-100,5,1,0,80,0,0
28649,-100,5,1,0,90,0,0
37935,-100,5,1,0,80,0,0
42363,-100,5,1,0,90,0,0
47078,-100,5,1,0,80,0,0
51506,-100,5,1,0,90,0,0
54078,-100,5,1,0,80,0,0
56085,-100,5,1,0,100,0,1
74370,-100,5,1,0,90,0,0
92792,-100,5,1,0,70,0,0
97364,-100,5,1,0,80,0,0
101792,-100,5,1,0,90,0,0
111078,-100,5,1,0,80,0,0
115506,-100,5,1,0,90,0,0
120221,-100,5,1,0,80,0,0
124649,-100,5,1,0,90,0,0
126935,-100,5,1,0,50,0,0
128078,-100,5,1,0,80,0,0
129228,-100,5,1,0,100,0,1
147513,-100,5,1,0,90,0,0
165940,-100,5,1,0,80,0,0
170363,-100,5,1,0,90,0,0
175078,-100,5,1,0,80,0,0
179506,-100,5,1,0,90,0,0
182078,-100,5,1,0,80,0,0
185228,-100,5,1,0,100,0,1
205799,-100,5,1,0,100,0,0
205940,-100,5,1,0,90,0,0

[HitObjects]
256,192,1085,5,0,0:0:0:0:
256,192,1228,1,4,0:0:0:0:
256,160,1513,1,0,0:0:0:0:
256,192,1656,1,8,0:0:0:0:
256,192,1942,1,0,0:0:0:0:
256,192,2228,1,8,0:0:0:0:
256,192,2370,1,0,0:0:0:0:
256,192,2799,1,8,0:0:0:0:
256,160,3085,1,0,0:0:0:0:
256,192,3228,1,0,0:0:0:0:
256,160,3370,1,8,0:0:0:0:
256,192,3513,1,0,0:0:0:0:
256,160,3799,1,0,0:0:0:0:
256,160,3942,1,8,0:0:0:0:
256,160,4228,1,0,0:0:0:0:
256,192,4513,1,8,0:0:0:0:
256,160,4656,1,0,0:0:0:0:
256,160,5085,1,8,0:0:0:0:
256,160,5370,1,8,0:0:0:0:
256,160,5513,1,0,0:0:0:0:
256,160,5656,1,8,0:0:0:0:
256,160,5799,1,4,0:0:0:0:
256,160,6085,1,0,0:0:0:0:
256,160,6228,1,8,0:0:0:0:
256,160,6513,1,0,0:0:0:0:
256,160,6799,1,8,0:0:0:0:
256,160,6942,1,0,0:0:0:0:
256,160,7370,1,8,0:0:0:0:
256,160,7656,1,0,0:0:0:0:
224,160,7799,1,0,0:0:0:0:
256,160,7942,1,8,0:0:0:0:
256,160,8085,1,0,0:0:0:0:
256,160,8370,1,0,0:0:0:0:
256,160,8513,1,8,0:0:0:0:
256,160,8799,1,0,0:0:0:0:
256,160,9085,1,8,0:0:0:0:
256,160,9228,1,0,0:0:0:0:
256,160,9513,1,0,0:0:0:0:
256,160,9656,1,8,0:0:0:0:
256,160,9799,1,0,0:0:0:0:
256,160,9942,1,8,0:0:0:0:
256,160,10085,1,8,0:0:0:0:
256,160,10228,1,8,0:0:0:0:
256,160,10370,1,4,0:0:0:0:
256,160,10656,1,0,0:0:0:0:
256,160,10799,1,8,0:0:0:0:
256,160,11085,1,0,0:0:0:0:
256,160,11370,1,8,0:0:0:0:
256,160,11513,1,0,0:0:0:0:
256,160,11942,1,8,0:0:0:0:
256,160,12228,1,0,0:0:0:0:
256,160,12370,1,0,0:0:0:0:
256,160,12513,1,8,0:0:0:0:
256,160,12656,1,0,0:0:0:0:
256,160,12942,1,0,0:0:0:0:
256,160,13085,1,8,0:0:0:0:
256,160,13370,1,0,0:0:0:0:
256,160,13656,1,8,0:0:0:0:
256,160,13799,1,0,0:0:0:0:
256,160,14228,1,8,0:0:0:0:
256,160,14513,1,8,0:0:0:0:
256,160,14656,1,0,0:0:0:0:
256,160,14799,1,8,0:0:0:0:
256,160,14942,1,4,0:0:0:0:
256,160,15228,1,0,0:0:0:0:
256,160,15370,1,8,0:0:0:0:
256,160,15656,1,0,0:0:0:0:
256,160,15942,1,8,0:0:0:0:
256,160,16085,1,0,0:0:0:0:
256,160,16513,1,8,0:0:0:0:
256,160,16799,1,0,0:0:0:0:
256,160,16942,1,0,0:0:0:0:
256,160,17085,1,8,0:0:0:0:
256,160,17228,1,0,0:0:0:0:
256,160,17513,1,0,0:0:0:0:
256,160,17656,1,8,0:0:0:0:
256,160,17942,1,0,0:0:0:0:
256,160,18228,1,8,0:0:0:0:
256,160,18370,1,0,0:0:0:0:
256,192,18656,1,0,0:0:0:0:
256,160,18799,1,8,0:0:0:0:
256,160,18942,1,0,0:0:0:0:
256,160,19085,1,8,0:0:0:0:
256,160,19228,1,8,0:0:0:0:
256,160,19370,1,8,0:0:0:0:
256,160,19513,1,0,0:0:0:0:
256,192,19942,1,0,0:0:0:0:
288,128,20228,1,0,0:0:0:0:
256,160,20513,1,0,0:0:0:0:
256,160,20799,1,0,0:0:0:0:
256,160,21085,1,8,0:0:0:0:
256,160,21228,1,0,0:0:0:0:
256,160,21370,1,0,0:0:0:0:
256,160,21656,1,8,0:0:0:0:
256,192,22228,1,0,0:0:0:0:
256,192,22513,1,0,0:0:0:0:
256,192,22799,1,8,0:0:0:0:
256,192,22942,1,0,0:0:0:0:
256,192,23085,1,0,0:0:0:0:
256,192,23370,1,0,0:0:0:0:
256,192,23656,1,0,0:0:0:0:
256,192,23942,1,8,0:0:0:0:
256,192,24228,1,0,0:0:0:0:
256,192,24799,1,0,0:0:0:0:
256,192,25085,1,0,0:0:0:0:
256,192,25370,1,0,0:0:0:0:
256,192,25656,1,8,0:0:0:0:
288,192,25799,1,0,0:0:0:0:
256,192,25942,1,8,0:0:0:0:
256,192,26228,1,8,0:0:0:0:
256,192,26513,1,0,0:0:0:0:
256,192,26799,1,0,0:0:0:0:
256,192,27085,1,8,0:0:0:0:
256,192,27228,1,0,0:0:0:0:
256,192,27513,1,0,0:0:0:0:
288,192,27656,1,8,0:0:0:0:
256,192,27799,1,8,0:0:0:0:
256,192,27942,1,0,0:0:0:0:
256,192,28085,1,8,0:0:0:0:
256,192,28370,1,8,0:0:0:0:
256,192,28513,1,8,0:0:0:0:
256,192,28656,1,4,0:0:0:0:
256,192,29085,1,8,0:0:0:0:
256,192,29370,1,0,0:0:0:0:
256,192,29513,1,0,0:0:0:0:
256,192,29656,1,8,0:0:0:0:
256,192,29799,1,0,0:0:0:0:
256,192,30085,1,0,0:0:0:0:
256,192,30228,1,8,0:0:0:0:
256,192,30513,1,0,0:0:0:0:
256,192,30799,1,8,0:0:0:0:
256,192,30942,1,0,0:0:0:0:
256,192,31370,1,8,0:0:0:0:
256,192,31513,1,0,0:0:0:0:
256,192,31799,1,0,0:0:0:0:
256,192,31942,1,8,0:0:0:0:
256,192,32085,1,0,0:0:0:0:
256,192,32370,1,0,0:0:0:0:
256,192,32513,1,8,0:0:0:0:
256,192,32799,1,0,0:0:0:0:
256,192,32942,1,8,0:0:0:0:
256,192,33085,1,8,0:0:0:0:
256,192,33228,1,4,0:0:0:0:
256,192,33656,1,8,0:0:0:0:
256,192,33942,1,0,0:0:0:0:
256,192,34085,1,8,0:0:0:0:
256,192,34370,1,12,0:0:0:0:
256,192,34799,1,0,0:0:0:0:
256,192,35085,1,8,0:0:0:0:
256,192,35228,1,0,0:0:0:0:
256,192,35513,1,8,0:0:0:0:
256,192,35799,1,0,0:0:0:0:
256,192,35942,1,8,0:0:0:0:
256,192,36228,1,8,0:0:0:0:
256,192,36370,1,8,0:0:0:0:
256,192,36513,1,0,0:0:0:0:
256,192,36656,1,8,0:0:0:0:
256,192,36942,1,0,0:0:0:0:
256,192,37085,1,8,0:0:0:0:
256,192,37370,1,8,0:0:0:0:
256,192,37513,1,8,0:0:0:0:
256,192,37656,1,8,0:0:0:0:
256,192,37799,1,4,0:0:0:0:
256,192,38085,1,0,0:0:0:0:
256,192,38228,1,8,0:0:0:0:
256,192,38513,1,0,0:0:0:0:
256,192,38942,1,0,0:0:0:0:
256,192,39228,1,0,0:0:0:0:
256,192,39370,1,8,0:0:0:0:
256,192,39656,1,0,0:0:0:0:
256,192,39942,1,8,0:0:0:0:
256,192,40085,1,0,0:0:0:0:
256,192,40370,1,0,0:0:0:0:
256,192,40513,1,8,0:0:0:0:
256,192,40656,1,8,0:0:0:0:
256,192,40799,1,0,0:0:0:0:
256,192,40942,1,8,0:0:0:0:
256,192,41228,1,0,0:0:0:0:
256,192,41513,1,0,0:0:0:0:
256,192,41656,1,8,0:0:0:0:
256,192,41942,1,0,0:0:0:0:
256,192,42085,1,8,0:0:0:0:
256,192,42228,1,8,0:0:0:0:
256,160,42370,1,4,0:0:0:0:
256,160,42799,1,8,0:0:0:0:
256,160,43085,1,0,0:0:0:0:
256,160,43228,1,8,0:0:0:0:
256,160,43513,1,0,0:0:0:0:
256,160,43799,1,0,0:0:0:0:
256,160,43942,1,8,0:0:0:0:
256,160,44228,1,0,0:0:0:0:
256,160,44370,1,0,0:0:0:0:
256,160,44513,1,8,0:0:0:0:
256,160,44656,1,0,0:0:0:0:
256,160,45085,1,8,0:0:0:0:
224,160,45370,1,0,0:0:0:0:
224,160,45656,1,8,0:0:0:0:
224,160,45799,1,0,0:0:0:0:
256,160,46085,1,0,0:0:0:0:
256,160,46228,1,8,0:0:0:0:
256,160,46513,1,8,0:0:0:0:
256,160,46656,1,8,0:0:0:0:
256,160,46799,1,8,0:0:0:0:
288,192,46942,1,4,0:0:0:0:
256,192,47228,1,0,0:0:0:0:
256,192,47370,1,8,0:0:0:0:
256,192,47656,1,0,0:0:0:0:
256,192,48085,1,0,0:0:0:0:
256,192,48370,1,8,0:0:0:0:
256,192,48513,1,8,0:0:0:0:
256,192,48799,1,0,0:0:0:0:
256,192,49085,1,8,0:0:0:0:
256,192,49228,1,0,0:0:0:0:
256,192,49656,1,8,0:0:0:0:
256,192,49942,1,0,0:0:0:0:
256,192,50228,5,0,0:0:0:0:
256,192,50370,5,0,0:0:0:0:
256,192,50656,1,0,0:0:0:0:
256,192,50799,1,8,0:0:0:0:
256,192,50942,1,0,0:0:0:0:
256,192,51085,1,8,0:0:0:0:
256,192,51228,1,8,0:0:0:0:
256,192,51513,1,4,0:0:0:0:
256,192,51942,5,8,0:0:0:0:
256,192,52228,1,0,0:0:0:0:
256,192,52370,1,0,0:0:0:0:
256,192,52656,1,12,0:0:0:0:
256,192,53085,5,8,0:0:0:0:
256,192,53370,1,0,0:0:0:0:
256,192,53513,1,8,0:0:0:0:
256,192,53799,5,4,0:0:0:0:
256,192,54085,1,0,0:0:0:0:
256,192,54228,1,8,0:0:0:0:
256,192,54370,1,0,0:0:0:0:
256,192,54513,1,0,0:0:0:0:
256,192,54656,1,8,0:0:0:0:
256,192,54799,1,8,0:0:0:0:
256,192,54942,1,0,0:0:0:0:
256,192,55085,1,8,0:0:0:0:
256,192,55228,1,0,0:0:0:0:
256,192,55370,1,8,0:0:0:0:
256,192,55442,1,8,0:0:0:0:
256,192,55513,1,8,0:0:0:0:
256,192,55656,1,8,0:0:0:0:
256,192,56085,1,4,0:0:0:0:
256,192,56370,1,0,0:0:0:0:
256,192,56513,1,8,0:0:0:0:
256,192,56656,1,0,0:0:0:0:
256,192,56799,1,0,0:0:0:0:
256,192,57085,1,8,0:0:0:0:
256,192,57228,1,0,0:0:0:0:
256,192,57513,1,0,0:0:0:0:
256,192,57656,1,8,0:0:0:0:
256,192,57799,1,8,0:0:0:0:
256,192,57942,1,0,0:0:0:0:
256,192,58228,1,8,0:0:0:0:
256,192,58370,1,0,0:0:0:0:
256,192,58656,1,0,0:0:0:0:
256,192,58799,1,8,0:0:0:0:
256,192,58942,1,0,0:0:0:0:
256,192,59085,1,8,0:0:0:0:
256,192,59228,1,8,0:0:0:0:
256,192,59513,1,0,0:0:0:0:
256,192,59799,1,0,0:0:0:0:
256,192,59942,1,8,0:0:0:0:
256,192,60228,1,8,0:0:0:0:
256,192,60370,1,0,0:0:0:0:
256,192,60513,1,8,0:0:0:0:
256,192,60656,1,4,0:0:0:0:
256,192,61085,1,8,0:0:0:0:
256,160,61370,1,0,0:0:0:0:
256,192,61656,1,8,0:0:0:0:
256,192,61799,1,0,0:0:0:0:
256,192,62085,1,0,0:0:0:0:
256,192,62228,1,8,0:0:0:0:
256,192,62513,1,0,0:0:0:0:
256,192,62656,1,0,0:0:0:0:
256,192,62799,1,8,0:0:0:0:
256,192,62942,1,0,0:0:0:0:
256,192,63228,1,8,0:0:0:0:
256,192,63370,1,8,0:0:0:0:
256,192,63513,1,0,0:0:0:0:
256,192,63656,1,8,0:0:0:0:
256,192,63799,1,8,0:0:0:0:
256,192,64085,1,0,0:0:0:0:
256,192,64370,1,0,0:0:0:0:
256,192,64513,1,8,0:0:0:0:
256,192,64799,1,0,0:0:0:0:
256,192,64942,1,0,0:0:0:0:
256,192,65085,1,8,0:0:0:0:
256,192,65228,1,4,0:0:0:0:
256,192,65513,1,0,0:0:0:0:
256,192,65656,1,8,0:0:0:0:
256,192,65799,1,8,0:0:0:0:
256,192,65942,1,0,0:0:0:0:
256,192,66228,1,8,0:0:0:0:
256,192,66370,1,0,0:0:0:0:
256,192,66656,1,0,0:0:0:0:
256,192,66799,1,8,0:0:0:0:
256,192,66942,1,8,0:0:0:0:
256,192,67085,1,0,0:0:0:0:
256,192,67370,1,8,0:0:0:0:
256,192,67513,1,0,0:0:0:0:
256,192,67799,1,0,0:0:0:0:
256,192,67942,1,8,0:0:0:0:
256,192,68085,1,0,0:0:0:0:
256,192,68228,1,8,0:0:0:0:
256,192,68370,1,8,0:0:0:0:
256,192,68656,1,0,0:0:0:0:
256,192,68942,1,0,0:0:0:0:
256,192,69085,1,8,0:0:0:0:
256,192,69370,1,8,0:0:0:0:
256,192,69513,1,0,0:0:0:0:
256,192,69656,1,8,0:0:0:0:
256,192,69799,1,4,0:0:0:0:
288,192,70228,1,8,0:0:0:0:
256,192,70513,1,0,0:0:0:0:
256,192,70799,1,8,0:0:0:0:
256,192,70942,1,0,0:0:0:0:
256,192,71085,1,0,0:0:0:0:
256,192,71370,1,8,0:0:0:0:
256,192,71656,1,0,0:0:0:0:
256,192,71799,1,0,0:0:0:0:
256,192,71942,1,8,0:0:0:0:
256,192,72085,1,0,0:0:0:0:
256,192,72370,1,0,0:0:0:0:
256,192,72513,1,8,0:0:0:0:
256,192,73085,1,8,0:0:0:0:
256,192,73370,1,0,0:0:0:0:
256,192,73513,1,0,0:0:0:0:
256,192,73656,1,8,0:0:0:0:
256,192,73942,1,8,0:0:0:0:
256,192,74013,1,8,0:0:0:0:
256,192,74085,1,8,0:0:0:0:
256,192,74228,1,8,0:0:0:0:
256,192,74370,1,4,0:0:0:0:
256,160,74656,1,0,0:0:0:0:
256,192,74799,1,8,0:0:0:0:
256,192,75085,1,0,0:0:0:0:
256,192,75370,1,8,0:0:0:0:
256,192,75513,1,0,0:0:0:0:
256,192,75942,1,8,0:0:0:0:
256,160,76228,1,0,0:0:0:0:
256,192,76370,1,0,0:0:0:0:
256,160,76513,1,8,0:0:0:0:
256,192,76656,1,0,0:0:0:0:
256,160,76942,1,0,0:0:0:0:
256,160,77085,1,8,0:0:0:0:
256,160,77370,1,0,0:0:0:0:
256,192,77656,1,8,0:0:0:0:
256,160,77799,1,0,0:0:0:0:
256,160,78228,1,8,0:0:0:0:
256,160,78513,1,8,0:0:0:0:
256,160,78656,1,0,0:0:0:0:
256,160,78799,1,8,0:0:0:0:
256,160,78942,1,4,0:0:0:0:
256,160,79228,1,0,0:0:0:0:
256,160,79370,1,8,0:0:0:0:
256,160,79656,1,0,0:0:0:0:
256,160,79942,1,8,0:0:0:0:
256,160,80085,1,0,0:0:0:0:
256,160,80513,1,8,0:0:0:0:
256,160,80799,1,0,0:0:0:0:
224,160,80942,1,0,0:0:0:0:
256,160,81085,1,8,0:0:0:0:
256,160,81228,1,0,0:0:0:0:
256,160,81513,1,0,0:0:0:0:
256,160,81656,1,8,0:0:0:0:
256,160,81942,1,0,0:0:0:0:
256,160,82228,1,8,0:0:0:0:
256,160,82370,1,0,0:0:0:0:
256,160,82656,1,0,0:0:0:0:
256,160,82799,1,8,0:0:0:0:
256,160,82942,1,0,0:0:0:0:
256,160,83085,1,8,0:0:0:0:
256,160,83228,1,8,0:0:0:0:
256,160,83370,1,8,0:0:0:0:
256,160,83513,1,4,0:0:0:0:
256,160,83799,1,0,0:0:0:0:
256,160,83942,1,8,0:0:0:0:
256,160,84228,1,0,0:0:0:0:
256,160,84513,1,8,0:0:0:0:
256,160,84656,1,0,0:0:0:0:
256,160,85085,1,8,0:0:0:0:
256,160,85370,1,0,0:0:0:0:
256,160,85513,1,0,0:0:0:0:
256,160,85656,1,8,0:0:0:0:
256,160,85799,1,0,0:0:0:0:
256,160,86085,1,0,0:0:0:0:
256,160,86228,1,8,0:0:0:0:
256,160,86513,1,0,0:0:0:0:
256,160,86799,1,8,0:0:0:0:
256,160,86942,1,0,0:0:0:0:
256,160,87370,1,8,0:0:0:0:
256,160,87656,1,8,0:0:0:0:
256,160,87799,1,0,0:0:0:0:
256,160,87942,1,8,0:0:0:0:
256,160,88085,1,4,0:0:0:0:
256,160,88370,1,0,0:0:0:0:
256,160,88513,1,8,0:0:0:0:
256,160,88799,1,0,0:0:0:0:
256,160,89085,1,8,0:0:0:0:
256,160,89228,1,0,0:0:0:0:
256,160,89656,1,8,0:0:0:0:
256,160,89942,1,0,0:0:0:0:
256,160,90085,1,0,0:0:0:0:
256,160,90228,1,8,0:0:0:0:
256,160,90370,1,0,0:0:0:0:
256,160,90656,1,0,0:0:0:0:
256,160,90799,1,8,0:0:0:0:
256,160,91085,1,0,0:0:0:0:
256,160,91370,1,8,0:0:0:0:
256,160,91513,1,0,0:0:0:0:
256,192,91799,1,0,0:0:0:0:
256,160,91942,1,8,0:0:0:0:
256,160,92085,1,0,0:0:0:0:
256,160,92228,1,8,0:0:0:0:
256,160,92370,1,8,0:0:0:0:
256,160,92513,1,8,0:0:0:0:
256,160,92656,1,0,0:0:0:0:
256,192,93085,1,0,0:0:0:0:
288,128,93370,1,0,0:0:0:0:
256,160,93656,1,0,0:0:0:0:
256,160,93942,1,0,0:0:0:0:
256,160,94228,1,8,0:0:0:0:
256,160,94370,1,0,0:0:0:0:
256,160,94513,1,0,0:0:0:0:
256,160,94799,1,8,0:0:0:0:
256,192,95370,1,0,0:0:0:0:
256,192,95656,1,0,0:0:0:0:
256,192,95942,1,8,0:0:0:0:
256,192,96085,1,0,0:0:0:0:
256,192,96228,1,0,0:0:0:0:
256,192,96513,1,0,0:0:0:0:
256,192,96799,1,0,0:0:0:0:
256,192,97085,1,8,0:0:0:0:
256,192,97370,1,0,0:0:0:0:
256,192,97942,1,0,0:0:0:0:
256,192,98228,1,0,0:0:0:0:
256,192,98513,1,0,0:0:0:0:
256,192,98799,1,8,0:0:0:0:
288,192,98942,1,0,0:0:0:0:
256,192,99085,1,0,0:0:0:0:
256,192,99370,1,8,0:0:0:0:
256,192,99656,1,8,0:0:0:0:
256,192,99942,1,0,0:0:0:0:
256,192,100228,1,8,0:0:0:0:
256,192,100370,1,0,0:0:0:0:
256,192,100656,1,0,0:0:0:0:
288,192,100799,1,8,0:0:0:0:
256,192,100942,1,8,0:0:0:0:
256,192,101085,1,0,0:0:0:0:
256,192,101228,1,8,0:0:0:0:
256,192,101513,1,8,0:0:0:0:
256,192,101656,1,8,0:0:0:0:
256,192,101799,1,4,0:0:0:0:
256,192,102228,1,8,0:0:0:0:
256,192,102513,1,0,0:0:0:0:
256,192,102656,1,0,0:0:0:0:
256,192,102799,1,8,0:0:0:0:
256,192,102942,1,0,0:0:0:0:
256,192,103228,1,0,0:0:0:0:
256,192,103370,1,8,0:0:0:0:
256,192,103656,1,0,0:0:0:0:
256,192,103942,1,8,0:0:0:0:
256,192,104085,1,0,0:0:0:0:
256,192,104513,1,8,0:0:0:0:
256,192,104656,1,0,0:0:0:0:
256,192,104942,1,0,0:0:0:0:
256,192,105085,1,8,0:0:0:0:
256,192,105228,1,0,0:0:0:0:
256,192,105513,1,0,0:0:0:0:
256,192,105656,1,8,0:0:0:0:
256,192,105942,1,0,0:0:0:0:
256,192,106085,1,8,0:0:0:0:
256,192,106228,1,8,0:0:0:0:
256,192,106370,1,4,0:0:0:0:
256,192,106799,1,8,0:0:0:0:
256,192,107085,1,0,0:0:0:0:
256,192,107228,1,8,0:0:0:0:
256,192,107513,1,12,0:0:0:0:
256,192,107942,1,8,0:0:0:0:
256,192,108228,1,0,0:0:0:0:
256,192,108370,1,0,0:0:0:0:
256,192,108656,1,8,0:0:0:0:
256,192,108942,1,0,0:0:0:0:
256,192,109085,1,8,0:0:0:0:
256,192,109370,1,0,0:0:0:0:
256,192,109513,1,0,0:0:0:0:
256,192,109656,1,8,0:0:0:0:
256,192,109799,1,0,0:0:0:0:
256,192,110085,1,0,0:0:0:0:
256,192,110228,1,8,0:0:0:0:
256,192,110513,1,8,0:0:0:0:
256,192,110656,1,8,0:0:0:0:
256,192,110799,1,8,0:0:0:0:
256,192,110942,1,4,0:0:0:0:
256,192,111228,1,0,0:0:0:0:
256,192,111370,1,8,0:0:0:0:
256,192,111656,1,0,0:0:0:0:
256,192,112085,1,0,0:0:0:0:
256,192,112370,1,0,0:0:0:0:
256,192,112513,1,8,0:0:0:0:
256,192,112799,1,0,0:0:0:0:
256,192,113085,1,8,0:0:0:0:
256,192,113228,1,0,0:0:0:0:
256,192,113513,1,0,0:0:0:0:
256,192,113656,1,8,0:0:0:0:
256,192,113799,1,0,0:0:0:0:
256,192,113942,1,0,0:0:0:0:
256,192,114085,1,8,0:0:0:0:
256,192,114370,1,0,0:0:0:0:
256,192,114656,1,0,0:0:0:0:
256,192,114799,1,8,0:0:0:0:
256,192,115085,1,0,0:0:0:0:
256,192,115228,1,8,0:0:0:0:
256,192,115370,1,8,0:0:0:0:
256,160,115513,1,4,0:0:0:0:
256,160,115942,1,8,0:0:0:0:
256,160,116228,1,0,0:0:0:0:
256,160,116370,1,8,0:0:0:0:
256,160,116656,1,0,0:0:0:0:
256,160,116942,1,0,0:0:0:0:
256,160,117085,1,8,0:0:0:0:
256,160,117370,1,0,0:0:0:0:
256,160,117513,1,0,0:0:0:0:
256,160,117656,1,8,0:0:0:0:
256,160,117799,1,0,0:0:0:0:
256,160,118228,1,8,0:0:0:0:
224,160,118513,1,0,0:0:0:0:
224,160,118799,1,8,0:0:0:0:
224,160,118942,1,0,0:0:0:0:
256,160,119228,1,0,0:0:0:0:
256,160,119370,1,8,0:0:0:0:
256,160,119656,1,8,0:0:0:0:
256,160,119799,1,8,0:0:0:0:
256,160,119942,1,8,0:0:0:0:
288,192,120085,1,4,0:0:0:0:
256,192,120370,1,0,0:0:0:0:
256,192,120513,1,8,0:0:0:0:
256,192,120799,1,0,0:0:0:0:
256,192,121228,1,0,0:0:0:0:
256,192,121513,1,8,0:0:0:0:
256,192,121656,1,8,0:0:0:0:
256,192,121942,1,0,0:0:0:0:
256,192,122228,1,8,0:0:0:0:
256,192,122370,1,0,0:0:0:0:
256,192,122799,1,8,0:0:0:0:
256,192,123085,1,0,0:0:0:0:
256,192,123370,5,0,0:0:0:0:
256,192,123513,5,0,0:0:0:0:
256,192,123799,1,0,0:0:0:0:
256,192,123942,1,8,0:0:0:0:
256,192,124085,1,0,0:0:0:0:
256,192,124228,1,8,0:0:0:0:
256,192,124370,1,8,0:0:0:0:
256,192,124656,1,4,0:0:0:0:
256,192,125085,5,8,0:0:0:0:
256,192,125370,1,0,0:0:0:0:
256,192,125513,1,0,0:0:0:0:
256,192,125799,1,4,0:0:0:0:
256,192,126228,5,8,0:0:0:0:
256,192,126513,1,8,0:0:0:0:
256,192,126656,1,8,0:0:0:0:
256,192,126799,1,0,0:0:0:0:
256,192,126942,1,8,0:0:0:0:
256,192,128085,1,4,0:0:0:0:
256,192,128370,1,8,0:0:0:0:
256,192,128513,1,8,0:0:0:0:
256,192,128585,1,8,0:0:0:0:
256,192,128656,1,8,0:0:0:0:
256,192,128799,1,8,0:0:0:0:
256,224,129085,1,0,0:0:0:0:
256,192,129228,1,4,0:0:0:0:
256,192,129513,1,0,0:0:0:0:
256,192,129656,1,8,0:0:0:0:
256,192,129799,1,0,0:0:0:0:
256,192,129942,1,0,0:0:0:0:
256,192,130228,1,8,0:0:0:0:
256,192,130370,1,0,0:0:0:0:
256,192,130656,1,0,0:0:0:0:
256,192,130799,1,8,0:0:0:0:
256,192,130942,1,8,0:0:0:0:
256,192,131085,1,0,0:0:0:0:
256,192,131370,1,8,0:0:0:0:
256,192,131513,1,0,0:0:0:0:
256,192,131799,1,0,0:0:0:0:
256,192,131942,1,8,0:0:0:0:
256,192,132085,1,0,0:0:0:0:
256,192,132228,1,8,0:0:0:0:
256,192,132370,1,8,0:0:0:0:
256,192,132656,1,0,0:0:0:0:
256,192,132942,1,0,0:0:0:0:
256,192,133085,1,8,0:0:0:0:
256,192,133370,1,0,0:0:0:0:
256,192,133513,1,0,0:0:0:0:
256,192,133656,1,8,0:0:0:0:
256,192,133799,1,4,0:0:0:0:
256,192,134228,1,8,0:0:0:0:
256,160,134513,1,0,0:0:0:0:
256,192,134799,1,8,0:0:0:0:
256,192,134942,1,0,0:0:0:0:
256,192,135228,1,0,0:0:0:0:
256,192,135370,1,8,0:0:0:0:
256,192,135656,1,0,0:0:0:0:
256,192,135799,1,0,0:0:0:0:
256,192,135942,1,8,0:0:0:0:
256,192,136085,1,0,0:0:0:0:
256,192,136370,1,8,0:0:0:0:
256,192,136513,1,8,0:0:0:0:
256,192,136656,1,0,0:0:0:0:
256,192,136799,1,8,0:0:0:0:
256,192,136942,1,8,0:0:0:0:
256,192,137228,1,0,0:0:0:0:
256,192,137513,1,0,0:0:0:0:
256,192,137656,1,8,0:0:0:0:
256,192,137942,1,0,0:0:0:0:
256,192,138085,1,0,0:0:0:0:
256,192,138228,1,8,0:0:0:0:
256,192,138370,1,4,0:0:0:0:
256,192,138656,1,0,0:0:0:0:
256,192,138799,1,8,0:0:0:0:
256,192,138942,1,8,0:0:0:0:
256,192,139085,1,0,0:0:0:0:
256,192,139370,1,8,0:0:0:0:
256,192,139513,1,0,0:0:0:0:
256,192,139799,1,0,0:0:0:0:
256,192,139942,1,8,0:0:0:0:
256,192,140085,1,8,0:0:0:0:
256,192,140228,1,0,0:0:0:0:
256,192,140513,1,8,0:0:0:0:
256,192,140656,1,0,0:0:0:0:
256,192,140942,1,0,0:0:0:0:
256,192,141085,1,8,0:0:0:0:
256,192,141228,1,0,0:0:0:0:
256,192,141370,1,8,0:0:0:0:
256,192,141513,1,8,0:0:0:0:
256,192,141799,1,0,0:0:0:0:
256,192,142085,1,0,0:0:0:0:
256,192,142228,1,8,0:0:0:0:
256,192,142513,1,8,0:0:0:0:
256,192,142656,1,0,0:0:0:0:
256,192,142799,1,8,0:0:0:0:
256,192,142942,1,4,0:0:0:0:
288,192,143370,1,8,0:0:0:0:
256,192,143656,1,0,0:0:0:0:
256,192,143942,1,8,0:0:0:0:
256,192,144085,1,0,0:0:0:0:
256,192,144228,1,8,0:0:0:0:
256,192,144513,1,8,0:0:0:0:
256,192,144799,1,0,0:0:0:0:
256,192,144942,1,0,0:0:0:0:
256,192,145085,1,8,0:0:0:0:
256,192,145228,1,0,0:0:0:0:
256,192,145513,1,0,0:0:0:0:
256,192,145656,1,8,0:0:0:0:
256,192,146228,1,8,0:0:0:0:
256,192,146513,1,0,0:0:0:0:
256,192,146656,1,0,0:0:0:0:
256,192,146799,1,8,0:0:0:0:
256,192,147085,1,8,0:0:0:0:
256,192,147156,1,8,0:0:0:0:
256,192,147228,1,8,0:0:0:0:
256,192,147370,1,8,0:0:0:0:
256,192,147513,1,4,0:0:0:0:
256,192,147942,1,8,0:0:0:0:
256,192,148228,1,0,0:0:0:0:
256,192,148513,1,8,0:0:0:0:
256,192,148656,1,0,0:0:0:0:
256,192,148942,1,0,0:0:0:0:
256,192,149085,1,8,0:0:0:0:
256,192,149370,1,0,0:0:0:0:
256,192,149513,1,0,0:0:0:0:
256,192,149656,1,8,0:0:0:0:
256,192,149799,1,0,0:0:0:0:
256,192,150228,1,8,0:0:0:0:
256,192,150513,1,0,0:0:0:0:
256,192,150656,1,0,0:0:0:0:
256,192,150799,1,8,0:0:0:0:
256,192,150942,1,0,0:0:0:0:
256,192,151228,1,0,0:0:0:0:
256,192,151370,1,8,0:0:0:0:
256,192,151656,1,0,0:0:0:0:
256,192,151799,1,8,0:0:0:0:
256,192,151942,1,8,0:0:0:0:
256,192,152085,1,4,0:0:0:0:
256,192,152513,1,8,0:0:0:0:
256,192,152799,1,0,0:0:0:0:
256,192,153085,1,8,0:0:0:0:
256,192,153228,1,0,0:0:0:0:
256,192,153513,1,0,0:0:0:0:
256,192,153656,1,8,0:0:0:0:
256,192,153942,1,0,0:0:0:0:
256,192,154085,1,0,0:0:0:0:
256,192,154228,1,8,0:0:0:0:
256,192,154370,1,0,0:0:0:0:
256,192,154799,1,8,0:0:0:0:
256,192,155085,1,0,0:0:0:0:
256,192,155228,1,0,0:0:0:0:
256,192,155370,1,8,0:0:0:0:
256,192,155513,1,0,0:0:0:0:
256,192,155799,1,0,0:0:0:0:
256,192,155942,1,8,0:0:0:0:
256,192,156085,1,0,0:0:0:0:
256,192,156228,1,8,0:0:0:0:
256,192,156299,1,8,0:0:0:0:
256,192,156370,1,8,0:0:0:0:
256,192,156513,1,8,0:0:0:0:
256,192,156656,1,4,0:0:0:0:
256,192,156942,1,0,0:0:0:0:
256,192,157085,1,8,0:0:0:0:
256,192,157228,1,8,0:0:0:0:
256,192,157370,1,0,0:0:0:0:
256,192,157513,1,0,0:0:0:0:
256,192,157656,1,8,0:0:0:0:
256,192,157799,1,0,0:0:0:0:
256,192,158085,1,0,0:0:0:0:
256,192,158228,1,8,0:0:0:0:
256,192,158370,1,0,0:0:0:0:
256,192,158513,1,0,0:0:0:0:
256,192,158656,1,0,0:0:0:0:
256,192,158799,1,8,0:0:0:0:
256,192,158942,1,0,0:0:0:0:
256,192,159228,1,0,0:0:0:0:
256,192,159370,1,8,0:0:0:0:
256,192,159513,1,0,0:0:0:0:
256,192,159799,1,0,0:0:0:0:
256,192,159942,1,8,0:0:0:0:
256,192,160085,1,0,0:0:0:0:
256,192,160370,1,0,0:0:0:0:
256,192,160513,1,8,0:0:0:0:
256,192,160656,1,8,0:0:0:0:
256,192,160799,1,0,0:0:0:0:
256,192,160942,1,8,0:0:0:0:
256,192,161013,1,8,0:0:0:0:
256,192,161085,1,8,0:0:0:0:
256,192,161228,1,4,0:0:0:0:
256,192,161656,1,8,0:0:0:0:
256,192,161942,1,0,0:0:0:0:
256,192,162085,1,0,0:0:0:0:
256,192,162228,1,8,0:0:0:0:
256,192,162370,1,0,0:0:0:0:
256,192,162656,1,0,0:0:0:0:
256,192,162799,1,8,0:0:0:0:
256,192,163085,1,8,0:0:0:0:
256,192,163228,1,0,0:0:0:0:
256,192,163370,1,8,0:0:0:0:
256,192,163513,1,0,0:0:0:0:
256,192,163799,1,0,0:0:0:0:
256,192,163942,1,8,0:0:0:0:
256,192,164085,1,0,0:0:0:0:
256,192,164370,5,0,0:0:0:0:
256,192,164513,1,8,0:0:0:0:
256,192,164656,1,0,0:0:0:0:
256,192,164942,1,0,0:0:0:0:
256,192,165085,1,8,0:0:0:0:
256,192,165228,1,0,0:0:0:0:
256,192,165370,1,8,0:0:0:0:
256,192,165442,1,8,0:0:0:0:
256,192,165513,1,8,0:0:0:0:
256,192,165656,1,8,0:0:0:0:
256,192,165799,5,4,0:0:0:0:
256,192,166085,5,0,0:0:0:0:
256,192,166228,1,8,0:0:0:0:
256,192,166513,1,0,0:0:0:0:
256,192,166942,1,0,0:0:0:0:
256,192,167228,1,0,0:0:0:0:
256,192,167370,1,8,0:0:0:0:
256,192,167656,1,0,0:0:0:0:
256,192,167942,1,8,0:0:0:0:
256,192,168085,1,0,0:0:0:0:
256,192,168370,1,0,0:0:0:0:
256,192,168513,1,8,0:0:0:0:
256,192,168656,1,0,0:0:0:0:
256,192,168799,1,0,0:0:0:0:
256,192,168942,1,8,0:0:0:0:
256,192,169228,1,0,0:0:0:0:
256,192,169513,1,0,0:0:0:0:
256,192,169656,1,8,0:0:0:0:
256,192,169942,1,0,0:0:0:0:
256,192,170085,1,8,0:0:0:0:
256,192,170228,1,8,0:0:0:0:
256,160,170370,1,4,0:0:0:0:
256,160,170799,1,8,0:0:0:0:
256,160,171085,1,0,0:0:0:0:
256,160,171228,1,8,0:0:0:0:
256,160,171513,1,0,0:0:0:0:
256,160,171799,1,0,0:0:0:0:
256,160,171942,1,8,0:0:0:0:
256,160,172228,1,0,0:0:0:0:
256,160,172370,1,0,0:0:0:0:
256,160,172513,1,8,0:0:0:0:
256,160,172656,1,0,0:0:0:0:
256,160,173085,1,8,0:0:0:0:
224,160,173370,1,0,0:0:0:0:
224,160,173656,1,8,0:0:0:0:
224,160,173799,1,0,0:0:0:0:
256,160,174085,1,0,0:0:0:0:
256,160,174228,1,8,0:0:0:0:
256,160,174513,1,8,0:0:0:0:
256,160,174656,1,8,0:0:0:0:
256,160,174799,1,8,0:0:0:0:
288,192,174942,1,4,0:0:0:0:
256,192,175228,1,0,0:0:0:0:
256,192,175370,1,8,0:0:0:0:
256,192,175656,1,0,0:0:0:0:
256,192,176085,1,0,0:0:0:0:
256,192,176370,1,8,0:0:0:0:
256,192,176513,1,8,0:0:0:0:
256,192,176799,1,0,0:0:0:0:
256,192,177085,1,8,0:0:0:0:
256,192,177228,1,0,0:0:0:0:
256,192,177656,1,8,0:0:0:0:
256,192,177942,1,0,0:0:0:0:
256,192,178228,5,0,0:0:0:0:
256,192,178370,5,0,0:0:0:0:
256,192,178656,1,0,0:0:0:0:
256,192,178799,1,8,0:0:0:0:
256,192,178942,1,0,0:0:0:0:
256,192,179085,1,8,0:0:0:0:
256,192,179228,1,8,0:0:0:0:
256,192,179513,1,4,0:0:0:0:
256,192,179942,5,8,0:0:0:0:
256,192,180228,1,0,0:0:0:0:
256,192,180370,1,0,0:0:0:0:
256,192,180656,1,12,0:0:0:0:
256,192,181085,5,0,0:0:0:0:
256,192,181370,1,8,0:0:0:0:
256,192,181513,1,8,0:0:0:0:
256,192,181799,5,4,0:0:0:0:
256,192,182085,1,0,0:0:0:0:
256,192,182228,1,8,0:0:0:0:
256,192,182370,1,0,0:0:0:0:
256,192,182513,1,8,0:0:0:0:
256,192,182656,1,0,0:0:0:0:
256,192,182799,1,8,0:0:0:0:
256,192,182942,1,8,0:0:0:0:
256,192,183085,1,0,0:0:0:0:
256,192,183156,1,0,0:0:0:0:
256,192,183228,1,0,0:0:0:0:
256,192,183370,1,8,0:0:0:0:
256,192,183513,1,0,0:0:0:0:
256,192,183656,1,8,0:0:0:0:
256,192,185228,1,4,0:0:0:0:
256,192,185513,1,0,0:0:0:0:
256,192,185656,1,8,0:0:0:0:
256,192,185799,1,0,0:0:0:0:
256,192,185942,1,0,0:0:0:0:
256,192,186228,1,8,0:0:0:0:
256,192,186370,1,0,0:0:0:0:
256,192,186656,1,0,0:0:0:0:
256,192,186799,1,8,0:0:0:0:
256,192,186942,1,8,0:0:0:0:
256,192,187085,1,0,0:0:0:0:
256,192,187370,1,8,0:0:0:0:
256,192,187513,1,0,0:0:0:0:
256,192,187799,1,0,0:0:0:0:
256,192,187942,1,8,0:0:0:0:
256,192,188085,1,0,0:0:0:0:
256,192,188228,1,8,0:0:0:0:
256,192,188370,1,8,0:0:0:0:
256,192,188656,1,0,0:0:0:0:
256,192,188942,1,0,0:0:0:0:
256,192,189085,1,8,0:0:0:0:
256,192,189228,1,0,0:0:0:0:
256,192,189370,1,0,0:0:0:0:
256,192,189442,1,0,0:0:0:0:
256,192,189513,1,0,0:0:0:0:
256,192,189656,1,8,0:0:0:0:
256,192,189799,1,4,0:0:0:0:
256,192,190228,1,8,0:0:0:0:
256,160,190513,1,0,0:0:0:0:
256,192,190799,1,8,0:0:0:0:
256,192,190942,1,0,0:0:0:0:
256,192,191228,1,0,0:0:0:0:
256,192,191370,1,8,0:0:0:0:
256,192,191656,1,0,0:0:0:0:
256,192,191799,1,0,0:0:0:0:
256,192,191942,1,8,0:0:0:0:
256,192,192085,1,0,0:0:0:0:
256,192,192370,1,8,0:0:0:0:
256,192,192513,1,8,0:0:0:0:
256,192,192656,1,0,0:0:0:0:
256,192,192799,1,8,0:0:0:0:
256,192,192942,1,8,0:0:0:0:
256,192,193228,1,0,0:0:0:0:
256,192,193513,1,0,0:0:0:0:
256,192,193656,1,8,0:0:0:0:
256,192,193799,1,8,0:0:0:0:
256,192,193942,1,0,0:0:0:0:
256,192,194013,1,0,0:0:0:0:
256,192,194085,1,0,0:0:0:0:
256,192,194228,1,8,0:0:0:0:
256,192,194370,1,4,0:0:0:0:
256,192,194656,1,0,0:0:0:0:
256,192,194799,1,8,0:0:0:0:
256,192,194942,1,0,0:0:0:0:
256,192,195085,1,0,0:0:0:0:
256,192,195370,1,8,0:0:0:0:
256,192,195513,1,0,0:0:0:0:
256,192,195799,1,0,0:0:0:0:
256,192,195942,1,8,0:0:0:0:
256,192,196085,1,8,0:0:0:0:
256,192,196228,1,0,0:0:0:0:
256,192,196513,1,8,0:0:0:0:
256,192,196656,1,0,0:0:0:0:
256,192,196942,1,0,0:0:0:0:
256,192,197085,1,8,0:0:0:0:
256,192,197228,1,0,0:0:0:0:
256,192,197370,1,0,0:0:0:0:
256,192,197513,1,8,0:0:0:0:
256,192,197799,1,0,0:0:0:0:
256,192,198085,1,0,0:0:0:0:
256,192,198228,1,8,0:0:0:0:
256,192,198513,1,8,0:0:0:0:
256,192,198656,1,0,0:0:0:0:
256,192,198799,1,8,0:0:0:0:
256,192,198942,1,4,0:0:0:0:
288,192,199370,1,8,0:0:0:0:
256,192,199656,1,0,0:0:0:0:
256,192,199942,1,8,0:0:0:0:
256,192,200085,1,0,0:0:0:0:
256,192,200228,1,8,0:0:0:0:
256,192,200513,1,8,0:0:0:0:
256,192,200799,1,0,0:0:0:0:
256,192,200942,1,0,0:0:0:0:
256,192,201085,1,8,0:0:0:0:
256,192,201228,1,0,0:0:0:0:
256,192,201513,1,0,0:0:0:0:
256,192,201656,1,8,0:0:0:0:
256,192,202228,1,8,0:0:0:0:
256,192,202513,1,0,0:0:0:0:
256,192,202656,1,0,0:0:0:0:
256,192,202799,1,8,0:0:0:0:
256,192,203085,1,8,0:0:0:0:
256,192,203156,1,8,0:0:0:0:
256,192,203228,1,8,0:0:0:0:
256,192,203370,1,8,0:0:0:0:
256,192,203513,1,4,0:0:0:0:
256,192,203799,1,0,0:0:0:0:
256,192,203942,1,8,0:0:0:0:
256,192,204228,1,8,0:0:0:0:
256,192,204370,1,0,0:0:0:0:
256,192,204513,1,8,0:0:0:0:
256,192,204656,1,0,0:0:0:0:
256,192,204728,1,0,0:0:0:0:
256,192,204799,1,8,0:0:0:0:
256,192,205085,1,8,0:0:0:0:
256,192,205228,1,0,0:0:0:0:
256,192,205370,1,8,0:0:0:0:
256,192,205442,1,8,0:0:0:0:
256,192,205513,1,8,0:0:0:0:
256,192,205656,1,8,0:0:0:0:
256,192,205799,1,4,0:0:0:0:
256,160,206085,1,0,0:0:0:0:
256,192,206228,1,8,0:0:0:0:
256,192,206513,1,0,0:0:0:0:
256,192,206799,1,8,0:0:0:0:
256,192,206942,1,0,0:0:0:0:
256,192,207370,1,8,0:0:0:0:
256,160,207656,1,0,0:0:0:0:
256,192,207799,1,0,0:0:0:0:
256,160,207942,1,8,0:0:0:0:
256,192,208085,1,0,0:0:0:0:
256,160,208370,1,0,0:0:0:0:
256,160,208513,1,8,0:0:0:0:
256,160,208799,1,0,0:0:0:0:
256,192,209085,1,8,0:0:0:0:
256,160,209228,1,0,0:0:0:0:
256,160,209656,1,8,0:0:0:0:
256,160,209942,1,8,0:0:0:0:
256,160,210085,1,0,0:0:0:0:
256,160,210228,1,8,0:0:0:0:
256,160,210370,1,4,0:0:0:0:
256,160,210656,1,0,0:0:0:0:
256,160,210799,1,8,0:0:0:0:
256,160,211085,1,0,0:0:0:0:
256,160,211370,1,8,0:0:0:0:
256,160,211513,1,0,0:0:0:0:
256,160,211942,1,8,0:0:0:0:
256,160,212228,1,0,0:0:0:0:
224,160,212370,1,0,0:0:0:0:
256,160,212513,1,8,0:0:0:0:
256,160,212656,1,0,0:0:0:0:
256,160,212942,1,0,0:0:0:0:
256,160,213085,1,8,0:0:0:0:
256,160,213370,1,0,0:0:0:0:
256,160,213656,1,8,0:0:0:0:
256,160,213799,1,0,0:0:0:0:
256,160,214085,1,0,0:0:0:0:
256,160,214228,1,8,0:0:0:0:
256,160,214370,1,0,0:0:0:0:
256,160,214513,1,8,0:0:0:0:
256,160,214656,1,8,0:0:0:0:
256,160,214799,1,8,0:0:0:0:
256,160,214942,1,4,0:0:0:0:
256,160,215228,1,0,0:0:0:0:
256,192,215370,1,8,0:0:0:0:
256,192,215656,1,0,0:0:0:0:
256,192,215942,1,8,0:0:0:0:
256,192,216085,1,0,0:0:0:0:
256,192,216513,1,8,0:0:0:0:
256,160,216799,1,0,0:0:0:0:
256,192,216942,1,0,0:0:0:0:
256,160,217085,1,8,0:0:0:0:
256,192,217228,1,0,0:0:0:0:
256,160,217513,1,0,0:0:0:0:
256,160,217656,1,8,0:0:0:0:
256,160,217942,1,0,0:0:0:0:
256,192,218228,1,8,0:0:0:0:
256,160,218370,1,0,0:0:0:0:
256,160,218799,1,8,0:0:0:0:
256,160,219085,1,8,0:0:0:0:
256,160,219228,1,0,0:0:0:0:
256,160,219370,1,8,0:0:0:0:
256,160,219513,1,4,0:0:0:0:
256,160,219799,1,0,0:0:0:0:
256,160,219942,1,8,0:0:0:0:
256,160,220228,1,0,0:0:0:0:
256,160,220513,1,8,0:0:0:0:
256,160,220656,1,0,0:0:0:0:
256,160,221085,1,8,0:0:0:0:
256,160,221370,1,0,0:0:0:0:
224,160,221513,1,0,0:0:0:0:
256,160,221656,1,8,0:0:0:0:
256,160,221799,1,4,0:0:0:0:
256,160,222085,1,0,0:0:0:0:
256,160,222228,1,8,0:0:0:0:
256,160,222513,1,8,0:0:0:0:
256,160,222656,1,0,0:0:0:0:
256,160,222799,1,8,0:0:0:0:
256,160,222942,1,0,0:0:0:0:
256,160,223228,1,8,0:0:0:0:
256,160,223370,1,8,0:0:0:0:
256,160,223513,1,0,0:0:0:0:
256,160,223656,1,0,0:0:0:0:
256,160,223799,1,8,0:0:0:0:
256,160,223870,1,8,0:0:0:0:
256,160,223942,1,8,0:0:0:0:
