osu file format v14

[General]
AudioFilename: yakubyougami.ogg
AudioLeadIn: 0
PreviewTime: 185085
Countdown: 0
SampleSet: Normal
StackLeniency: 0.7
Mode: 1
LetterboxInBreaks: 0
WidescreenStoryboard: 0

[Editor]
Bookmarks: 1228,10370,19513,28656,37799,46942,56085,65228,74370,83513,92656,101799,110942,120085,129228,138370,147513,156656,165799,174942,185228,194370,205799,214942
DistanceSpacing: 1
BeatDivisor: 4
GridSize: 32
TimelineZoom: 2.4

[Metadata]
Title:Yakubyougami
TitleUnicode:ヤクビョウガミ
Artist:ayaponzu*
ArtistUnicode:あやぽんず*
Creator:gaston_2199
Version:Oni
Source:
Tags:chocolate pop* 歌い手 utaite 歌ってみた utattemita まふまふ mafumafu ボーカロイド vocaloid カバー cover みみぃ mimy C89 comiket japanese j-pop jpop jrock j-rock japanese female vocal qoot8123 Star Stream S.S
BeatmapID:1566918
BeatmapSetID:742938

[Difficulty]
HPDrainRate:5
CircleSize:2
OverallDifficulty:6
ApproachRate:10
SliderMultiplier:1.4
SliderTickRate:1

[Events]
//Background and Video events
0,0,"BG.jpg",0,0
//Break Periods
//Storyboard Layer 0 (Background)
//Storyboard Layer 1 (Fail)
//Storyboard Layer 2 (Pass)
//Storyboard Layer 3 (Foreground)
//Storyboard Layer 4 (Overlay)
//Storyboard Sound Samples

[TimingPoints]
228,285.714285714286,4,1,0,50,1,8
228,-133.333333333333,4,1,0,50,0,0
1079,-133.333333333333,4,1,0,90,0,0
1226,-100,4,1,0,90,0,0
19654,-125,5,1,0,70,0,0
24221,-111.111111111111,5,1,0,80,0,0
27649,-109.596847994652,5,1,0,80,0,0
27792,-108.123303815671,5,1,0,80,0,0
27937,-107.401233825374,5,1,0,80,0,0
28078,-105.29186378181,5,1,0,80,0,0
28221,-103.931089530398,5,1,0,80,0,0
28292,-103.263754215743,5,1,0,80,0,0
28363,-102.605039343902,5,1,0,80,0,0
28506,-101.312298198566,5,1,0,80,0,0
28649,-100,5,1,0,90,0,0
37935,-111.111111111111,5,1,0,80,0,0
41935,-106.382978723404,5,1,0,80,0,0
42006,-105.263157894737,5,1,0,80,0,0
42078,-104.166666666667,5,1,0,80,0,0
42221,-102.040816326531,5,1,0,80,0,0
42363,-100,5,1,0,90,0,0
47078,-111.111111111111,5,1,0,80,0,0
51506,-100,5,1,0,90,0,0
53942,-111.111111111111,5,1,0,80,0,0
54221,-110.526315789474,5,1,0,80,0,0
54363,-109.947643979058,5,1,0,80,0,0
54435,-109.375,5,1,0,80,0,0
54506,-108.80829015544,5,1,0,80,0,0
54649,-108.247422680412,5,1,0,80,0,0
54792,-107.692307692308,5,1,0,80,0,0
54935,-106.598984771574,5,1,0,80,0,0
55006,-106.060606060606,5,1,0,80,0,0
55078,-105.527638190955,5,1,0,80,0,0
55221,-104.477611940299,5,1,0,80,0,0
55363,-103.960396039604,5,1,0,80,0,0
55435,-103.448275862069,5,1,0,80,0,0
55506,-102.941176470588,5,1,0,80,0,0
55578,-102.439024390244,5,1,0,80,0,0
55649,-101.941747572816,5,1,0,80,0,0
55935,-100.478468899522,5,1,0,80,0,0
56085,-100,5,1,0,100,0,1
74370,-100,5,1,0,90,0,0
92792,-125,5,1,0,70,0,0
97364,-111.111111111111,5,1,0,80,0,0
100792,-109.596847994652,5,1,0,80,0,0
100935,-108.123303815671,5,1,0,80,0,0
101078,-106.688744124117,5,1,0,80,0,0
101221,-105.29186378181,5,1,0,80,0,0
101364,-103.931089530398,5,1,0,80,0,0
101435,-103.263754215743,5,1,0,80,0,0
101506,-102.605039343902,5,1,0,80,0,0
101649,-101.312298198566,5,1,0,80,0,0
101792,-100,5,1,0,90,0,0
111078,-111.111111111111,5,1,0,80,0,0
115078,-106.382978723404,5,1,0,80,0,0
115149,-105.263157894737,5,1,0,80,0,0
115221,-104.166666666667,5,1,0,80,0,0
115364,-102.040816326531,5,1,0,80,0,0
115506,-100,5,1,0,90,0,0
120221,-111.111111111111,5,1,0,80,0,0
124649,-100,5,1,0,90,0,0
126935,-100,5,1,0,50,0,0
128078,-100,5,1,0,80,0,0
129228,-100,5,1,0,100,0,1
147513,-100,5,1,0,90,0,0
165940,-111.111111111111,5,1,0,80,0,0
169792,-108.695652173913,5,1,0,80,0,0
169935,-106.382978723404,5,1,0,80,0,0
170006,-105.263157894737,5,1,0,80,0,0
170078,-104.166666666667,5,1,0,80,0,0
170221,-102.040816326531,5,1,0,80,0,0
170363,-100,5,1,0,90,0,0
175078,-111.111111111111,5,1,0,80,0,0
179506,-100,5,1,0,90,0,0
181942,-125,5,1,0,80,0,0
182221,-122.222195061734,5,1,0,80,0,0
182363,-119.56516540645,5,1,0,80,0,0
182435,-118.279506301341,5,1,0,80,0,0
182506,-117.021338841138,5,1,0,80,0,0
182649,-114.583369140636,5,1,0,80,0,0
182792,-112.244909412746,5,1,0,80,0,0
182935,-109.999989000001,5,1,0,80,0,0
183006,-108.9108695226,5,1,0,80,0,0
183078,-107.843105536342,5,1,0,80,0,0
183221,-105.769179918663,5,1,0,80,0,0
183297,-104.76195464855,5,1,0,80,0,0
183363,-103.773624065519,5,1,0,80,0,0
183435,-102.803767141243,5,1,0,80,0,0
183506,-101.851870713309,5,1,0,80,0,0
183578,-100.917440451141,5,1,0,80,0,0
183649,-100,5,1,0,80,0,0
185228,-100,5,1,0,100,0,1
205799,-100,5,1,0,100,0,0
205940,-100,5,1,0,90,0,0
222083,-111.111111111111,5,1,0,90,0,0
222221,-110.294117647059,5,1,0,90,0,0
222363,-109.489051094891,5,1,0,90,0,0
222506,-108.695652173913,5,1,0,90,0,0
222649,-107.913669064748,5,1,0,90,0,0
222792,-107.142857142857,5,1,0,90,0,0
222935,-106.382978723404,5,1,0,90,0,0
223221,-105.633802816901,5,1,0,90,0,0
223363,-104.895104895105,5,1,0,90,0,0
223506,-104.166666666667,5,1,0,90,0,0
223578,-103.448275862069,5,1,0,90,0,0
223649,-102.739726027397,5,1,0,90,0,0
223721,-102.040816326531,5,1,0,90,0,0
223792,-101.351351351351,5,1,0,90,0,0
223863,-100.671140939597,5,1,0,90,0,0
223935,-100,5,1,0,90,0,0

[HitObjects]
256,192,656,5,8,0:0:0:0:
256,192,799,1,8,0:0:0:0:
256,192,1085,1,8,0:0:0:0:
256,192,1228,1,4,0:0:0:0:
256,192,1513,1,0,0:0:0:0:
256,192,1656,1,8,0:0:0:0:
256,192,1942,1,0,0:0:0:0:
256,192,2085,1,0,0:0:0:0:
256,192,2228,1,8,0:0:0:0:
256,192,2370,1,0,0:0:0:0:
256,192,2656,1,0,0:0:0:0:
256,192,2799,1,8,0:0:0:0:
256,192,2942,1,0,0:0:0:0:
256,192,3013,1,0,0:0:0:0:
256,192,3085,1,0,0:0:0:0:
256,192,3228,1,0,0:0:0:0:
256,192,3370,1,8,0:0:0:0:
256,192,3513,1,0,0:0:0:0:
256,192,3799,1,0,0:0:0:0:
256,192,3942,1,8,0:0:0:0:
256,192,4228,1,0,0:0:0:0:
256,192,4370,1,0,0:0:0:0:
256,192,4513,1,8,0:0:0:0:
256,192,4656,1,0,0:0:0:0:
256,192,4942,1,0,0:0:0:0:
256,192,5085,1,8,0:0:0:0:
256,192,5228,1,0,0:0:0:0:
256,192,5370,1,0,0:0:0:0:
256,192,5513,1,8,0:0:0:0:
256,192,5585,1,8,0:0:0:0:
256,192,5656,1,8,0:0:0:0:
256,192,5799,1,4,0:0:0:0:
256,192,6085,1,0,0:0:0:0:
256,192,6228,1,8,0:0:0:0:
256,192,6513,1,0,0:0:0:0:
256,192,6656,1,0,0:0:0:0:
256,192,6799,1,8,0:0:0:0:
256,192,6942,1,0,0:0:0:0:
256,192,7228,1,0,0:0:0:0:
256,192,7370,1,8,0:0:0:0:
256,192,7513,1,0,0:0:0:0:
256,192,7585,1,0,0:0:0:0:
256,192,7656,1,8,0:0:0:0:
256,192,7799,1,0,0:0:0:0:
256,192,7942,1,8,0:0:0:0:
256,192,8085,1,0,0:0:0:0:
256,192,8370,1,0,0:0:0:0:
256,192,8513,1,8,0:0:0:0:
256,192,8799,1,0,0:0:0:0:
256,192,8942,1,0,0:0:0:0:
256,192,9085,1,8,0:0:0:0:
256,192,9228,1,8,0:0:0:0:
256,192,9513,1,0,0:0:0:0:
256,192,9656,1,8,0:0:0:0:
256,192,9799,1,0,0:0:0:0:
256,192,9942,1,8,0:0:0:0:
256,192,10013,1,8,0:0:0:0:
256,192,10085,1,0,0:0:0:0:
256,192,10156,1,0,0:0:0:0:
256,192,10228,1,8,0:0:0:0:
256,192,10370,1,4,0:0:0:0:
256,192,10656,1,0,0:0:0:0:
256,192,10799,1,8,0:0:0:0:
256,192,11085,1,0,0:0:0:0:
256,192,11228,1,0,0:0:0:0:
256,192,11370,1,8,0:0:0:0:
256,192,11513,1,0,0:0:0:0:
256,192,11799,1,0,0:0:0:0:
256,192,11942,1,8,0:0:0:0:
256,192,12085,1,0,0:0:0:0:
256,192,12156,1,0,0:0:0:0:
256,192,12228,1,8,0:0:0:0:
256,192,12299,1,8,0:0:0:0:
256,192,12370,1,0,0:0:0:0:
256,192,12513,1,8,0:0:0:0:
256,192,12656,1,0,0:0:0:0:
256,192,12942,1,0,0:0:0:0:
256,192,13085,1,8,0:0:0:0:
256,192,13370,1,0,0:0:0:0:
256,192,13513,1,0,0:0:0:0:
256,192,13656,1,8,0:0:0:0:
256,192,13799,1,0,0:0:0:0:
256,192,14085,1,0,0:0:0:0:
256,192,14228,1,8,0:0:0:0:
256,192,14370,1,0,0:0:0:0:
256,192,14513,1,0,0:0:0:0:
256,192,14656,1,8,0:0:0:0:
256,192,14728,1,8,0:0:0:0:
256,192,14799,1,8,0:0:0:0:
256,192,14942,1,4,0:0:0:0:
256,192,15228,1,0,0:0:0:0:
256,192,15370,1,8,0:0:0:0:
256,192,15656,1,0,0:0:0:0:
256,192,15799,1,0,0:0:0:0:
256,192,15942,1,8,0:0:0:0:
256,192,16085,1,0,0:0:0:0:
256,192,16370,1,0,0:0:0:0:
256,192,16513,1,8,0:0:0:0:
256,192,16656,1,0,0:0:0:0:
256,192,16728,1,0,0:0:0:0:
256,192,16799,1,0,0:0:0:0:
256,192,16942,1,0,0:0:0:0:
256,192,17085,1,8,0:0:0:0:
256,192,17228,1,0,0:0:0:0:
256,192,17513,1,0,0:0:0:0:
256,192,17656,1,8,0:0:0:0:
256,192,17942,1,0,0:0:0:0:
256,192,18085,1,0,0:0:0:0:
256,192,18228,1,8,0:0:0:0:
256,192,18370,1,0,0:0:0:0:
256,192,18656,1,0,0:0:0:0:
256,192,18799,1,8,0:0:0:0:
256,192,18942,1,0,0:0:0:0:
256,192,19085,1,8,0:0:0:0:
256,192,19156,1,8,0:0:0:0:
256,192,19228,1,0,0:0:0:0:
256,192,19299,1,0,0:0:0:0:
256,192,19370,1,8,0:0:0:0:
256,192,19513,1,0,0:0:0:0:
256,192,19799,1,8,0:0:0:0:
256,192,20085,1,0,0:0:0:0:
256,192,20228,1,8,0:0:0:0:
256,192,20513,1,0,0:0:0:0:
256,192,20656,1,8,0:0:0:0:
256,192,20799,1,0,0:0:0:0:
256,192,21085,1,8,0:0:0:0:
256,192,21228,1,8,0:0:0:0:
256,192,21370,1,0,0:0:0:0:
256,192,21656,1,8,0:0:0:0:
256,192,22085,1,0,0:0:0:0:
256,192,22228,1,8,0:0:0:0:
256,192,22513,1,8,0:0:0:0:
256,192,22656,1,8,0:0:0:0:
256,192,22799,1,0,0:0:0:0:
256,192,23085,1,8,0:0:0:0:
256,192,23228,1,0,0:0:0:0:
256,192,23370,1,8,0:0:0:0:
256,192,23513,1,0,0:0:0:0:
256,192,23656,1,8,0:0:0:0:
256,192,23942,1,0,0:0:0:0:
256,192,24228,1,8,0:0:0:0:
256,192,24513,1,8,0:0:0:0:
256,192,24656,1,0,0:0:0:0:
256,192,24942,1,0,0:0:0:0:
256,192,25085,1,8,0:0:0:0:
256,192,25370,1,0,0:0:0:0:
256,192,25656,1,8,0:0:0:0:
256,192,25799,1,0,0:0:0:0:
256,192,25942,1,8,0:0:0:0:
256,192,26228,1,0,0:0:0:0:
256,192,26513,1,8,0:0:0:0:
256,192,26799,1,8,0:0:0:0:
256,192,26942,1,8,0:0:0:0:
256,192,27085,1,0,0:0:0:0:
256,192,27370,1,8,0:0:0:0:
256,192,27513,1,0,0:0:0:0:
256,192,27656,1,8,0:0:0:0:
256,192,27799,1,0,0:0:0:0:
256,192,27942,1,8,0:0:0:0:
256,192,28085,1,8,0:0:0:0:
256,192,28228,1,0,0:0:0:0:
256,192,28299,1,0,0:0:0:0:
256,192,28370,1,0,0:0:0:0:
256,192,28513,1,8,0:0:0:0:
256,192,28656,1,4,0:0:0:0:
256,192,28942,1,0,0:0:0:0:
256,192,29085,1,8,0:0:0:0:
224,192,29228,1,0,0:0:0:0:
256,192,29370,1,8,0:0:0:0:
256,192,29442,1,0,0:0:0:0:
256,192,29513,1,8,0:0:0:0:
256,192,29656,1,8,0:0:0:0:
256,192,29799,1,0,0:0:0:0:
256,192,30085,1,0,0:0:0:0:
256,192,30228,1,8,0:0:0:0:
256,192,30370,1,0,0:0:0:0:
256,192,30442,1,0,0:0:0:0:
256,192,30513,1,8,0:0:0:0:
224,194,30656,1,0,0:0:0:0:
256,192,30799,1,8,0:0:0:0:
256,192,30942,1,0,0:0:0:0:
256,192,31228,1,0,0:0:0:0:
256,192,31370,1,8,0:0:0:0:
256,192,31513,1,0,0:0:0:0:
256,192,31799,1,0,0:0:0:0:
256,192,31942,1,8,0:0:0:0:
256,192,32085,1,8,0:0:0:0:
256,192,32156,1,8,0:0:0:0:
256,192,32228,1,0,0:0:0:0:
256,192,32370,1,0,0:0:0:0:
256,192,32513,1,8,0:0:0:0:
223,130,32656,1,0,0:0:0:0:
256,192,32799,1,0,0:0:0:0:
256,192,32942,1,8,0:0:0:0:
256,192,33013,1,8,0:0:0:0:
256,192,33085,1,8,0:0:0:0:
256,192,33228,1,4,0:0:0:0:
256,192,33513,1,0,0:0:0:0:
256,192,33656,1,8,0:0:0:0:
256,192,33942,1,8,0:0:0:0:
256,192,34085,1,8,0:0:0:0:
256,192,34228,1,0,0:0:0:0:
256,192,34370,1,12,0:0:0:0:
256,192,34656,1,0,0:0:0:0:
256,192,34799,1,8,0:0:0:0:
256,192,35085,1,0,0:0:0:0:
256,192,35228,1,0,0:0:0:0:
256,192,35370,1,8,0:0:0:0:
192,224,35513,1,0,0:0:0:0:
256,192,35799,1,0,0:0:0:0:
256,192,35942,1,8,0:0:0:0:
256,192,36085,1,0,0:0:0:0:
256,192,36156,1,0,0:0:0:0:
256,192,36228,1,0,0:0:0:0:
256,192,36370,1,0,0:0:0:0:
256,192,36513,1,8,0:0:0:0:
256,192,36656,1,0,0:0:0:0:
256,192,36942,1,0,0:0:0:0:
256,192,37085,1,8,0:0:0:0:
256,192,37228,1,0,0:0:0:0:
256,192,37370,1,8,0:0:0:0:
256,192,37442,1,8,0:0:0:0:
256,192,37513,1,0,0:0:0:0:
256,192,37585,1,0,0:0:0:0:
256,192,37656,1,8,0:0:0:0:
256,192,37799,1,4,0:0:0:0:
256,192,38085,1,0,0:0:0:0:
256,192,38228,1,8,0:0:0:0:
256,192,38370,1,0,0:0:0:0:
256,192,38513,1,0,0:0:0:0:
128,192,38799,1,8,0:0:0:0:
128,192,38942,1,0,0:0:0:0:
224,192,39228,1,0,0:0:0:0:
224,192,39370,1,8,0:0:0:0:
224,192,39513,1,0,0:0:0:0:
224,192,39656,1,8,0:0:0:0:
224,192,39942,1,8,0:0:0:0:
224,192,40085,1,8,0:0:0:0:
224,192,40228,1,0,0:0:0:0:
224,192,40370,1,0,0:0:0:0:
224,192,40513,1,8,0:0:0:0:
224,192,40656,1,0,0:0:0:0:
224,192,40728,1,0,0:0:0:0:
224,192,40799,1,8,0:0:0:0:
224,192,40942,1,0,0:0:0:0:
224,192,41085,1,8,0:0:0:0:
224,192,41228,1,0,0:0:0:0:
224,192,41513,1,0,0:0:0:0:
224,192,41656,1,8,0:0:0:0:
224,192,41942,1,0,0:0:0:0:
256,192,42013,1,0,0:0:0:0:
224,192,42085,1,0,0:0:0:0:
224,192,42228,1,8,0:0:0:0:
224,192,42370,1,4,0:0:0:0:
224,192,42656,1,0,0:0:0:0:
224,192,42799,1,8,0:0:0:0:
224,192,43085,1,0,0:0:0:0:
224,192,43228,1,8,0:0:0:0:
224,192,43370,1,8,0:0:0:0:
224,192,43513,1,0,0:0:0:0:
224,192,43799,1,0,0:0:0:0:
224,192,43942,1,8,0:0:0:0:
224,192,44085,1,8,0:0:0:0:
224,192,44156,1,0,0:0:0:0:
224,192,44228,1,8,0:0:0:0:
224,192,44370,1,0,0:0:0:0:
224,192,44513,1,8,0:0:0:0:
224,192,44656,1,0,0:0:0:0:
224,192,44942,1,0,0:0:0:0:
224,192,45085,1,8,0:0:0:0:
224,192,45370,1,0,0:0:0:0:
224,192,45513,1,0,0:0:0:0:
224,192,45656,1,8,0:0:0:0:
224,192,45799,1,0,0:0:0:0:
224,192,46085,1,0,0:0:0:0:
224,192,46228,1,8,0:0:0:0:
224,192,46370,1,0,0:0:0:0:
224,192,46513,1,8,0:0:0:0:
224,192,46585,1,8,0:0:0:0:
224,192,46656,1,8,0:0:0:0:
224,192,46799,1,8,0:0:0:0:
224,192,46942,1,4,0:0:0:0:
256,192,47228,1,0,0:0:0:0:
256,192,47370,1,8,0:0:0:0:
256,192,47513,1,0,0:0:0:0:
256,192,47656,1,8,0:0:0:0:
128,192,47942,1,8,0:0:0:0:
128,192,48085,1,0,0:0:0:0:
224,192,48370,1,0,0:0:0:0:
224,192,48513,1,8,0:0:0:0:
224,192,48656,1,0,0:0:0:0:
224,192,48799,1,0,0:0:0:0:
224,192,49085,1,8,0:0:0:0:
224,192,49228,1,8,0:0:0:0:
224,192,49513,1,0,0:0:0:0:
224,192,49656,1,8,0:0:0:0:
224,192,49799,1,0,0:0:0:0:
224,192,49942,1,8,0:0:0:0:
224,192,50228,1,8,0:0:0:0:
224,192,50370,1,0,0:0:0:0:
224,192,50513,1,0,0:0:0:0:
224,192,50656,1,0,0:0:0:0:
185,158,50728,1,0,0:0:0:0:
224,192,50799,1,8,0:0:0:0:
224,192,50942,1,0,0:0:0:0:
224,192,51085,1,8,0:0:0:0:
224,192,51228,1,8,0:0:0:0:
224,192,51513,1,4,0:0:0:0:
224,192,51799,1,0,0:0:0:0:
224,192,51942,1,8,0:0:0:0:
224,192,52228,1,8,0:0:0:0:
224,192,52370,1,8,0:0:0:0:
224,192,52513,1,0,0:0:0:0:
224,192,52656,1,12,0:0:0:0:
224,192,52942,1,0,0:0:0:0:
224,192,53085,1,8,0:0:0:0:
224,192,53370,1,0,0:0:0:0:
224,192,53513,1,0,0:0:0:0:
224,192,53585,1,0,0:0:0:0:
224,192,53656,1,8,0:0:0:0:
224,192,53799,1,4,0:0:0:0:
224,192,54085,1,0,0:0:0:0:
224,192,54228,1,8,0:0:0:0:
224,192,54370,1,0,0:0:0:0:
224,192,54442,1,0,0:0:0:0:
224,192,54513,1,8,0:0:0:0:
224,192,54656,1,0,0:0:0:0:
224,192,54799,1,8,0:0:0:0:
224,192,54942,1,8,0:0:0:0:
224,192,55013,1,0,0:0:0:0:
224,192,55085,1,8,0:0:0:0:
224,192,55228,1,0,0:0:0:0:
224,192,55370,1,8,0:0:0:0:
224,192,55442,1,8,0:0:0:0:
224,192,55513,1,0,0:0:0:0:
224,192,55585,1,0,0:0:0:0:
224,192,55656,1,8,0:0:0:0:
224,192,55942,1,8,0:0:0:0:
224,192,56085,1,4,0:0:0:0:
224,192,56370,1,0,0:0:0:0:
224,192,56513,1,8,0:0:0:0:
224,192,56656,1,0,0:0:0:0:
224,192,56728,1,0,0:0:0:0:
224,192,56799,1,8,0:0:0:0:
224,192,56942,1,0,0:0:0:0:
224,192,57085,1,8,0:0:0:0:
224,192,57228,1,0,0:0:0:0:
224,192,57513,1,0,0:0:0:0:
224,192,57656,1,8,0:0:0:0:
224,192,57799,1,8,0:0:0:0:
224,192,57870,1,0,0:0:0:0:
224,192,57942,1,8,0:0:0:0:
224,192,58085,1,0,0:0:0:0:
224,192,58228,1,8,0:0:0:0:
224,192,58370,1,8,0:0:0:0:
224,192,58656,1,0,0:0:0:0:
224,192,58799,1,8,0:0:0:0:
224,192,58942,1,0,0:0:0:0:
224,192,59085,1,8,0:0:0:0:
224,192,59156,1,0,0:0:0:0:
224,192,59228,1,0,0:0:0:0:
224,192,59370,1,8,0:0:0:0:
224,192,59513,1,0,0:0:0:0:
224,192,59799,1,0,0:0:0:0:
224,192,59942,1,8,0:0:0:0:
224,192,60085,1,0,0:0:0:0:
224,192,60228,1,8,0:0:0:0:
224,192,60299,1,8,0:0:0:0:
224,192,60370,1,0,0:0:0:0:
224,192,60513,1,8,0:0:0:0:
224,192,60656,1,4,0:0:0:0:
224,192,60942,1,0,0:0:0:0:
224,192,61085,1,8,0:0:0:0:
224,192,61370,1,0,0:0:0:0:
224,192,61513,1,0,0:0:0:0:
224,192,61656,1,8,0:0:0:0:
224,192,61799,1,0,0:0:0:0:
224,192,62085,1,0,0:0:0:0:
224,192,62228,1,8,0:0:0:0:
224,192,62513,1,8,0:0:0:0:
224,192,62656,1,0,0:0:0:0:
224,192,62799,1,8,0:0:0:0:
224,192,62942,1,8,0:0:0:0:
224,192,63013,1,8,0:0:0:0:
224,192,63085,1,0,0:0:0:0:
224,192,63228,1,0,0:0:0:0:
224,192,63370,1,8,0:0:0:0:
224,192,63513,1,0,0:0:0:0:
224,192,63656,1,8,0:0:0:0:
224,192,63799,1,8,0:0:0:0:
224,192,64085,1,0,0:0:0:0:
224,192,64370,1,0,0:0:0:0:
224,192,64513,1,8,0:0:0:0:
224,192,64656,1,0,0:0:0:0:
224,192,64728,1,0,0:0:0:0:
224,192,64799,1,0,0:0:0:0:
224,192,64942,1,0,0:0:0:0:
224,192,65085,1,8,0:0:0:0:
224,192,65228,1,4,0:0:0:0:
224,192,65513,1,0,0:0:0:0:
224,192,65656,1,8,0:0:0:0:
224,192,65799,1,0,0:0:0:0:
224,192,65942,1,0,0:0:0:0:
224,192,66013,1,8,0:0:0:0:
224,192,66085,1,0,0:0:0:0:
224,192,66228,1,8,0:0:0:0:
224,192,66370,1,0,0:0:0:0:
224,192,66656,1,0,0:0:0:0:
224,192,66799,1,8,0:0:0:0:
224,192,66942,1,0,0:0:0:0:
224,192,67085,1,8,0:0:0:0:
224,192,67156,1,8,0:0:0:0:
224,192,67228,1,0,0:0:0:0:
224,192,67370,1,8,0:0:0:0:
224,192,67513,1,0,0:0:0:0:
224,192,67799,1,0,0:0:0:0:
224,192,67942,1,8,0:0:0:0:
224,192,68085,1,0,0:0:0:0:
224,192,68228,1,8,0:0:0:0:
224,192,68370,1,8,0:0:0:0:
221,158,68442,1,8,0:0:0:0:
224,192,68513,1,8,0:0:0:0:
224,192,68656,1,0,0:0:0:0:
224,192,68942,1,0,0:0:0:0:
224,192,69085,1,8,0:0:0:0:
224,192,69370,1,8,0:0:0:0:
224,192,69513,1,0,0:0:0:0:
224,192,69585,1,0,0:0:0:0:
224,192,69656,1,8,0:0:0:0:
224,192,69799,1,4,0:0:0:0:
224,192,70085,1,0,0:0:0:0:
224,192,70228,1,8,0:0:0:0:
224,192,70513,1,0,0:0:0:0:
224,192,70656,1,0,0:0:0:0:
224,192,70799,1,8,0:0:0:0:
224,160,70942,1,0,0:0:0:0:
224,192,71085,1,8,0:0:0:0:
224,192,71370,1,8,0:0:0:0:
224,192,71656,1,0,0:0:0:0:
224,192,71799,1,0,0:0:0:0:
224,192,71870,1,0,0:0:0:0:
224,192,71942,1,8,0:0:0:0:
224,192,72085,1,0,0:0:0:0:
224,192,72370,1,0,0:0:0:0:
224,192,72513,1,8,0:0:0:0:
224,192,72799,1,0,0:0:0:0:
224,192,72942,1,0,0:0:0:0:
224,192,73085,1,8,0:0:0:0:
224,192,73228,1,0,0:0:0:0:
224,192,73513,1,0,0:0:0:0:
224,192,73656,1,8,0:0:0:0:
224,192,73799,1,0,0:0:0:0:
224,192,73942,1,8,0:0:0:0:
224,192,74013,1,8,0:0:0:0:
224,192,74085,1,0,0:0:0:0:
224,192,74156,1,0,0:0:0:0:
224,192,74228,1,8,0:0:0:0:
256,192,74370,1,4,0:0:0:0:
256,192,74656,1,0,0:0:0:0:
256,192,74799,1,8,0:0:0:0:
256,192,75085,1,0,0:0:0:0:
256,192,75228,1,0,0:0:0:0:
256,192,75370,1,8,0:0:0:0:
256,192,75513,1,0,0:0:0:0:
256,192,75799,1,0,0:0:0:0:
256,192,75942,1,8,0:0:0:0:
256,192,76085,1,0,0:0:0:0:
256,192,76156,1,0,0:0:0:0:
256,192,76228,1,0,0:0:0:0:
256,192,76370,1,0,0:0:0:0:
256,192,76513,1,8,0:0:0:0:
256,192,76656,1,0,0:0:0:0:
256,192,76942,1,0,0:0:0:0:
256,192,77085,1,8,0:0:0:0:
256,192,77370,1,0,0:0:0:0:
256,192,77513,1,0,0:0:0:0:
256,192,77656,1,8,0:0:0:0:
256,192,77799,1,0,0:0:0:0:
256,192,78085,1,0,0:0:0:0:
256,192,78228,1,8,0:0:0:0:
256,192,78370,1,0,0:0:0:0:
256,192,78513,1,0,0:0:0:0:
256,192,78656,1,8,0:0:0:0:
256,192,78728,1,8,0:0:0:0:
256,192,78799,1,8,0:0:0:0:
256,192,78942,1,4,0:0:0:0:
256,192,79228,1,0,0:0:0:0:
256,192,79370,1,8,0:0:0:0:
256,192,79656,1,0,0:0:0:0:
256,192,79799,1,0,0:0:0:0:
256,192,79942,1,8,0:0:0:0:
256,192,80085,1,0,0:0:0:0:
256,192,80370,1,0,0:0:0:0:
256,192,80513,1,8,0:0:0:0:
256,192,80656,1,0,0:0:0:0:
256,192,80728,1,0,0:0:0:0:
256,192,80799,1,8,0:0:0:0:
256,192,80942,1,0,0:0:0:0:
256,192,81085,1,8,0:0:0:0:
256,192,81228,1,0,0:0:0:0:
256,192,81513,1,0,0:0:0:0:
256,192,81656,1,8,0:0:0:0:
256,192,81942,1,0,0:0:0:0:
256,192,82085,1,0,0:0:0:0:
256,192,82228,1,8,0:0:0:0:
256,192,82370,1,8,0:0:0:0:
256,192,82656,1,0,0:0:0:0:
256,192,82799,1,8,0:0:0:0:
256,192,82942,1,0,0:0:0:0:
256,192,83085,1,8,0:0:0:0:
256,192,83156,1,8,0:0:0:0:
256,192,83228,1,0,0:0:0:0:
256,192,83299,1,0,0:0:0:0:
256,192,83370,1,8,0:0:0:0:
256,192,83513,1,4,0:0:0:0:
256,192,83799,1,0,0:0:0:0:
256,192,83942,1,8,0:0:0:0:
256,192,84228,1,0,0:0:0:0:
256,192,84370,1,0,0:0:0:0:
256,192,84513,1,8,0:0:0:0:
256,192,84656,1,0,0:0:0:0:
256,192,84942,1,0,0:0:0:0:
256,192,85085,1,8,0:0:0:0:
256,192,85228,1,0,0:0:0:0:
256,192,85299,1,0,0:0:0:0:
256,192,85370,1,8,0:0:0:0:
256,192,85442,1,8,0:0:0:0:
256,192,85513,1,0,0:0:0:0:
256,192,85656,1,8,0:0:0:0:
256,192,85799,1,0,0:0:0:0:
256,192,86085,1,0,0:0:0:0:
256,192,86228,1,8,0:0:0:0:
256,192,86513,1,0,0:0:0:0:
256,192,86656,1,0,0:0:0:0:
256,192,86799,1,8,0:0:0:0:
256,192,86942,1,0,0:0:0:0:
256,192,87228,1,0,0:0:0:0:
256,192,87370,1,8,0:0:0:0:
256,192,87513,1,0,0:0:0:0:
256,192,87656,1,0,0:0:0:0:
256,192,87799,1,8,0:0:0:0:
256,192,87870,1,8,0:0:0:0:
256,192,87942,1,8,0:0:0:0:
256,192,88085,1,4,0:0:0:0:
256,192,88370,1,0,0:0:0:0:
256,192,88513,1,8,0:0:0:0:
256,192,88799,1,0,0:0:0:0:
256,192,88942,1,0,0:0:0:0:
256,192,89085,1,8,0:0:0:0:
256,192,89228,1,0,0:0:0:0:
256,192,89513,1,0,0:0:0:0:
256,192,89656,1,8,0:0:0:0:
256,192,89799,1,0,0:0:0:0:
256,192,89870,1,0,0:0:0:0:
256,192,89942,1,0,0:0:0:0:
256,192,90085,1,0,0:0:0:0:
256,192,90228,1,8,0:0:0:0:
256,192,90370,1,0,0:0:0:0:
256,192,90656,1,0,0:0:0:0:
256,192,90799,1,8,0:0:0:0:
256,192,91085,1,0,0:0:0:0:
256,192,91228,1,0,0:0:0:0:
256,192,91370,1,8,0:0:0:0:
256,192,91513,1,0,0:0:0:0:
256,192,91799,1,0,0:0:0:0:
256,192,91942,1,8,0:0:0:0:
256,192,92085,1,0,0:0:0:0:
256,192,92228,1,8,0:0:0:0:
256,192,92299,1,8,0:0:0:0:
256,192,92370,1,0,0:0:0:0:
256,192,92442,1,0,0:0:0:0:
256,192,92513,1,8,0:0:0:0:
256,192,92656,1,0,0:0:0:0:
256,192,92942,1,8,0:0:0:0:
256,192,93228,1,0,0:0:0:0:
256,192,93370,1,8,0:0:0:0:
256,192,93656,1,0,0:0:0:0:
256,192,93799,1,8,0:0:0:0:
256,192,93942,1,0,0:0:0:0:
256,192,94228,1,8,0:0:0:0:
256,192,94370,1,8,0:0:0:0:
256,192,94513,1,0,0:0:0:0:
256,192,94799,1,8,0:0:0:0:
256,192,95228,1,0,0:0:0:0:
256,192,95370,1,8,0:0:0:0:
256,192,95656,1,8,0:0:0:0:
256,192,95799,1,8,0:0:0:0:
256,192,95942,1,0,0:0:0:0:
256,192,96228,1,8,0:0:0:0:
256,192,96370,1,0,0:0:0:0:
256,192,96513,1,8,0:0:0:0:
256,192,96656,1,0,0:0:0:0:
256,192,96799,1,8,0:0:0:0:
256,192,97085,1,0,0:0:0:0:
256,192,97370,1,8,0:0:0:0:
256,192,97656,1,8,0:0:0:0:
256,192,97799,1,0,0:0:0:0:
256,192,98085,1,0,0:0:0:0:
256,192,98228,1,8,0:0:0:0:
256,192,98513,1,0,0:0:0:0:
256,192,98799,1,8,0:0:0:0:
256,192,98942,1,0,0:0:0:0:
256,192,99085,1,8,0:0:0:0:
256,192,99370,1,0,0:0:0:0:
256,192,99656,1,8,0:0:0:0:
256,192,99942,1,8,0:0:0:0:
256,192,100085,1,8,0:0:0:0:
256,192,100228,1,0,0:0:0:0:
256,192,100513,1,8,0:0:0:0:
256,192,100656,1,0,0:0:0:0:
256,192,100799,1,8,0:0:0:0:
256,192,100942,1,0,0:0:0:0:
256,192,101085,1,8,0:0:0:0:
256,192,101228,1,8,0:0:0:0:
256,192,101370,1,0,0:0:0:0:
256,192,101442,1,0,0:0:0:0:
256,192,101513,1,0,0:0:0:0:
256,192,101656,1,8,0:0:0:0:
256,192,101799,1,4,0:0:0:0:
256,192,102085,1,0,0:0:0:0:
256,192,102228,1,8,0:0:0:0:
224,192,102370,1,0,0:0:0:0:
256,192,102513,1,8,0:0:0:0:
256,192,102585,1,0,0:0:0:0:
256,192,102656,1,8,0:0:0:0:
256,192,102799,1,8,0:0:0:0:
256,192,102942,1,0,0:0:0:0:
256,192,103228,1,0,0:0:0:0:
256,192,103370,1,8,0:0:0:0:
256,192,103513,1,0,0:0:0:0:
256,192,103585,1,0,0:0:0:0:
256,192,103656,1,8,0:0:0:0:
224,192,103799,1,0,0:0:0:0:
256,192,103942,1,8,0:0:0:0:
256,192,104085,1,0,0:0:0:0:
256,192,104370,1,0,0:0:0:0:
256,192,104513,1,8,0:0:0:0:
256,192,104656,1,0,0:0:0:0:
256,192,104942,1,0,0:0:0:0:
256,192,105085,1,8,0:0:0:0:
256,192,105228,1,8,0:0:0:0:
256,192,105299,1,8,0:0:0:0:
256,192,105370,1,0,0:0:0:0:
256,192,105513,1,0,0:0:0:0:
256,192,105656,1,8,0:0:0:0:
256,192,105799,1,0,0:0:0:0:
256,192,105942,1,0,0:0:0:0:
256,192,106085,1,8,0:0:0:0:
256,192,106156,1,8,0:0:0:0:
256,192,106228,1,8,0:0:0:0:
256,192,106370,1,4,0:0:0:0:
256,192,106656,1,0,0:0:0:0:
256,192,106799,1,8,0:0:0:0:
256,192,107085,1,8,0:0:0:0:
256,192,107228,1,8,0:0:0:0:
256,192,107370,1,0,0:0:0:0:
256,192,107513,1,12,0:0:0:0:
256,192,107799,1,0,0:0:0:0:
256,192,107942,1,8,0:0:0:0:
256,192,108228,1,0,0:0:0:0:
256,192,108370,1,0,0:0:0:0:
256,192,108513,1,8,0:0:0:0:
192,224,108656,1,0,0:0:0:0:
256,192,108942,1,0,0:0:0:0:
256,192,109085,1,8,0:0:0:0:
256,192,109228,1,0,0:0:0:0:
256,192,109299,1,0,0:0:0:0:
256,192,109370,1,0,0:0:0:0:
256,192,109513,1,0,0:0:0:0:
256,192,109656,1,8,0:0:0:0:
256,192,109799,1,0,0:0:0:0:
256,192,110085,1,0,0:0:0:0:
256,192,110228,1,8,0:0:0:0:
256,192,110370,1,0,0:0:0:0:
256,192,110513,1,8,0:0:0:0:
256,192,110585,1,8,0:0:0:0:
256,192,110656,1,0,0:0:0:0:
256,192,110728,1,0,0:0:0:0:
256,192,110799,1,8,0:0:0:0:
256,192,110942,1,4,0:0:0:0:
256,192,111228,1,0,0:0:0:0:
256,192,111370,1,8,0:0:0:0:
256,192,111513,1,0,0:0:0:0:
256,192,111656,1,0,0:0:0:0:
128,192,111942,1,8,0:0:0:0:
128,192,112085,1,0,0:0:0:0:
224,192,112370,1,0,0:0:0:0:
224,192,112513,1,8,0:0:0:0:
224,192,112656,1,0,0:0:0:0:
224,192,112799,1,8,0:0:0:0:
224,192,113085,1,8,0:0:0:0:
224,192,113228,1,8,0:0:0:0:
187,157,113370,1,0,0:0:0:0:
224,192,113513,1,0,0:0:0:0:
224,192,113656,1,8,0:0:0:0:
224,192,113799,1,0,0:0:0:0:
224,192,113870,1,0,0:0:0:0:
224,192,113942,1,8,0:0:0:0:
224,192,114085,1,0,0:0:0:0:
224,192,114228,1,8,0:0:0:0:
224,192,114370,1,0,0:0:0:0:
224,192,114656,1,0,0:0:0:0:
224,192,114799,1,8,0:0:0:0:
224,192,115085,1,0,0:0:0:0:
256,192,115156,1,0,0:0:0:0:
224,192,115228,1,0,0:0:0:0:
224,192,115370,1,8,0:0:0:0:
224,192,115513,1,4,0:0:0:0:
224,192,115799,1,0,0:0:0:0:
224,192,115942,1,8,0:0:0:0:
224,192,116228,1,0,0:0:0:0:
224,192,116370,1,8,0:0:0:0:
224,192,116513,1,8,0:0:0:0:
224,192,116656,1,0,0:0:0:0:
224,192,116942,1,0,0:0:0:0:
224,192,117085,1,8,0:0:0:0:
224,192,117228,1,8,0:0:0:0:
224,192,117299,1,0,0:0:0:0:
224,192,117370,1,8,0:0:0:0:
224,192,117513,1,0,0:0:0:0:
224,192,117656,1,8,0:0:0:0:
224,192,117799,1,0,0:0:0:0:
224,192,118085,1,0,0:0:0:0:
224,192,118228,1,8,0:0:0:0:
224,192,118513,1,0,0:0:0:0:
224,192,118656,1,0,0:0:0:0:
224,192,118799,1,8,0:0:0:0:
224,192,118942,1,0,0:0:0:0:
224,192,119228,1,0,0:0:0:0:
224,192,119370,1,8,0:0:0:0:
224,192,119513,1,0,0:0:0:0:
224,192,119656,1,8,0:0:0:0:
224,192,119728,1,8,0:0:0:0:
224,192,119799,1,8,0:0:0:0:
224,192,119942,1,8,0:0:0:0:
224,192,120085,1,4,0:0:0:0:
256,192,120370,1,0,0:0:0:0:
256,192,120513,1,8,0:0:0:0:
256,192,120656,1,0,0:0:0:0:
256,192,120799,1,8,0:0:0:0:
128,192,121085,1,8,0:0:0:0:
128,192,121228,1,0,0:0:0:0:
224,192,121513,1,0,0:0:0:0:
224,192,121656,1,8,0:0:0:0:
224,192,121799,1,0,0:0:0:0:
224,192,121942,1,0,0:0:0:0:
224,192,122228,1,8,0:0:0:0:
224,192,122370,1,8,0:0:0:0:
224,192,122656,1,0,0:0:0:0:
224,192,122799,1,8,0:0:0:0:
224,192,122942,1,0,0:0:0:0:
224,192,123085,1,8,0:0:0:0:
224,192,123370,1,8,0:0:0:0:
224,192,123513,1,0,0:0:0:0:
176,167,123656,1,0,0:0:0:0:
224,192,123799,1,0,0:0:0:0:
224,192,123870,1,0,0:0:0:0:
224,192,123942,1,8,0:0:0:0:
224,192,124085,1,0,0:0:0:0:
224,192,124228,1,8,0:0:0:0:
224,192,124370,1,8,0:0:0:0:
224,192,124656,1,4,0:0:0:0:
224,192,124942,1,0,0:0:0:0:
224,192,125085,1,8,0:0:0:0:
224,192,125370,1,8,0:0:0:0:
224,192,125513,1,8,0:0:0:0:
224,192,125656,1,0,0:0:0:0:
224,192,125799,1,12,0:0:0:0:
224,192,126085,1,0,0:0:0:0:
224,192,126228,1,8,0:0:0:0:
224,192,126513,1,8,0:0:0:0:
224,192,126656,1,8,0:0:0:0:
224,192,126728,1,8,0:0:0:0:
224,192,126799,1,8,0:0:0:0:
224,192,126942,1,0,0:0:0:0:
224,192,128085,1,12,0:0:0:0:
224,192,128370,1,0,0:0:0:0:
224,192,128513,1,8,0:0:0:0:
224,192,128585,1,8,0:0:0:0:
224,192,128656,1,0,0:0:0:0:
252,174,128728,1,0,0:0:0:0:
224,192,128799,1,8,0:0:0:0:
245,139,128942,1,0,0:0:0:0:
224,192,129085,1,8,0:0:0:0:
224,192,129228,1,4,0:0:0:0:
224,192,129513,1,0,0:0:0:0:
224,192,129656,1,8,0:0:0:0:
224,192,129799,1,0,0:0:0:0:
224,192,129870,1,0,0:0:0:0:
224,192,129942,1,8,0:0:0:0:
224,192,130085,1,0,0:0:0:0:
224,192,130228,1,8,0:0:0:0:
224,192,130370,1,0,0:0:0:0:
224,192,130656,1,0,0:0:0:0:
224,192,130799,1,8,0:0:0:0:
224,192,130942,1,8,0:0:0:0:
224,192,131013,1,0,0:0:0:0:
224,192,131085,1,8,0:0:0:0:
224,192,131228,1,0,0:0:0:0:
224,192,131370,1,8,0:0:0:0:
224,192,131513,1,8,0:0:0:0:
224,192,131799,1,0,0:0:0:0:
224,192,131942,1,8,0:0:0:0:
224,192,132085,1,0,0:0:0:0:
224,192,132228,1,8,0:0:0:0:
224,192,132299,1,0,0:0:0:0:
224,192,132370,1,0,0:0:0:0:
224,192,132513,1,8,0:0:0:0:
224,192,132656,1,0,0:0:0:0:
224,192,132942,1,0,0:0:0:0:
224,192,133085,1,8,0:0:0:0:
224,192,133228,1,0,0:0:0:0:
224,192,133370,1,8,0:0:0:0:
224,192,133442,1,8,0:0:0:0:
224,192,133513,1,0,0:0:0:0:
224,192,133656,1,8,0:0:0:0:
224,192,133799,1,4,0:0:0:0:
224,192,134085,1,0,0:0:0:0:
224,192,134228,1,8,0:0:0:0:
224,192,134513,1,0,0:0:0:0:
224,192,134656,1,0,0:0:0:0:
224,192,134799,1,8,0:0:0:0:
224,192,134942,1,0,0:0:0:0:
224,192,135228,1,0,0:0:0:0:
224,192,135370,1,8,0:0:0:0:
224,192,135656,1,8,0:0:0:0:
224,192,135799,1,0,0:0:0:0:
224,192,135942,1,8,0:0:0:0:
224,192,136085,1,8,0:0:0:0:
224,192,136156,1,8,0:0:0:0:
224,192,136228,1,0,0:0:0:0:
224,192,136370,1,0,0:0:0:0:
224,192,136513,1,8,0:0:0:0:
224,192,136656,1,0,0:0:0:0:
224,192,136799,1,8,0:0:0:0:
224,192,136942,1,8,0:0:0:0:
224,192,137228,1,0,0:0:0:0:
224,192,137513,1,0,0:0:0:0:
224,192,137656,1,8,0:0:0:0:
224,192,137799,1,0,0:0:0:0:
224,192,137870,1,0,0:0:0:0:
224,192,137942,1,0,0:0:0:0:
224,192,138085,1,0,0:0:0:0:
224,192,138228,1,8,0:0:0:0:
224,192,138370,1,4,0:0:0:0:
224,192,138656,1,0,0:0:0:0:
224,192,138799,1,8,0:0:0:0:
224,192,138942,1,0,0:0:0:0:
224,192,139085,1,0,0:0:0:0:
224,192,139156,1,8,0:0:0:0:
224,192,139228,1,0,0:0:0:0:
224,192,139370,1,8,0:0:0:0:
224,192,139513,1,0,0:0:0:0:
224,192,139799,1,0,0:0:0:0:
224,192,139942,1,8,0:0:0:0:
224,192,140085,1,0,0:0:0:0:
224,192,140228,1,8,0:0:0:0:
224,192,140299,1,8,0:0:0:0:
224,192,140370,1,0,0:0:0:0:
224,192,140513,1,8,0:0:0:0:
224,192,140656,1,0,0:0:0:0:
224,192,140942,1,0,0:0:0:0:
224,192,141085,1,8,0:0:0:0:
224,192,141228,1,0,0:0:0:0:
224,192,141370,1,8,0:0:0:0:
224,192,141513,1,8,0:0:0:0:
222,163,141585,1,8,0:0:0:0:
224,192,141656,1,8,0:0:0:0:
224,192,141799,1,0,0:0:0:0:
224,192,142085,1,0,0:0:0:0:
224,192,142228,1,8,0:0:0:0:
224,192,142513,1,8,0:0:0:0:
224,192,142656,1,0,0:0:0:0:
224,192,142728,1,0,0:0:0:0:
224,192,142799,1,8,0:0:0:0:
224,192,142942,1,4,0:0:0:0:
224,192,143228,1,0,0:0:0:0:
224,192,143370,1,8,0:0:0:0:
224,192,143656,1,0,0:0:0:0:
224,192,143799,1,0,0:0:0:0:
224,192,143942,1,8,0:0:0:0:
224,160,144085,1,0,0:0:0:0:
224,192,144228,1,8,0:0:0:0:
224,192,144513,1,8,0:0:0:0:
224,192,144799,1,0,0:0:0:0:
224,192,144942,1,0,0:0:0:0:
224,192,145013,1,0,0:0:0:0:
224,192,145085,1,8,0:0:0:0:
224,192,145228,1,0,0:0:0:0:
224,192,145513,1,0,0:0:0:0:
224,192,145656,1,8,0:0:0:0:
224,192,145942,1,0,0:0:0:0:
224,192,146085,1,0,0:0:0:0:
224,192,146228,1,8,0:0:0:0:
224,192,146370,1,0,0:0:0:0:
224,192,146656,1,0,0:0:0:0:
224,192,146799,1,8,0:0:0:0:
224,192,146942,1,0,0:0:0:0:
224,192,147085,1,8,0:0:0:0:
224,192,147156,1,8,0:0:0:0:
224,192,147228,1,0,0:0:0:0:
224,192,147299,1,0,0:0:0:0:
224,192,147370,5,8,0:0:0:0:
256,192,147513,1,4,0:0:0:0:
224,192,147799,5,0,0:0:0:0:
256,192,147942,5,8,0:0:0:0:
256,192,148228,1,0,0:0:0:0:
256,192,148370,1,8,0:0:0:0:
256,192,148513,1,8,0:0:0:0:
256,192,148656,1,0,0:0:0:0:
256,192,148942,1,0,0:0:0:0:
256,192,149085,1,8,0:0:0:0:
256,192,149228,1,0,0:0:0:0:
256,192,149299,1,0,0:0:0:0:
256,192,149370,1,8,0:0:0:0:
224,192,149513,1,0,0:0:0:0:
256,192,149656,1,8,0:0:0:0:
256,192,149799,1,0,0:0:0:0:
256,192,150085,1,0,0:0:0:0:
256,192,150228,1,8,0:0:0:0:
256,192,150513,1,0,0:0:0:0:
256,192,150656,1,0,0:0:0:0:
256,192,150799,1,8,0:0:0:0:
256,192,150942,1,0,0:0:0:0:
256,192,151013,1,0,0:0:0:0:
256,192,151085,1,0,0:0:0:0:
256,192,151228,1,0,0:0:0:0:
256,192,151370,1,8,0:0:0:0:
256,192,151513,1,0,0:0:0:0:
256,192,151656,1,0,0:0:0:0:
256,192,151799,1,8,0:0:0:0:
256,192,151870,1,8,0:0:0:0:
256,192,151942,1,8,0:0:0:0:
256,192,152085,1,4,0:0:0:0:
256,192,152370,1,0,0:0:0:0:
256,192,152513,1,8,0:0:0:0:
256,192,152799,1,0,0:0:0:0:
256,192,152942,1,8,0:0:0:0:
256,192,153085,1,8,0:0:0:0:
256,192,153228,1,0,0:0:0:0:
256,192,153513,1,0,0:0:0:0:
256,192,153656,1,8,0:0:0:0:
256,192,153799,1,0,0:0:0:0:
256,192,153870,1,0,0:0:0:0:
256,192,153942,1,8,0:0:0:0:
256,192,154085,1,0,0:0:0:0:
256,192,154228,1,8,0:0:0:0:
256,192,154370,1,0,0:0:0:0:
256,192,154656,1,0,0:0:0:0:
256,192,154799,1,8,0:0:0:0:
256,192,155085,1,0,0:0:0:0:
256,192,155228,1,0,0:0:0:0:
256,192,155370,1,8,0:0:0:0:
256,192,155513,1,0,0:0:0:0:
256,192,155585,1,0,0:0:0:0:
256,192,155656,1,0,0:0:0:0:
256,192,155799,1,0,0:0:0:0:
256,192,155942,1,8,0:0:0:0:
256,192,156085,1,0,0:0:0:0:
256,192,156228,1,8,0:0:0:0:
256,192,156299,1,8,0:0:0:0:
256,192,156370,1,0,0:0:0:0:
256,192,156442,1,0,0:0:0:0:
256,192,156513,1,8,0:0:0:0:
256,192,156656,1,4,0:0:0:0:
256,192,156942,1,0,0:0:0:0:
256,192,157085,1,8,0:0:0:0:
256,192,157228,1,8,0:0:0:0:
256,192,157299,1,0,0:0:0:0:
256,192,157370,1,8,0:0:0:0:
256,192,157442,1,8,0:0:0:0:
256,192,157513,1,0,0:0:0:0:
256,192,157656,1,8,0:0:0:0:
256,192,157799,1,0,0:0:0:0:
256,192,158085,1,0,0:0:0:0:
256,192,158228,1,8,0:0:0:0:
256,192,158370,1,0,0:0:0:0:
256,192,158442,1,0,0:0:0:0:
256,192,158513,1,8,0:0:0:0:
256,192,158585,1,8,0:0:0:0:
256,192,158656,1,0,0:0:0:0:
256,192,158799,1,8,0:0:0:0:
256,192,158942,1,0,0:0:0:0:
256,192,159228,1,0,0:0:0:0:
256,192,159370,1,8,0:0:0:0:
256,192,159513,1,0,0:0:0:0:
256,192,159585,1,0,0:0:0:0:
256,192,159656,1,0,0:0:0:0:
256,192,159799,1,0,0:0:0:0:
256,192,159942,1,8,0:0:0:0:
256,192,160085,1,0,0:0:0:0:
256,192,160370,1,0,0:0:0:0:
256,192,160513,1,8,0:0:0:0:
256,192,160656,1,0,0:0:0:0:
256,192,160799,1,0,0:0:0:0:
256,192,160942,1,8,0:0:0:0:
256,192,161013,1,8,0:0:0:0:
256,192,161085,1,8,0:0:0:0:
256,192,161228,1,4,0:0:0:0:
256,192,161513,1,0,0:0:0:0:
256,192,161656,1,8,0:0:0:0:
224,192,161799,1,8,0:0:0:0:
256,192,161942,1,0,0:0:0:0:
256,192,162085,1,0,0:0:0:0:
256,192,162228,1,8,0:0:0:0:
256,192,162370,1,0,0:0:0:0:
256,192,162656,1,0,0:0:0:0:
256,192,162799,1,8,0:0:0:0:
256,192,162942,1,0,0:0:0:0:
256,192,163013,1,0,0:0:0:0:
256,192,163085,1,8,0:0:0:0:
256,192,163228,1,0,0:0:0:0:
256,192,163370,1,8,0:0:0:0:
256,192,163513,1,0,0:0:0:0:
256,192,163799,1,0,0:0:0:0:
256,192,163942,1,8,0:0:0:0:
256,192,164085,1,0,0:0:0:0:
256,192,164156,1,0,0:0:0:0:
256,192,164228,1,0,0:0:0:0:
256,160,164370,1,0,0:0:0:0:
256,160,164513,1,8,0:0:0:0:
256,192,164656,1,0,0:0:0:0:
256,192,164728,1,0,0:0:0:0:
256,192,164799,1,8,0:0:0:0:
256,192,164942,1,0,0:0:0:0:
236,128,165085,1,8,0:0:0:0:
225,95,165156,1,8,0:0:0:0:
256,192,165228,1,0,0:0:0:0:
251,176,165299,1,0,0:0:0:0:
256,192,165370,1,8,0:0:0:0:
256,192,165513,1,0,0:0:0:0:
256,192,165585,1,0,0:0:0:0:
256,192,165656,1,8,0:0:0:0:
256,192,165799,1,4,0:0:0:0:
256,192,166085,1,0,0:0:0:0:
256,192,166228,1,8,0:0:0:0:
256,192,166370,1,0,0:0:0:0:
256,192,166513,1,0,0:0:0:0:
128,192,166799,1,8,0:0:0:0:
128,192,166942,1,0,0:0:0:0:
224,192,167228,1,0,0:0:0:0:
224,192,167370,1,8,0:0:0:0:
224,192,167513,1,0,0:0:0:0:
224,192,167656,1,0,0:0:0:0:
224,192,167942,1,8,0:0:0:0:
224,192,168085,1,8,0:0:0:0:
224,192,168228,1,0,0:0:0:0:
224,192,168370,1,0,0:0:0:0:
224,192,168513,1,8,0:0:0:0:
224,192,168656,1,0,0:0:0:0:
224,192,168728,1,0,0:0:0:0:
224,192,168799,1,8,0:0:0:0:
224,192,168942,1,0,0:0:0:0:
224,192,169085,1,8,0:0:0:0:
224,192,169228,1,0,0:0:0:0:
224,192,169513,1,0,0:0:0:0:
224,192,169656,1,8,0:0:0:0:
224,192,169799,1,0,0:0:0:0:
224,192,169942,1,0,0:0:0:0:
256,192,170013,1,0,0:0:0:0:
224,192,170085,1,0,0:0:0:0:
224,192,170228,1,8,0:0:0:0:
224,192,170370,1,4,0:0:0:0:
224,192,170656,1,0,0:0:0:0:
224,192,170799,1,8,0:0:0:0:
224,192,171085,1,0,0:0:0:0:
224,192,171228,1,8,0:0:0:0:
224,192,171370,1,8,0:0:0:0:
224,192,171513,1,0,0:0:0:0:
224,192,171799,1,0,0:0:0:0:
224,192,171942,1,8,0:0:0:0:
224,192,172085,1,8,0:0:0:0:
224,192,172156,1,0,0:0:0:0:
224,192,172228,1,8,0:0:0:0:
224,192,172370,1,0,0:0:0:0:
224,192,172513,1,8,0:0:0:0:
224,192,172656,1,0,0:0:0:0:
224,192,172942,1,0,0:0:0:0:
224,192,173085,1,8,0:0:0:0:
224,192,173370,1,0,0:0:0:0:
224,192,173513,1,0,0:0:0:0:
224,192,173656,1,8,0:0:0:0:
224,192,173799,1,0,0:0:0:0:
224,192,174085,1,0,0:0:0:0:
224,192,174228,1,8,0:0:0:0:
224,192,174370,1,0,0:0:0:0:
224,192,174513,1,8,0:0:0:0:
224,192,174585,1,8,0:0:0:0:
224,192,174656,1,8,0:0:0:0:
224,192,174799,1,8,0:0:0:0:
224,192,174942,1,4,0:0:0:0:
256,192,175228,1,0,0:0:0:0:
256,192,175370,1,8,0:0:0:0:
256,192,175513,1,0,0:0:0:0:
256,192,175656,1,8,0:0:0:0:
128,192,175942,1,8,0:0:0:0:
128,192,176085,1,0,0:0:0:0:
224,192,176370,1,0,0:0:0:0:
224,192,176513,1,8,0:0:0:0:
224,192,176656,1,0,0:0:0:0:
224,192,176799,1,0,0:0:0:0:
224,192,177085,1,8,0:0:0:0:
224,192,177228,1,8,0:0:0:0:
224,192,177513,1,0,0:0:0:0:
224,192,177656,1,8,0:0:0:0:
224,192,177799,1,0,0:0:0:0:
224,192,177942,1,8,0:0:0:0:
224,192,178228,1,8,0:0:0:0:
224,192,178370,1,0,0:0:0:0:
182,168,178513,1,0,0:0:0:0:
224,192,178656,1,0,0:0:0:0:
224,192,178728,1,0,0:0:0:0:
224,192,178799,1,8,0:0:0:0:
224,192,178942,1,0,0:0:0:0:
224,192,179085,1,8,0:0:0:0:
224,192,179228,1,8,0:0:0:0:
224,192,179513,1,4,0:0:0:0:
224,192,179799,1,0,0:0:0:0:
224,192,179942,1,8,0:0:0:0:
224,192,180228,1,8,0:0:0:0:
224,192,180370,1,8,0:0:0:0:
224,192,180513,1,0,0:0:0:0:
224,192,180656,1,12,0:0:0:0:
224,192,180942,1,0,0:0:0:0:
224,192,181085,1,8,0:0:0:0:
224,192,181370,1,0,0:0:0:0:
224,192,181513,1,0,0:0:0:0:
224,192,181656,1,8,0:0:0:0:
224,192,181799,1,4,0:0:0:0:
224,192,182085,1,0,0:0:0:0:
224,192,182228,1,8,0:0:0:0:
224,192,182370,1,0,0:0:0:0:
224,192,182442,1,0,0:0:0:0:
224,192,182513,1,8,0:0:0:0:
224,192,182656,1,0,0:0:0:0:
224,192,182799,1,8,0:0:0:0:
224,192,182942,1,8,0:0:0:0:
224,192,183013,1,8,0:0:0:0:
224,192,183085,1,8,0:0:0:0:
224,192,183228,1,0,0:0:0:0:
215,154,183299,1,0,0:0:0:0:
224,192,183370,1,8,0:0:0:0:
224,192,183442,1,8,0:0:0:0:
224,192,183513,1,0,0:0:0:0:
224,192,183585,1,0,0:0:0:0:
224,192,183656,1,8,0:0:0:0:
224,192,185228,1,4,0:0:0:0:
224,192,185513,1,0,0:0:0:0:
224,192,185656,1,8,0:0:0:0:
224,192,185799,1,0,0:0:0:0:
224,192,185870,1,0,0:0:0:0:
224,192,185942,1,8,0:0:0:0:
224,192,186085,1,0,0:0:0:0:
224,192,186228,1,8,0:0:0:0:
224,192,186370,1,0,0:0:0:0:
224,192,186656,1,0,0:0:0:0:
224,192,186799,1,8,0:0:0:0:
224,192,186942,1,8,0:0:0:0:
224,192,187013,1,0,0:0:0:0:
224,192,187085,1,8,0:0:0:0:
224,192,187228,1,0,0:0:0:0:
224,192,187370,1,8,0:0:0:0:
224,192,187513,1,8,0:0:0:0:
224,192,187799,1,0,0:0:0:0:
224,192,187870,1,0,0:0:0:0:
224,192,187942,1,8,0:0:0:0:
224,192,188085,1,0,0:0:0:0:
224,192,188228,1,8,0:0:0:0:
224,192,188299,1,0,0:0:0:0:
224,192,188370,1,0,0:0:0:0:
226,171,188442,1,0,0:0:0:0:
224,192,188513,1,8,0:0:0:0:
224,192,188656,1,0,0:0:0:0:
224,192,188942,1,0,0:0:0:0:
224,192,189085,1,8,0:0:0:0:
224,192,189228,1,0,0:0:0:0:
224,192,189370,1,8,0:0:0:0:
224,192,189442,1,8,0:0:0:0:
224,192,189513,1,0,0:0:0:0:
224,192,189656,1,8,0:0:0:0:
224,192,189799,1,4,0:0:0:0:
224,192,190085,1,0,0:0:0:0:
224,192,190228,1,8,0:0:0:0:
224,192,190513,1,0,0:0:0:0:
224,192,190656,1,0,0:0:0:0:
224,192,190799,1,8,0:0:0:0:
224,192,190942,1,0,0:0:0:0:
224,192,191228,1,0,0:0:0:0:
224,192,191370,1,8,0:0:0:0:
224,192,191656,1,8,0:0:0:0:
224,192,191799,1,0,0:0:0:0:
224,192,191942,1,8,0:0:0:0:
224,192,192085,1,8,0:0:0:0:
224,192,192156,1,8,0:0:0:0:
224,192,192228,1,0,0:0:0:0:
224,192,192370,1,0,0:0:0:0:
224,192,192513,1,8,0:0:0:0:
224,192,192656,1,0,0:0:0:0:
224,192,192799,1,8,0:0:0:0:
224,192,192942,1,8,0:0:0:0:
224,192,193228,1,0,0:0:0:0:
224,192,193513,1,0,0:0:0:0:
224,192,193656,1,8,0:0:0:0:
224,192,193799,1,0,0:0:0:0:
224,192,193870,1,0,0:0:0:0:
224,192,193942,1,0,0:0:0:0:
224,192,194085,1,0,0:0:0:0:
224,192,194228,1,8,0:0:0:0:
224,192,194370,1,4,0:0:0:0:
224,192,194656,1,0,0:0:0:0:
224,192,194799,1,8,0:0:0:0:
224,192,194942,1,0,0:0:0:0:
224,192,195085,1,0,0:0:0:0:
224,192,195156,1,8,0:0:0:0:
224,192,195228,1,0,0:0:0:0:
224,192,195370,1,8,0:0:0:0:
224,192,195513,1,0,0:0:0:0:
224,192,195799,1,0,0:0:0:0:
224,192,195942,1,8,0:0:0:0:
224,192,196085,1,0,0:0:0:0:
224,192,196228,1,8,0:0:0:0:
224,192,196299,1,8,0:0:0:0:
224,192,196370,1,0,0:0:0:0:
224,192,196513,1,8,0:0:0:0:
224,192,196656,1,0,0:0:0:0:
224,192,196942,1,0,0:0:0:0:
224,192,197013,1,0,0:0:0:0:
224,192,197085,1,8,0:0:0:0:
224,192,197228,1,0,0:0:0:0:
224,192,197370,1,8,0:0:0:0:
196,163,197442,1,0,0:0:0:0:
224,192,197513,1,8,0:0:0:0:
210,166,197585,1,8,0:0:0:0:
224,192,197656,1,8,0:0:0:0:
224,192,197799,1,0,0:0:0:0:
224,192,198085,1,0,0:0:0:0:
224,192,198228,1,8,0:0:0:0:
224,192,198513,1,8,0:0:0:0:
224,192,198656,1,0,0:0:0:0:
224,192,198728,1,0,0:0:0:0:
224,192,198799,1,8,0:0:0:0:
224,192,198942,1,4,0:0:0:0:
224,192,199228,1,0,0:0:0:0:
224,192,199370,1,8,0:0:0:0:
224,192,199656,1,0,0:0:0:0:
224,192,199799,1,0,0:0:0:0:
224,192,199942,1,8,0:0:0:0:
224,160,200085,1,0,0:0:0:0:
224,192,200156,1,0,0:0:0:0:
224,192,200228,1,8,0:0:0:0:
224,192,200370,1,0,0:0:0:0:
224,192,200513,1,8,0:0:0:0:
224,192,200799,1,0,0:0:0:0:
224,192,200942,1,0,0:0:0:0:
224,192,201013,1,0,0:0:0:0:
224,192,201085,1,8,0:0:0:0:
224,192,201228,1,0,0:0:0:0:
224,192,201513,1,0,0:0:0:0:
224,192,201656,1,8,0:0:0:0:
224,192,201942,1,0,0:0:0:0:
224,192,202085,1,0,0:0:0:0:
224,192,202228,1,8,0:0:0:0:
224,192,202370,1,0,0:0:0:0:
224,192,202656,1,0,0:0:0:0:
224,192,202799,1,8,0:0:0:0:
224,192,202942,1,0,0:0:0:0:
224,192,203085,1,8,0:0:0:0:
224,192,203156,1,8,0:0:0:0:
224,192,203228,1,0,0:0:0:0:
224,192,203299,1,0,0:0:0:0:
224,192,203370,5,8,0:0:0:0:
256,192,203513,1,4,0:0:0:0:
224,192,203799,5,0,0:0:0:0:
224,192,203942,1,8,0:0:0:0:
224,192,204013,1,8,0:0:0:0:
224,192,204085,1,0,0:0:0:0:
224,192,204228,1,8,0:0:0:0:
224,192,204370,1,0,0:0:0:0:
224,192,204513,1,8,0:0:0:0:
224,192,204585,1,8,0:0:0:0:
224,192,204656,1,0,0:0:0:0:
224,192,204728,1,0,0:0:0:0:
224,192,204799,1,8,0:0:0:0:
224,192,204942,1,0,0:0:0:0:
224,192,205085,1,8,0:0:0:0:
224,192,205228,1,0,0:0:0:0:
224,192,205370,1,8,0:0:0:0:
224,183,205442,1,8,0:0:0:0:
224,192,205513,1,8,0:0:0:0:
224,192,205585,1,8,0:0:0:0:
224,192,205656,1,8,0:0:0:0:
256,192,205799,1,4,0:0:0:0:
256,192,206085,1,0,0:0:0:0:
256,192,206228,1,8,0:0:0:0:
256,192,206513,1,0,0:0:0:0:
256,192,206656,1,0,0:0:0:0:
256,192,206799,1,8,0:0:0:0:
256,192,206942,1,0,0:0:0:0:
256,192,207228,1,0,0:0:0:0:
256,192,207370,1,8,0:0:0:0:
256,192,207513,1,0,0:0:0:0:
256,192,207585,1,0,0:0:0:0:
256,192,207656,1,0,0:0:0:0:
256,192,207799,1,0,0:0:0:0:
256,192,207942,1,8,0:0:0:0:
256,192,208085,1,0,0:0:0:0:
256,192,208370,1,0,0:0:0:0:
256,192,208513,1,8,0:0:0:0:
256,192,208799,1,0,0:0:0:0:
256,192,208942,1,0,0:0:0:0:
256,192,209085,1,8,0:0:0:0:
256,192,209228,1,0,0:0:0:0:
256,192,209513,1,0,0:0:0:0:
256,192,209656,1,8,0:0:0:0:
256,192,209799,1,0,0:0:0:0:
256,192,209942,1,0,0:0:0:0:
256,192,210085,1,8,0:0:0:0:
256,192,210156,1,8,0:0:0:0:
256,192,210228,1,8,0:0:0:0:
256,192,210370,1,4,0:0:0:0:
256,192,210656,1,0,0:0:0:0:
256,192,210799,1,8,0:0:0:0:
256,192,211085,1,0,0:0:0:0:
256,192,211228,1,0,0:0:0:0:
256,192,211370,1,8,0:0:0:0:
256,192,211513,1,0,0:0:0:0:
256,192,211799,1,0,0:0:0:0:
256,192,211942,1,8,0:0:0:0:
256,192,212085,1,0,0:0:0:0:
256,192,212156,1,0,0:0:0:0:
256,192,212228,1,8,0:0:0:0:
256,192,212370,1,0,0:0:0:0:
256,192,212513,1,8,0:0:0:0:
256,192,212656,1,0,0:0:0:0:
256,192,212942,1,0,0:0:0:0:
256,192,213085,1,8,0:0:0:0:
256,192,213370,1,0,0:0:0:0:
256,192,213513,1,0,0:0:0:0:
256,192,213656,1,8,0:0:0:0:
256,192,213799,1,8,0:0:0:0:
256,192,214085,1,0,0:0:0:0:
256,192,214228,1,8,0:0:0:0:
256,192,214370,1,0,0:0:0:0:
256,192,214513,1,8,0:0:0:0:
256,192,214585,1,8,0:0:0:0:
256,192,214656,1,0,0:0:0:0:
256,192,214728,1,0,0:0:0:0:
256,192,214799,1,8,0:0:0:0:
256,192,214942,1,4,0:0:0:0:
256,192,215228,1,0,0:0:0:0:
256,192,215370,1,8,0:0:0:0:
256,192,215656,1,0,0:0:0:0:
256,192,215799,1,0,0:0:0:0:
256,192,215942,1,8,0:0:0:0:
256,192,216085,1,0,0:0:0:0:
256,192,216370,1,0,0:0:0:0:
256,192,216513,1,8,0:0:0:0:
256,192,216656,1,0,0:0:0:0:
256,192,216728,1,0,0:0:0:0:
256,192,216799,1,8,0:0:0:0:
256,192,216870,1,8,0:0:0:0:
256,192,216942,1,0,0:0:0:0:
256,192,217085,1,8,0:0:0:0:
256,192,217228,1,0,0:0:0:0:
256,192,217513,1,0,0:0:0:0:
256,192,217656,1,8,0:0:0:0:
256,192,217942,1,0,0:0:0:0:
256,192,218085,1,0,0:0:0:0:
256,192,218228,1,8,0:0:0:0:
256,192,218370,1,0,0:0:0:0:
256,192,218656,1,0,0:0:0:0:
256,192,218799,1,8,0:0:0:0:
256,192,218942,1,0,0:0:0:0:
256,192,219085,1,0,0:0:0:0:
256,192,219228,1,8,0:0:0:0:
256,192,219299,1,8,0:0:0:0:
256,192,219370,1,8,0:0:0:0:
256,192,219513,1,4,0:0:0:0:
256,192,219799,1,0,0:0:0:0:
256,192,219942,1,8,0:0:0:0:
256,192,220228,1,0,0:0:0:0:
256,192,220370,1,0,0:0:0:0:
256,192,220513,1,8,0:0:0:0:
256,192,220656,1,0,0:0:0:0:
256,192,220942,1,0,0:0:0:0:
256,192,221085,1,8,0:0:0:0:
256,192,221228,1,0,0:0:0:0:
256,192,221299,1,0,0:0:0:0:
256,192,221370,1,0,0:0:0:0:
256,192,221513,1,0,0:0:0:0:
256,192,221656,5,8,0:0:0:0:
256,192,221799,1,4,0:0:0:0:
256,192,222085,1,0,0:0:0:0:
256,192,222228,1,8,0:0:0:0:
256,192,222370,1,8,0:0:0:0:
256,192,222513,1,0,0:0:0:0:
256,192,222656,1,0,0:0:0:0:
256,192,222799,1,8,0:0:0:0:
256,192,222942,1,8,0:0:0:0:
256,192,223228,1,8,0:0:0:0:
256,192,223370,1,8,0:0:0:0:
256,192,223513,1,0,0:0:0:0:
256,192,223585,1,0,0:0:0:0:
256,192,223656,1,8,0:0:0:0:
256,192,223728,1,8,0:0:0:0:
256,192,223799,1,0,0:0:0:0:
256,192,223870,1,0,0:0:0:0:
256,192,223942,1,8,0:0:0:0:
