osu file format v14

[General]
AudioFilename: audio.mp3
AudioLeadIn: 0
PreviewTime: 56069
Countdown: 0
SampleSet: Normal
StackLeniency: 0.3
Mode: 0
LetterboxInBreaks: 0
WidescreenStoryboard: 1

[Editor]
DistanceSpacing: 0.5
BeatDivisor: 4
GridSize: 4
TimelineZoom: 2.3

[Metadata]
Title:Streaming Heart
TitleUnicode:ストリーミングハート
Artist:Ayaponzu*
ArtistUnicode:あやぽんず*
Creator:Lasse
Version:toybot's Extra
Source:
Tags:deco*27 deco27 cover utaite pon'po drop toybot karen chromoxx
BeatmapID:1175755
BeatmapSetID:552702

[Difficulty]
HPDrainRate:6
CircleSize:4.2
OverallDifficulty:8
ApproachRate:9.2
SliderMultiplier:1.7
SliderTickRate:1

[Events]
//Background and Video events
0,0,"bg.jpg",0,0
//Break Periods
2,74983,83356
//Storyboard Layer 0 (Background)
//Storyboard Layer 1 (Fail)
//Storyboard Layer 2 (Pass)
//Storyboard Layer 3 (Foreground)
//Storyboard Sound Samples

[TimingPoints]
498,285.714285714286,4,2,1,55,1,0
498,-133.333333333333,4,2,1,55,0,0
9640,-100,4,2,1,70,0,0
11498,-80,4,2,1,70,0,0
11926,-100,4,2,1,70,0,0
13783,-80,4,2,1,70,0,0
14212,-100,4,2,1,70,0,0
16069,-80,4,2,1,70,0,0
16498,-100,4,2,1,70,0,0
18355,-80,4,2,1,70,0,0
18783,-100,4,2,1,70,0,0
20640,-80,4,2,1,70,0,0
21069,-100,4,2,1,70,0,0
22926,-80,4,2,1,70,0,0
23355,-100,4,2,1,70,0,0
25212,-80,4,2,1,70,0,0
25640,-100,4,2,1,70,0,0
27498,-80,4,2,1,70,0,0
27640,-80,4,2,2,70,0,0
27926,-133.333333333333,4,2,1,40,0,0
28212,-133.333333333333,4,2,1,5,0,0
28307,-125,4,2,1,40,0,0
28498,-100,4,2,1,44,0,0
28688,-100,4,2,1,48,0,0
28878,-100,4,2,1,52,0,0
29069,-111.111111111111,4,2,1,58,0,0
32640,-100,4,2,1,58,0,0
32926,-100,4,2,1,58,0,0
33640,-111.111111111111,4,2,1,58,0,0
37069,-111.111111111111,4,2,1,60,0,0
37498,-111.111111111111,4,2,1,62,0,0
38069,-111.111111111111,4,2,1,64,0,0
38212,-111.111111111111,4,1,1,65,0,0
47355,-166.666666666667,4,2,1,50,0,0
51926,-166.666666666667,4,2,1,55,0,0
53283,-166.666666666667,4,2,99,5,0,0
53355,-166.666666666667,4,2,1,55,0,0
54212,-200,4,2,1,60,0,0
54498,-142.857142857143,4,2,1,60,0,0
54783,-111.111111111111,4,2,1,60,0,0
55069,-76.9230769230769,4,2,1,60,0,0
55283,-76.9230769230769,4,2,99,5,0,0
55355,-76.9230769230769,4,2,1,60,0,0
55426,-76.9230769230769,4,2,1,61,0,0
55498,-76.9230769230769,4,2,1,62,0,0
55569,-76.9230769230769,4,2,1,63,0,0
55640,-76.9230769230769,4,2,1,65,0,0
55712,-76.9230769230769,4,2,1,67,0,0
55783,-76.9230769230769,4,2,1,70,0,0
55855,-76.9230769230769,4,2,1,73,0,0
55926,-153.846153846154,4,2,1,67,0,0
55998,-153.846153846154,4,2,98,20,0,0
56426,-153.846153846154,4,2,99,5,0,0
56498,-90.9090909090909,4,1,33,75,0,1
56783,-90.9090909090909,4,1,1,75,0,1
57926,-90.9090909090909,4,1,1,75,0,1
62498,-90.9090909090909,4,1,1,75,0,1
63355,-90.9090909090909,4,1,1,78,0,1
64355,-133.333333333333,4,1,1,78,0,1
64498,-133.333333333333,4,2,1,65,0,0
64712,-133.333333333333,4,2,99,5,0,0
64783,-133.333333333333,4,2,1,30,0,0
64926,-133.333333333333,4,2,1,50,0,0
65069,-90.9090909090909,4,2,1,63,0,0
65140,-90.9090909090909,4,2,1,64,0,0
65212,-90.9090909090909,4,2,1,65,0,0
65283,-90.9090909090909,4,2,1,66,0,0
65354,-90.9090909090909,4,2,2,68,0,0
65426,-90.9090909090909,4,2,2,70,0,0
65497,-90.9090909090909,4,2,2,72,0,0
65569,-90.9090909090909,4,2,2,74,0,0
65640,-90.9090909090909,4,1,1,77,0,1
66926,-66.6666666666667,4,1,1,77,0,1
67926,-90.9090909090909,4,1,1,77,0,1
69212,-66.6666666666667,4,1,1,77,0,1
70212,-90.9090909090909,4,1,1,77,0,1
71498,-66.6666666666667,4,1,1,77,0,1
72498,-90.9090909090909,4,1,1,80,0,1
73783,-66.6666666666667,4,1,1,78,0,1
73926,-66.6666666666667,4,2,2,78,0,1
74069,-90.9090909090909,4,2,2,75,0,1
74355,-90.9090909090909,4,2,2,72,0,1
74498,-90.9090909090909,4,2,2,70,0,1
74640,-90.9090909090909,4,2,2,68,0,1
74783,-90.9090909090909,4,2,1,66,0,0
74926,-90.9090909090909,4,2,1,60,0,0
83926,-111.111111111111,4,2,44,50,0,0
91640,-66.6666666666667,4,2,44,53,0,0
91855,-90.9090909090909,4,2,99,5,0,0
91926,-90.9090909090909,4,2,1,56,0,0
92212,-90.9090909090909,4,2,2,59,0,0
92283,-90.9090909090909,4,2,2,61,0,0
92355,-90.9090909090909,4,2,2,63,0,0
92426,-90.9090909090909,4,2,2,65,0,0
92498,-90.9090909090909,4,2,2,67,0,0
92569,-90.9090909090909,4,2,2,69,0,0
92640,-133.333333333333,4,2,1,71,0,0
92712,-133.333333333333,4,2,98,20,0,0
92998,-133.333333333333,4,2,99,5,0,0
93069,-100,4,1,1,65,0,0
102212,-133.333333333333,4,2,1,70,0,0
102283,-133.333333333333,4,2,1,55,0,0
102498,-133.333333333333,4,2,44,55,0,0
104212,-133.333333333333,4,2,44,55,0,0
110355,-133.333333333333,4,2,1,45,0,0
110498,-133.333333333333,4,2,44,50,0,0
110640,-133.333333333333,4,2,1,40,0,0
110926,-133.333333333333,4,2,1,35,0,0
111069,-133.333333333333,4,2,44,55,0,0
111212,-111.111111111111,4,2,44,62,0,0
111355,-111.111111111111,4,2,55,70,0,0
119355,-100,4,2,55,70,0,0
119926,-133.333333333333,4,2,1,60,0,0
119998,-133.333333333333,4,2,1,10,0,0
120355,-133.333333333333,4,2,99,10,0,0
120498,-200,4,2,1,50,0,0
125069,-200,4,2,1,57,0,0
126426,-200,4,2,99,5,0,0
126498,-200,4,2,1,57,0,0
127355,-200,4,2,1,60,0,0
127640,-133.333333333333,4,2,1,60,0,0
127926,-100,4,2,1,60,0,0
128212,-80,4,2,1,60,0,0
128426,-100,4,2,99,5,0,0
128498,-100,4,2,1,64,0,0
128569,-100,4,2,1,65,0,0
128641,-100,4,2,1,66,0,0
128712,-100,4,2,1,67,0,0
128783,-100,4,2,1,70,0,0
128855,-100,4,2,1,72,0,0
128926,-100,4,2,1,74,0,0
128998,-100,4,2,1,76,0,0
129069,-100,4,2,1,78,0,0
130498,-66.6666666666667,4,1,33,75,0,0
130712,-66.6666666666667,4,2,99,5,0,0
130783,-90.9090909090909,4,1,33,77,0,1
131069,-90.9090909090909,4,1,1,77,0,1
132212,-90.9090909090909,4,1,1,77,0,1
136783,-90.9090909090909,4,1,1,77,0,1
137640,-90.9090909090909,4,1,1,78,0,1
138498,-90.9090909090909,4,1,1,80,0,1
138640,-90.9090909090909,4,2,1,60,0,0
139069,-90.9090909090909,4,2,1,50,0,0
139355,-133.333333333333,4,2,1,53,0,0
139569,-133.333333333333,4,2,99,5,0,0
139640,-66.6666666666667,4,2,1,56,0,0
139855,-66.6666666666667,4,2,99,5,0,0
139926,-83.3333333333333,4,1,1,82,0,1
145926,-83.3333333333333,4,1,1,82,0,1
146498,-83.3333333333333,4,1,1,83,0,1
147069,-83.3333333333333,4,1,1,84,0,1
147640,-83.3333333333333,4,1,1,85,0,1
147926,-83.3333333333333,4,1,1,75,0,1
148212,-83.3333333333333,4,1,1,78,0,1
148498,-83.3333333333333,4,2,2,80,0,1
148783,-83.3333333333333,4,2,2,83,0,1
149069,-133.333333333333,4,1,33,50,0,0
149283,-133.333333333333,4,2,99,5,0,0
149355,-90.9090909090909,4,1,1,78,0,1
150355,-66.6666666666667,4,1,1,78,0,1
151355,-90.9090909090909,4,1,1,78,0,1
152640,-66.6666666666667,4,1,1,78,0,1
153640,-90.9090909090909,4,1,1,78,0,1
154926,-66.6666666666667,4,1,1,78,0,1
155926,-90.9090909090909,4,1,1,78,0,1
157212,-66.6666666666667,4,1,1,78,0,1
157926,-66.6666666666667,4,1,1,70,0,0
158212,-90.9090909090909,4,1,1,80,0,1
162498,-90.9090909090909,4,1,1,72,0,1
162783,-90.9090909090909,4,1,1,82,0,1
165069,-90.9090909090909,4,1,1,84,0,1
166212,-90.9090909090909,4,1,2,82,0,1
166783,-90.9090909090909,4,1,1,80,0,1
166926,-90.9090909090909,4,1,1,78,0,1
167069,-90.9090909090909,4,1,1,76,0,1
167212,-90.9090909090909,4,1,1,74,0,1
167355,-133.333333333333,4,1,1,55,0,0
167640,-133.333333333333,4,2,1,50,0,0
169640,-133.333333333333,4,2,1,48,0,0
171926,-133.333333333333,4,2,1,46,0,0
174212,-133.333333333333,4,2,1,44,0,0
176498,-133.333333333333,4,2,1,42,0,0

[Colours]
Combo1 : 20,231,152
Combo2 : 26,221,242
Combo3 : 255,51,122
Combo4 : 130,138,198

[HitObjects]
92,190,498,5,0,1:2:0:0:
92,190,783,2,0,L|84:122,1,63.7500024318696,0|0,1:2|0:2,0:0:0:0:
188,150,1069,2,0,L|208:10,1,127.500004863739,0|0,1:2|1:2,0:0:0:0:
269,215,1498,2,0,L|295:151,1,63.7500024318696,2|0,0:2|1:2,0:0:0:0:
80,198,1783,6,0,L|66:130,1,63.7500024318696,0|0,0:2|1:2,0:0:0:0:
276,227,2069,2,0,L|308:166,1,63.7500024318696,2|0,0:2|1:2,0:0:0:0:
168,275,2355,1,0,0:2:0:0:
188,150,2498,2,0,L|200:66,1,63.7500024318696,0|2,1:2|0:2,0:0:0:0:
168,275,2783,5,0,1:2:0:0:
168,275,3069,2,0,L|158:338,1,63.7500024318696,0|0,1:2|0:2,0:0:0:0:
276,227,3355,2,0,L|296:355,1,127.500004863739,0|0,1:2|1:2,0:0:0:0:
394,240,3783,2,0,L|422:297,1,63.7500024318696,2|0,0:2|1:2,0:0:0:0:
156,262,4069,6,0,L|139:323,1,63.7500024318696,0|0,0:2|1:2,0:0:0:0:
401,222,4355,2,0,L|435:275,1,63.7500024318696,2|0,0:2|1:2,0:0:0:0:
264,144,4640,1,0,0:2:0:0:
276,227,4783,1,0,1:2:0:0:
288,310,4926,1,2,0:2:0:0:
264,144,5069,5,0,1:2:0:0:
264,144,5355,2,0,P|247:117|244:85,1,63.7500024318696,0|0,1:2|0:2,0:0:0:0:
276,227,5640,2,0,P|222:219|180:146,1,127.500004863739,0|0,1:2|1:2,0:0:0:0:
353,257,6069,2,0,P|337:284|312:303,1,63.7500024318696,2|0,0:2|1:2,0:0:0:0:
417,205,6355,6,0,P|433:231|436:263,1,63.7500024318696,0|0,0:2|1:2,0:0:0:0:
406,123,6640,2,0,P|460:131|502:204,1,127.500004863739,2|0,0:2|0:2,0:0:0:0:
328,93,7069,2,0,P|343:65|368:46,1,63.7500024318696,0|2,1:2|0:2,0:0:0:0:
342,176,7355,5,0,1:2:0:0:
342,176,8498,1,4,3:0:0:0:
313,162,8569,1,0,3:0:0:0:
281,161,8640,1,4,3:0:0:0:
253,175,8712,1,0,3:0:0:0:
233,199,8783,2,0,P|222:251|247:295,1,95.6250036478044,8|0,3:0|0:0,0:0:0:0:
297,239,9069,5,8,3:2:0:0:
289,200,9140,1,0,0:0:0:0:
281,161,9211,1,0,3:0:0:0:
274,122,9283,1,0,3:0:0:0:
266,83,9354,5,8,3:2:0:0:
146,187,9498,1,8,3:2:0:0:
297,239,9640,2,0,B|359:229|359:229|403:245|403:245|479:233,1,170,6|0,1:2|0:0,0:0:0:0:
411,161,10069,1,0,1:2:0:0:
348,313,10212,1,8,0:0:0:0:
348,313,10498,2,0,L|259:329,1,85,2|0,0:1|0:0,0:0:0:0:
131,182,10783,6,0,B|172:176|172:176|228:204,1,85,2|0,1:2|0:0,0:0:0:0:
183,346,10998,2,0,B|142:352|142:352|86:324,1,85,0|0,1:0|0:0,0:0:0:0:
157,264,11212,2,0,L|226:277,1,42.5,0|0,1:0|0:0,0:0:0:0:
356,300,11355,1,8,0:0:0:0:
344,220,11498,6,0,B|340:201|340:201|340:191|340:191|334:161,1,53.125,0|0,0:0|0:0,0:0:0:0:
292,350,11640,2,0,B|277:362|277:362|268:367|268:367|245:388,1,53.125,2|0,0:1|0:0,0:0:0:0:
431,331,11783,2,0,B|449:337|449:337|458:342|458:342|487:351,1,53.125,0|0,0:0|0:0,0:0:0:0:
268,264,11926,6,0,L|244:80,1,170,2|0,1:2|0:0,0:0:0:0:
335,167,12355,1,0,1:0:0:0:
187,276,12498,1,8,0:0:0:0:
187,276,12783,2,0,L|178:191,1,85,2|0,0:1|0:0,0:0:0:0:
48,44,13069,6,0,B|112:32|112:32|104:56,1,85,2|0,1:2|0:0,0:0:0:0:
92,172,13283,2,0,B|49:122|49:122|74:117,1,85,0|0,1:0|0:0,0:0:0:0:
181,70,13498,2,0,L|162:124,1,42.5,0|0,1:0|0:0,0:0:0:0:
104,260,13640,1,8,0:0:0:0:
20,280,13783,6,0,B|16:252|16:252|24:216,1,53.125,0|0,3:0|3:0,0:0:0:0:
128,178,13926,2,0,B|154:188|154:188|181:213,1,53.125,2|0,0:1|0:0,0:0:0:0:
163,322,14069,2,0,B|140:339|140:339|105:350,1,53.125,0|0,0:0|0:0,0:0:0:0:
104,260,14212,6,0,L|88:64,1,170,2|0,1:2|0:0,0:0:0:0:
20,280,14640,1,0,1:0:0:0:
189,266,14783,1,8,0:0:0:0:
189,266,15069,2,0,L|90:259,1,85,2|0,0:1|0:0,0:0:0:0:
256,212,15355,6,0,B|276:248|276:248|272:308,1,85,2|0,1:2|0:0,0:0:0:0:
445,236,15569,2,0,B|418:201|418:201|414:161,1,85,0|0,1:0|0:0,0:0:0:0:
324,152,15783,2,0,L|344:216,1,42.5,0|0,1:0|0:0,0:0:0:0:
373,308,15926,1,8,0:0:0:0:
256,212,16069,6,0,B|229:204|229:204|192:208,1,53.125,0|0,0:0|0:0,0:0:0:0:
414,161,16212,2,0,B|431:139|431:139|464:121,1,53.125,2|0,0:1|0:0,0:0:0:0:
372,307,16355,2,0,L|389:360,1,53.125,0|0,0:0|0:0,0:0:0:0:
336,192,16498,6,0,B|323:149|323:149|346:70|346:70|330:8,1,170,2|0,1:2|0:0,0:0:0:0:
414,161,16926,1,0,1:0:0:0:
257,59,17069,1,8,0:0:0:0:
257,59,17355,2,0,B|216:72|216:72|168:64,1,85,2|0,0:1|0:0,0:0:0:0:
86,30,17569,1,0,0:0:0:0:
86,30,17640,6,0,L|106:126,1,85,2|0,1:2|0:0,0:0:0:0:
118,206,17855,2,0,L|191:140,1,85,0|0,1:0|0:0,0:0:0:0:
255,91,18069,2,0,L|161:60,1,85,0|8,1:2|0:0,0:0:0:0:
118,227,18355,6,0,L|168:179,1,53.125
273,81,18498,2,0,L|206:60,1,53.125,8|0,0:3|0:0,0:0:0:0:
68,20,18640,2,0,L|84:88,1,53.125,8|4,0:3|0:3,0:0:0:0:
192,275,18783,6,0,L|154:110,1,170,6|0,1:2|0:0,0:0:0:0:
80,156,19212,1,0,1:2:0:0:
266,229,19355,1,8,0:0:0:0:
266,229,19640,2,0,P|320:232|372:156,1,127.5,2|0,0:1|0:0,0:0:0:0:
437,210,19926,6,0,P|440:168|422:131,1,85,2|0,1:2|0:0,0:0:0:0:
479,85,20140,2,0,P|444:61|402:58,1,85,0|0,1:0|0:0,0:0:0:0:
352,4,20355,2,0,P|338:20|330:39,1,42.5,0|0,1:0|0:0,0:0:0:0:
368,182,20498,5,8,0:0:0:0:
255,43,20640,2,0,P|261:69|277:90,1,53.125,0|0,0:0|0:0,0:0:0:0:
338,224,20783,2,0,P|357:206|368:182,1,53.125,2|0,0:1|0:0,0:0:0:0:
456,64,20926,2,0,P|430:56|404:59,1,53.125
347,107,21069,6,0,B|255:91|283:159|171:139,1,170,2|0,1:2|0:0,0:0:0:0:
186,142,21498,1,0,1:0:0:0:
92,19,21640,2,0,P|140:15|180:43,1,85,8|0,0:0|0:0,0:0:0:0:
136,247,21926,2,0,P|88:251|48:223,1,85,2|0,0:1|0:0,0:0:0:0:
119,90,22212,6,0,L|107:174,1,85,2|0,1:2|0:0,0:0:0:0:
186,142,22426,2,0,L|118:89,1,85,0|0,1:0|0:0,0:0:0:0:
107,174,22640,2,0,L|159:154,1,42.5,0|0,1:0|0:0,0:0:0:0:
217,75,22783,1,8,0:0:0:0:
44,96,22926,6,0,L|32:172,1,53.125,0|0,3:0|3:0,0:0:0:0:
149,235,23069,2,0,L|220:207,1,53.125,2|0,0:1|0:0,0:0:0:0:
217,75,23212,2,0,L|157:26,1,53.125,0|0,0:0|0:0,0:0:0:0:
119,89,23355,6,0,L|94:258,1,170,2|0,1:2|0:0,0:0:0:0:
172,320,23783,1,0,1:0:0:0:
325,221,23926,2,0,P|329:165|305:125,1,85,8|0,0:0|0:0,0:0:0:0:
241,189,24212,2,0,P|237:245|261:285,1,85,2|0,0:1|0:0,0:0:0:0:
380,84,24498,6,0,P|324:56|276:72,1,85,2|0,1:2|0:0,0:0:0:0:
236,20,24712,2,0,P|183:54|173:104,1,85,0|0,1:0|0:0,0:0:0:0:
108,111,24926,2,0,P|103:132|106:153,1,42.5,0|0,1:0|0:0,0:0:0:0:
241,189,25069,1,8,0:0:0:0:
352,84,25212,6,0,P|318:71|286:74,1,53.125,0|0,0:0|0:0,0:0:0:0:
222,44,25355,2,0,P|194:66|180:96,1,53.125,2|0,0:1|0:0,0:0:0:0:
122,136,25498,2,0,P|127:171|146:197,1,53.125,0|0,0:0|0:0,0:0:0:0:
151,268,25640,6,0,B|248:284|216:216|336:236,1,170,2|0,1:2|0:0,0:0:0:0:
431,107,26069,1,0,1:0:0:0:
367,163,26212,2,0,P|347:115|359:67,1,85,8|0,0:0|0:0,0:0:0:0:
495,51,26498,2,0,P|515:99|503:147,1,85,2|0,0:1|0:0,0:0:0:0:
480,347,26783,6,0,L|461:248,1,85,2|0,1:2|0:0,0:0:0:0:
447,190,26997,2,0,L|428:91,1,85,0|0,1:0|0:0,0:0:0:0:
415,34,27212,1,0,1:0:0:0:
463,263,27355,1,8,0:0:0:0:
348,90,27498,6,0,L|359:141,1,53.125,0|4,0:0|0:3,0:0:0:0:
374,224,27640,2,0,L|323:207,1,53.125,8|0,0:2|0:0,0:0:0:0:
244,179,27783,2,0,L|284:143,1,53.125,8|0,0:2|0:0,0:0:0:0:
415,34,27926,5,8,0:3:0:0:
160,132,29069,6,0,L|72:124,2,76.4999976654053,0|0|0,1:0|0:0|0:0,0:0:0:0:
112,208,29498,1,0,1:0:0:0:
128,48,29640,2,0,B|184:32|184:32|300:64,1,152.999995330811,8|0,0:2|0:0,0:0:0:0:
264,220,30069,6,0,B|248:192|248:192|256:128,1,76.4999976654053,0|0,0:0|0:0,0:0:0:0:
352,8,30355,2,0,B|368:36|368:36|360:100,1,76.4999976654053,0|0,1:0|1:0,0:0:0:0:
360,168,30640,1,0,0:0:0:0:
360,168,30783,2,0,L|456:152,1,76.4999976654053,8|0,0:0|1:0,0:0:0:0:
348,248,31069,5,0,0:0:0:0:
480,224,31212,2,0,L|470:314,1,76.4999976654053,0|0,0:0|1:0,0:0:0:0:
286,306,31498,5,0,0:0:0:0:
278,222,31640,2,0,P|315:226|347:247,1,76.4999976654053,0|0,0:0|1:0,0:0:0:0:
286,306,31926,2,0,B|194:318|222:262|134:274,1,152.999995330811,8|0,0:0|0:0,0:0:0:0:
64,320,32355,6,0,P|48:268|56:220,1,76.4999976654053,0|0,0:0|0:0,0:0:0:0:
192,100,32640,2,0,P|196:141|183:182,1,85,0|0,1:0|1:0,0:0:0:0:
0,132,32926,2,0,B|40:116|40:116|104:128,1,85,0|8,0:0|0:0,0:0:0:0:
307,272,33212,2,0,B|251:264|251:264|195:280|195:280|111:268,1,170,0|0,1:0|0:0,0:0:0:0:
81,123,33640,5,0,1:0:0:0:
192,100,33783,2,0,L|292:84,2,76.4999976654053,0|0|0,0:0|0:0|1:0,0:0:0:0:
81,123,34212,2,0,P|64:76|144:28,1,152.999995330811,8|0,0:2|0:0,0:0:0:0:
267,87,34640,6,0,L|255:183,1,76.4999976654053,0|0,0:0|0:0,0:0:0:0:
140,256,34926,2,0,L|229:218,1,76.4999976654053,0|0,1:0|1:0,0:0:0:0:
350,282,35212,2,0,L|272:223,1,76.4999976654053,0|8,0:0|0:0,0:0:0:0:
177,153,35498,5,0,1:0:0:0:
337,171,35640,1,0,0:0:0:0:
242,299,35783,1,0,0:0:0:0:
257,162,35926,5,0,1:0:0:0:
267,87,36069,2,0,L|276:11,1,76.4999976654053,0|0,0:0|0:0,0:0:0:0:
257,162,36355,1,0,1:0:0:0:
188,72,36498,2,0,P|148:64|112:68,1,76.4999976654053,8|0,0:0|0:0,0:0:0:0:
337,171,36783,2,0,P|374:174|412:166,1,76.4999976654053,2|0,0:0|0:0,0:0:0:0:
177,153,37069,5,0,1:0:0:0:
350,282,37212,1,8,0:0:0:0:
350,282,37283,1,8,0:0:0:0:
350,282,37355,1,8,1:2:0:0:
140,256,37498,1,0,1:2:0:0:
337,171,37640,1,0,1:0:0:0:
248,238,37783,5,8,1:2:0:0:
257,162,37926,1,8,1:2:0:0:
266,86,38069,1,8,0:0:0:0:
266,86,38140,1,8,0:0:0:0:
266,86,38212,6,0,L|352:72,1,76.4999976654053,4|0,1:2|0:0,0:0:0:0:
428,36,38498,1,10,0:2:0:0:
408,152,38640,1,0,0:0:0:0:
512,100,38783,2,0,P|492:176|496:192,1,76.4999976654053,0|0,0:0|0:0,0:0:0:0:
360,288,39069,2,0,P|356:250|339:216,1,76.4999976654053,8|0,0:0|0:0,0:0:0:0:
452,304,39355,5,2,0:2:0:0:
280,272,39498,1,0,0:0:0:0:
408,152,39640,1,8,0:0:0:0:
374,363,39783,6,0,L|360:288,1,76.4999976654053,2|0,0:0|0:0,0:0:0:0:
207,246,40069,2,0,L|279:271,1,76.4999976654053,2|8,0:0|0:0,0:0:0:0:
392,159,40355,2,0,L|334:208,1,76.4999976654053,2|0,0:0|0:0,0:0:0:0:
188,336,40640,5,0,0:2:0:0:
112,280,40783,2,0,P|88:232|96:176,1,76.4999976654053,8|0,0:0|0:0,0:0:0:0:
207,246,41069,2,0,L|228:152,1,76.4999976654053,0|0,0:2|0:0,0:0:0:0:
279,318,41355,2,0,P|321:285|338:231,1,76.4999976654053,8|0,0:0|0:0,0:0:0:0:
239,96,41640,5,2,0:2:0:0:
207,246,41783,1,0,0:0:0:0:
167,119,41926,1,8,0:0:0:0:
296,147,42069,6,0,B|334:151|334:151|384:132,1,76.4999976654053,2|0,0:0|0:0,0:0:0:0:
207,246,42355,2,0,B|184:276|184:276|175:329,1,76.4999976654053,2|8,0:0|0:0,0:0:0:0:
167,119,42640,2,0,B|151:84|151:84|110:50,1,76.4999976654053,2|0,0:0|0:0,0:0:0:0:
223,171,42926,5,0,0:0:0:0:
255,21,43069,2,0,L|239:96,1,76.4999976654053,8|0,0:0|0:0,0:0:0:0:
207,246,43355,1,0,0:0:0:0:
144,188,43498,1,0,0:0:0:0:
284,268,43640,1,8,0:0:0:0:
128,284,43783,1,0,0:0:0:0:
223,171,43926,5,0,0:0:0:0:
354,317,44069,1,0,0:0:0:0:
207,246,44212,1,8,0:0:0:0:
384,160,44355,6,0,P|340:156|300:172,1,76.4999976654053,2|0,0:0|0:0,0:0:0:0:
420,268,44641,2,0,P|383:242|341:236,1,76.4999976654053,2|8,0:0|0:0,0:0:0:0:
396,378,44926,2,0,P|377:337|343:311,1,76.4999976654053,2|0,0:0|0:0,0:0:0:0:
207,246,45212,5,0,0:0:0:0:
269,343,45355,2,0,L|285:259,1,76.4999976654053,8|0,0:0|0:0,0:0:0:0:
130,224,45640,2,0,L|146:140,1,76.4999976654053,0|0,0:0|0:0,0:0:0:0:
302,164,45926,2,0,L|318:80,1,76.4999976654053,8|0,0:0|0:0,0:0:0:0:
163,45,46212,5,2,0:2:0:0:
130,224,46355,1,0,0:2:0:0:
163,45,46498,1,10,0:2:0:0:
302,164,46640,2,0,P|236:120|148:160,1,152.999995330811,2|10,0:1|0:2,0:0:0:0:
19,366,47069,2,0,P|75:365|116:333,1,76.4999976654053,10|10,0:0|0:2,0:0:0:0:
137,274,47355,5,4,1:2:0:0:
137,274,47498,2,0,L|127:202,1,50.9999984436036,0|0,0:0|0:0,0:0:0:0:
84,160,47783,1,0,1:0:0:0:
204,204,47926,2,0,P|248:208|304:188,1,101.999996887207,0|2,0:0|1:2,0:0:0:0:
456,56,48498,6,0,L|400:48,1,50.9999984436036,0|0,1:2|0:0,0:0:0:0:
416,144,48783,2,0,L|360:155,1,50.9999984436036,0|0,0:0|1:0,0:0:0:0:
487,212,49069,2,0,L|438:240,1,50.9999984436036,0|0,0:0|0:0,0:0:0:0:
466,134,49355,2,0,L|410:145,1,50.9999984436036,2|0,1:2|0:2,0:0:0:0:
240,172,49640,5,0,1:0:0:0:
240,172,49783,2,0,P|248:136|250:109,1,50.9999984436036
163,111,50069,2,0,P|149:77|79:44,1,101.999996887207,0|0,1:0|0:0,0:0:0:0:
71,140,50498,1,2,1:2:0:0:
71,140,50783,6,0,L|48:200,1,50.9999984436036,0|0,1:0|0:0,0:0:0:0:
148,192,51069,2,0,L|135:255,1,50.9999984436036,0|0,0:0|1:0,0:0:0:0:
240,172,51355,2,0,L|241:236,1,50.9999984436036,0|0,0:0|0:0,0:0:0:0:
138,242,51640,2,0,L|125:305,1,50.9999984436036,2|0,1:2|0:0,0:0:0:0:
248,340,51926,6,0,P|299:331|356:324,1,101.999996887207,0|0,1:0|0:0,0:0:0:0:
460,256,52355,2,0,P|416:248|376:200,1,101.999996887207,0|0,1:0|0:0,0:0:0:0:
292,144,52783,2,0,L|288:216,1,50.9999984436036,2|0,1:2|0:0,0:0:0:0:
424,132,53069,6,0,P|415:77|408:16,1,101.999996887207,0|0,1:0|0:0,0:0:0:0:
328,16,53498,1,0,1:0:0:0:
292,144,53640,2,0,L|288:216,1,50.9999984436036,0|0,0:0|0:0,0:0:0:0:
380,272,53926,2,0,L|377:221,1,50.9999984436036,2|2,1:2|0:2,0:0:0:0:
276,144,54212,6,0,L|272:207,1,63.75,0|0,1:0|0:0,0:0:0:0:
194,120,54498,6,0,L|186:228,1,89.2499972763062,0|0,1:0|0:0,0:0:0:0:
116,93,54783,6,0,L|106:207,1,114.749996498108,0|0,1:0|0:0,0:0:0:0:
40,64,55069,6,0,L|22:256,1,165.749992412568,2|0,1:2|0:0,0:0:0:0:
24,229,55355,5,8,2:2:0:0:
58,227,55426,1,8,2:2:0:0:
89,213,55497,1,8,2:2:0:0:
112,187,55569,1,8,2:2:0:0:
122,154,55640,1,8,2:2:0:0:
118,120,55712,1,8,2:2:0:0:
100,90,55783,1,8,2:2:0:0:
73,70,55855,1,8,2:2:0:0:
40,64,55926,6,0,L|22:256,1,165.749992412568,0|0,1:0|0:0,0:0:0:0:
64,308,56498,6,0,B|168:320|132:248|256:268,1,187.000005706787,6|8,0:2|0:0,0:0:0:0:
396,220,56926,2,0,B|287:237|323:165|219:177,1,187.000005706787,2|0,0:2|0:0,0:0:0:0:
216,352,57355,2,0,P|264:352|316:312,1,93.5000028533936,8|2,0:2|0:2,0:0:0:0:
364,136,57640,5,2,0:2:0:0:
240,265,57783,1,0,0:0:0:0:
440,300,57926,1,8,0:0:0:0:
305,202,58069,6,0,P|349:218|396:220,1,93.5000028533936,2|0,0:2|0:0,0:0:0:0:
472,200,58283,1,0,0:0:0:0:
472,200,58355,2,0,L|468:260,1,46.7500014266968,0|0,0:0|2:0,0:0:0:0:
464,328,58498,1,8,0:0:0:0:
364,136,58640,6,0,B|300:100|224:120|224:120|252:124|280:148,1,187.000005706787,2|2,0:2|0:2,0:0:0:0:
432,16,59069,2,0,L|444:112,1,93.5000028533936,10|0,0:0|0:0,0:0:0:0:
281,287,59355,2,0,P|282:241|305:201,1,93.5000028533936,2|0,0:0|0:0,0:0:0:0:
472,200,59640,1,8,0:0:0:0:
358,263,59783,6,0,P|426:271|464:328,1,140.25000428009,2|0,0:2|2:0,0:0:0:0:
464,328,60069,2,0,L|404:340,1,46.7500014266968,0|0,0:0|2:0,0:0:0:0:
256,368,60212,1,8,0:0:0:0:
256,368,60355,1,2,0:2:0:0:
336,80,60498,6,0,P|352:128|336:184,1,93.5000028533936,2|0,0:0|0:0,0:0:0:0:
176,304,60783,2,0,P|160:256|176:200,1,93.5000028533936,10|0,0:0|0:0,0:0:0:0:
256,132,61069,6,0,L|56:104,1,187.000005706787,2|8,0:2|0:0,0:0:0:0:
18,276,61498,2,0,P|90:288|170:180,1,187.000005706787,2|0,0:2|0:0,0:0:0:0:
70,106,61926,2,0,P|58:158|82:210,1,93.5000028533936,8|2,0:0|0:2,0:0:0:0:
176,104,62212,6,0,L|164:4,1,93.5000028533936,2|0,0:2|0:0,0:0:0:0:
164,11,62426,1,0,0:0:0:0:
164,11,62498,1,8,0:0:0:0:
70,194,62640,2,0,P|126:194|186:226,1,93.5000028533936,2|0,0:2|0:0,0:0:0:0:
328,132,62926,5,2,0:2:0:0:
288,344,63069,1,8,0:0:0:0:
324,256,63212,2,0,P|268:256|208:288,1,93.5000028533936,2|8,0:1|0:0,0:0:0:0:
156,344,63498,1,2,0:3:0:0:
396,308,63640,6,0,B|412:264|412:264|400:204,1,93.5000028533936,10|2,0:0|0:3,0:0:0:0:
250,82,63926,2,0,B|234:126|234:126|246:186,1,93.5000028533936,10|2,0:0|0:3,0:0:0:0:
324,256,64212,1,10,0:0:0:0:
501,64,64355,6,0,L|375:88,1,127.500004863739,2|0,0:2|0:0,0:0:0:0:
421,165,64783,2,0,L|504:148,1,63.7500024318696
396,48,65069,5,8,0:0:0:0:
376,89,65140,1,8,0:0:0:0:
337,113,65211,1,8,0:0:0:0:
291,110,65283,1,8,0:0:0:0:
254,82,65354,1,8,0:0:0:0:
217,53,65426,1,8,0:0:0:0:
171,51,65498,1,8,0:0:0:0:
132,74,65569,1,8,0:0:0:0:
112,116,65640,6,0,P|117:165|121:225,1,93.5000028533936,6|0,0:2|0:0,0:0:0:0:
184,348,65926,1,8,0:0:0:0:
104,312,66069,2,0,P|144:282|193:249,1,93.5000028533936,2|0,0:2|0:0,0:0:0:0:
268,128,66355,1,0,0:0:0:0:
277,217,66498,2,0,P|231:197|178:170,1,93.5000028533936,10|0,0:2|0:2,0:0:0:0:
112,116,66783,5,0,0:0:0:0:
124,15,66926,2,0,B|183:34|183:34|214:94,1,127.500004863739,2|8,0:0|0:0,0:0:0:0:
18,154,67212,2,0,B|5:92|5:92|42:34,1,127.500004863739,2|0,0:0|0:0,0:0:0:0:
192,176,67498,2,0,B|145:218|145:218|80:214,1,127.500004863739,2|8,0:0|0:0,0:0:0:0:
112,116,67783,1,0,0:0:0:0:
192,177,67926,6,0,L|292:157,1,93.5000028533936,2|0,0:2|0:0,0:0:0:0:
444,320,68212,1,8,0:0:0:0:
488,232,68355,2,0,B|384:200|404:280|292:248,1,187.000005706787,2|0,0:2|0:0,0:0:0:0:
214,145,68783,2,0,L|206:238,1,93.5000028533936,10|0,0:2|0:0,0:0:0:0:
206,238,68998,1,0,0:0:0:0:
206,238,69069,5,0,0:0:0:0:
304,207,69212,2,0,B|339:202|363:218|363:218|343:246|295:254,1,127.500004863739,2|8,0:0|0:0,0:0:0:0:
130,170,69498,2,0,B|108:140|110:112|110:112|144:115|175:153,1,127.500004863739,2|0,0:0|0:0,0:0:0:0:
185,337,69783,2,0,B|170:370|144:382|144:382|130:351|147:305,1,127.500004863739,2|8,0:0|0:0,0:0:0:0:
206,238,70069,1,0,0:0:0:0:
284,348,70212,6,0,P|372:356|436:276,1,187.000005706787,2|8,0:2|0:0,0:0:0:0:
416,92,70640,2,0,B|348:80|348:80|300:96|300:96|220:84,1,187.000005706787,2|0,0:2|0:0,0:0:0:0:
340,268,71069,2,0,L|356:160,1,93.5000028533936,10|0,0:2|0:0,0:0:0:0:
233,86,71355,5,0,0:0:0:0:
167,160,71498,2,0,B|127:187|84:178|84:178|115:169|136:149,1,127.500004863739,2|8,0:0|0:0,0:0:0:0:
134,65,71783,2,0,B|90:44|76:3|76:3|100:25|128:33,1,127.500004863739,2|0,0:0|0:0,0:0:0:0:
266,179,72069,2,0,B|269:227|241:259|241:259|248:227|241:199,1,127.500004863739,2|8,0:0|0:0,0:0:0:0:
233,86,72355,1,0,0:0:0:0:
167,160,72498,6,0,P|116:180|8:104,1,187.000005706787,10|8,0:2|0:2,0:0:0:0:
254,121,72926,2,0,P|262:66|320:27,1,93.5000028533936,2|10,0:3|0:2,0:0:0:0:
157,256,73212,1,2,0:3:0:0:
244,217,73355,2,0,P|286:251|292:321,1,93.5000028533936,8|2,0:2|0:3,0:0:0:0:
297,286,73569,1,0,0:0:0:0:
297,286,73640,5,8,0:0:0:0:
167,160,73783,6,0,P|94:179|27:144,1,127.500004863739,2|8,0:1|1:2,0:0:0:0:
0,84,74069,1,8,0:0:0:0:
0,84,74140,1,8,0:0:0:0:
0,84,74212,5,8,1:2:0:0:
104,260,74355,1,8,0:0:0:0:
144,24,74498,1,8,1:2:0:0:
167,160,74640,1,8,0:0:0:0:
304,28,74783,5,4,0:0:0:0:
76,140,83926,5,4,1:2:0:0:
152,132,84069,2,0,L|229:125,1,76.4999976654053,0|8,0:0|0:0,0:0:0:0:
76,140,84355,1,0,1:0:0:0:
72,160,84783,1,8,0:0:0:0:
68,180,85069,5,0,1:0:0:0:
83,254,85212,2,0,L|99:330,1,76.4999976654053,0|8,0:0|0:0,0:0:0:0:
68,180,85498,1,0,1:0:0:0:
100,328,85926,1,8,0:0:0:0:
180,344,86069,1,0,0:0:0:0:
260,360,86212,5,0,1:0:0:0:
336,349,86355,2,0,L|412:337,1,76.4999976654053,0|8,0:0|0:0,0:0:0:0:
260,360,86640,1,0,1:0:0:0:
180,344,87069,1,8,0:0:0:0:
100,328,87355,5,0,1:0:0:0:
83,254,87498,2,0,L|67:179,1,76.4999976654053,0|8,0:0|0:0,0:0:0:0:
100,328,87783,1,0,1:0:0:0:
67,179,88212,1,8,0:0:0:0:
420,260,88498,5,0,1:0:0:0:
437,186,88641,2,0,L|452:111,1,76.4999976654053,0|8,0:0|0:0,0:0:0:0:
420,260,88926,1,0,1:0:0:0:
392,264,89355,1,8,0:0:0:0:
364,268,89640,5,0,1:0:0:0:
288,257,89783,2,0,L|204:245,1,76.4999976654053,0|8,0:0|0:0,0:0:0:0:
364,268,90069,1,0,1:0:0:0:
212,246,90498,1,8,0:0:0:0:
200,168,90640,1,0,0:0:0:0:
188,90,90783,5,0,1:0:0:0:
264,101,90926,2,0,L|339:111,1,76.4999976654053,0|8,0:0|0:0,0:0:0:0:
188,90,91212,1,0,1:0:0:0:
188,90,91640,6,2,B|168:92|136:64|136:64|116:88|72:92|72:92|60:124|32:140,1,191.250007295609,10|2,0:0|0:1,0:1:0:0:
35,138,91926,1,8,0:0:0:0:
240,200,92212,5,8,0:0:0:0:
198,182,92283,1,8,0:0:0:0:
153,192,92354,1,8,0:0:0:0:
121,226,92426,1,8,0:0:0:0:
90,259,92498,1,8,0:0:0:0:
45,269,92569,1,8,0:0:0:0:
2,252,92640,6,0,P|63:222|133:232,1,127.500004863739,0|0,1:3|0:0,0:0:0:0:
192,264,93069,5,4,0:2:0:0:
304,148,93212,2,0,P|312:108|308:52,1,85,0|8,0:0|0:0,0:0:0:0:
224,96,93498,1,0,0:0:0:0:
368,224,93640,2,0,P|360:264|364:320,1,85,0|0,0:0|0:0,0:0:0:0:
128,192,93926,2,0,L|252:180,1,85,8|0,0:0|0:0,0:0:0:0:
400,144,94212,5,2,0:2:0:0:
224,96,94355,1,2,0:2:0:0:
280,236,94498,1,8,0:0:0:0:
328,68,94640,2,0,L|343:11,2,42.5,2|0|0,0:0|0:0|0:0,0:0:0:0:
304,148,94926,1,2,0:0:0:0:
304,148,94998,1,0,0:0:0:0:
304,148,95069,1,8,0:0:0:0:
118,11,95212,6,0,L|122:96,1,85,2|0,0:0|0:0,0:0:0:0:
127,191,95498,1,0,0:0:0:0:
20,100,95640,2,0,L|40:152,1,42.5,8|0,0:0|2:0,0:0:0:0:
220,76,95783,2,0,L|208:136,1,42.5,0|0,0:0|2:0,0:0:0:0:
48,220,95926,5,0,0:0:0:0:
216,200,96069,1,0,0:0:0:0:
28,304,96212,5,8,0:0:0:0:
252,276,96355,1,0,0:0:0:0:
127,191,96498,6,0,P|128:240|140:288,1,85,2|2,0:2|0:2,0:0:0:0:
168,344,96712,1,0,0:0:0:0:
174,354,96783,1,8,0:0:0:0:
411,241,96926,2,0,B|317:221|344:292|252:276,1,170,2|2,0:0|0:0,0:0:0:0:
424,244,97355,1,8,0:0:0:0:
280,200,97498,1,2,0:0:0:0:
280,200,97569,1,0,0:0:0:0:
280,200,97640,1,0,0:0:0:0:
468,80,97783,5,0,0:0:0:0:
352,160,97926,2,0,L|328:40,1,85,8|0,0:0|0:0,0:0:0:0:
424,244,98212,2,0,L|539:283,1,85,0|0,0:0|0:0,0:0:0:0:
315,264,98498,2,0,L|223:344,1,85,8|0,0:0|0:0,0:0:0:0:
192,368,98712,1,0,0:0:0:0:
180,376,98783,5,2,0:2:0:0:
200,148,98926,2,0,B|212:188|212:188|208:231,1,85,0|8,0:0|0:0,0:0:0:0:
52,336,99212,2,0,B|40:296|40:296|44:248,1,85,2|0,0:0|0:0,0:0:0:0:
104,136,99498,1,2,0:0:0:0:
132,288,99640,1,8,0:0:0:0:
24,104,99783,6,0,P|104:104|160:24,1,170,2|0,0:0|0:0,0:0:0:0:
283,159,100212,2,0,P|235:147|179:151,1,85,8|0,0:0|0:0,0:0:0:0:
340,60,100498,2,0,P|368:112|452:124,1,127.5,2|0,0:2|2:0,0:0:0:0:
430,129,100783,1,8,0:0:0:0:
252,68,100926,1,0,0:0:0:0:
432,8,101069,6,0,L|421:49,1,42.5,2|0,0:2|2:0,0:0:0:0:
384,204,101212,2,0,L|373:245,2,42.5,0|0|10,0:0|0:0|0:0,0:0:0:0:
340,60,101498,1,2,0:2:0:0:
465,193,101640,1,0,0:0:0:0:
340,60,101783,1,8,0:0:0:0:
509,93,101926,5,8,0:0:0:0:
296,160,102069,1,8,0:0:0:0:
402,126,102212,5,4,1:2:0:0:
402,126,102498,1,8,1:2:0:0:
404,132,102640,2,0,P|402:186|410:258,1,127.500004863739
336,296,103069,1,8,1:2:0:0:
336,296,103355,5,0,1:0:0:0:
488,216,103498,2,0,P|492:260|488:296,1,63.7500024318696,0|8,0:0|1:2,0:0:0:0:
410,258,103783,2,0,P|402:195|404:132,1,127.500004863739
420,48,104212,1,8,1:2:0:0:
100,260,104498,5,0,1:2:0:0:
100,260,104783,1,8,1:2:0:0:
103,252,104926,2,0,P|111:189|110:126,1,127.500004863739,0|0,0:2|0:0,0:0:0:0:
60,52,105355,1,8,1:2:0:0:
60,52,105640,5,0,1:2:0:0:
194,155,105783,2,0,P|195:123|192:92,1,63.7500024318696,0|8,0:2|1:2,0:0:0:0:
110,125,106069,2,0,P|111:189|103:252,1,127.500004863739,0|0,0:2|0:0,0:0:0:0:
226,338,106498,1,8,1:2:0:0:
241,333,106569,1,0,0:0:0:0:
256,328,106641,1,0,0:2:0:0:
271,323,106712,1,0,0:0:0:0:
286,318,106783,6,0,L|278:250,1,63.7500024318696,0|0,1:2|0:2,0:0:0:0:
152,108,107069,1,8,1:2:0:0:
226,66,107212,2,0,L|234:134,1,63.7500024318696,0|0,0:2|1:2,0:0:0:0:
360,276,107498,1,0,0:0:0:0:
200,292,107640,2,0,P|156:300|116:316,1,63.7500024318696,8|0,1:2|0:2,0:0:0:0:
152,108,107926,5,0,1:2:0:0:
312,92,108069,2,0,P|356:84|396:68,1,63.7500024318696,0|8,0:2|1:2,0:0:0:0:
212,200,108355,2,0,L|72:180,1,127.500004863739,0|0,0:2|0:0,0:0:0:0:
300,184,108783,2,0,L|384:196,1,63.7500024318696,8|0,1:2|0:2,0:0:0:0:
448,224,109069,6,0,P|452:184|440:140,1,63.7500024318696,0|0,1:2|0:2,0:0:0:0:
268,268,109355,1,8,1:2:0:0:
363,193,109498,2,0,P|320:132|256:144,1,127.500004863739
148,190,109926,5,8,1:2:0:0:
167,317,110069,1,0,0:0:0:0:
169,333,110355,5,2,0:0:0:0:
147,176,110498,1,8,0:1:0:0:
167,317,110640,6,0,L|149:191,1,127.500004863739,2|0,0:0|0:0,0:0:0:0:
135,85,111069,1,8,0:1:0:0:
352,216,111212,2,0,L|343:285,1,38.2499988327027,8|8,0:1|0:1,0:0:0:0:
268,280,111355,5,4,1:2:0:0:
272,251,111426,1,0,0:0:0:0:
276,223,111497,1,0,0:0:0:0:
281,195,111569,1,0,0:0:0:0:
285,166,111640,1,0,1:0:0:0:
204,208,111783,1,0,0:0:0:0:
352,216,111926,2,0,P|395:210|432:200,1,76.4999976654053,0|0,0:0|1:0,0:0:0:0:
332,352,112212,2,0,P|288:357|252:368,1,76.4999976654053,2|0,0:2|1:0,0:0:0:0:
136,264,112498,5,0,1:0:0:0:
268,280,112640,1,0,1:0:0:0:
400,296,112783,1,0,0:0:0:0:
204,208,112926,5,0,1:0:0:0:
332,352,113069,1,10,0:2:0:0:
282,204,113212,2,0,L|268:280,2,76.4999976654053,0|0|0,0:0|0:0|0:0,0:0:0:0:
396,108,113640,6,0,B|368:116|352:148|352:148|308:96|244:120,1,152.999995330811,0|0,1:0|1:0,0:0:0:0:
428,183,114069,1,0,1:0:0:0:
441,43,114212,2,0,P|406:29|368:33,1,76.4999976654053,8|0,0:0|1:0,0:0:0:0:
282,204,114498,2,0,P|246:217|208:213,1,76.4999976654053,2|0,0:0|1:0,0:0:0:0:
120,172,114783,5,0,1:0:0:0:
128,88,114926,1,0,1:0:0:0:
136,4,115069,1,0,1:0:0:0:
52,124,115212,5,0,1:0:0:0:
205,53,115355,1,10,0:2:0:0:
59,40,115498,6,0,L|16:8,2,38.2499988327027,0|0|0,0:0|0:0|0:0,0:0:0:0:
197,137,115783,1,0,0:0:0:0:
0,224,115926,6,0,B|80:208|64:268|160:248,1,152.999995330811,0|0,1:0|1:0,0:0:0:0:
197,137,116355,1,0,1:0:0:0:
124,332,116498,2,0,P|172:332|208:312,1,76.4999976654053,0|0,0:0|1:0,0:0:0:0:
292,200,116783,2,0,P|268:241|267:282,1,76.4999976654053,2|0,0:0|1:0,0:0:0:0:
275,353,117069,5,0,1:0:0:0:
440,348,117212,1,0,1:0:0:0:
416,276,117355,1,0,1:0:0:0:
342,261,117498,1,0,1:0:0:0:
366,333,117640,5,10,0:2:0:0:
392,204,117783,2,0,P|399:163|412:108,2,76.4999976654053,0|0|0,0:0|0:0|0:0,0:0:0:0:
482,101,118212,6,0,P|442:57|338:81,1,152.999995330811,0|0,1:0|1:0,0:0:0:0:
312,140,118640,1,0,1:0:0:0:
128,96,118783,2,0,L|172:80,1,38.2499988327027,8|0,0:0|0:0,0:0:0:0:
168,164,118926,2,0,L|214:172,1,38.2499988327027
168,242,119069,2,0,L|208:276,2,50.9999984436036,2|0|0,0:2|0:0|0:0,0:0:0:0:
129,309,119355,6,0,P|124:348|124:368,1,42.5,8|8,1:1|2:1,0:0:0:0:
392,316,119498,2,0,P|390:294|386:273,1,42.5,8|8,1:1|2:1,0:0:0:0:
211,232,119640,2,0,P|207:252|205:274,1,42.5,0|0,1:0|0:0,0:0:0:0:
312,368,119783,2,0,P|310:346|306:325,1,42.5,0|0,1:0|0:0,0:0:0:0:
256,160,119926,6,0,B|256:144|248:128|248:128|252:108|252:108|240:76|256:4|340:12,1,191.250007295609,2|0,0:2|0:0,0:0:0:0:
321,84,120498,5,4,1:2:0:0:
172,184,120926,1,0,1:0:0:0:
328,264,121355,1,2,1:2:0:0:
249,117,121640,6,0,L|256:160,1,42.5,0|0,1:2|0:0,0:0:0:0:
244,288,121926,1,0,0:0:0:0:
244,288,122069,2,0,L|237:245,1,42.5,0|0,1:0|0:0,0:0:0:0:
340,132,122355,1,0,0:0:0:0:
172,184,122498,1,2,1:2:0:0:
336,232,122640,1,0,0:2:0:0:
256,160,122783,5,0,1:0:0:0:
116,312,123212,1,0,1:0:0:0:
128,104,123640,1,2,1:2:0:0:
178,226,123926,6,0,L|172:184,1,42.5,0|0,1:0|0:0,0:0:0:0:
52,144,124212,1,0,0:0:0:0:
52,144,124355,2,0,L|58:186,1,42.5,0|0,1:0|0:0,0:0:0:0:
204,324,124640,1,0,0:0:0:0:
52,304,124783,2,0,L|116:312,1,63.75,2|0,1:2|0:0,0:0:0:0:
115,311,125069,6,0,L|100:212,1,85,0|0,1:0|0:0,0:0:0:0:
272,244,125498,1,2,1:0:0:0:
272,244,125926,2,0,P|229:251|184:256,2,85,2|2|2,1:2|1:2|0:0,0:0:0:0:
336,196,126640,1,2,1:0:0:0:
408,220,126783,2,0,L|416:176,1,42.5,2|0,0:0|0:0,0:0:0:0:
272,128,127069,2,0,L|264:84,1,42.5,2|0,1:2|0:2,0:0:0:0:
367,9,127355,6,0,B|391:38|391:58|391:58|367:63,1,63.75,0|0,1:0|0:0,0:0:0:0:
211,126,127640,6,0,B|226:80|249:67|249:67|269:92,1,95.6250036478044,0|0,1:0|0:0,0:0:0:0:
417,232,127926,6,0,B|355:246|324:226|324:226|339:187,1,127.5,0|0,1:0|0:0,0:0:0:0:
334,119,128212,6,0,L|491:143,1,159.375,0|0,1:0|0:0,0:0:0:0:
491,143,128498,6,8,L|528:124,3,42.5
456,276,128783,2,8,L|464:232,1,42.5
404,36,128926,2,8,L|411:77,1,42.5
375,196,129069,5,0,1:0:0:0:
375,196,130498,6,0,B|407:153|407:153|335:113|285:175,1,191.250007295609,14|0,3:0|0:0,0:0:0:0:
124,228,130783,6,0,B|160:192|208:204|208:204|228:260|300:256,1,187.000005706787,6|8,0:2|0:0,0:0:0:0:
312,101,131212,2,0,B|316:82|296:50|296:50|253:110|284:174,1,187.000005706787,2|0,0:2|0:0,0:0:0:0:
373,284,131640,2,0,P|386:239|374:195,1,93.5000028533936,8|2,0:2|0:2,0:0:0:0:
188,124,131926,5,2,0:2:0:0:
256,336,132069,1,0,0:0:0:0:
124,228,132212,1,8,0:0:0:0:
320,232,132355,6,0,P|372:228|424:208,1,93.5000028533936,2|0,0:2|0:0,0:0:0:0:
472,164,132569,1,0,0:0:0:0:
472,164,132640,2,0,L|464:228,1,46.7500014266968,0|0,0:0|2:0,0:0:0:0:
456,292,132783,1,8,0:0:0:0:
344,144,132926,6,0,B|243:123|273:204|153:184,1,187.000005706787,2|2,0:2|0:2,0:0:0:0:
172,12,133355,2,0,P|196:56|192:112,1,93.5000028533936,10|0,0:0|0:0,0:0:0:0:
60,308,133640,2,0,P|61:261|84:221,1,93.5000028533936,2|0,0:0|0:0,0:0:0:0:
168,186,133926,1,8,0:0:0:0:
276,316,134069,6,0,P|240:348|152:332,1,140.25000428009,2|0,0:2|2:0,0:0:0:0:
154,334,134355,2,0,L|143:271,1,46.7500014266968,0|0,0:0|2:0,0:0:0:0:
116,112,134498,1,8,0:0:0:0:
116,112,134640,1,2,0:2:0:0:
256,220,134783,6,0,P|296:228|352:200,1,93.5000028533936,2|0,0:0|0:0,0:0:0:0:
288,52,135069,2,0,P|261:82|257:145,1,93.5000028533936,10|0,0:0|0:0,0:0:0:0:
426,241,135355,6,0,P|431:151|363:92,1,187.000005706787,2|8,0:2|0:0,0:0:0:0:
180,8,135783,2,0,P|111:66|116:157,1,187.000005706787,2|0,0:2|0:0,0:0:0:0:
256,220,136212,2,0,L|244:124,1,93.5000028533936,8|2,0:0|0:2,0:0:0:0:
204,304,136498,6,0,P|244:320|308:304,1,93.5000028533936,2|0,0:2|0:0,0:0:0:0:
292,312,136712,1,0,0:0:0:0:
292,312,136783,1,8,0:0:0:0:
432,156,136926,2,0,P|386:148|343:164,1,93.5000028533936,2|0,0:2|0:0,0:0:0:0:
256,220,137212,5,2,0:2:0:0:
320,72,137355,1,8,0:0:0:0:
400,248,137498,2,0,L|504:232,1,93.5000028533936,2|0,0:1|0:0,0:0:0:0:
343,164,137783,1,2,0:2:0:0:
300,320,137926,6,0,L|196:336,1,93.5000028533936,8|0,0:0|0:0,0:0:0:0:
164,118,138212,2,0,B|200:98|200:98|176:210,1,140.25000428009,2|0,0:0|2:0,0:0:0:0:
80,268,138498,2,0,P|112:256|140:260,1,46.7500014266968,10|0,0:0|2:0,0:0:0:0:
207,334,138640,5,10,0:2:0:0:
207,334,139355,6,0,P|260:312|272:272,1,95.6250036478044,2|0,0:0|0:0,0:0:0:0:
332,224,139640,6,0,P|328:160|200:128,1,191.250007295609,2|0,0:0|0:0,0:0:0:0:
136,80,139926,6,0,P|145:135|152:204,1,101.999996887207,12|0,0:2|0:0,0:0:0:0:
136,256,140140,1,0,0:0:0:0:
132,272,140212,1,8,0:0:0:0:
222,116,140355,1,2,0:2:0:0:
52,92,140498,2,0,L|0:84,2,50.9999984436036,8|0|0,0:0|0:0|0:0,0:0:0:0:
222,116,140783,5,8,0:0:0:0:
44,188,140926,1,2,0:2:0:0:
224,240,141069,2,0,L|336:224,1,101.999996887207,8|0,0:0|0:0,0:0:0:0:
150,180,141355,1,8,0:0:0:0:
183,342,141498,2,0,L|284:328,1,101.999996887207,2|8,0:2|0:0,0:0:0:0:
436,216,141783,2,0,P|426:247|422:282,1,50.9999984436036,2|0,0:2|2:0,0:0:0:0:
224,240,141926,2,0,P|223:214|218:189,1,50.9999984436036,8|0,0:0|2:0,0:0:0:0:
332,123,142069,6,0,L|324:224,1,101.999996887207,2|8,0:2|0:0,0:0:0:0:
314,363,142355,1,2,0:2:0:0:
316,337,142426,1,0,0:0:0:0:
318,312,142497,1,10,0:0:0:0:
332,123,142640,1,0,0:0:0:0:
216,276,142783,5,10,0:0:0:0:
436,216,142926,1,0,0:0:0:0:
228,152,143069,1,8,0:2:0:0:
324,224,143212,6,0,L|332:123,1,101.999996887207,2|8,0:2|0:0,0:0:0:0:
148,292,143498,1,2,0:2:0:0:
56,252,143640,2,0,B|48:300|48:300|64:352,1,101.999996887207,8|2,0:0|0:2,0:0:0:0:
235,250,143926,2,0,B|243:202|243:202|227:150,1,101.999996887207,10|0,0:0|0:0,0:0:0:0:
120,76,144212,2,0,L|136:196,1,101.999996887207,10|0,0:0|0:0,0:0:0:0:
148,292,144498,5,12,0:2:0:0:
36,120,144640,1,0,0:0:0:0:
36,120,144712,1,0,0:0:0:0:
36,120,144783,1,8,0:0:0:0:
227,151,144926,2,0,P|279:151|335:127,1,101.999996887207,2|8,0:2|0:0,0:0:0:0:
260,64,145212,1,0,0:0:0:0:
456,200,145355,2,0,P|405:199|357:217,1,101.999996887207,8|2,0:0|0:2,0:0:0:0:
232,340,145640,6,0,L|248:232,1,101.999996887207,8|0,0:0|0:0,0:0:0:0:
227,151,145855,1,0,0:0:0:0:
223,135,145926,1,8,0:0:0:0:
320,320,146069,2,0,B|445:349|396:256|524:288,1,203.999993774414,2|0,0:2|0:0,0:0:0:0:
416,36,146498,6,0,P|392:27|366:26,1,50.9999984436036,10|0,0:0|2:0,0:0:0:0:
364,240,146640,2,0,B|376:108|376:108|360:156|324:160,1,203.999993774414,2|0,3:0|0:0,0:0:0:0:
92,100,147069,6,0,P|115:91|141:90,1,50.9999984436036,10|0,0:0|2:0,0:0:0:0:
144,304,147212,2,0,B|132:172|132:172|148:220|184:224,1,203.999993774414,2|0,0:3|0:0,0:0:0:0:
348,168,147640,6,0,L|288:160,1,50.9999984436036,10|0,0:0|2:0,0:0:0:0:
212,148,147783,1,2,0:3:0:0:
262,315,147926,6,0,P|319:321|366:291,1,101.999996887207,2|2,1:3|2:3,0:0:0:0:
250,69,148212,2,0,P|193:63|146:93,1,101.999996887207,8|2,1:1|2:3,0:0:0:0:
120,208,148498,5,10,1:2:0:0:
154,224,148569,1,8,2:0:0:0:
192,226,148640,1,8,2:0:0:0:
228,215,148712,1,8,2:0:0:0:
258,191,148783,1,8,1:2:0:0:
286,167,148855,1,8,0:2:0:0:
322,155,148927,1,8,0:2:0:0:
360,158,148998,1,8,0:2:0:0:
395,174,149069,6,0,L|412:276,1,95.6250036478044,2|0,3:2|0:0,0:0:0:0:
410,268,149355,6,0,P|362:259|312:264,1,93.5000028533936,4|2,0:2|0:2,0:0:0:0:
412,76,149640,2,0,P|460:84|510:80,1,93.5000028533936,0|0,0:0|0:0,0:0:0:0:
484,196,149926,1,10,0:2:0:0:
312,136,150069,2,0,L|296:36,1,93.5000028533936,0|0,0:0|0:0,0:0:0:0:
105,145,150355,6,0,P|100:195|140:164,1,127.500004863739,2|8,0:0|0:0,0:0:0:0:
160,32,150640,2,0,P|119:2|126:52,1,127.500004863739,2|0,0:0|0:0,0:0:0:0:
230,135,150926,2,0,P|275:114|229:95,1,127.500004863739,2|8,0:0|0:2,0:0:0:0:
4,180,151212,1,0,0:0:0:0:
4,180,151283,1,0,0:0:0:0:
4,180,151355,6,0,P|24:240|156:268,1,187.000005706787,2|8,0:2|0:0,0:0:0:0:
336,104,151783,2,0,P|316:164|184:192,1,187.000005706787,2|0,0:2|0:0,0:0:0:0:
128,132,152212,1,10,0:2:0:0:
220,20,152355,2,0,P|240:76|224:136,1,93.5000028533936,0|0,0:0|0:0,0:0:0:0:
134,377,152640,6,0,B|138:313|138:313|186:353,1,127.500004863739,2|8,0:0|0:0,0:0:0:0:
206,201,152926,2,0,B|148:229|148:229|159:167,1,127.500004863739,2|0,0:0|0:0,0:0:0:0:
18,227,153212,2,0,B|71:262|71:262|12:284,1,127.500004863739,2|8,0:0|0:0,0:0:0:0:
16,84,153498,1,0,0:0:0:0:
32,72,153569,1,0,0:0:0:0:
48,60,153640,6,0,B|103:56|103:56|162:88|162:88|238:82,1,187.000005706787,2|8,0:2|0:0,0:0:0:0:
366,24,154069,2,0,B|358:72|358:72|374:124,1,93.5000028533936,2|0,0:2|0:0,0:0:0:0:
450,68,154355,1,0,0:0:0:0:
300,172,154498,1,10,0:2:0:0:
470,244,154640,2,0,L|478:136,1,93.5000028533936,0|0,0:0|0:0,0:0:0:0:
370,256,154926,6,0,B|354:216|354:216|350:184|350:184|330:124,1,127.500004863739,2|8,0:0|0:0,0:0:0:0:
281,302,155212,2,0,B|252:269|252:269|237:241|237:241|198:191,1,127.500004863739,2|0,0:0|0:0,0:0:0:0:
213,375,155498,2,0,B|175:354|175:354|151:332|151:332|97:299,1,127.500004863739,2|8,0:0|0:0,0:0:0:0:
64,156,155783,1,0,0:0:0:0:
27,232,155926,6,0,B|131:260|107:176|223:204,1,187.000005706787,2|8,0:2|0:0,0:0:0:0:
368,132,156355,2,0,P|308:132|272:108,1,93.5000028533936,2|0,0:2|0:0,0:0:0:0:
344,288,156640,2,0,P|374:236|412:216,1,93.5000028533936,0|10,0:0|0:2,0:0:0:0:
340,52,156926,1,0,0:0:0:0:
340,52,156998,1,0,0:0:0:0:
340,52,157069,1,0,0:0:0:0:
264,236,157212,6,0,B|200:248|200:248|136:208,1,127.500004863739,2|8,0:0|0:0,0:0:0:0:
192,36,157498,2,0,B|236:36|260:-4|260:-4|216:180,1,255.000009727478,2|0,0:2|0:0,0:0:0:0:
176,324,157926,1,8,0:0:0:0:
176,324,158212,6,0,P|116:332|76:352,1,93.5000028533936,6|0,0:2|0:0,0:0:0:0:
272,348,158498,1,8,0:0:0:0:
112,236,158640,2,0,P|172:228|196:108,1,187.000005706787,2|0,0:2|0:0,0:0:0:0:
96,40,159069,2,0,P|80:88|96:152,1,93.5000028533936,10|0,0:2|0:2,0:0:0:0:
288,228,159355,1,0,0:0:0:0:
360,152,159498,5,2,0:0:0:0:
196,260,159640,1,8,0:0:0:0:
376,288,159783,5,2,0:0:0:0:
192,236,159926,1,0,0:0:0:0:
444,208,160069,5,2,0:0:0:0:
274,320,160212,2,0,L|288:228,1,93.5000028533936,8|0,0:2|0:0,0:0:0:0:
316,32,160498,6,0,P|352:80|344:140,1,93.5000028533936,2|0,0:2|0:0,0:0:0:0:
140,200,160783,1,8,0:0:0:0:
272,104,160926,2,0,P|248:159|192:182,1,93.5000028533936,2|0,0:2|0:0,0:0:0:0:
38,35,161212,1,0,0:0:0:0:
187,101,161355,2,0,P|127:108|79:71,1,93.5000028533936,10|0,0:2|0:0,0:0:0:0:
64,284,161640,1,0,0:0:0:0:
0,204,161783,5,2,0:0:0:0:
168,300,161926,1,8,0:0:0:0:
64,284,162069,5,2,0:0:0:0:
248,248,162212,1,0,0:0:0:0:
103,383,162355,5,2,0:0:0:0:
129,201,162498,1,8,0:0:0:0:
133,178,162569,1,0,0:0:0:0:
137,155,162640,1,0,0:0:0:0:
141,131,162712,1,0,0:0:0:0:
145,108,162783,6,0,L|128:8,1,93.5000028533936,6|0,0:2|0:0,0:0:0:0:
48,112,163069,1,8,0:0:0:0:
232,160,163212,2,0,P|276:100|388:136,1,187.000005706787,2|0,0:2|0:0,0:0:0:0:
440,244,163640,2,0,P|384:224|336:216,1,93.5000028533936,10|0,0:2|0:0,0:0:0:0:
148,262,163926,1,0,0:0:0:0:
198,121,164069,5,2,0:0:0:0:
234,321,164212,1,8,0:0:0:0:
302,129,164355,5,2,0:0:0:0:
148,262,164498,1,0,0:0:0:0:
350,217,164640,5,2,0:0:0:0:
234,321,164783,2,0,L|220:208,1,93.5000028533936,8|0,0:0|0:0,0:0:0:0:
319,43,165069,6,0,P|383:99|355:199,1,187.000005706787,10|8,0:2|0:2,0:0:0:0:
76,280,165498,2,0,P|55:193|121:132,1,187.000005706787,2|2,0:3|0:3,0:0:0:0:
222,228,165926,2,0,L|234:321,1,93.5000028533936,8|2,0:2|0:3,0:0:0:0:
211,135,166212,6,0,L|202:52,2,46.7500014266968,10|8|8,1:2|2:2|2:2,0:0:0:0:
148,304,166498,1,8,1:2:0:0:
312,228,166640,1,8,2:2:0:0:
112,212,166783,5,8,0:2:0:0:
276,336,166926,1,8,0:2:0:0:
400,172,167069,1,4,1:3:0:0:
236,48,167212,1,8,2:3:0:0:
256,192,167355,5,12,1:2:0:0:
256,192,167640,2,0,L|240:260,1,63.7500024318696,0|0,0:0|0:0,0:0:0:0:
340,232,167926,2,0,L|364:380,1,127.500004863739,2|0,0:0|0:0,0:0:0:0:
408,168,168355,2,0,L|444:227,1,63.7500024318696,2|0,0:0|0:0,0:0:0:0:
240,176,168640,6,0,L|200:256,1,63.7500024318696,2|0,0:0|0:0,0:0:0:0:
417,147,168926,2,0,L|480:211,1,63.7500024318696,2|0,0:0|0:0,0:0:0:0:
318,92,169212,1,2,0:0:0:0:
340,232,169355,2,0,L|355:315,1,63.7500024318696,2|2,0:0|0:0,0:0:0:0:
318,92,169640,5,2,0:0:0:0:
318,92,169926,2,0,L|252:76,1,63.7500024318696,0|0,0:0|0:0,0:0:0:0:
240,176,170212,2,0,L|84:196,1,127.500004863739,2|0,0:0|0:0,0:0:0:0:
340,232,170640,2,0,L|280:264,1,63.7500024318696,2|0,0:0|0:0,0:0:0:0:
324,72,170926,6,0,L|256:48,1,63.7500024318696,2|0,0:0|0:0,0:0:0:0:
343,250,171212,2,0,L|283:290,1,63.7500024318696,2|0,0:0|0:0,0:0:0:0:
325,165,171498,1,2,0:0:0:0:
240,176,171640,1,2,0:0:0:0:
155,187,171783,1,2,0:0:0:0:
325,165,171926,5,2,0:0:0:0:
325,165,172212,2,0,L|406:155,1,63.7500024318696,0|0,0:0|0:0,0:0:0:0:
292,252,172498,2,0,L|440:236,1,127.500004863739,2|0,0:0|0:0,0:0:0:0:
259,339,172926,2,0,L|340:329,1,63.7500024318696,2|0,0:0|0:0,0:0:0:0:
325,165,173212,6,0,L|406:155,1,63.7500024318696,2|0,0:0|0:0,0:0:0:0:
292,252,173498,2,0,L|373:242,1,63.7500024318696,2|0,0:0|0:0,0:0:0:0:
180,348,173783,1,2,0:0:0:0:
259,339,173926,2,0,L|340:329,1,63.7500024318696,2|2,0:0|0:0,0:0:0:0:
191,170,174212,5,2,0:0:0:0:
191,170,174498,2,0,P|159:165|119:147,1,63.7500024318696,0|0,0:0|0:0,0:0:0:0:
256,124,174783,2,0,L|256:-16,1,127.500004863739,2|0,0:0|0:0,0:0:0:0:
320,170,175212,2,0,P|353:165|392:147,1,63.7500024318696,2|0,0:0|0:0,0:0:0:0:
216,247,175498,6,0,P|191:273|171:308,1,63.7500024318696,2|0,0:0|0:0,0:0:0:0:
295,247,175783,2,0,P|320:273|340:308,1,63.7500024318696,2|0,0:0|0:0,0:0:0:0:
256,320,176069,1,2,0:0:0:0:
256,320,176212,1,2,0:0:0:0:
256,124,176355,5,2,0:0:0:0:
