osu file format v14

[General]
AudioFilename: audio.mp3
AudioLeadIn: 0
PreviewTime: 56069
Countdown: 0
SampleSet: Soft
StackLeniency: 0.7
Mode: 0
LetterboxInBreaks: 0
WidescreenStoryboard: 1

[Editor]
DistanceSpacing: 1
BeatDivisor: 4
GridSize: 8
TimelineZoom: 1

[Metadata]
Title:Streaming Heart
TitleUnicode:ストリーミングハート
Artist:Ayaponzu*
ArtistUnicode:あやぽんず*
Creator:Lasse
Version:Normal
Source:
Tags:deco*27 deco27 cover utaite pon'po drop toybot karen chromoxx
BeatmapID:1170457
BeatmapSetID:552702

[Difficulty]
HPDrainRate:4
CircleSize:3.2
OverallDifficulty:4
ApproachRate:5
SliderMultiplier:0.999999999999999
SliderTickRate:1

[Events]
//Background and Video events
0,0,"bg.jpg",0,0
//Break Periods
2,74983,82726
2,104698,109298
//Storyboard Layer 0 (Background)
//Storyboard Layer 1 (Fail)
//Storyboard Layer 2 (Pass)
//Storyboard Layer 3 (Foreground)
//Storyboard Sound Samples

[TimingPoints]
498,285.714285714286,4,2,1,55,1,0
498,-111.111111111111,4,2,1,55,0,0
9640,-100,4,2,1,70,0,0
27640,-100,4,2,2,70,0,0
27926,-100,4,2,1,40,0,0
28069,-100,4,2,1,40,0,0
28212,-100,4,2,1,5,0,0
28307,-100,4,2,1,40,0,0
28498,-100,4,2,1,44,0,0
28688,-100,4,2,1,48,0,0
28878,-100,4,2,1,52,0,0
29069,-111.111111111111,4,2,1,58,0,0
37069,-111.111111111111,4,2,1,60,0,0
37498,-111.111111111111,4,2,1,62,0,0
38069,-111.111111111111,4,2,1,64,0,0
38212,-100,4,1,1,65,0,0
47355,-111.111111111111,4,2,1,50,0,0
51926,-111.111111111111,4,2,1,55,0,0
53283,-111.111111111111,4,2,99,5,0,0
53355,-111.111111111111,4,2,1,55,0,0
54212,-111.111111111111,4,2,1,60,0,0
55283,-111.111111111111,4,2,99,5,0,0
55355,-100,4,2,1,60,0,0
55426,-100,4,2,1,61,0,0
55498,-100,4,2,1,62,0,0
55569,-100,4,2,1,63,0,0
55640,-100,4,2,1,65,0,0
55712,-100,4,2,1,67,0,0
55783,-100,4,2,1,70,0,0
55855,-100,4,2,1,73,0,0
55926,-100,4,2,1,67,0,0
55998,-100,4,2,98,20,0,0
56426,-100,4,2,99,5,0,0
56498,-90.9090909090908,4,1,33,75,0,1
56783,-90.9090909090908,4,1,1,75,0,1
57855,-90.9090909090908,4,2,99,5,0,1
57926,-90.9090909090908,4,1,1,75,0,1
62426,-90.9090909090908,4,2,99,5,0,1
62498,-90.9090909090908,4,1,1,75,0,1
63355,-90.9090909090908,4,1,1,78,0,1
64498,-90.9090909090909,4,2,1,65,0,0
64712,-90.9090909090909,4,2,99,5,0,0
64783,-90.9090909090909,4,2,1,30,0,0
64926,-90.9090909090909,4,2,1,50,0,0
65069,-90.9090909090909,4,2,1,63,0,0
65140,-90.9090909090909,4,2,1,64,0,0
65212,-90.9090909090909,4,2,1,65,0,0
65283,-90.9090909090909,4,2,1,66,0,0
65354,-90.9090909090909,4,2,2,68,0,0
65426,-90.9090909090909,4,2,2,70,0,0
65497,-90.9090909090909,4,2,2,72,0,0
65569,-90.9090909090909,4,2,2,74,0,0
65640,-90.9090909090908,4,1,1,77,0,1
72498,-90.9090909090908,4,1,1,80,0,1
73783,-90.9090909090908,4,1,1,78,0,1
73926,-90.9090909090908,4,2,2,78,0,1
74069,-90.9090909090908,4,2,2,75,0,1
74355,-90.9090909090908,4,2,2,72,0,1
74498,-90.9090909090908,4,2,2,70,0,1
74640,-90.9090909090908,4,2,2,68,0,1
74783,-99.9999999999999,4,2,1,66,0,0
74926,-99.9999999999999,4,2,1,60,0,0
83926,-111.111111111111,4,2,44,50,0,0
91640,-111.111111111111,4,2,44,53,0,0
91855,-111.111111111111,4,2,99,5,0,0
91926,-111.111111111111,4,2,1,56,0,0
92212,-111.111111111111,4,2,2,59,0,0
92283,-111.111111111111,4,2,2,61,0,0
92355,-111.111111111111,4,2,2,63,0,0
92426,-111.111111111111,4,2,2,65,0,0
92498,-111.111111111111,4,2,2,67,0,0
92569,-111.111111111111,4,2,2,69,0,0
92640,-111.111111111111,4,2,1,71,0,0
92712,-111.111111111111,4,2,98,20,0,0
92998,-111.111111111111,4,2,99,5,0,0
93069,-100,4,1,1,65,0,0
102212,-100,4,2,1,70,0,0
102283,-111.111111111111,4,2,1,55,0,0
104212,-111.111111111111,4,2,44,55,0,0
104498,-111.111111111111,4,2,44,30,0,0
110355,-111.111111111111,4,2,1,45,0,0
110498,-111.111111111111,4,2,44,50,0,0
110640,-111.111111111111,4,2,1,40,0,0
110926,-111.111111111111,4,2,1,35,0,0
111069,-111.111111111111,4,2,44,55,0,0
111212,-111.111111111111,4,2,44,62,0,0
111355,-99.9999999999999,4,2,55,70,0,0
119926,-99.9999999999999,4,2,1,60,0,0
119998,-99.9999999999999,4,2,1,10,0,0
120355,-99.9999999999999,4,2,99,10,0,0
120498,-111.111111111111,4,2,1,50,0,0
125069,-100,4,2,1,57,0,0
126426,-100,4,2,99,5,0,0
126498,-100,4,2,1,57,0,0
127355,-100,4,2,1,60,0,0
128426,-100,4,2,99,5,0,0
128498,-100,4,2,1,64,0,0
128569,-100,4,2,1,65,0,0
128641,-100,4,2,1,66,0,0
128712,-100,4,2,1,67,0,0
128783,-100,4,2,1,70,0,0
128855,-100,4,2,1,72,0,0
128926,-100,4,2,1,74,0,0
128998,-100,4,2,1,76,0,0
129069,-100,4,2,1,78,0,0
130498,-100,4,1,33,75,0,0
130712,-100,4,2,99,5,0,0
130783,-90.9090909090908,4,1,33,77,0,1
131069,-90.9090909090908,4,1,1,77,0,1
132140,-90.9090909090908,4,2,99,5,0,1
132212,-90.9090909090908,4,1,1,77,0,1
136712,-90.9090909090908,4,2,99,5,0,1
136783,-90.9090909090908,4,1,1,77,0,1
137640,-90.9090909090908,4,1,1,78,0,1
138498,-90.9090909090908,4,1,1,80,0,1
138640,-100,4,2,1,60,0,0
139069,-111.111111111111,4,2,1,50,0,0
139355,-111.111111111111,4,2,1,53,0,0
139569,-111.111111111111,4,2,99,5,0,0
139640,-111.111111111111,4,2,1,56,0,0
139855,-111.111111111111,4,2,99,5,0,0
139926,-90.9090909090908,4,1,1,82,0,1
145855,-90.9090909090908,4,2,99,5,0,1
145926,-90.9090909090908,4,1,1,82,0,1
146498,-90.9090909090908,4,1,1,83,0,1
147069,-90.9090909090908,4,1,1,84,0,1
147640,-90.9090909090908,4,1,1,85,0,1
147926,-90.9090909090908,4,1,1,75,0,1
148212,-90.9090909090908,4,1,1,78,0,1
148498,-90.9090909090908,4,2,2,80,0,1
148783,-90.9090909090908,4,2,2,83,0,1
149069,-90.9090909090908,4,1,33,50,0,0
149283,-90.9090909090908,4,2,99,5,0,0
149355,-90.9090909090908,4,1,1,78,0,1
157926,-90.9090909090908,4,1,1,70,0,0
158212,-90.9090909090908,4,1,1,80,0,1
162498,-90.9090909090908,4,1,1,72,0,0
162783,-90.9090909090908,4,1,1,82,0,1
165069,-90.9090909090908,4,1,1,84,0,1
166212,-90.9090909090908,4,1,2,82,0,1
166783,-90.9090909090909,4,1,1,80,0,1
166926,-90.9090909090909,4,1,1,78,0,1
167069,-90.9090909090909,4,1,1,76,0,1
167212,-90.9090909090909,4,1,1,74,0,1
167355,-111.111111111111,4,1,1,55,0,0
167640,-111.111111111111,4,2,1,50,0,0
169640,-111.111111111111,4,2,1,48,0,0
171926,-111.111111111111,4,2,1,46,0,0
174212,-111.111111111111,4,2,1,44,0,0
176498,-111.111111111111,4,2,1,42,0,0

[Colours]
Combo1 : 20,231,152
Combo2 : 26,221,242
Combo3 : 255,51,122
Combo4 : 130,138,198

[HitObjects]
86,37,498,6,0,L|79:126,1,89.999997253418,0|0,1:2|1:2,0:0:0:0:
97,167,926,1,0,0:2:0:0:
120,205,1069,2,0,B|154:218|154:218|217:216,1,89.999997253418,0|0,1:2|1:2,0:0:0:0:
282,166,1640,2,0,B|316:153|316:153|369:154,1,89.999997253418,0|0,1:2|1:2,0:0:0:0:
439,210,2212,2,0,L|446:299,1,89.999997253418,0|0,1:2|1:2,0:0:0:0:
371,350,2783,6,0,P|327:332|276:328,1,89.999997253418,0|0,1:2|1:2,0:0:0:0:
240,337,3212,1,0,0:2:0:0:
194,346,3355,2,0,L|105:339,1,89.999997253418,0|0,1:2|1:2,0:0:0:0:
40,275,3926,2,0,B|27:241|27:241|28:188,1,89.999997253418,0|0,1:2|1:2,0:0:0:0:
90,121,4498,2,0,L|179:114,1,89.999997253418,0|0,1:2|1:2,0:0:0:0:
260,154,5069,6,0,B|269:186|269:186|268:209|268:209|276:246,1,89.999997253418,0|0,1:2|1:2,0:0:0:0:
298,280,5498,1,0,0:2:0:0:
324,315,5640,2,0,P|365:329|411:315,1,89.999997253418,0|0,1:2|1:2,0:0:0:0:
455,240,6212,2,0,B|464:208|464:208|463:185|463:185|471:148,1,89.999997253418,0|0,1:2|1:2,0:0:0:0:
443,65,6783,2,0,P|406:40|361:41,1,89.999997253418,0|0,1:2|1:2,0:0:0:0:
277,75,7355,5,0,1:2:0:0:
47,352,8498,6,0,B|83:359|83:359|145:352,1,89.999997253418,4|8,3:0|3:0,0:0:0:0:
213,307,9069,2,0,B|249:300|249:300|301:305,1,89.999997253418,8|8,3:2|3:2,0:0:0:0:
344,320,9498,1,8,3:2:0:0:
387,334,9640,6,0,B|429:354|429:354|462:316|454:254,1,150,6|0,1:2|1:2,0:0:0:0:
427,214,10212,2,0,B|395:203|395:203|363:201|363:201|313:188,1,99.9999999999999,8|2,0:0|0:1,0:0:0:0:
237,154,10783,2,0,B|151:143,2,74.9999999999999,2|0|0,1:2|1:0|1:0,0:0:0:0:
261,109,11355,2,0,P|277:56|266:9,1,99.9999999999999,8|2,0:0|0:1,0:0:0:0:
177,55,11926,6,0,B|119:51|119:51|74:32|74:32|34:55,1,150,2|0,1:2|1:0,0:0:0:0:
21,101,12498,1,8,0:0:0:0:
80,181,12783,1,2,0:1:0:0:
171,220,13069,2,0,B|257:231,2,74.9999999999999,2|0|0,1:2|1:0|1:0,0:0:0:0:
151,266,13640,2,0,B|138:314|138:314|152:370,1,99.9999999999999,8|2,0:0|0:1,0:0:0:0:
250,352,14212,6,0,B|302:346|302:346|356:368|396:341,1,150,2|0,1:2|1:0,0:0:0:0:
424,301,14783,2,0,L|430:185,1,99.9999999999999,8|2,0:0|0:1,0:0:0:0:
390,108,15355,2,0,L|393:33,2,74.9999999999999,2|0|0,1:2|1:0|1:0,0:0:0:0:
348,135,15926,2,0,P|306:148|251:129,1,99.9999999999999,8|2,0:0|0:1,0:0:0:0:
178,64,16498,6,0,P|110:34|39:55,1,150,2|0,1:2|1:0,0:0:0:0:
17,100,17069,1,8,0:0:0:0:
51,194,17355,1,2,0:1:0:0:
85,288,17640,2,0,B|79:312|79:312|80:330|80:330|64:375,2,74.9999999999999,2|0|0,1:2|1:0|1:2,0:0:0:0:
133,273,18212,2,0,B|167:272|167:272|185:281|185:281|243:293,1,99.9999999999999,8|8,0:0|0:3,0:0:0:0:
278,301,18640,1,8,0:3:0:0:
326,290,18783,6,0,B|363:254|363:254|373:204|345:159,1,150,6|0,1:2|1:2,0:0:0:0:
298,140,19355,2,0,B|264:134|264:134|232:137|232:137|181:132,1,99.9999999999999,8|2,0:0|0:1,0:0:0:0:
125,65,19926,2,0,B|39:54,2,74.9999999999999,2|0|0,1:2|1:0|1:0,0:0:0:0:
162,31,20498,2,0,B|195:28|195:28|227:31|227:31|261:25,1,99.9999999999999,8|2,0:0|0:1,0:0:0:0:
359,45,21069,6,0,B|399:60|432:45|432:45|460:82|452:115,1,150,2|0,1:2|1:0,0:0:0:0:
427,158,21640,1,8,0:0:0:0:
334,188,21926,1,2,0:1:0:0:
241,218,22212,2,0,B|164:206,2,74.9999999999999,2|0|0,1:2|1:0|1:0,0:0:0:0:
270,258,22783,2,0,B|274:293|274:293|267:326|267:326|269:362,1,99.9999999999999,8|2,0:0|0:1,0:0:0:0:
368,363,23355,6,0,B|397:347|432:352|432:352|474:373|511:350,1,150,2|0,1:2|1:0,0:0:0:0:
508,300,23926,2,0,L|502:184,1,99.9999999999999,8|2,0:0|0:1,0:0:0:0:
468,105,24498,2,0,L|464:30,2,74.9999999999999,2|0|0,1:2|1:0|1:0,0:0:0:0:
430,138,25069,2,0,B|391:145|391:145|366:130|333:132,1,99.9999999999999,8|2,0:0|0:1,0:0:0:0:
253,192,25640,6,0,B|245:213|244:239|244:239|266:294|236:336,1,150,2|0,1:2|1:0,0:0:0:0:
198,369,26212,1,8,0:0:0:0:
147,282,26498,1,2,0:1:0:0:
96,195,26783,2,0,B|66:191|66:191|45:193|45:193|6:187,2,74.9999999999999,2|0|0,1:2|1:0|1:0,0:0:0:0:
133,161,27355,2,0,B|140:126|140:126|136:104|136:104|143:62,1,99.9999999999999,8|8,0:0|0:2,0:0:0:0:
188,40,27783,1,8,0:2:0:0:
234,18,27926,5,8,0:3:0:0:
444,309,29069,6,0,B|407:324|407:324|342:321,1,89.999997253418,0|0,1:0|0:0,0:0:0:0:
281,272,29640,1,8,0:2:0:0:
205,222,29926,2,0,B|159:212|159:212|119:225|119:225|70:221,2,134.999995880127,0|0|8,0:0|1:0|0:0,0:0:0:0:
286,181,31069,1,0,0:0:0:0:
367,139,31355,6,0,P|381:98|369:55,1,89.999997253418,0|0,1:0|0:0,0:0:0:0:
294,5,31926,1,8,0:0:0:0:
213,44,32212,2,0,L|71:34,2,134.999995880127,0|0|8,0:0|1:0|0:0,0:0:0:0:
288,94,33355,1,0,0:0:0:0:
369,144,33640,6,0,P|379:186|363:227,1,89.999997253418,0|0,1:0|0:0,0:0:0:0:
284,271,34212,1,8,0:2:0:0:
204,313,34498,2,0,B|158:323|158:323|118:310|118:310|69:314,2,134.999995880127,0|0|8,0:0|1:0|0:0,0:0:0:0:
281,362,35640,1,0,0:0:0:0:
361,320,35926,6,0,B|402:307|402:307|451:329|496:311,1,134.999995880127,0|0,1:0|1:0,0:0:0:0:
509,270,36498,2,0,L|511:171,1,89.999997253418,8|2,0:0|0:0,0:0:0:0:
490,92,37069,2,0,P|445:77|400:81,1,89.999997253418,0|8,1:0|1:2,0:0:0:0:
367,108,37498,2,0,P|322:110|280:96,1,89.999997253418,0|8,1:2|1:2,0:0:0:0:
250,61,37926,2,0,P|221:52|189:53,1,44.999998626709,8|8,1:2|0:0,0:0:0:0:
169,85,38212,6,0,B|152:123|152:123|148:155|162:183,1,99.9999999999999,4|10,1:2|0:2,0:0:0:0:
236,245,38783,2,0,P|247:292|231:339,1,99.9999999999999,0|8,0:0|0:0,0:0:0:0:
188,365,39212,1,0,0:0:0:0:
139,354,39355,2,0,L|32:347,1,99.9999999999999,2|10,0:2|0:0,0:0:0:0:
0,240,39926,2,0,B|-5:195|-5:195|6:125,1,99.9999999999999,0|8,0:0|0:0,0:0:0:0:
88,88,40498,6,0,L|187:94,1,99.9999999999999,0|8,0:0|0:0,0:0:0:0:
228,123,40926,1,0,0:0:0:0:
248,168,41069,2,0,B|248:202|248:202|239:228|239:228|241:267,1,99.9999999999999,0|8,0:2|0:0,0:0:0:0:
304,344,41640,2,0,P|350:360|398:348,1,99.9999999999999,2|10,0:2|0:0,0:0:0:0:
455,265,42212,2,0,L|458:165,1,99.9999999999999,0|8,0:0|0:0,0:0:0:0:
413,75,42783,6,0,B|369:60|369:60|335:72|295:58,1,99.9999999999999,0|8,0:0|0:0,0:0:0:0:
268,48,43212,1,0,0:0:0:0:
221,28,43355,2,0,P|174:11|126:23,1,99.9999999999999,0|8,0:0|0:0,0:0:0:0:
86,114,43926,2,0,L|83:214,1,99.9999999999999,0|10,0:0|0:0,0:0:0:0:
107,258,44355,2,0,P|153:274|201:263,1,99.9999999999999,2|2,0:2|0:2,0:0:0:0:
238,229,44783,1,8,0:0:0:0:
330,267,45069,6,0,B|345:303|345:303|348:334|326:366,1,99.9999999999999,0|8,0:0|0:0,0:0:0:0:
279,370,45498,1,0,0:0:0:0:
230,359,45640,2,0,L|121:353,1,99.9999999999999,0|8,0:0|0:0,0:0:0:0:
45,299,46212,2,0,B|36:265|36:265|46:178,1,99.9999999999999,2|10,0:2|0:2,0:0:0:0:
73,160,46640,2,0,L|82:49,1,99.9999999999999,2|10,0:1|0:2,0:0:0:0:
110,19,47069,1,10,0:0:0:0:
194,50,47355,6,0,B|256:61|257:22|326:37,2,134.999995880127,4|0|2,1:2|1:0|1:2,0:0:0:0:
157,132,48498,2,0,P|147:177|158:221,1,89.999997253418,0|0,1:2|0:0,0:0:0:0:
236,260,49069,2,0,L|328:270,1,89.999997253418,0|2,0:0|1:2,0:0:0:0:
414,281,49640,6,0,B|440:251|440:251|459:196|438:143,2,134.999995880127,0|0|2,1:0|1:0|1:2,0:0:0:0:
360,353,50783,2,0,B|328:368|328:368|264:365,1,89.999997253418,0|0,1:0|0:0,0:0:0:0:
208,302,51355,2,0,L|205:195,1,89.999997253418,0|2,0:0|1:2,0:0:0:0:
258,139,51926,6,0,B|298:126|298:126|323:136|323:136|360:129|407:147,2,134.999995880127,0|0|2,1:0|1:0|1:2,0:0:0:0:
204,212,53069,2,0,P|161:221|118:209,1,89.999997253418,0|0,1:0|0:0,0:0:0:0:
60,140,53640,2,0,L|54:30,1,89.999997253418,0|2,0:0|1:2,0:0:0:0:
139,18,54212,6,0,B|171:13|200:26|200:26|245:70|313:54,1,179.999994506836,0|0,1:0|1:0,0:0:0:0:
402,22,55069,1,2,1:2:0:0:
451,109,55355,6,0,L|446:230,1,99.9999999999999,8|8,2:2|2:2,0:0:0:0:
408,301,55926,1,0,1:0:0:0:
239,159,56498,6,0,B|179:136|179:136|119:145,1,110.000003356934,6|8,0:2|0:0,0:0:0:0:
41,202,57069,2,0,B|36:229|42:249|42:249|27:273|36:324,1,110.000003356934,0|8,0:0|0:2,0:0:0:0:
78,342,57498,1,2,0:2:0:0:
132,347,57640,2,0,B|167:348|167:348|194:340|194:340|257:340,1,110.000003356934,2|8,0:2|0:0,0:0:0:0:
349,366,58212,2,0,B|412:374|412:374|477:353,1,110.000003356934,0|8,0:0|0:0,0:0:0:0:
467,305,58640,1,2,0:2:0:0:
478,251,58783,6,0,L|482:138,1,110.000003356934,0|10,0:0|0:0,0:0:0:0:
381,186,59355,2,0,B|336:200|336:200|273:192,1,110.000003356934,2|8,0:0|0:0,0:0:0:0:
223,169,59783,1,2,0:2:0:0:
172,192,59926,2,0,B|109:200|109:200|64:186,1,110.000003356934,0|8,0:0|0:0,0:0:0:0:
0,96,60498,1,2,0:0:0:0:
66,8,60783,1,10,0:0:0:0:
170,43,61069,6,0,B|214:47|214:47|236:43|236:43|279:47,1,110.000003356934,2|8,0:2|0:0,0:0:0:0:
376,98,61640,2,0,B|420:111|420:111|457:103|497:122,1,110.000003356934,0|8,0:0|0:0,0:0:0:0:
493,170,62069,1,2,0:2:0:0:
503,224,62212,2,0,B|500:294|500:294|474:328,1,110.000003356934,2|8,0:2|0:0,0:0:0:0:
369,353,62783,2,0,L|252:341,1,110.000003356934,0|8,0:0|0:0,0:0:0:0:
204,332,63212,1,2,0:1:0:0:
161,298,63355,6,0,P|148:246|174:193,1,110.000003356934,8|10,0:0|0:0,0:0:0:0:
244,115,63926,1,10,0:0:0:0:
190,20,64212,1,10,0:0:0:0:
82,42,64498,6,0,B|56:78|56:78|41:205,1,165.0000050354,2|0,2:3|0:0,0:0:0:0:
60,249,65069,2,0,P|62:276|59:303,1,55.0000016784668,8|8,0:0|0:0,0:0:0:0:
97,343,65355,2,0,P|124:345|151:342,1,55.0000016784668,8|8,0:0|0:0,0:0:0:0:
188,299,65640,6,0,P|237:278|291:284,1,110.000003356934,6|8,0:2|0:0,0:0:0:0:
378,353,66212,2,0,P|432:359|481:337,1,110.000003356934,0|10,0:0|0:2,0:0:0:0:
505,230,66783,2,0,L|501:117,1,110.000003356934,0|8,0:0|0:0,0:0:0:0:
418,47,67355,2,0,B|382:27|382:27|343:19|298:42,1,110.000003356934,0|8,0:0|0:2,0:0:0:0:
299,87,67783,1,0,0:0:0:0:
283,139,67926,6,0,L|279:252,1,110.000003356934,2|8,0:2|0:0,0:0:0:0:
216,340,68498,2,0,P|162:346|113:324,1,110.000003356934,0|10,0:0|0:2,0:0:0:0:
32,247,69069,2,0,L|36:134,1,110.000003356934,0|8,0:0|0:0,0:0:0:0:
114,58,69640,2,0,B|150:38|150:38|189:30|234:53,1,110.000003356934,0|8,0:0|0:0,0:0:0:0:
265,71,70069,1,0,0:0:0:0:
313,96,70212,6,0,B|358:101|358:101|379:94|379:94|421:98,1,110.000003356934,2|8,0:2|0:0,0:0:0:0:
478,192,70783,2,0,P|488:245|474:298,1,110.000003356934,0|10,0:0|0:2,0:0:0:0:
376,350,71355,2,0,L|266:343,1,110.000003356934,0|8,0:0|0:0,0:0:0:0:
200,255,71926,2,0,B|194:211|194:211|203:181|203:181|198:136,1,110.000003356934,0|8,0:0|0:0,0:0:0:0:
185,93,72355,1,0,0:0:0:0:
144,56,72498,6,0,P|92:39|38:49,1,110.000003356934,10|8,0:2|0:2,0:0:0:0:
12,156,73069,2,0,B|8:190|8:190|17:220|17:220|11:264,1,110.000003356934,10|8,0:2|0:2,0:0:0:0:
84,346,73640,2,0,B|116:361|116:361|200:361,1,110.000003356934,8|8,0:0|1:2,0:0:0:0:
236,329,74069,2,0,B|259:326|259:326|277:329|277:329|292:326|292:326|306:330|306:330|322:328|322:328|350:330,1,110.000003356934,8|8,0:0|0:0,0:0:0:0:
393,355,74498,1,8,1:2:0:0:
452,275,74783,5,4,0:0:0:0:
93,214,83926,6,0,B|69:281|108:284|82:346,2,134.999995880127,4|0|8,1:2|1:0|0:0,0:0:0:0:
163,157,85069,2,0,P|206:148|265:166,1,89.999997253418,0|8,1:0|0:0,0:0:0:0:
285,186,85498,2,0,P|328:195|372:186,1,89.999997253418,0|0,1:0|0:0,0:0:0:0:
408,158,85926,1,8,0:0:0:0:
478,214,86212,6,0,P|487:257|478:301,1,89.999997253418,0|8,1:0|0:0,0:0:0:0:
443,330,86640,2,0,L|388:329,1,44.999998626709,0|0,1:0|0:0,0:0:0:0:
312,357,87069,1,8,0:0:0:0:
228,324,87355,2,0,B|197:311|197:311|165:330|132:324,1,89.999997253418,0|8,1:0|0:0,0:0:0:0:
100,310,87783,2,0,P|90:266|99:222,1,89.999997253418,0|0,1:0|0:0,0:0:0:0:
121,183,88212,1,8,0:0:0:0:
190,125,88498,6,0,B|198:68|198:68|174:27|133:29,2,134.999995880127,0|0|8,1:0|1:0|0:0,0:0:0:0:
206,214,89640,2,0,B|235:228|235:228|309:233,1,89.999997253418,0|8,1:0|0:0,0:0:0:0:
328,203,90069,2,0,L|342:103,1,89.999997253418,0|0,1:0|0:0,0:0:0:0:
367,76,90498,1,8,0:0:0:0:
438,130,90783,6,0,B|460:139|481:138|481:138|487:159|515:182,1,89.999997253418,0|8,1:0|0:0,0:0:0:0:
503,220,91212,2,0,L|497:270,1,44.999998626709,0|0,1:0|0:0,0:0:0:0:
454,344,91640,1,10,0:0:0:0:
374,301,91926,2,0,P|332:283|277:290,1,89.999997253418,8|8,0:0|0:0,0:0:0:0:
255,316,92355,2,0,B|231:317|231:317|210:314,1,44.999998626709,8|8,0:0|0:0,0:0:0:0:
169,295,92640,1,0,1:3:0:0:
76,174,93069,6,0,B|68:138|68:138|80:74,1,99.9999999999999,4|8,0:2|0:0,0:0:0:0:
169,32,93640,2,0,L|277:40,1,99.9999999999999,0|8,0:0|0:0,0:0:0:0:
304,75,94069,1,0,0:0:0:0:
339,110,94212,2,0,B|347:146|347:146|335:210,1,99.9999999999999,2|8,0:2|0:0,0:0:0:0:
239,237,94783,2,0,L|131:229,1,99.9999999999999,0|8,0:0|0:0,0:0:0:0:
38,229,95355,6,0,B|8:247|8:247|-8:274|3:311,1,99.9999999999999,0|8,0:0|0:0,0:0:0:0:
41,342,95783,1,0,0:0:0:0:
90,346,95926,2,0,B|127:348|127:348|158:355|158:355|189:354,1,99.9999999999999,0|8,0:0|0:0,0:0:0:0:
284,323,96498,2,0,B|315:322|315:322|346:329|346:329|383:331,1,99.9999999999999,2|8,0:2|0:0,0:0:0:0:
459,266,97069,2,0,P|475:218|465:170,1,99.9999999999999,0|8,0:0|0:0,0:0:0:0:
397,97,97640,6,0,B|371:88|346:93|346:93|331:73|305:67,1,99.9999999999999,0|8,0:0|0:0,0:0:0:0:
256,57,98069,1,0,0:0:0:0:
205,67,98212,2,0,B|181:73|166:93|166:93|141:88|115:97,1,99.9999999999999,0|8,0:0|0:0,0:0:0:0:
46,170,98783,2,0,P|37:219|53:266,1,99.9999999999999,2|8,0:2|0:0,0:0:0:0:
95,292,99212,2,0,L|200:299,1,99.9999999999999,2|2,0:0|0:0,0:0:0:0:
232,331,99640,1,8,0:0:0:0:
309,267,99926,6,0,B|324:235|324:235|323:169,1,99.9999999999999,0|8,0:0|0:0,0:0:0:0:
283,139,100355,1,0,0:0:0:0:
235,124,100498,2,0,B|209:126|189:138|189:138|154:138|126:118,1,99.9999999999999,2|8,0:2|0:0,0:0:0:0:
109,30,101069,2,0,B|123:18|158:18|158:18|178:30|204:32,1,99.9999999999999,2|10,0:2|0:1,0:0:0:0:
302,48,101640,2,0,P|329:54|369:54,1,50,0|10,0:0|0:0,0:0:0:0:
400,46,101926,2,0,P|424:47|449:53,1,50,8|8,0:0|0:0,0:0:0:0:
489,83,102212,5,4,1:2:0:0:
256,192,102355,12,0,104498,1:0:0:0:
85,320,110498,6,0,P|149:317|193:215,1,179.999994506836,8|8,0:1|0:1,0:0:0:0:
185,172,111212,1,8,0:1:0:0:
175,122,111355,6,0,B|169:72|169:72|186:12,1,99.9999999999999,4|0,1:2|1:0,0:0:0:0:
276,59,111926,2,0,B|307:70|307:70|337:60|377:69,1,99.9999999999999,8|2,0:0|0:2,0:0:0:0:
457,123,112498,2,0,L|523:129,2,50,0|0|0,1:0|1:0|0:0,0:0:0:0:
399,205,113069,2,0,B|397:224|396:249|396:249|388:265|388:265|408:306|381:350,1,150,10|0,0:2|1:0,0:0:0:0:
333,363,113640,6,0,B|293:358|293:358|268:364|268:364|212:358,1,99.9999999999999,0|0,1:0|1:0,0:0:0:0:
184,353,114069,1,0,1:0:0:0:
153,313,114212,2,0,P|145:265|175:208,1,99.9999999999999,8|2,0:0|0:0,0:0:0:0:
244,158,114783,1,0,1:0:0:0:
232,58,115069,1,0,1:0:0:0:
139,18,115355,2,0,B|115:14|115:14|96:23|96:23|37:0|-11:38,1,150,10|0,0:2|0:0,0:0:0:0:
0,82,115926,6,0,L|1:196,1,99.9999999999999,0|0,1:0|1:0,0:0:0:0:
67,256,116498,2,0,B|101:266|101:266|130:249|180:255,1,99.9999999999999,8|2,0:0|0:0,0:0:0:0:
246,309,117069,2,0,L|243:379,2,50,0|0|0,1:0|1:0|1:0,0:0:0:0:
302,225,117640,2,0,B|380:216|361:268|445:256,1,150,10|0,0:2|0:0,0:0:0:0:
481,220,118212,6,0,B|489:183|489:183|489:100,1,99.9999999999999,0|0,1:0|1:0,0:0:0:0:
414,53,118783,2,0,L|291:39,1,99.9999999999999,8|2,0:0|0:2,0:0:0:0:
214,32,119355,1,8,1:1:0:0:
170,132,119640,1,0,1:0:0:0:
252,205,119926,1,2,0:2:0:0:
136,343,120498,6,0,B|67:346|78:310|5:318,2,134.999995880127,4|0|2,1:2|1:0|1:2,0:0:0:0:
223,322,121640,2,0,L|324:328,1,89.999997253418,0|0,1:2|0:0,0:0:0:0:
397,296,122212,2,0,P|411:253|405:209,1,89.999997253418,0|2,0:0|1:2,0:0:0:0:
353,135,122783,6,0,B|344:96|344:96|356:56|356:56|359:-11,2,134.999995880127,0|0|2,1:0|1:0|1:2,0:0:0:0:
283,192,123926,2,0,B|249:197|249:197|194:189,1,89.999997253418,0|0,1:0|0:0,0:0:0:0:
125,129,124498,2,0,B|92:118|92:118|36:116,1,89.999997253418,0|2,0:0|1:2,0:0:0:0:
6,211,125069,6,0,B|13:249|13:249|-3:277|2:321,1,99.9999999999999,0|0,1:0|0:0,0:0:0:0:
42,336,125498,2,0,L|147:344,1,99.9999999999999,2|0,1:0|0:0,0:0:0:0:
186,366,125926,1,2,1:2:0:0:
262,301,126212,2,0,B|268:261|268:261|264:241|264:241|268:202,1,99.9999999999999,2|2,1:2|0:0,0:0:0:0:
298,161,126640,2,0,P|340:152|402:173,1,99.9999999999999,2|0,1:0|0:0,0:0:0:0:
435,194,127069,1,2,1:2:0:0:
503,121,127355,6,0,B|481:55|481:55|431:10|337:17,1,200,2|0,1:2|1:0,0:0:0:0:
272,64,128212,1,2,1:0:0:0:
298,161,128498,6,0,B|304:198|304:198|298:271,1,99.9999999999999,8|8,0:0|0:0,0:0:0:0:
263,353,129069,1,0,1:0:0:0:
263,353,130498,5,14,3:3:0:0:
153,345,130783,6,0,B|109:340|109:340|78:353|45:336,1,110.000003356934,6|8,0:2|0:0,0:0:0:0:
22,229,131355,2,0,B|17:107,1,110.000003356934,0|8,0:0|0:2,0:0:0:0:
20,64,131783,1,2,0:2:0:0:
65,32,131926,2,0,B|109:35|109:35|129:30|129:30|190:33,1,110.000003356934,2|8,0:2|0:0,0:0:0:0:
237,122,132498,2,0,B|232:244,1,110.000003356934,0|8,0:0|0:0,0:0:0:0:
256,280,132926,1,2,0:2:0:0:
302,311,133069,6,0,P|353:328|407:318,1,110.000003356934,0|10,0:0|0:0,0:0:0:0:
475,231,133640,2,0,B|480:109,1,110.000003356934,2|8,0:0|0:0,0:0:0:0:
463,68,134069,1,2,0:2:0:0:
409,55,134212,2,0,B|378:45|344:63|344:63|303:49,1,110.000003356934,0|8,0:0|0:0,0:0:0:0:
196,22,134783,1,2,0:0:0:0:
138,116,135069,1,10,0:0:0:0:
209,200,135355,6,0,B|232:250|232:250|207:308,1,110.000003356934,2|8,0:2|0:0,0:0:0:0:
115,356,135926,2,0,B|83:352|83:352|76:344|76:344|42:351|11:332,1,110.000003356934,0|8,0:0|0:0,0:0:0:0:
8,278,136355,1,2,0:2:0:0:
4,222,136498,2,0,B|3:109,1,110.000003356934,2|8,0:2|0:0,0:0:0:0:
80,34,137069,2,0,P|133:21|188:35,1,110.000003356934,0|8,0:0|0:0,0:0:0:0:
226,72,137498,1,2,0:1:0:0:
267,111,137640,6,0,P|320:123|373:111,1,110.000003356934,0|8,0:0|0:0,0:0:0:0:
460,44,138212,1,2,0:0:0:0:
474,152,138498,2,0,L|467:218,1,55.0000016784668,10|10,0:0|0:2,0:0:0:0:
87,343,139926,6,0,B|65:312|65:312|57:224,1,110.000003356934,12|8,0:2|0:0,0:0:0:0:
58,184,140355,1,2,0:2:0:0:
91,140,140498,2,0,P|144:129|196:144,1,110.000003356934,8|8,0:0|0:0,0:0:0:0:
275,221,141069,2,0,P|327:236|380:225,1,110.000003356934,8|8,0:0|0:0,0:0:0:0:
422,189,141498,1,2,0:2:0:0:
438,136,141640,2,0,L|440:12,1,110.000003356934,8|8,0:0|0:0,0:0:0:0:
334,58,142212,6,0,B|280:70|280:70|203:55,1,110.000003356934,8|10,0:0|0:0,0:0:0:0:
120,29,142783,2,0,B|66:18|66:18|12:30,1,110.000003356934,10|8,0:0|0:2,0:0:0:0:
6,85,143212,1,2,0:2:0:0:
0,141,143355,2,0,L|2:265,1,110.000003356934,8|8,0:0|0:0,0:0:0:0:
79,329,143926,2,0,P|133:321|189:337,1,110.000003356934,10|10,0:0|0:0,0:0:0:0:
233,362,144355,1,0,0:0:0:0:
281,335,144498,6,0,P|333:319|387:328,1,110.000003356934,12|8,0:2|0:0,0:0:0:0:
487,374,145069,2,0,B|500:339|500:339|504:296|475:249,1,110.000003356934,8|8,0:0|0:0,0:0:0:0:
452,224,145498,1,2,0:2:0:0:
399,207,145640,2,0,L|285:200,1,110.000003356934,8|8,0:0|0:0,0:0:0:0:
193,144,146212,2,0,P|178:91|197:40,1,110.000003356934,8|10,0:0|0:0,0:0:0:0:
248,24,146640,1,2,3:0:0:0:
302,11,146783,6,0,L|416:18,1,110.000003356934,8|10,0:0|0:0,0:0:0:0:
460,116,147355,1,8,0:0:0:0:
399,207,147640,1,10,0:0:0:0:
289,199,147926,2,0,B|252:193|252:193|229:199|229:199|172:189,1,110.000003356934,2|8,1:3|1:1,0:0:0:0:
74,160,148498,1,10,1:2:0:0:
62,379,149069,5,2,3:2:0:0:
165,341,149355,2,0,B|203:333|203:333|230:341|230:341|279:343,1,110.000003356934,4|0,0:2|0:0,0:0:0:0:
380,366,149926,1,10,0:2:0:0:
477,316,150212,2,0,B|487:286|476:262|476:262|478:239|478:239|468:223|468:223|494:157|467:104,1,220.000006713867,0|0,0:0|0:0,0:0:0:0:
401,16,151069,1,8,0:2:0:0:
291,29,151355,6,0,L|175:20,2,110.000003356934,2|8|0,0:2|0:0|0:0,0:0:0:0:
358,118,152212,1,10,0:2:0:0:
315,221,152498,2,0,B|309:260|309:260|314:290|314:290|306:345,1,110.000003356934,0|8,0:0|0:0,0:0:0:0:
203,364,153069,2,0,P|150:342|94:343,1,110.000003356934,0|8,0:0|0:0,0:0:0:0:
31,254,153640,6,0,B|37:215|37:215|32:185|32:185|37:145,1,110.000003356934,2|8,0:2|0:0,0:0:0:0:
63,96,154069,1,2,0:2:0:0:
115,80,154212,2,0,B|154:76|179:84|179:84|231:69,1,110.000003356934,0|10,0:0|0:2,0:0:0:0:
327,37,154783,2,0,L|458:44,1,110.000003356934,0|8,0:0|0:0,0:0:0:0:
489,140,155355,2,0,B|505:180|505:180|501:223|474:264,1,110.000003356934,0|8,0:0|0:0,0:0:0:0:
446,282,155783,1,0,0:0:0:0:
407,320,155926,6,0,L|276:313,1,110.000003356934,2|8,0:2|0:0,0:0:0:0:
226,229,156498,2,0,B|210:189|210:189|214:146|241:105,1,110.000003356934,0|10,0:0|0:2,0:0:0:0:
313,54,157069,2,0,B|355:51|355:51|379:65|379:65|439:75,2,110.000003356934,0|8|0,0:0|0:0|0:0,0:0:0:0:
210,17,157926,1,8,0:0:0:0:
127,88,158212,6,0,B|96:86|68:78|68:78|39:86|11:118,1,110.000003356934,6|8,0:2|0:0,0:0:0:0:
31,213,158783,2,0,L|22:334,1,110.000003356934,0|10,0:0|0:2,0:0:0:0:
126,359,159355,2,0,P|174:332|228:332,1,110.000003356934,0|8,0:0|0:0,0:0:0:0:
281,345,159783,1,2,0:0:0:0:
334,358,159926,2,0,P|388:358|435:331,1,110.000003356934,0|8,0:0|0:2,0:0:0:0:
484,231,160498,6,0,L|493:110,1,110.000003356934,2|8,0:2|0:0,0:0:0:0:
395,68,161069,2,0,B|356:58|356:58|328:36|289:40,1,110.000003356934,0|10,0:0|0:2,0:0:0:0:
246,141,161640,2,0,L|237:262,1,110.000003356934,0|8,0:0|0:0,0:0:0:0:
216,301,162069,1,2,0:0:0:0:
169,330,162212,2,0,P|121:342|50:309,1,110.000003356934,0|8,0:0|0:0,0:0:0:0:
19,222,162783,6,0,B|13:177|13:177|23:94,1,110.000003356934,6|8,0:2|0:0,0:0:0:0:
107,44,163355,2,0,P|159:32|210:50,1,110.000003356934,0|10,0:0|0:2,0:0:0:0:
285,132,163926,2,0,P|335:150|388:138,1,110.000003356934,0|8,0:0|0:0,0:0:0:0:
433,105,164355,1,2,0:0:0:0:
486,116,164498,2,0,B|495:160|495:160|492:224,1,110.000003356934,0|8,0:0|0:0,0:0:0:0:
437,319,165069,6,0,P|387:343|334:333,1,110.000003356934,10|8,0:2|0:2,0:0:0:0:
256,256,165640,2,0,L|256:195,2,55.0000016784668,10|2|8,0:2|0:3|0:2,0:0:0:0:
177,333,166212,2,0,P|124:343|75:320,1,110.000003356934,10|8,1:2|1:2,0:0:0:0:
6,233,166783,1,8,0:2:0:0:
6,122,167069,1,4,1:3:0:0:
73,36,167355,6,0,B|114:28|114:28|169:38,1,89.999997253418,12|0,1:2|0:0,0:0:0:0:
236,88,167926,2,0,B|284:96|284:96|324:88,1,89.999997253418,2|0,0:0|0:0,0:0:0:0:
359,59,168355,2,0,L|462:68,1,89.999997253418,2|2,0:0|0:0,0:0:0:0:
489,146,168926,2,0,B|476:194|476:194|473:286,1,134.999995880127,2|2,0:0|0:0,0:0:0:0:
451,319,169498,6,0,P|409:330|367:315,1,89.999997253418,2|0,0:0|0:0,0:0:0:0:
334,285,169926,1,0,0:0:0:0:
245,299,170212,2,0,L|142:290,1,89.999997253418,2|0,0:0|0:0,0:0:0:0:
121,260,170640,2,0,P|109:217|124:175,1,89.999997253418,2|2,0:0|0:0,0:0:0:0:
205,134,171212,2,0,L|341:148,1,134.999995880127,2|2,0:0|0:0,0:0:0:0:
381,132,171783,6,0,P|395:90|383:47,1,89.999997253418,2|0,0:0|0:0,0:0:0:0:
346,20,172212,1,0,0:0:0:0:
263,55,172498,2,0,L|160:46,1,89.999997253418,2|0,0:0|0:0,0:0:0:0:
130,61,172926,2,0,L|27:52,1,89.999997253418,2|2,0:0|0:0,0:0:0:0:
64,140,173498,2,0,B|73:177|73:177|54:218|65:272,1,134.999995880127,2|2,0:0|0:0,0:0:0:0:
128,335,174212,6,0,L|231:344,1,89.999997253418,2|0,0:0|0:0,0:0:0:0:
305,322,174783,2,0,P|319:279|308:236,1,89.999997253418,2|0,0:0|0:0,0:0:0:0:
278,202,175212,2,0,P|267:158|281:116,1,89.999997253418,2|2,0:0|0:0,0:0:0:0:
327,39,175783,1,2,0:0:0:0:
415,59,176069,2,0,L|480:64,2,44.999998626709,2|0|2,0:0|0:0|0:0,0:0:0:0:
