osu file format v14

[General]
AudioFilename: audio.mp3
AudioLeadIn: 0
PreviewTime: 56069
Countdown: 0
SampleSet: Soft
StackLeniency: 0.3
Mode: 0
LetterboxInBreaks: 0
WidescreenStoryboard: 1

[Editor]
DistanceSpacing: 1.4
BeatDivisor: 4
GridSize: 32
TimelineZoom: 1.7

[Metadata]
Title:Streaming Heart
TitleUnicode:ストリーミングハート
Artist:Ayaponzu*
ArtistUnicode:あやぽんず*
Creator:Lasse
Version:Hard
Source:
Tags:deco*27 deco27 cover utaite pon'po drop toybot karen chromoxx
BeatmapID:1170455
BeatmapSetID:552702

[Difficulty]
HPDrainRate:5
CircleSize:3.4
OverallDifficulty:6.5
ApproachRate:8
SliderMultiplier:1.28
SliderTickRate:1

[Events]
//Background and Video events
0,0,"bg.jpg",0,0
//Break Periods
2,74983,83176
2,104698,109748
//Storyboard Layer 0 (Background)
//Storyboard Layer 1 (Fail)
//Storyboard Layer 2 (Pass)
//Storyboard Layer 3 (Foreground)
//Storyboard Sound Samples

[TimingPoints]
498,285.714285714286,4,2,1,55,1,0
498,-111.111111111111,4,2,1,55,0,0
9640,-100,4,2,1,70,0,0
27640,-100,4,2,2,70,0,0
27926,-100,4,2,1,40,0,0
28069,-100,4,2,1,40,0,0
28212,-100,4,2,1,5,0,0
28307,-100,4,2,1,40,0,0
28498,-100,4,2,1,44,0,0
28688,-100,4,2,1,48,0,0
28878,-100,4,2,1,52,0,0
29069,-111.111111111111,4,2,1,58,0,0
37069,-111.111111111111,4,2,1,60,0,0
37498,-111.111111111111,4,2,1,62,0,0
38069,-111.111111111111,4,2,1,64,0,0
38212,-100,4,1,1,65,0,0
47355,-133.333333333333,4,2,1,50,0,0
51926,-111.111111111111,4,2,1,55,0,0
53283,-111.111111111111,4,2,99,5,0,0
53355,-111.111111111111,4,2,1,55,0,0
54212,-111.111111111111,4,2,1,60,0,0
55283,-111.111111111111,4,2,99,5,0,0
55355,-100,4,2,1,60,0,0
55426,-100,4,2,1,61,0,0
55498,-100,4,2,1,62,0,0
55569,-100,4,2,1,63,0,0
55640,-100,4,2,1,65,0,0
55712,-100,4,2,1,67,0,0
55783,-100,4,2,1,70,0,0
55855,-100,4,2,1,73,0,0
55926,-100,4,2,1,67,0,0
55998,-100,4,2,98,20,0,0
56426,-100,4,2,99,5,0,0
56498,-90.9090909090908,4,1,33,75,0,1
56783,-90.9090909090908,4,1,1,75,0,1
57855,-90.9090909090908,4,2,99,5,0,1
57926,-90.9090909090908,4,1,1,75,0,1
62426,-90.9090909090908,4,2,99,5,0,1
62498,-90.9090909090908,4,1,1,75,0,1
63355,-90.9090909090908,4,1,1,78,0,1
64498,-133.333333333333,4,2,1,65,0,0
64712,-133.333333333333,4,2,99,5,0,0
64783,-133.333333333333,4,2,1,30,0,0
64926,-133.333333333333,4,2,1,50,0,0
65069,-100,4,2,1,63,0,0
65140,-100,4,2,1,64,0,0
65212,-100,4,2,1,65,0,0
65283,-100,4,2,1,66,0,0
65354,-100,4,2,2,68,0,0
65426,-100,4,2,2,70,0,0
65497,-100,4,2,2,72,0,0
65569,-100,4,2,2,74,0,0
65640,-90.9090909090908,4,1,1,77,0,1
72498,-90.9090909090908,4,1,1,80,0,1
73783,-90.9090909090908,4,1,1,78,0,1
73926,-90.9090909090908,4,2,2,78,0,1
74069,-90.9090909090908,4,2,2,75,0,1
74355,-90.9090909090908,4,2,2,72,0,1
74498,-90.9090909090908,4,2,2,70,0,1
74640,-90.9090909090908,4,2,2,68,0,1
74783,-99.9999999999999,4,2,1,66,0,0
74926,-99.9999999999999,4,2,1,60,0,0
83926,-133.333333333333,4,2,44,50,0,0
91640,-111.111111111111,4,2,44,53,0,0
91855,-111.111111111111,4,2,99,5,0,0
91926,-111.111111111111,4,2,1,56,0,0
92212,-111.111111111111,4,2,2,59,0,0
92283,-111.111111111111,4,2,2,61,0,0
92355,-111.111111111111,4,2,2,63,0,0
92426,-111.111111111111,4,2,2,65,0,0
92498,-111.111111111111,4,2,2,67,0,0
92569,-111.111111111111,4,2,2,69,0,0
92640,-111.111111111111,4,2,1,71,0,0
92712,-111.111111111111,4,2,98,20,0,0
92998,-111.111111111111,4,2,99,5,0,0
93069,-100,4,1,1,65,0,0
102212,-111.111111111111,4,2,1,70,0,0
102283,-111.111111111111,4,2,1,55,0,0
104212,-111.111111111111,4,2,44,55,0,0
104498,-111.111111111111,4,2,44,30,0,0
110355,-111.111111111111,4,2,1,45,0,0
110498,-111.111111111111,4,2,44,50,0,0
110640,-111.111111111111,4,2,1,40,0,0
110926,-111.111111111111,4,2,1,35,0,0
111069,-111.111111111111,4,2,44,55,0,0
111212,-111.111111111111,4,2,44,62,0,0
111355,-99.9999999999999,4,2,55,70,0,0
119926,-111.111111111111,4,2,1,60,0,0
119998,-111.111111111111,4,2,1,10,0,0
120355,-111.111111111111,4,2,99,10,0,0
120498,-133.333333333333,4,2,1,50,0,0
125069,-105.263157894737,4,2,1,57,0,0
126426,-105.263157894737,4,2,99,5,0,0
126498,-105.263157894737,4,2,1,57,0,0
127355,-105.263157894737,4,2,1,60,0,0
128426,-105.263157894737,4,2,99,5,0,0
128498,-100,4,2,1,64,0,0
128569,-100,4,2,1,65,0,0
128641,-100,4,2,1,66,0,0
128712,-100,4,2,1,67,0,0
128783,-100,4,2,1,70,0,0
128855,-100,4,2,1,72,0,0
128926,-100,4,2,1,74,0,0
128998,-100,4,2,1,76,0,0
129069,-100,4,2,1,78,0,0
130498,-133.333333333333,4,1,33,75,0,0
130712,-133.333333333333,4,2,99,5,0,0
130783,-90.9090909090908,4,1,33,77,0,1
131069,-90.9090909090908,4,1,1,77,0,1
132140,-90.9090909090908,4,2,99,5,0,1
132212,-90.9090909090908,4,1,1,77,0,1
136712,-90.9090909090908,4,2,99,5,0,1
136783,-90.9090909090908,4,1,1,77,0,1
137640,-90.9090909090908,4,1,1,78,0,1
138498,-90.9090909090908,4,1,1,80,0,1
138640,-100,4,2,1,60,0,0
139069,-133.333333333333,4,2,1,50,0,0
139355,-133.333333333333,4,2,1,53,0,0
139569,-133.333333333333,4,2,99,5,0,0
139640,-133.333333333333,4,2,1,56,0,0
139855,-133.333333333333,4,2,99,5,0,0
139926,-86.9565217391304,4,1,1,82,0,1
145855,-86.9565217391304,4,2,99,5,0,1
145926,-86.9565217391304,4,1,1,82,0,1
146498,-86.9565217391304,4,1,1,83,0,1
147069,-86.9565217391304,4,1,1,84,0,1
147640,-86.9565217391304,4,1,1,85,0,1
147926,-86.9565217391304,4,1,1,75,0,1
148212,-86.9565217391304,4,1,1,78,0,1
148498,-86.9565217391304,4,2,2,80,0,1
148783,-86.9565217391304,4,2,2,83,0,1
149069,-133.333333333333,4,1,33,50,0,0
149283,-133.333333333333,4,2,99,5,0,0
149355,-90.9090909090908,4,1,1,78,0,1
157926,-90.9090909090908,4,1,1,70,0,0
158212,-86.9565217391304,4,1,1,80,0,1
162498,-86.9565217391304,4,1,1,72,0,0
162783,-86.9565217391304,4,1,1,82,0,1
165069,-86.9565217391304,4,1,1,84,0,1
166212,-86.9565217391304,4,1,2,82,0,1
166783,-90.9090909090909,4,1,1,80,0,1
166926,-90.9090909090909,4,1,1,78,0,1
167069,-90.9090909090909,4,1,1,76,0,1
167212,-90.9090909090909,4,1,1,74,0,1
167355,-133.333333333333,4,1,1,55,0,0
167640,-133.333333333333,4,2,1,50,0,0
169640,-133.333333333333,4,2,1,48,0,0
171926,-133.333333333333,4,2,1,46,0,0
174212,-133.333333333333,4,2,1,44,0,0
176498,-133.333333333333,4,2,1,42,0,0

[Colours]
Combo1 : 20,231,152
Combo2 : 26,221,242
Combo3 : 255,51,122
Combo4 : 130,138,198

[HitObjects]
78,317,498,5,0,1:2:0:0:
78,317,783,6,0,P|73:290|78:260,1,57.5999982421876,0|0,1:2|0:2,0:0:0:0:
138,197,1069,2,0,P|157:144|142:86,1,115.199996484375,0|0,1:2|1:2,0:0:0:0:
208,30,1498,6,0,L|283:35,1,57.5999982421876,2|0,0:2|1:2,0:0:0:0:
343,71,1783,2,0,L|418:76,1,57.5999982421876,0|0,0:2|1:2,0:0:0:0:
459,138,2069,2,0,B|462:156|458:171|458:171|466:191|466:191|458:220|465:258,1,115.199996484375,2|0,0:2|0:2,0:0:0:0:
485,335,2498,1,0,1:2:0:0:
401,311,2640,2,0,L|318:299,1,57.5999982421876,2|0,0:2|1:2,0:0:0:0:
184,233,3069,6,0,L|241:224,1,57.5999982421876,0|0,1:2|0:2,0:0:0:0:
315,180,3355,2,0,P|332:125|315:71,1,115.199996484375,0|0,1:2|1:2,0:0:0:0:
238,28,3783,6,0,P|210:28|183:17,1,57.5999982421876,2|0,0:2|1:2,0:0:0:0:
127,83,4069,2,0,P|106:62|95:36,1,57.5999982421876,0|0,0:2|1:2,0:0:0:0:
33,115,4355,2,0,B|21:154|21:154|26:247,1,115.199996484375,2|0,0:2|0:2,0:0:0:0:
34,314,4783,1,0,1:2:0:0:
103,263,4926,2,0,P|137:256|171:261,1,57.5999982421876,2|0,0:2|1:2,0:0:0:0:
316,332,5355,6,0,P|296:310|283:285,1,57.5999982421876,0|0,1:2|0:2,0:0:0:0:
301,200,5640,2,0,B|307:156|307:156|294:121|305:84,1,115.199996484375,0|0,1:2|1:2,0:0:0:0:
372,32,6069,6,0,P|399:25|428:27,1,57.5999982421876,2|0,0:2|1:2,0:0:0:0:
441,113,6355,2,0,P|413:119|384:117,1,57.5999982421876,0|0,0:2|1:2,0:0:0:0:
304,86,6640,2,0,B|280:73|262:78|262:78|249:73|249:73|224:80|193:70,1,115.199996484375,2|0,0:2|0:2,0:0:0:0:
114,31,7069,1,0,1:2:0:0:
121,118,7212,2,0,L|116:197,1,57.5999982421876,2|0,0:2|1:2,0:0:0:0:
117,175,8498,6,0,P|114:193|115:209,3,28.7999991210938,4|0|4|0,3:0|3:0|3:0|3:0,0:0:0:0:
128,243,8783,2,0,P|132:275|120:326,1,57.5999982421876,8|4,3:0|3:0,0:0:0:0:
193,358,9069,2,0,L|313:348,1,115.199996484375,8|8,3:2|3:2,0:0:0:0:
412,355,9498,1,8,3:2:0:0:
412,355,9569,1,0,3:2:0:0:
412,355,9640,6,0,B|424:319|424:319|431:224,1,128,6|0,1:2|0:0,0:0:0:0:
395,146,10069,1,0,1:2:0:0:
310,165,10212,1,8,0:0:0:0:
310,165,10498,2,0,P|276:170|244:161,1,64,2|0,0:1|0:0,0:0:0:0:
177,105,10783,6,0,P|132:91|74:97,2,96,2|0|0,1:2|1:0|1:0,0:0:0:0:
247,162,11355,1,8,0:0:0:0:
247,162,11640,2,0,L|240:233,1,64,2|0,0:1|0:0,0:0:0:0:
203,308,11926,6,0,B|161:329|161:329|110:337|63:303,1,128,2|0,1:2|0:0,0:0:0:0:
22,247,12355,1,0,1:0:0:0:
73,173,12498,1,8,0:0:0:0:
73,173,12783,2,0,P|80:142|75:110,1,64,2|0,0:1|0:0,0:0:0:0:
124,34,13069,6,0,L|195:27,1,64,2|0,1:2|0:0,0:0:0:0:
228,47,13283,2,0,B|264:52|264:52|287:48|287:48|332:52,1,96,0|0,1:0|1:0,0:0:0:0:
411,32,13640,1,8,0:0:0:0:
411,32,13926,2,0,L|482:25,1,64,2|0,0:1|0:0,0:0:0:0:
464,116,14212,6,0,B|450:158|450:158|456:244,1,128,2|0,1:2|0:0,0:0:0:0:
474,329,14640,1,0,1:0:0:0:
389,302,14783,1,8,0:0:0:0:
389,302,15069,2,0,P|352:291|306:293,1,64,2|0,0:1|0:0,0:0:0:0:
252,341,15355,6,0,B|215:339|215:339|190:330|190:330|152:341,2,96,2|0|0,1:2|1:0|1:0,0:0:0:0:
326,290,15926,1,8,0:0:0:0:
326,290,16212,2,0,P|333:252|326:206,1,64,2|0,0:1|0:0,0:0:0:0:
277,154,16498,6,0,B|254:120|266:62|266:62|239:81,1,128,2|0,1:2|0:0,0:0:0:0:
170,138,16926,1,0,1:0:0:0:
94,89,17069,1,8,0:0:0:0:
94,89,17355,2,0,B|58:79|58:79|30:80,1,64,2|0,0:1|0:0,0:0:0:0:
46,168,17640,6,0,L|46:232,1,64,2|0,1:2|0:0,0:0:0:0:
77,265,17855,2,0,B|114:271|114:271|138:267|138:267|174:272,1,96,0|0,1:0|1:2,0:0:0:0:
237,333,18212,2,0,B|290:339|290:339|324:332|324:332|363:336,1,128,8|8,0:0|0:3,0:0:0:0:
451,355,18640,1,8,0:3:0:0:
422,269,18783,6,0,B|417:235|417:235|443:191|420:143,1,128,6|0,1:2|0:0,0:0:0:0:
349,90,19212,1,0,1:2:0:0:
266,126,19355,1,8,0:0:0:0:
265,126,19640,2,0,P|234:132|203:126,1,64,2|0,0:1|0:0,0:0:0:0:
142,60,19926,6,0,B|115:50|86:59|86:59|63:55|51:42,2,96,2|0|0,1:2|1:0|1:0,0:0:0:0:
115,145,20498,1,8,0:0:0:0:
115,145,20783,2,0,L|108:216,1,64,2|0,0:1|0:0,0:0:0:0:
161,282,21069,6,0,B|228:275|212:315|284:304,1,128,2|0,1:2|0:0,0:0:0:0:
352,244,21498,1,0,1:0:0:0:
265,215,21640,1,8,0:0:0:0:
265,215,21926,2,0,B|258:190|258:190|261:152,1,64,2|0,0:1|0:0,0:0:0:0:
318,82,22212,6,0,L|388:74,1,64,2|0,1:2|0:0,0:0:0:0:
424,89,22426,2,0,B|445:119|445:119|443:139|443:139|447:190,1,96,0|0,1:0|1:0,0:0:0:0:
473,263,22783,1,8,0:0:0:0:
473,263,23069,2,0,B|471:284|471:284|476:308|468:354,1,64,2|0,0:1|0:0,0:0:0:0:
399,380,23355,6,0,B|377:341|385:308|385:308|359:286|338:284,1,128,2|0,1:2|0:0,0:0:0:0:
248,288,23783,1,0,1:0:0:0:
199,364,23926,1,8,0:0:0:0:
199,364,24212,2,0,P|166:367|137:358,1,64,2|0,0:1|0:0,0:0:0:0:
84,284,24498,6,0,B|30:262|30:262|-19:273,2,96,2|0|0,1:2|1:0|1:0,0:0:0:0:
175,276,25069,1,8,0:0:0:0:
175,276,25355,2,0,B|180:241|180:241|172:213,1,64,2|0,0:1|0:0,0:0:0:0:
112,143,25640,6,0,B|97:109|97:109|93:61|131:29,1,128,2|0,1:2|0:0,0:0:0:0:
218,8,26069,1,0,1:0:0:0:
293,55,26212,1,8,0:0:0:0:
293,55,26498,2,0,P|323:62|368:57,1,64,2|0,0:1|0:0,0:0:0:0:
412,129,26783,6,0,L|402:194,1,64,2|0,1:2|0:0,0:0:0:0:
367,221,26998,2,0,B|330:227|330:227|306:223|306:223|270:228,1,96,0|0,1:0|1:0,0:0:0:0:
262,316,27355,2,0,B|307:326|307:326|341:320|341:320|388:325,1,128,8|8,0:0|0:2,0:0:0:0:
475,349,27783,1,8,0:2:0:0:
452,262,27926,5,8,0:3:0:0:
452,262,29069,5,0,1:0:0:0:
386,205,29212,2,0,L|322:201,2,57.5999982421876,0|0|0,0:0|0:0|1:0,0:0:0:0:
469,177,29640,2,0,B|486:131|486:131|474:55,1,115.199996484375,8|0,0:2|0:0,0:0:0:0:
391,41,30069,6,0,P|354:43|320:35,1,57.5999982421876,0|0,0:0|0:0,0:0:0:0:
254,19,30355,1,0,1:0:0:0:
254,19,30498,2,0,B|208:18|208:18|178:13|178:13|125:14,1,115.199996484375,0|8,1:0|0:0,0:0:0:0:
64,56,30926,2,0,L|-6:53,2,57.5999982421876,0|0|0,1:0|0:0|0:0,0:0:0:0:
107,131,31355,6,0,B|109:170|109:170|93:205|113:243,1,115.199996484375,0|0,1:0|0:0,0:0:0:0:
238,368,31926,1,8,0:0:0:0:
283,198,32212,1,0,0:0:0:0:
283,198,32355,6,0,B|332:171|332:171|409:184,1,115.199996484375,0|0,0:0|1:0,0:0:0:0:
453,240,32783,2,0,B|462:267|462:267|459:299,1,57.5999982421876,0|0,1:0|0:0,0:0:0:0:
389,349,33069,1,8,0:0:0:0:
389,349,33212,2,0,B|362:340|362:340|330:343,1,57.5999982421876,0|0,1:0|0:0,0:0:0:0:
160,353,33640,6,0,B|87:357|87:357|47:343,1,115.199996484375,0|0,1:0|0:0,0:0:0:0:
27,264,34069,1,0,1:0:0:0:
27,264,34212,2,0,B|23:148,1,115.199996484375,8|0,0:2|0:0,0:0:0:0:
55,68,34640,6,0,B|94:54|94:54|167:58,1,115.199996484375,0|0,0:0|1:0,0:0:0:0:
243,14,35069,1,0,1:0:0:0:
317,170,35355,2,0,B|315:227,1,57.5999982421876,8|0,0:0|1:0,0:0:0:0:
372,301,35640,1,0,0:0:0:0:
372,301,35783,6,0,B|416:312|416:312|458:301|473:274,1,115.199996484375,0|0,0:0|0:0,0:0:0:0:
505,200,36212,2,0,B|506:142,1,57.5999982421876,0|0,0:0|1:0,0:0:0:0:
473,61,36498,2,0,B|458:34|416:23|416:23|372:34,1,115.199996484375,8|2,0:0|0:0,0:0:0:0:
233,137,37069,5,0,1:0:0:0:
161,78,37212,2,0,L|158:36,2,28.7999991210938,8|8|8,0:0|0:0|1:2,0:0:0:0:
101,149,37498,2,0,B|76:184|76:184|68:263,1,115.199996484375,0|8,1:2|1:2,0:0:0:0:
116,334,37926,2,0,P|139:341|188:330,1,57.5999982421876,8|8,1:2|0:0,0:0:0:0:
213,318,38140,1,8,0:0:0:0:
213,318,38212,6,0,P|245:309|279:313,1,64,4|0,1:2|0:0,0:0:0:0:
355,353,38498,2,0,P|417:357|456:299,1,128,10|0,0:2|0:0,0:0:0:0:
464,219,38926,1,0,0:0:0:0:
400,156,39069,2,0,P|391:124|395:90,1,64,8|0,0:0|0:0,0:0:0:0:
329,29,39355,6,0,B|281:26|281:26|248:32|248:32|184:29,1,128,2|10,0:2|0:0,0:0:0:0:
122,72,39783,2,0,B|115:97|115:97|116:145,1,64,2|0,0:2|0:0,0:0:0:0:
66,210,40069,2,0,B|78:232|78:232|113:265,1,64,2|8,0:2|0:0,0:0:0:0:
178,203,40355,6,0,B|216:171|216:171|252:165|293:178,1,128,2|0,0:0|0:2,0:0:0:0:
371,221,40783,2,0,P|393:230|441:228,1,64,8|0,0:0|0:0,0:0:0:0:
492,297,41069,2,0,B|458:323|422:331|422:331|375:315,1,128,0|8,0:2|0:0,0:0:0:0:
294,274,41498,1,0,0:0:0:0:
230,339,41640,5,2,0:2:0:0:
59,309,41926,1,10,0:0:0:0:
36,222,42069,2,0,P|34:191|42:160,1,64,2|0,0:2|0:0,0:0:0:0:
126,193,42355,2,0,P|146:168|174:152,1,64,2|8,0:2|0:0,0:0:0:0:
263,148,42640,6,0,P|308:158|388:106,1,128,2|0,0:0|0:0,0:0:0:0:
306,66,43069,2,0,P|275:56|243:58,1,64,8|0,0:0|0:0,0:0:0:0:
155,75,43355,2,0,B|107:75|107:75|74:68|74:68|27:69,1,128,0|8,0:0|0:0,0:0:0:0:
2,155,43783,1,0,0:0:0:0:
63,220,43926,6,0,B|72:246|69:268|69:268|51:306|69:344,1,128,0|10,0:0|0:0,0:0:0:0:
158,369,44355,2,0,P|186:355|218:351,1,64,2|0,0:2|0:0,0:0:0:0:
307,360,44640,2,0,P|338:366|369:362,1,64,2|8,0:2|0:0,0:0:0:0:
448,316,44926,6,0,B|462:250|462:250|426:178,1,128,2|0,0:0|0:0,0:0:0:0:
355,153,45355,2,0,B|323:149|323:149|273:128,1,64,8|0,0:0|0:0,0:0:0:0:
238,207,45640,2,0,B|218:181|218:181|197:131,1,64,0|0,0:0|0:0,0:0:0:0:
117,162,45926,2,0,B|120:130|120:130|141:80,1,64,8|0,0:0|0:0,0:0:0:0:
219,56,46212,6,0,B|261:57|261:57|297:52|297:52|354:66,1,128,2|10,0:2|0:2,0:0:0:0:
432,105,46640,2,0,B|462:124|462:124|476:171|453:214,1,128,2|10,0:1|0:2,0:0:0:0:
382,279,47069,2,0,P|374:314|376:349,1,64,10|10,0:0|0:2,0:0:0:0:
280,361,47355,6,0,P|224:337|176:344,1,96.0000036621095,4|0,1:2|0:0,0:0:0:0:
111,361,47783,2,0,P|63:361|21:339,1,96.0000036621095,0|0,1:0|0:0,0:0:0:0:
1,259,48212,1,2,1:2:0:0:
1,259,48498,6,0,L|-3:148,1,96.0000036621095,0|0,1:2|0:0,0:0:0:0:
57,107,48926,1,0,1:0:0:0:
57,107,49069,2,0,B|89:103|89:103|113:108|113:108|152:108,1,96.0000036621095,0|2,0:0|1:2,0:0:0:0:
280,209,49640,6,0,B|312:213|312:213|336:208|336:208|375:207,1,96.0000036621095,0|0,1:0|0:0,0:0:0:0:
438,154,50069,2,0,P|449:103|432:53,1,96.0000036621095,0|0,1:0|0:0,0:0:0:0:
366,19,50498,1,2,1:2:0:0:
366,19,50783,6,0,B|326:19|326:19|302:24|302:24|270:20,1,96.0000036621095,0|0,1:0|0:0,0:0:0:0:
194,41,51212,1,0,1:0:0:0:
194,41,51355,2,0,P|182:87|193:133,1,96.0000036621095,0|2,0:0|1:2,0:0:0:0:
353,253,51926,6,0,P|312:212|256:200,1,115.199996484375,0|0,1:0|0:0,0:0:0:0:
167,222,52355,2,0,B|122:224|122:224|88:203|54:213,1,115.199996484375,0|0,1:0|0:0,0:0:0:0:
71,304,52783,2,0,B|97:314|97:314|126:315,1,57.5999982421876,2|0,1:2|0:0,0:0:0:0:
212,351,53069,6,0,B|255:338|255:338|348:337,1,115.199996484375,0|0,1:0|0:0,0:0:0:0:
415,357,53498,1,0,1:0:0:0:
462,278,53640,2,0,L|468:151,1,115.199996484375,0|2,0:0|1:2,0:0:0:0:
322,16,54212,5,0,1:0:0:0:
353,220,54498,1,2,1:2:0:0:
447,36,54783,1,0,1:0:0:0:
262,129,55069,1,2,1:2:0:0:
467,162,55355,6,0,P|483:166|502:177,3,32,8|8|8|8,2:2|2:2|2:2|2:2,0:0:0:0:
487,213,55640,2,0,P|495:227|501:248,3,32,8|8|8|8,2:2|2:2|2:2|2:2,0:0:0:0:
465,263,55926,5,0,1:0:0:0:
465,263,56498,6,0,P|398:246|340:283,1,140.800004296875,6|8,0:2|0:0,0:0:0:0:
260,354,56926,2,0,B|185:364|198:317|126:329,1,140.800004296875,2|0,0:2|0:0,0:0:0:0:
50,254,57355,2,0,P|45:220|50:184,1,70.4000021484376,8|2,0:2|0:2,0:0:0:0:
152,159,57640,6,0,B|192:180|192:180|244:181|280:143,1,140.800004296875,2|8,0:2|0:0,0:0:0:0:
205,67,58069,2,0,B|165:46|165:46|113:45|77:83,1,140.800004296875,2|0,0:2|0:0,0:0:0:0:
49,184,58498,1,8,0:0:0:0:
134,245,58640,6,0,B|144:266|144:266|139:294|139:294|148:313|148:313|134:342|142:380,1,140.800004296875,2|2,0:2|0:2,0:0:0:0:
245,355,59069,2,0,P|272:343|328:350,1,70.4000021484376,10|0,0:0|0:0,0:0:0:0:
417,358,59355,1,2,0:0:0:0:
483,158,59640,1,8,0:0:0:0:
378,143,59783,6,0,B|344:128|344:128|303:91|330:29,1,140.800004296875,2|0,0:2|0:0,0:0:0:0:
221,29,60212,2,0,P|186:30|154:45,1,70.4000021484376,8|2,0:0|0:2,0:0:0:0:
213,133,60498,2,0,P|188:159|177:192,1,70.4000021484376,2|0,0:0|0:0,0:0:0:0:
281,212,60783,2,0,P|281:247|297:279,1,70.4000021484376,10|0,0:0|0:0,0:0:0:0:
235,365,61069,6,0,P|179:310|106:328,1,140.800004296875,2|8,0:2|0:0,0:0:0:0:
41,247,61498,2,0,B|26:211|26:211|39:104,1,140.800004296875,2|0,0:2|0:0,0:0:0:0:
124,48,61926,2,0,B|159:56|159:56|201:47,1,70.4000021484376,8|2,0:0|0:2,0:0:0:0:
275,115,62212,6,0,B|288:166|288:166|282:209|282:209|290:253,1,140.800004296875,2|8,0:2|0:0,0:0:0:0:
380,308,62640,2,0,B|393:256|393:256|387:214|387:214|395:170,1,140.800004296875,2|2,0:2|0:2,0:0:0:0:
470,94,63069,1,8,0:0:0:0:
396,18,63212,2,0,L|320:10,1,70.4000021484376,2|8,0:1|0:0,0:0:0:0:
256,91,63498,5,2,0:3:0:0:
186,10,63640,2,0,L|116:18,1,70.4000021484376,10|2,0:0|0:3,0:0:0:0:
59,104,63926,2,0,L|131:104,1,70.4000021484376,10|2,0:0|0:3,0:0:0:0:
186,198,64212,2,0,L|115:190,1,70.4000021484376,10|2,0:0|0:2,0:0:0:0:
26,266,64498,6,0,B|35:318|35:318|30:369|30:369|57:340,1,144.000005493164,2|0,2:3|0:0,0:0:0:0:
147,288,65069,6,0,P|165:286|194:293,3,32,8|8|8|8,0:0|0:0|0:0|0:0,0:0:0:0:
214,303,65355,2,0,P|229:305|245:303,3,32,8|8|8|8,0:0|0:0|0:0|0:0,0:0:0:0:
292,280,65640,6,0,P|364:290|413:347,1,140.800004296875,6|8,0:2|0:0,0:0:0:0:
494,274,66069,2,0,L|502:121,1,140.800004296875,2|0,0:2|0:0,0:0:0:0:
407,183,66498,2,0,P|372:179|341:163,1,70.4000021484376,10|0,0:2|0:2,0:0:0:0:
256,99,66783,5,0,0:0:0:0:
170,163,66926,2,0,P|140:180|105:184,1,70.4000021484376,2|8,0:0|0:0,0:0:0:0:
40,98,67212,2,0,P|70:81|105:77,1,70.4000021484376,2|0,0:0|0:0,0:0:0:0:
170,163,67498,2,0,L|178:316,1,140.800004296875,2|0,0:0|0:0,0:0:0:0:
265,361,67926,6,0,B|298:335|298:335|323:299|304:237,1,140.800004296875,2|8,0:2|0:0,0:0:0:0:
262,141,68355,2,0,B|243:81|268:45|268:45|301:19,1,140.800004296875,2|0,0:2|0:0,0:0:0:0:
405,42,68783,2,0,L|487:47,1,70.4000021484376,10|0,0:2|0:0,0:0:0:0:
512,146,69069,5,0,0:0:0:0:
436,219,69212,2,0,P|427:261|431:301,1,70.4000021484376,2|8,0:0|0:0,0:0:0:0:
363,372,69498,2,0,P|355:337|338:307,1,70.4000021484376,2|0,0:0|0:0,0:0:0:0:
256,240,69783,1,2,0:0:0:0:
173,307,69926,2,0,P|156:337|148:372,1,70.4000021484376,8|0,0:0|0:0,0:0:0:0:
84,288,70212,6,0,L|76:147,1,140.800004296875,2|8,0:2|0:0,0:0:0:0:
6,104,70640,2,0,P|73:118|133:84,1,140.800004296875,2|0,0:2|0:0,0:0:0:0:
221,24,71069,2,0,P|256:19|291:23,1,70.4000021484376,10|0,0:2|0:0,0:0:0:0:
379,84,71355,5,0,0:0:0:0:
290,143,71498,2,0,P|256:146|221:143,1,70.4000021484376,2|8,0:0|0:0,0:0:0:0:
133,83,71783,2,0,P|98:79|64:84,1,70.4000021484376,2|0,0:0|0:0,0:0:0:0:
20,182,72069,2,0,B|29:224|29:224|8:265|26:321,1,140.800004296875,2|0,0:0|0:0,0:0:0:0:
130,359,72498,6,0,B|213:353,1,70.4000021484376,10|2,0:2|0:3,0:0:0:0:
281,274,72783,2,0,B|275:189,1,70.4000021484376,8|2,0:2|0:3,0:0:0:0:
196,124,73069,2,0,B|111:129,1,70.4000021484376,10|2,0:2|0:3,0:0:0:0:
45,209,73355,2,0,B|50:293,1,70.4000021484376,8|2,0:2|0:3,0:0:0:0:
130,359,73640,5,8,0:0:0:0:
212,277,73783,2,0,P|245:269|281:274,1,70.4000021484376,2|8,0:1|1:2,0:0:0:0:
367,343,74069,1,8,0:0:0:0:
367,343,74140,1,8,0:0:0:0:
367,343,74212,2,0,P|401:347|435:339,1,70.4000021484376,8|8,1:2|0:0,0:0:0:0:
490,255,74498,2,0,L|494:175,1,70.4000021484376,8|8,1:2|0:0,0:0:0:0:
420,88,74783,5,4,0:0:0:0:
78,351,83926,6,0,B|61:320|61:320|55:302|67:259,1,96.0000036621095,4|8,1:2|0:0,0:0:0:0:
121,199,84355,2,0,P|139:155|128:109,1,96.0000036621095,0|0,1:0|0:0,0:0:0:0:
81,42,84783,1,8,0:0:0:0:
81,42,85069,6,0,P|126:53|170:34,1,96.0000036621095,0|8,1:0|0:0,0:0:0:0:
246,63,85498,2,0,P|288:44|334:54,1,96.0000036621095,0|0,1:0|0:0,0:0:0:0:
386,118,85926,1,8,0:0:0:0:
386,118,86212,6,0,P|342:137|296:126,1,96.0000036621095,0|8,1:0|0:0,0:0:0:0:
235,180,86640,2,0,B|226:285,1,96.0000036621095,0|0,1:0|0:0,0:0:0:0:
275,342,87069,1,8,0:0:0:0:
352,316,87212,6,0,P|376:310|413:315,1,48.0000018310548,0|0,0:0|1:0,0:0:0:0:
471,271,87498,2,0,P|465:247|470:210,1,48.0000018310548,0|8,0:0|0:0,0:0:0:0:
490,145,87783,1,0,1:0:0:0:
490,145,88069,2,0,P|496:121|491:84,1,48.0000018310548,0|8,0:0|0:0,0:0:0:0:
335,54,88498,6,0,B|302:61|302:61|227:48,1,96.0000036621095,0|8,1:0|0:0,0:0:0:0:
182,108,88926,2,0,B|176:144|176:144|184:171|184:171|179:201,1,96.0000036621095,0|0,1:0|0:0,0:0:0:0:
139,274,89355,1,8,0:0:0:0:
139,274,89640,6,0,P|92:284|49:265,1,96.0000036621095,0|8,1:0|0:0,0:0:0:0:
35,184,90069,2,0,B|41:148|41:148|33:121|33:121|38:91,1,96.0000036621095,0|0,1:0|0:0,0:0:0:0:
89,25,90498,1,8,0:0:0:0:
89,25,90783,6,0,B|127:38|127:38|155:29|182:36,1,96.0000036621095,0|8,1:0|0:0,0:0:0:0:
244,90,91212,2,0,B|277:101|277:101|355:103,1,96.0000036621095,0|0,1:0|0:0,0:0:0:0:
432,59,91640,6,0,P|471:57|495:67,1,57.5999982421876,10|0,0:0|0:0,0:0:0:0:
453,142,91926,2,0,L|446:214,1,57.5999982421876,8|0,0:0|0:0,0:0:0:0:
409,277,92212,1,8,0:0:0:0:
405,281,92283,1,8,0:0:0:0:
401,285,92355,2,0,L|371:282,4,28.7999991210938,8|8|8|8|0,0:0|0:0|0:0|0:0|1:3,0:0:0:0:
185,367,93069,6,0,L|121:360,1,64,4|0,0:2|0:0,0:0:0:0:
50,304,93355,2,0,B|46:277|46:277|76:230|49:174,1,128,8|0,0:0|0:0,0:0:0:0:
19,97,93783,1,0,0:0:0:0:
88,39,93926,2,0,P|117:32|156:38,1,64,8|0,0:0|0:0,0:0:0:0:
230,78,94212,6,0,P|290:95|350:76,1,128,2|8,0:2|0:0,0:0:0:0:
409,143,94640,2,0,P|412:172|401:210,1,64,2|0,0:0|0:0,0:0:0:0:
479,254,94926,2,0,P|460:277|426:296,1,64,2|8,0:0|0:0,0:0:0:0:
374,367,95212,6,0,B|349:349|340:314|340:314|311:338|281:332,1,128,2|0,0:0|0:0,0:0:0:0:
210,271,95640,2,0,P|201:240|204:208,1,64,8|0,0:0|0:0,0:0:0:0:
201,118,95926,2,0,B|171:112|142:136|142:136|133:101|108:83,1,128,0|8,0:0|0:0,0:0:0:0:
19,72,96355,1,0,0:0:0:0:
53,155,96498,6,0,P|55:186|47:217,1,64,2|2,0:2|0:2,0:0:0:0:
0,298,96783,1,8,0:0:0:0:
77,342,96926,2,0,P|108:343|139:335,1,64,2|0,0:0|0:0,0:0:0:0:
186,257,97212,2,0,P|206:279|234:295,1,64,2|8,0:0|0:0,0:0:0:0:
323,273,97498,2,0,P|321:303|330:334,1,64,2|0,0:0|0:0,0:0:0:0:
500,277,97926,6,0,P|502:247|493:216,1,64,8|0,0:0|0:0,0:0:0:0:
426,153,98212,2,0,B|365:163|369:124|301:137,1,128,0|8,0:0|0:0,0:0:0:0:
230,191,98640,1,0,0:0:0:0:
147,155,98783,6,0,B|127:121|127:121|119:76|153:31,1,128,2|8,0:2|0:0,0:0:0:0:
236,16,99212,2,0,P|261:22|317:13,1,64,2|0,0:0|0:0,0:0:0:0:
381,55,99498,2,0,P|412:48|443:51,1,64,2|8,0:0|0:0,0:0:0:0:
506,116,99783,1,2,0:0:0:0:
469,291,100069,5,0,0:0:0:0:
405,229,100212,2,0,B|376:218|376:218|330:217,1,64,8|0,0:0|0:0,0:0:0:0:
321,129,100498,2,0,B|292:141|292:141|259:173,1,64,2|0,0:2|0:0,0:0:0:0:
190,117,100783,2,0,B|178:146|178:146|178:192,1,64,8|0,0:0|0:0,0:0:0:0:
124,262,101069,6,0,P|176:230|232:255,1,128,2|10,0:2|0:0,0:0:0:0:
286,335,101498,1,2,0:2:0:0:
378,308,101640,2,0,P|409:310|455:333,1,64,0|10,0:0|0:0,0:0:0:0:
510,256,101926,2,0,P|496:228|493:176,1,64,8|8,0:0|0:0,0:0:0:0:
502,92,102212,5,4,1:2:0:0:
256,192,102283,12,0,104498,1:2:0:0:
182,110,110498,5,8,0:1:0:0:
367,342,111069,1,8,0:1:0:0:
367,342,111212,1,8,0:1:0:0:
463,301,111355,6,0,B|474:260|474:260|469:173,1,128,4|0,1:2|1:0,0:0:0:0:
424,104,111783,1,0,0:0:0:0:
342,121,111926,2,0,B|298:124|298:124|261:118|261:118|210:122,1,128,8|2,0:0|0:2,0:0:0:0:
147,172,112355,1,0,1:0:0:0:
91,109,112498,6,0,P|72:85|64:50,1,64,0|0,1:0|1:0,0:0:0:0:
6,139,112783,2,0,L|-1:212,1,64,0|0,0:0|1:0,0:0:0:0:
1,311,113069,2,0,P|48:271|110:275,1,128,10|0,0:2|0:0,0:0:0:0:
264,339,113640,5,0,1:0:0:0:
402,276,113926,1,0,1:0:0:0:
402,276,114069,2,0,P|402:236|377:196,1,64,0|8,1:0|0:0,0:0:0:0:
465,168,114355,1,0,1:0:0:0:
465,168,114498,2,0,P|438:138|392:128,1,64,2|0,0:0|1:0,0:0:0:0:
332,152,114783,6,0,B|300:158|300:158|269:149,1,64,0|0,1:0|1:0,0:0:0:0:
213,211,115069,2,0,B|191:186|191:186|183:155,1,64,0|0,1:0|1:0,0:0:0:0:
216,63,115355,2,0,B|190:94|190:94|144:105|144:105|107:90,1,128,10|0,0:2|0:0,0:0:0:0:
35,48,115783,1,0,0:0:0:0:
35,132,115926,6,0,L|22:283,1,128,0|0,1:0|1:0,0:0:0:0:
49,339,116355,1,0,1:0:0:0:
106,278,116498,2,0,B|145:264|145:264|180:275|180:275|229:270,1,128,8|2,0:0|0:0,0:0:0:0:
299,225,116926,1,0,1:0:0:0:
276,144,117069,6,0,P|269:114|275:82,1,64,0|0,1:0|1:0,0:0:0:0:
324,14,117355,2,0,P|348:34|378:43,1,64,0|0,1:0|1:0,0:0:0:0:
490,30,117640,2,0,P|454:80|471:139,1,128,10|0,0:2|0:0,0:0:0:0:
466,326,118212,6,0,P|433:302|386:299,1,64,0|0,1:0|0:0,0:0:0:0:
423,214,118498,1,0,1:0:0:0:
423,214,118640,2,0,P|382:218|347:249,1,64,0|8,1:0|0:0,0:0:0:0:
312,162,118926,1,0,1:0:0:0:
312,162,119069,2,0,P|285:193|283:240,1,64,2|0,0:2|1:0,0:0:0:0:
240,291,119355,5,8,1:1:0:0:
240,291,119498,2,0,B|206:296|206:296|150:277,1,64,8|0,1:1|1:0,0:0:0:0:
109,247,119783,1,0,1:0:0:0:
109,247,119926,6,0,B|105:218|111:200|111:200|106:189|106:189|111:171|111:171|100:157|100:157|123:121|109:84,1,172.799994726563,2|0,0:2|0:0,0:0:0:0:
161,20,120498,6,0,P|201:44|248:45,1,96.0000036621095,4|0,1:2|0:0,0:0:0:0:
327,23,120926,2,0,P|374:21|415:45,1,96.0000036621095,0|0,1:0|0:0,0:0:0:0:
355,101,121355,1,2,1:2:0:0:
355,101,121640,6,0,B|351:134|351:134|355:161|355:161|350:196,1,96.0000036621095,0|0,1:2|0:0,0:0:0:0:
304,265,122069,1,0,1:0:0:0:
304,265,122212,2,0,B|268:282|268:282|189:281,1,96.0000036621095,0|2,0:0|1:2,0:0:0:0:
350,196,122783,6,0,B|386:179|386:179|465:180,1,96.0000036621095,0|0,1:0|0:0,0:0:0:0:
492,114,123212,2,0,B|504:84|504:84|502:47|480:26,1,96.0000036621095,0|0,1:0|0:0,0:0:0:0:
398,25,123640,1,2,1:2:0:0:
398,25,123926,6,0,B|362:42|362:42|305:41,1,96.0000036621095,0|0,1:0|0:0,0:0:0:0:
238,85,124355,1,0,1:0:0:0:
238,85,124498,2,0,B|221:120|221:120|221:177,1,96.0000036621095,0|2,0:0|1:2,0:0:0:0:
124,332,125069,6,0,B|106:296|106:296|104:202,1,121.59999675293,0|0,1:0|0:0,0:0:0:0:
132,125,125498,2,0,B|137:89|137:89|145:71|145:71|137:39|98:30,1,121.59999675293,2|0,1:0|0:0,0:0:0:0:
38,99,125926,2,0,B|29:126|29:126|31:168,1,60.7999983764649,2|0,1:2|0:0,0:0:0:0:
104,214,126212,6,0,B|143:217|143:217|173:206|173:206|229:227,1,121.59999675293,2|2,1:2|0:0,0:0:0:0:
281,292,126640,2,0,B|308:327|308:327|348:337|383:314,1,121.59999675293,2|0,1:0|0:0,0:0:0:0:
427,235,127069,1,2,1:2:0:0:
220,223,127355,5,2,1:2:0:0:
395,112,127640,1,0,1:2:0:0:
188,98,127926,1,0,1:0:0:0:
347,230,128212,1,2,1:0:0:0:
294,28,128498,6,0,L|248:21,3,32,8|8|8|8,0:0|0:0|0:0|0:0,0:0:0:0:
221,24,128783,2,0,L|175:17,3,32,8|8|8|8,0:0|0:0|0:0|0:0,0:0:0:0:
147,19,129069,5,0,1:0:0:0:
147,19,130498,5,14,3:3:0:0:
21,182,130783,6,0,P|-4:246|20:310,1,140.800004296875,6|8,0:2|0:0,0:0:0:0:
124,337,131212,2,0,B|173:340|173:340|206:334|206:334|278:339,1,140.800004296875,2|0,0:2|0:0,0:0:0:0:
365,371,131640,2,0,B|400:376|400:376|437:367,1,70.4000021484376,8|2,0:2|0:2,0:0:0:0:
388,272,131926,6,0,B|362:231|382:176|382:176|342:191,1,140.800004296875,2|8,0:2|0:0,0:0:0:0:
246,233,132355,2,0,B|188:228|188:228|155:234|155:234|105:231,1,140.800004296875,2|0,0:2|0:0,0:0:0:0:
10,278,132783,1,8,0:0:0:0:
17,173,132926,6,0,B|16:164|18:157|18:157|16:143|16:143|23:130|23:130|3:85|25:38,1,140.800004296875,2|2,0:2|0:2,0:0:0:0:
119,87,133355,2,0,P|155:92|193:80,1,70.4000021484376,10|0,0:0|0:0,0:0:0:0:
256,2,133640,1,2,0:0:0:0:
457,63,133926,1,8,0:0:0:0:
388,144,134069,6,0,B|362:180|362:180|350:229|383:273,1,140.800004296875,2|0,0:2|0:0,0:0:0:0:
336,367,134498,2,0,B|314:338|314:338|272:309,1,70.4000021484376,8|2,0:0|0:2,0:0:0:0:
235,223,134783,2,0,B|199:218|199:218|149:226,1,70.4000021484376,2|0,0:0|0:0,0:0:0:0:
63,192,135069,2,0,B|34:213|34:213|5:255,1,70.4000021484376,10|0,0:0|0:0,0:0:0:0:
5,348,135355,6,0,B|64:364|64:364|114:353|144:306,1,140.800004296875,2|8,0:2|0:0,0:0:0:0:
165,223,135783,2,0,P|142:157|171:95,1,140.800004296875,2|0,0:2|0:0,0:0:0:0:
274,76,136212,2,0,P|321:70|349:51,1,70.4000021484376,8|2,0:0|0:2,0:0:0:0:
433,109,136498,6,0,B|437:153|437:153|428:195|428:195|438:247,1,140.800004296875,2|8,0:2|0:0,0:0:0:0:
428,352,136926,2,0,B|388:349|363:321|363:321|328:304|285:315,1,140.800004296875,2|2,0:2|0:2,0:0:0:0:
208,369,137355,1,8,0:0:0:0:
126,301,137498,2,0,P|115:268|128:222,1,70.4000021484376,2|0,0:1|0:0,0:0:0:0:
170,139,137783,5,2,0:2:0:0:
261,191,137926,2,0,B|296:198|296:198|330:191,1,70.4000021484376,8|0,0:0|0:0,0:0:0:0:
330,85,138212,2,0,B|295:78|295:78|260:84,1,70.4000021484376,2|0,0:0|0:0,0:0:0:0:
174,143,138498,5,10,0:0:0:0:
174,143,138640,2,0,L|93:137,1,64,10|0,0:2|0:0,0:0:0:0:
110,138,139926,6,0,B|84:90|104:39|104:39|65:60,1,147.200002807617,12|8,0:2|0:0,0:0:0:0:
6,155,140355,2,0,B|12:191|41:218|41:218|45:257|13:291,1,147.200002807617,2|0,0:2|0:0,0:0:0:0:
86,372,140783,2,0,P|125:350|158:344,1,73.6000014038086,8|2,0:0|0:2,0:0:0:0:
261,362,141069,6,0,B|316:364|316:364|357:351|357:351|405:353,1,147.200002807617,8|8,0:0|0:0,0:0:0:0:
512,314,141498,2,0,P|459:280|459:175,1,147.200002807617,2|2,0:2|0:2,0:0:0:0:
473,94,141926,1,8,0:0:0:0:
379,35,142069,6,0,B|323:32|323:32|283:46|283:46|235:44,1,147.200002807617,2|2,0:2|0:2,0:0:0:0:
276,146,142498,2,0,P|287:189|284:222,1,73.6000014038086,10|0,0:0|0:0,0:0:0:0:
256,324,142783,1,10,0:0:0:0:
40,370,143069,1,8,0:2:0:0:
68,261,143212,6,0,B|75:219|75:219|47:175|70:119,1,147.200002807617,2|2,0:2|0:2,0:0:0:0:
168,69,143640,2,0,P|203:58|232:36,1,73.6000014038086,8|2,0:0|0:2,0:0:0:0:
259,145,143926,2,0,P|294:153|330:149,1,73.6000014038086,10|0,0:0|0:0,0:0:0:0:
301,255,144212,2,0,P|327:280|361:294,1,73.6000014038086,10|0,0:0|0:0,0:0:0:0:
268,358,144498,6,0,B|237:360|237:360|216:351|216:351|164:366|124:350,1,147.200002807617,12|8,0:2|0:0,0:0:0:0:
93,243,144926,2,0,B|95:195|95:195|81:155|81:155|84:99,1,147.200002807617,2|0,0:2|0:0,0:0:0:0:
191,130,145355,2,0,B|229:139|229:139|264:130,1,73.6000014038086,8|2,0:0|0:2,0:0:0:0:
353,65,145640,6,0,P|418:33|488:50,1,147.200002807617,8|8,0:0|0:0,0:0:0:0:
430,145,146069,2,0,B|403:219|454:216|426:288,1,147.200002807617,2|0,0:2|0:0,0:0:0:0:
347,367,146498,1,10,0:0:0:0:
239,337,146640,6,0,B|191:330|191:330|154:309|154:309|98:303,1,147.200002807617,2|0,3:0|0:0,0:0:0:0:
30,215,147069,1,10,0:0:0:0:
141,200,147212,6,0,B|188:206|188:206|225:227|225:227|281:233,1,147.200002807617,2|0,0:3|0:0,0:0:0:0:
392,218,147640,1,10,0:0:0:0:
322,131,147783,6,0,B|266:124|266:124|229:103|229:103|181:97,1,147.200002807617,2|2,0:3|2:3,0:0:0:0:
72,114,148212,2,0,P|27:105|-16:77,1,73.6000014038086,8|2,1:1|2:3,0:0:0:0:
32,199,148498,6,0,P|36:214|35:236,3,36.8000007019043,10|8|8|8,1:2|2:0|2:0|2:0,0:0:0:0:
62,269,148783,2,0,P|57:283|45:302,3,36.8000007019043,8|8|8|8,1:2|0:2|0:2|0:2,0:0:0:0:
52,344,149069,5,2,3:2:0:0:
52,344,149355,6,0,P|125:306|208:330,1,140.800004296875,4|0,0:2|0:0,0:0:0:0:
275,358,149783,1,0,0:0:0:0:
348,282,149926,2,0,L|351:211,1,70.4000021484376,10|0,0:2|0:0,0:0:0:0:
279,132,150212,5,0,0:0:0:0:
194,194,150355,2,0,P|159:199|125:190,1,70.4000021484376,2|8,0:0|0:0,0:0:0:0:
69,280,150640,2,0,P|41:258|23:228,1,70.4000021484376,2|0,0:0|0:0,0:0:0:0:
41,120,150926,2,0,B|55:72|44:27|44:27|63:52|79:57,1,140.800004296875,2|0,0:0|0:0,0:0:0:0:
174,101,151355,6,0,B|211:110|211:110|336:101,1,140.800004296875,2|8,0:2|0:0,0:0:0:0:
389,28,151783,2,0,P|364:80|411:142,1,140.800004296875,2|0,0:2|0:0,0:0:0:0:
482,215,152212,2,0,P|491:250|486:284,1,70.4000021484376,10|0,0:2|0:0,0:0:0:0:
420,368,152498,5,0,0:0:0:0:
320,330,152640,2,0,P|285:321|251:326,1,70.4000021484376,2|8,0:0|0:0,0:0:0:0:
153,367,152926,2,0,P|157:332|148:298,1,70.4000021484376,2|0,0:0|0:0,0:0:0:0:
82,214,153212,1,2,0:0:0:0:
141,125,153355,2,0,P|174:116|209:120,1,70.4000021484376,8|0,0:0|0:0,0:0:0:0:
291,187,153640,6,0,B|328:201|328:201|450:190,1,140.800004296875,2|8,0:2|0:0,0:0:0:0:
447,87,154069,2,0,B|410:73|410:73|288:84,1,140.800004296875,2|0,0:2|0:0,0:0:0:0:
209,120,154498,2,0,P|175:128|140:124,1,70.4000021484376,10|0,0:2|0:0,0:0:0:0:
52,66,154783,5,0,0:0:0:0:
46,172,154926,2,0,B|49:208|49:208|42:244,1,70.4000021484376,2|8,0:0|0:0,0:0:0:0:
49,347,155212,2,0,B|81:335|81:335|111:315,1,70.4000021484376,2|0,0:0|0:0,0:0:0:0:
173,228,155498,2,0,B|210:201|210:201|259:195|306:224,1,140.800004296875,2|0,0:0|0:0,0:0:0:0:
370,301,155926,6,0,B|322:335|272:321|272:321|301:346,1,140.800004296875,2|8,0:2|0:0,0:0:0:0:
400,380,156355,2,0,B|437:353|437:353|457:308|444:254,1,140.800004296875,2|0,0:2|0:0,0:0:0:0:
391,169,156783,2,0,P|384:139|385:99,1,70.4000021484376,10|0,0:2|0:0,0:0:0:0:
307,26,157069,5,0,0:0:0:0:
248,113,157212,2,0,P|213:120|178:118,1,70.4000021484376,2|8,0:0|0:0,0:0:0:0:
82,74,157498,2,0,P|113:106|105:205,1,140.800004296875,2|0,0:2|0:0,0:0:0:0:
30,266,157926,1,8,0:0:0:0:
30,266,158212,6,0,B|9:299|4:349|22:377|22:377|24:361|33:341,1,147.200002807617,6|8,0:2|0:0,0:0:0:0:
132,305,158640,2,0,B|177:293|177:293|236:297|265:334,1,147.200002807617,2|0,0:2|0:0,0:0:0:0:
365,378,159070,2,0,P|375:342|373:305,1,73.6000014038086,10|0,0:2|0:2,0:0:0:0:
346,198,159355,5,0,0:0:0:0:
232,208,159498,2,0,B|194:209|194:209|158:202,1,73.6000014038086,2|8,0:0|0:0,0:0:0:0:
207,103,159783,2,0,B|245:102|245:102|280:108,1,73.6000014038086,2|0,0:0|0:0,0:0:0:0:
346,198,160069,2,0,B|385:211|416:191|416:191|457:186|487:209,1,147.200002807617,2|0,0:0|0:0,0:0:0:0:
506,317,160498,6,0,P|448:305|401:381,1,147.200002807617,2|8,0:2|0:0,0:0:0:0:
313,299,160926,2,0,B|274:286|243:306|243:306|202:311|172:288,1,147.200002807617,2|0,0:2|0:0,0:0:0:0:
118,191,161355,2,0,L|106:102,1,73.6000014038086,10|0,0:2|0:0,0:0:0:0:
169,25,161641,5,0,0:0:0:0:
255,90,161783,2,0,P|292:96|328:89,1,73.6000014038086,2|8,0:0|0:0,0:0:0:0:
420,26,162069,2,0,P|455:18|492:24,1,73.6000014038086,2|0,0:0|0:0,0:0:0:0:
459,130,162355,1,2,0:0:0:0:
507,229,162498,2,0,P|512:265|505:301,1,73.6000014038086,8|0,0:0|0:0,0:0:0:0:
410,361,162783,6,0,B|388:330|391:292|391:292|355:269|321:279,1,147.200002807617,6|8,0:2|0:0,0:0:0:0:
232,345,163212,2,0,P|210:277|234:208,1,147.200002807617,2|0,0:2|0:0,0:0:0:0:
298,118,163640,2,0,P|303:81|296:45,1,73.6000014038086,10|0,0:2|0:0,0:0:0:0:
193,2,163927,5,0,0:0:0:0:
114,79,164069,2,0,P|77:83|42:74,1,73.6000014038086,2|8,0:0|0:0,0:0:0:0:
74,180,164355,2,0,P|51:208|19:227,1,73.6000014038086,2|0,0:0|0:0,0:0:0:0:
117,279,164640,2,0,B|146:289|168:277|168:277|180:286|180:286|225:276|259:290,1,147.200002807617,2|0,0:0|0:0,0:0:0:0:
361,349,165070,6,0,B|446:360,1,73.6000014038086,10|2,0:2|0:3,0:0:0:0:
491,255,165355,2,0,B|406:266,1,73.6000014038086,8|2,0:2|0:3,0:0:0:0:
361,161,165640,2,0,B|446:172,1,73.6000014038086,10|2,0:2|0:3,0:0:0:0:
491,67,165926,2,0,B|406:78,1,73.6000014038086,8|2,0:2|0:3,0:0:0:0:
311,24,166212,5,10,1:2:0:0:
253,109,166355,2,0,B|244:149|244:149|250:192,1,73.6000014038086,8|8,2:2|1:2,0:0:0:0:
283,289,166641,1,8,2:2:0:0:
283,289,166712,1,8,2:2:0:0:
283,289,166783,2,0,L|334:292,3,35.2000010742188,8|8|8|8,0:2|0:2|0:2|0:2,0:0:0:0:
348,308,167069,2,0,L|399:311,3,35.2000010742188,4|8|8|8,1:3|2:3|2:3|2:3,0:0:0:0:
413,327,167355,5,12,1:2:0:0:
413,327,167640,6,0,P|428:278|414:222,1,96.0000036621095,0|2,0:0|0:0,0:0:0:0:
355,123,168212,1,0,0:0:0:0:
355,123,168355,2,0,P|309:136|262:130,1,96.0000036621095,2|2,0:0|0:0,0:0:0:0:
149,56,168926,2,0,P|103:42|56:48,1,96.0000036621095,2|2,0:0|0:0,0:0:0:0:
26,125,169355,1,2,0:0:0:0:
26,125,169498,2,0,L|24:175,1,48.0000018310548,2|2,0:0|0:0,0:0:0:0:
138,268,169926,6,0,L|139:217,1,48.0000018310548,0|0,0:0|0:0,0:0:0:0:
197,163,170212,2,0,P|244:157|289:171,1,96.0000036621095,2|0,0:0|0:0,0:0:0:0:
327,242,170640,2,0,L|323:340,1,96.0000036621095,2|2,0:0|0:0,0:0:0:0:
452,378,171212,2,0,L|455:279,1,96.0000036621095,2|2,0:0|0:0,0:0:0:0:
500,217,171640,1,2,0:0:0:0:
500,217,171783,2,0,L|501:166,1,48.0000018310548,2|2,0:0|0:0,0:0:0:0:
365,105,172212,6,0,P|339:107|311:100,1,48.0000018310548,0|0,0:0|0:0,0:0:0:0:
253,151,172498,2,0,B|249:185|249:185|255:210|255:210|252:246,1,96.0000036621095,2|0,0:0|0:0,0:0:0:0:
194,301,172926,2,0,L|98:298,1,96.0000036621095,2|2,0:0|0:0,0:0:0:0:
25,184,173498,2,0,B|28:149|28:149|22:124|22:124|25:88,1,96.0000036621095,2|2,0:0|0:0,0:0:0:0:
94,46,173926,1,2,0:0:0:0:
94,46,174069,2,0,P|117:50|141:48,1,48.0000018310548,2|2,0:0|0:0,0:0:0:0:
289,24,174498,6,0,B|322:18|322:18|347:12|385:30,1,96.0000036621095,0|2,0:0|0:0,0:0:0:0:
439,157,175070,1,0,0:0:0:0:
439,157,175212,2,0,L|434:263,1,96.0000036621095,2|2,0:0|0:0,0:0:0:0:
332,340,175783,2,0,P|307:334|269:335,1,48.0000018310548,2|0,0:0|0:0,0:0:0:0:
207,355,176069,2,0,P|183:353|159:348,1,48.0000018310548,2|0,0:0|0:0,0:0:0:0:
101,293,176355,5,2,0:0:0:0:
