osu file format v14

[General]
AudioFilename: audio.mp3
AudioLeadIn: 0
PreviewTime: 56069
Countdown: 0
SampleSet: Soft
StackLeniency: 0.3
Mode: 0
LetterboxInBreaks: 0
WidescreenStoryboard: 1

[Editor]
DistanceSpacing: 1.5
BeatDivisor: 4
GridSize: 32
TimelineZoom: 2.3

[Metadata]
Title:Streaming Heart
TitleUnicode:ストリーミングハート
Artist:Ayaponzu*
ArtistUnicode:あやぽんず*
Creator:Lasse
Version:Extra
Source:
Tags:deco*27 deco27 cover utaite pon'po drop toybot karen chromoxx
BeatmapID:1216282
BeatmapSetID:552702

[Difficulty]
HPDrainRate:6
CircleSize:5.2
OverallDifficulty:8.7
ApproachRate:9.3
SliderMultiplier:1.6
SliderTickRate:1

[Events]
//Background and Video events
0,0,"bg.jpg",0,0
//Break Periods
2,74983,83372
//Storyboard Layer 0 (Background)
//Storyboard Layer 1 (Fail)
//Storyboard Layer 2 (Pass)
//Storyboard Layer 3 (Foreground)
//Storyboard Sound Samples

[TimingPoints]
498,285.714285714286,4,2,1,55,1,0
498,-117.647058823529,4,2,1,55,0,0
9355,-108.695652173913,4,2,1,55,0,0
9640,-100,4,2,1,70,0,0
10712,-100,4,2,99,5,0,0
10783,-100,4,2,1,70,0,0
11640,-133.333333333333,4,2,1,70,0,0
11855,-161.290322580645,4,2,99,5,0,0
11926,-100,4,2,1,70,0,0
12998,-100,4,2,99,5,0,0
13069,-100,4,2,1,70,0,0
13926,-133.333333333333,4,2,1,70,0,0
14140,-161.290322580645,4,2,99,5,0,0
14212,-100,4,2,1,70,0,0
15283,-100,4,2,99,5,0,0
15355,-100,4,2,1,70,0,0
15926,-100,4,2,1,70,0,0
16212,-133.333333333333,4,2,1,70,0,0
16426,-161.290322580645,4,2,99,5,0,0
16498,-100,4,2,1,70,0,0
17569,-100,4,2,99,5,0,0
17640,-100,4,2,1,70,0,0
19855,-100,4,2,99,5,0,0
19926,-100,4,2,1,70,0,0
20498,-100,4,2,1,70,0,0
20783,-133.333333333333,4,2,1,70,0,0
20998,-100,4,2,99,5,0,0
21069,-100,4,2,1,70,0,0
22140,-100,4,2,99,5,0,0
22212,-100,4,2,1,70,0,0
23069,-133.333333333333,4,2,1,70,0,0
23283,-100,4,2,99,5,0,0
23355,-100,4,2,1,70,0,0
24426,-100,4,2,99,5,0,0
24498,-100,4,2,1,70,0,0
25355,-133.333333333333,4,2,1,70,0,0
25569,-100,4,2,99,5,0,0
25640,-100,4,2,1,70,0,0
26712,-100,4,2,99,5,0,0
26783,-100,4,2,1,70,0,0
27640,-100,4,2,2,70,0,0
27926,-133.333333333333,4,2,1,40,0,0
28069,-133.333333333333,4,2,1,40,0,0
28212,-133.333333333333,4,2,1,5,0,0
28307,-133.333333333333,4,2,1,40,0,0
28498,-133.333333333333,4,2,1,44,0,0
28688,-133.333333333333,4,2,1,48,0,0
28878,-133.333333333333,4,2,1,52,0,0
29069,-111.111111111111,4,2,1,58,0,0
37069,-111.111111111111,4,2,1,60,0,0
37498,-111.111111111111,4,2,1,62,0,0
38069,-111.111111111111,4,2,1,64,0,0
38212,-100,4,1,1,65,0,0
47355,-181.818181818181,4,2,1,50,0,0
47783,-181.818181818181,4,2,1,50,0,0
48212,-90.9090909090909,4,2,1,50,0,0
48498,-181.818181818181,4,2,1,50,0,0
49355,-90.9090909090909,4,2,1,50,0,0
49640,-181.818181818181,4,2,1,50,0,0
50498,-90.9090909090909,4,2,1,50,0,0
50783,-181.818181818181,4,2,1,50,0,0
51640,-90.9090909090909,4,2,1,50,0,0
51926,-133.333333333333,4,2,1,55,0,0
53283,-133.333333333333,4,2,99,5,0,0
53355,-133.333333333333,4,2,1,55,0,0
54212,-100,4,2,1,60,0,0
55069,-83.3333333333333,4,2,1,60,0,0
55283,-83.3333333333333,4,2,99,5,0,0
55355,-90.9090909090909,4,2,1,60,0,0
55426,-90.9090909090909,4,2,1,61,0,0
55498,-90.9090909090909,4,2,1,62,0,0
55569,-90.9090909090909,4,2,1,63,0,0
55640,-90.9090909090909,4,2,1,65,0,0
55712,-90.9090909090909,4,2,1,67,0,0
55783,-90.9090909090909,4,2,1,70,0,0
55855,-90.9090909090909,4,2,1,73,0,0
55926,-200,4,2,1,67,0,0
55998,-200,4,2,98,20,0,0
56426,-200,4,2,99,5,0,0
56498,-90.9090909090909,4,1,33,75,0,1
56783,-90.9090909090909,4,1,1,75,0,1
57855,-90.9090909090909,4,2,99,5,0,1
57926,-90.9090909090909,4,1,1,75,0,1
62426,-90.9090909090909,4,2,99,5,0,1
62498,-90.9090909090909,4,1,1,75,0,1
63355,-90.9090909090909,4,1,1,78,0,1
64355,-90.9090909090909,4,1,1,78,0,1
64498,-133.333333333333,4,2,1,65,0,0
64712,-133.333333333333,4,2,99,5,0,0
64783,-153.846153846153,4,2,1,30,0,0
64926,-153.846153846153,4,2,1,50,0,0
65069,-100,4,2,1,63,0,0
65140,-100,4,2,1,64,0,0
65212,-100,4,2,1,65,0,0
65283,-100,4,2,1,66,0,0
65354,-100,4,2,2,68,0,0
65426,-100,4,2,2,70,0,0
65497,-100,4,2,2,72,0,0
65569,-100,4,2,2,74,0,0
65640,-90.9090909090909,4,1,1,77,0,1
72498,-86.9565217391304,4,1,1,80,0,1
73783,-80,4,1,1,78,0,1
73926,-80,4,2,2,78,0,1
74069,-86.9565217391304,4,2,2,75,0,1
74355,-86.9565217391304,4,2,2,72,0,1
74498,-86.9565217391304,4,2,2,70,0,1
74640,-86.9565217391304,4,2,2,68,0,1
74783,-99.9999999999999,4,2,1,66,0,0
74926,-99.9999999999999,4,2,1,60,0,0
83926,-133.333333333333,4,2,44,50,0,0
91640,-111.111111111111,4,2,44,53,0,0
91855,-111.111111111111,4,2,99,5,0,0
91926,-111.111111111111,4,2,1,56,0,0
92212,-111.111111111111,4,2,2,59,0,0
92283,-111.111111111111,4,2,2,61,0,0
92355,-111.111111111111,4,2,2,63,0,0
92426,-111.111111111111,4,2,2,65,0,0
92498,-111.111111111111,4,2,2,67,0,0
92569,-111.111111111111,4,2,2,69,0,0
92640,-133.333333333333,4,2,1,71,0,0
92712,-133.333333333333,4,2,98,20,0,0
92998,-111.111111111111,4,2,99,5,0,0
93069,-100,4,1,1,65,0,0
102212,-111.111111111111,4,2,1,70,0,0
102283,-111.111111111111,4,2,1,55,0,0
104212,-111.111111111111,4,2,44,55,0,0
110355,-111.111111111111,4,2,1,45,0,0
110498,-111.111111111111,4,2,44,50,0,0
110640,-111.111111111111,4,2,1,40,0,0
110926,-111.111111111111,4,2,1,35,0,0
111069,-111.111111111111,4,2,44,55,0,0
111212,-111.111111111111,4,2,44,62,0,0
111355,-95.2380952380952,4,2,55,70,0,0
113069,-133.333333333333,4,2,55,70,0,0
113640,-95.2380952380952,4,2,55,70,0,0
115355,-133.333333333333,4,2,55,70,0,0
115926,-95.2380952380952,4,2,55,70,0,0
117640,-133.333333333333,4,2,55,70,0,0
118212,-95.2380952380952,4,2,55,70,0,0
119926,-142.857142857143,4,2,1,60,0,0
119998,-111.111111111111,4,2,1,10,0,0
120355,-111.111111111111,4,2,99,10,0,0
120498,-181.818181818182,4,2,1,50,0,0
121355,-90.9090909090909,4,2,1,50,0,0
121640,-181.818181818182,4,2,1,50,0,0
122498,-90.9090909090909,4,2,1,50,0,0
122783,-181.818181818182,4,2,1,50,0,0
123640,-90.9090909090909,4,2,1,50,0,0
123925,-181.818181818182,4,2,1,50,0,0
124783,-90.9090909090909,4,2,1,50,0,0
125069,-111.111111111111,4,2,1,57,0,0
126426,-111.111111111111,4,2,99,5,0,0
126498,-111.111111111111,4,2,1,57,0,0
127355,-105.263157894737,4,2,1,60,0,0
128212,-80.0000000000001,4,2,1,60,0,0
128426,-80.0000000000001,4,2,99,5,0,0
128498,-100,4,2,1,64,0,0
128569,-100,4,2,1,65,0,0
128641,-100,4,2,1,66,0,0
128712,-100,4,2,1,67,0,0
128783,-100,4,2,1,70,0,0
128855,-100,4,2,1,72,0,0
128926,-100,4,2,1,74,0,0
128998,-100,4,2,1,76,0,0
129069,-100,4,2,1,78,0,0
130498,-33.3333333333333,4,1,33,75,0,0
130533,-33.3333333333333,4,2,99,5,0,0
130712,-62.5,4,2,99,5,0,0
130783,-90.9090909090908,4,1,33,77,0,1
131069,-90.9090909090908,4,1,1,77,0,1
132140,-90.9090909090908,4,2,99,5,0,1
132212,-90.9090909090908,4,1,1,77,0,1
136712,-90.9090909090908,4,2,99,5,0,1
136783,-90.9090909090908,4,1,1,77,0,1
137640,-90.9090909090908,4,1,1,78,0,1
138498,-90.9090909090908,4,1,1,80,0,1
138640,-181.818181818182,4,2,1,60,0,0
139069,-166.666666666667,4,2,1,50,0,0
139355,-142.857142857143,4,2,1,53,0,0
139569,-142.857142857143,4,2,99,5,0,0
139640,-125,4,2,1,56,0,0
139855,-133.333333333333,4,2,99,5,0,0
139926,-80,4,1,1,82,0,1
145855,-80,4,2,99,5,0,1
145926,-80,4,1,1,82,0,1
146498,-80,4,1,1,83,0,1
147069,-80,4,1,1,84,0,1
147640,-80,4,1,1,85,0,1
147926,-80,4,1,1,75,0,1
148212,-80,4,1,1,78,0,1
148498,-80,4,2,2,80,0,1
148783,-80,4,2,2,83,0,1
149069,-200,4,1,33,50,0,0
149283,-200,4,2,99,5,0,0
149355,-86.9565217391304,4,1,1,78,0,1
157926,-86.9565217391304,4,1,1,70,0,0
158212,-83.3333333333333,4,1,1,80,0,1
162498,-83.3333333333333,4,1,1,72,0,0
162783,-80,4,1,1,82,0,1
165069,-80,4,1,1,84,0,1
166212,-80,4,1,2,82,0,1
166783,-90.9090909090909,4,1,1,80,0,1
166926,-90.9090909090909,4,1,1,78,0,1
167069,-90.9090909090909,4,1,1,76,0,1
167212,-90.9090909090909,4,1,1,74,0,1
167355,-142.857142857143,4,1,1,55,0,0
167640,-142.857142857143,4,2,1,50,0,0
169640,-142.857142857143,4,2,1,48,0,0
171926,-142.857142857143,4,2,1,46,0,0
174212,-142.857142857143,4,2,1,44,0,0
176498,-142.857142857143,4,2,1,42,0,0

[Colours]
Combo1 : 20,231,152
Combo2 : 26,221,242
Combo3 : 255,51,122
Combo4 : 130,138,198

[HitObjects]
15,121,498,5,0,1:2:0:0:
15,121,783,5,0,1:2:0:0:
54,192,926,1,0,0:2:0:0:
93,263,1069,2,0,L|80:343,1,68.0000012969971,0|0,1:2|0:2,0:0:0:0:
58,196,1355,5,0,1:2:0:0:
97,267,1498,2,0,L|86:334,1,68.0000012969971,2|0,0:2|1:2,0:0:0:0:
182,214,1783,2,0,L|171:281,1,68.0000012969971,0|0,0:2|1:2,0:0:0:0:
267,161,2069,2,0,L|256:228,1,68.0000012969971,2|0,0:2|1:2,0:0:0:0:
171,281,2355,5,0,0:2:0:0:
256,228,2498,1,0,1:2:0:0:
171,281,2640,2,0,L|160:348,1,68.0000012969971,2|0,0:2|1:2,0:0:0:0:
160,348,3069,5,0,1:2:0:0:
97,267,3212,1,0,0:2:0:0:
181,213,3355,2,0,L|171:281,1,68.0000012969971,0|0,1:2|0:2,0:0:0:0:
97,267,3640,5,0,1:2:0:0:
185,217,3783,2,0,L|174:284,1,68.0000012969971,2|0,0:2|1:2,0:0:0:0:
270,164,4069,2,0,L|259:231,1,68.0000012969971,0|0,0:2|1:2,0:0:0:0:
355,111,4355,2,0,L|344:178,1,68.0000012969971,2|0,0:2|1:2,0:0:0:0:
259,231,4641,5,0,0:2:0:0:
174,285,4784,1,0,1:2:0:0:
196,150,4926,2,0,L|186:218,1,68.0000012969971,2|0,0:2|1:2,0:0:0:0:
196,150,5355,5,0,1:2:0:0:
282,98,5498,1,0,0:2:0:0:
196,150,5640,2,0,L|185:217,1,68.0000012969971,0|0,1:2|0:2,0:0:0:0:
282,98,5926,5,0,1:2:0:0:
200,154,6069,2,0,L|189:221,1,68.0000012969971,2|0,0:2|1:2,0:0:0:0:
133,76,6355,2,0,L|122:143,1,68.0000012969971,0|0,0:2|1:2,0:0:0:0:
67,0,6640,2,0,L|56:67,1,68.0000012969971,2|0,0:2|1:2,0:0:0:0:
121,143,6926,5,0,0:2:0:0:
56,67,7069,1,0,1:2:0:0:
121,143,7212,2,0,L|110:210,1,68.0000012969971,2|0,0:2|1:2,0:0:0:0:
110,211,8498,6,0,L|115:177,1,34.0000006484985,4|0,3:0|3:0,0:0:0:0:
172,135,8640,2,0,L|177:101,1,34.0000006484985,4|0,3:0|3:0,0:0:0:0:
233,59,8783,1,8,3:0:0:0:
256,160,8926,5,4,3:0:0:0:
331,89,9069,1,8,3:2:0:0:
360,195,9212,1,0,3:0:0:0:
360,195,9283,1,0,3:0:0:0:
360,195,9355,2,0,L|365:232,1,36.7999987646485,8|0,3:2|3:0,0:0:0:0:
256,160,9498,2,0,L|250:120,1,36.7999987646485,8|0,3:2|3:2,0:0:0:0:
296,21,9640,6,0,L|455:32,1,160,6|0,1:2|0:0,0:0:0:0:
455,32,10069,1,0,1:2:0:0:
331,89,10212,1,8,0:0:0:0:
331,89,10498,2,0,L|309:227,1,120,2|0,0:1|0:0,0:0:0:0:
296,273,10783,6,0,L|273:131,2,120,2|0|0,1:2|1:0|1:0,0:0:0:0:
408,351,11355,1,8,0:0:0:0:
408,351,11640,2,0,L|301:342,1,90.0000034332277,2|0,0:1|0:0,0:0:0:0:
248,362,11926,6,0,L|407:350,1,160,2|0,1:2|0:0,0:0:0:0:
407,350,12355,1,0,1:0:0:0:
469,228,12498,1,8,0:0:0:0:
469,228,12783,2,0,L|326:217,1,120,2|0,0:1|0:0,0:0:0:0:
342,296,13069,6,0,L|329:217,1,80,2|0,1:2|0:0,0:0:0:0:
322,295,13283,2,0,L|309:216,1,80,0|0,1:0|0:0,0:0:0:0:
264,162,13498,1,0,1:0:0:0:
225,291,13640,1,8,0:0:0:0:
225,291,13926,2,0,L|135:284,1,90.0000034332277,2|0,0:1|0:0,0:0:0:0:
124,359,14212,6,0,L|93:172,1,160,2|0,1:2|0:0,0:0:0:0:
98,201,14640,1,0,1:0:0:0:
40,77,14783,1,8,0:0:0:0:
40,77,15069,2,0,L|164:67,1,120,2|0,0:1|0:0,0:0:0:0:
225,48,15355,6,0,L|86:37,2,120,2|0|0,1:2|1:0|1:0,0:0:0:0:
328,136,15926,1,8,0:0:0:0:
328,136,16212,2,0,L|238:128,1,90.0000034332277,2|0,0:1|0:0,0:0:0:0:
225,48,16498,6,0,L|251:205,1,160,2|0,1:2|0:0,0:0:0:0:
251,205,16927,1,0,1:0:0:0:
336,310,17070,1,8,0:0:0:0:
336,310,17355,2,0,L|193:299,1,120,2|0,0:1|0:0,0:0:0:0:
148,296,17640,5,2,1:2:0:0:
16,331,17783,1,0,0:0:0:0:
8,345,17855,2,0,L|87:338,1,80,0|0,1:0|0:0,0:0:0:0:
148,296,18069,1,0,1:2:0:0:
27,242,18212,2,0,L|106:235,1,80,8|0,0:0|0:0,0:0:0:0:
148,296,18426,1,4,0:3:0:0:
156,310,18497,1,8,0:3:0:0:
195,179,18640,1,8,0:3:0:0:
362,205,18783,6,0,L|202:192,1,160,6|0,1:2|0:0,0:0:0:0:
202,192,19212,1,0,1:2:0:0:
134,73,19355,1,8,0:0:0:0:
134,73,19640,2,0,L|253:63,1,120,2|0,0:1|0:0,0:0:0:0:
275,128,19926,6,0,L|298:-14,2,120,2|0|0,1:2|1:0|1:0,0:0:0:0:
251,263,20498,1,8,0:0:0:0:
251,263,20783,2,0,L|236:351,1,90.0000034332277,2|0,0:1|0:0,0:0:0:0:
171,269,21069,6,0,L|330:257,1,160,2|0,1:2|0:0,0:0:0:0:
330,256,21498,1,0,1:0:0:0:
439,337,21641,1,8,0:0:0:0:
439,337,21926,2,0,L|458:213,1,120,2|0,0:1|0:0,0:0:0:0:
418,161,22212,6,0,L|405:82,1,80,2|0,1:2|0:0,0:0:0:0:
393,149,22426,2,0,L|380:70,1,80,0|0,1:0|0:0,0:0:0:0:
368,137,22640,1,0,1:0:0:0:
247,73,22783,1,8,0:0:0:0:
247,73,23069,2,0,L|230:176,1,90.0000034332277,2|0,0:1|0:0,0:0:0:0:
273,230,23355,6,0,L|242:43,1,160,2|0,1:2|0:0,0:0:0:0:
246,72,23783,1,0,1:0:0:0:
121,17,23926,1,8,0:0:0:0:
121,17,24212,2,0,L|1:7,1,120,2|0,0:1|0:0,0:0:0:0:
55,49,24498,6,0,L|174:58,2,120,2|0|0,1:2|1:0|1:0,0:0:0:0:
104,175,25069,1,8,0:0:0:0:
104,175,25355,2,0,L|85:285,1,90.0000034332277,2|0,0:1|0:0,0:0:0:0:
106,366,25641,6,0,L|80:209,1,160,2|0,1:2|0:0,0:0:0:0:
79,208,26070,1,0,1:0:0:0:
199,272,26213,1,8,0:0:0:0:
199,272,26498,2,0,L|342:283,1,120,2|0,0:1|0:0,0:0:0:0:
386,285,26783,5,2,1:2:0:0:
469,177,26926,1,0,0:0:0:0:
460,161,26998,2,0,L|447:240,1,80,0|0,1:0|0:0,0:0:0:0:
386,285,27212,1,0,1:0:0:0:
390,131,27355,2,0,L|377:210,1,80,8|0,0:0|0:0,0:0:0:0:
386,285,27569,1,4,0:3:0:0:
395,301,27640,1,8,0:2:0:0:
309,212,27783,1,8,0:2:0:0:
199,272,27926,6,0,B|156:286|156:286|41:278,1,160.000006103516,8|2,0:3|0:0,0:0:0:0:
0,55,28498,5,2,0:0:0:0:
41,278,28688,5,2,0:0:0:0:
0,55,28878,5,2,0:0:0:0:
41,278,29069,6,0,L|136:284,1,71.9999978027344,0|0,1:0|0:0,0:0:0:0:
215,245,29355,1,0,0:0:0:0:
112,282,29498,1,0,1:0:0:0:
280,338,29640,1,8,0:2:0:0:
280,338,29926,5,0,0:0:0:0:
378,293,30069,2,0,P|390:259|387:223,1,71.9999978027344,0|0,0:0|0:0,0:0:0:0:
314,137,30355,1,0,1:0:0:0:
306,155,30498,1,0,1:0:0:0:
458,215,30640,2,0,P|442:182|415:159,2,71.9999978027344,0|8|0,0:0|0:0|1:0,0:0:0:0:
314,137,31069,1,0,0:0:0:0:
387,223,31212,1,0,0:0:0:0:
459,103,31355,6,0,P|425:90|389:93,1,71.9999978027344,0|0,1:0|0:0,0:0:0:0:
387,223,31640,1,0,0:0:0:0:
314,137,31783,1,0,1:0:0:0:
282,269,31926,1,8,0:0:0:0:
282,269,32212,5,0,0:0:0:0:
201,175,32355,2,0,P|188:141|191:105,1,71.9999978027344,0|0,0:0|0:0,0:0:0:0:
321,59,32640,1,0,1:0:0:0:
333,44,32783,1,0,1:0:0:0:
319,157,32926,2,0,P|283:150|254:130,1,71.9999978027344,0|8,0:0|0:0,0:0:0:0:
282,268,33212,2,0,P|334:223|318:157,1,143.999995605469,0|0,1:0|0:0,0:0:0:0:
191,105,33640,6,0,L|95:98,1,71.9999978027344,0|0,1:0|0:0,0:0:0:0:
34,168,33926,1,0,0:0:0:0:
119,99,34069,1,0,1:0:0:0:
103,253,34212,1,8,0:2:0:0:
103,253,34498,5,0,0:0:0:0:
182,180,34640,2,0,L|253:185,1,71.9999978027344,0|0,0:0|0:0,0:0:0:0:
361,147,34926,1,0,1:0:0:0:
374,162,35069,1,0,1:0:0:0:
262,110,35212,2,0,L|190:104,2,71.9999978027344,0|8|0,0:0|0:0|1:0,0:0:0:0:
374,162,35640,1,0,0:0:0:0:
349,56,35783,1,0,0:0:0:0:
387,177,35926,6,0,B|400:260,1,71.9999978027344,0|0,1:0|0:0,0:0:0:0:
364,351,36212,1,0,0:0:0:0:
398,248,36355,1,0,1:0:0:0:
256,320,36498,1,8,0:0:0:0:
256,320,36783,6,0,B|256:224,1,71.9999978027344,2|0,0:0|0:0,0:0:0:0:
256,64,37069,5,0,1:0:0:0:
230,154,37212,1,8,0:0:0:0:
256,160,37283,1,8,0:0:0:0:
282,154,37355,1,8,1:2:0:0:
180,28,37498,5,0,1:2:0:0:
160,200,37640,1,0,1:0:0:0:
332,28,37783,5,8,1:2:0:0:
352,200,37925,1,8,1:2:0:0:
256,90,38069,5,8,0:0:0:0:
256,64,38140,1,8,0:0:0:0:
256,39,38212,1,4,1:2:0:0:
378,97,38355,5,0,0:0:0:0:
498,72,38498,2,0,P|500:34|500:-8,1,80,10|0,0:2|0:0,0:0:0:0:
452,148,38783,5,0,0:0:0:0:
498,72,38926,1,0,0:0:0:0:
406,224,39069,1,8,0:0:0:0:
452,148,39212,1,0,0:0:0:0:
360,300,39355,6,0,P|358:338|357:379,1,80,2|0,0:2|0:0,0:0:0:0:
406,224,39640,1,10,0:0:0:0:
364,304,39783,2,0,P|362:342|361:383,1,80,2|0,0:2|0:0,0:0:0:0:
412,231,40069,5,2,0:2:0:0:
412,231,40140,1,2,0:2:0:0:
412,231,40212,1,8,0:0:0:0:
368,308,40355,2,0,P|366:346|365:387,1,80,2|0,0:0|0:0,0:0:0:0:
326,223,40640,5,0,0:2:0:0:
368,308,40783,1,8,0:0:0:0:
286,140,40926,1,0,0:0:0:0:
182,292,41069,5,0,0:2:0:0:
234,216,41212,1,0,0:0:0:0:
182,292,41355,1,8,0:0:0:0:
234,216,41498,1,0,0:0:0:0:
130,368,41640,6,0,P|92:370|51:371,1,80,2|0,0:2|0:0,0:0:0:0:
182,292,41926,1,10,0:0:0:0:
126,372,42069,2,0,P|88:374|47:375,1,80,2|0,0:2|0:0,0:0:0:0:
188,298,42355,5,2,0:2:0:0:
188,298,42426,1,2,0:2:0:0:
188,298,42498,1,8,0:0:0:0:
122,376,42640,2,0,P|84:378|43:379,1,80,2|0,0:0|0:0,0:0:0:0:
185,301,42926,5,0,0:0:0:0:
122,376,43069,1,8,0:0:0:0:
231,219,43212,1,0,0:0:0:0:
95,286,43355,5,0,0:0:0:0:
185,301,43498,1,0,0:0:0:0:
95,286,43640,1,8,0:0:0:0:
185,301,43783,1,0,0:0:0:0:
5,271,43926,5,0,0:0:0:0:
95,286,44069,1,0,0:0:0:0:
5,271,44212,1,10,0:0:0:0:
185,301,44355,2,0,P|223:303|264:304,1,80,2|0,0:2|0:0,0:0:0:0:
102,292,44640,5,2,0:2:0:0:
102,292,44712,1,2,0:2:0:0:
102,292,44783,1,8,0:0:0:0:
189,305,44926,2,0,P|227:307|268:308,1,80,2|0,0:0|0:0,0:0:0:0:
102,292,45212,5,0,0:0:0:0:
127,371,45355,1,8,0:0:0:0:
77,213,45498,1,0,0:0:0:0:
46,353,45640,5,0,0:0:0:0:
157,230,45783,1,0,0:0:0:0:
46,353,45926,1,8,0:0:0:0:
157,230,46069,1,0,0:0:0:0:
5,271,46212,5,2,0:2:0:0:
189,305,46355,1,0,0:2:0:0:
5,271,46498,1,10,0:2:0:0:
189,305,46640,2,0,P|227:307|268:308,1,80,2|0,0:1|0:0,0:0:0:0:
236,150,46927,5,10,0:2:0:0:
196,150,46998,1,10,0:2:0:0:
156,153,47069,1,10,0:0:0:0:
77,213,47212,1,10,0:2:0:0:
103,88,47355,6,0,P|109:45|88:7,1,88.000002685547,4|0,1:2|0:0,0:0:0:0:
26,61,47783,2,0,P|59:88|102:88,1,88.000002685547,0|0,1:0|0:0,0:0:0:0:
87,7,48212,2,0,P|47:23|26:60,1,88.000002685547,2|0,1:2|0:2,0:0:0:0:
8,138,48498,6,0,B|8:234,1,88.000002685547,0|0,1:2|0:0,0:0:0:0:
8,314,48926,2,0,B|8:218,1,88.000002685547,0|0,1:0|0:0,0:0:0:0:
12,142,49355,2,0,B|12:238,1,88.000002685547,2|0,1:2|0:2,0:0:0:0:
174,228,49640,6,0,P|138:203|95:207,1,88.000002685547,0|0,1:0|0:0,0:0:0:0:
252,207,50069,2,0,P|217:231|174:228,1,88.000002685547,0|0,1:0|0:0,0:0:0:0:
331,228,50498,2,0,P|295:203|252:207,1,88.000002685547,2|0,1:2|0:2,0:0:0:0:
406,328,50783,6,0,B|406:232,1,88.000002685547,0|0,1:0|0:0,0:0:0:0:
406,152,51212,2,0,B|406:248,1,88.000002685547,0|0,1:0|0:0,0:0:0:0:
410,332,51640,2,0,B|410:236,1,88.000002685547,2|0,1:2|0:0,0:0:0:0:
464,113,51926,6,0,P|405:110|345:102,1,120.000004577637,0|0,1:0|0:0,0:0:0:0:
477,128,52355,2,0,P|436:126|396:121,1,60.0000022888184,0|0,1:0|0:0,0:0:0:0:
344,101,52640,1,0,0:0:0:0:
490,143,52783,2,0,P|449:141|409:136,1,60.0000022888184,2|0,1:2|0:0,0:0:0:0:
254,109,53069,6,0,P|298:102|343:100,1,90.0000034332277,0|0,1:0|0:0,0:0:0:0:
360,107,53355,1,0,0:0:0:0:
490,143,53498,1,0,1:0:0:0:
241,124,53640,2,0,P|270:121|300:120,1,60.0000022888184,0|0,0:0|0:0,0:0:0:0:
445,219,53926,5,2,1:2:0:0:
445,219,54069,1,2,0:2:0:0:
231,143,54212,2,0,P|270:136|310:133,1,80,0|0,1:0|0:0,0:0:0:0:
400,295,54498,5,2,1:2:0:0:
400,295,54640,1,2,0:0:0:0:
215,154,54783,2,0,P|254:147|294:144,1,80,0|0,1:0|0:0,0:0:0:0:
502,239,55069,6,0,P|427:225|350:219,1,143.999995605469,2|0,1:2|0:0,0:0:0:0:
285,258,55355,5,8,2:2:0:0:
258,283,55426,1,8,2:2:0:0:
221,293,55497,1,8,2:2:0:0:
185,284,55569,1,8,2:2:0:0:
157,259,55640,1,8,2:2:0:0:
185,232,55712,1,8,2:2:0:0:
221,223,55783,1,8,2:2:0:0:
257,231,55855,1,8,2:2:0:0:
285,258,55926,6,0,B|300:311|296:352|296:352|300:327|317:304,1,140,0|0,1:0|0:0,0:0:0:0:
376,270,56498,6,0,P|400:186|381:101,1,176.000005371094,6|8,0:2|0:0,0:0:0:0:
220,292,56926,2,0,P|197:209|215:124,1,176.000005371094,2|0,0:2|0:0,0:0:0:0:
376,270,57355,1,8,0:2:0:0:
381,101,57498,1,2,0:2:0:0:
200,195,57640,6,0,B|89:202|89:202|117:183,1,132.00000402832,2|0,0:2|0:0,0:0:0:0:
200,195,57926,1,8,0:0:0:0:
375,207,58069,2,0,L|200:195,1,176.000005371094,2|0,0:2|0:0,0:0:0:0:
266,317,58498,1,8,0:0:0:0:
437,258,58640,6,0,P|453:219|443:164,1,88.000002685547,2|0,0:2|0:0,0:0:0:0:
351,308,58926,1,2,0:2:0:0:
447,174,59069,6,0,L|462:79,1,88.000002685547,10|0,0:0|0:0,0:0:0:0:
264,199,59355,2,0,L|250:112,1,88.000002685547,2|0,0:0|0:0,0:0:0:0:
447,174,59640,1,8,0:0:0:0:
278,286,59783,6,0,L|251:113,1,176.000005371094,2|0,0:2|0:0,0:0:0:0:
88,40,60212,1,8,0:0:0:0:
251,112,60355,1,2,0:2:0:0:
97,226,60498,6,0,P|80:185|85:142,1,88.000002685547,2|0,0:0|0:0,0:0:0:0:
239,28,60783,2,0,P|255:68|250:111,1,88.000002685547,10|0,0:0|0:0,0:0:0:0:
22,270,61069,6,0,P|96:226|182:221,1,176.000005371094,2|8,0:2|0:0,0:0:0:0:
322,358,61498,2,0,L|130:344,1,176.000005371094,2|0,0:2|0:0,0:0:0:0:
256,192,61926,1,8,0:0:0:0:
322,358,62069,1,2,0:2:0:0:
462,267,62212,6,0,P|475:214|453:129,1,132.00000402832,2|0,0:2|0:0,0:0:0:0:
458,139,62498,1,8,0:0:0:0:
467,352,62640,2,0,P|456:309|461:266,1,88.000002685547,2|0,0:2|0:0,0:0:0:0:
492,80,62926,5,2,0:2:0:0:
374,205,63069,1,8,0:0:0:0:
467,352,63212,2,0,P|472:308|461:266,1,88.000002685547,2|8,0:1|0:0,0:0:0:0:
380,127,63498,1,2,0:3:0:0:
279,280,63640,5,10,0:0:0:0:
237,72,63783,1,2,0:3:0:0:
209,312,63926,5,10,0:0:0:0:
237,72,64069,1,2,0:3:0:0:
138,286,64212,5,10,0:0:0:0:
317,83,64355,1,0,0:2:0:0:
105,214,64498,6,0,B|87:214|78:205|78:205|99:186|141:182|186:200|186:200|170:182|159:161,1,180.000006866455,2|0,2:3|0:0,0:0:0:0:
171,34,65069,5,8,0:0:0:0:
134,39,65140,1,8,0:0:0:0:
98,44,65211,1,8,0:0:0:0:
63,49,65283,1,8,0:0:0:0:
27,53,65354,5,8,0:0:0:0:
69,59,65426,1,8,0:0:0:0:
113,65,65498,1,8,0:0:0:0:
157,71,65569,1,8,0:0:0:0:
201,79,65640,6,0,L|-8:93,1,176.000005371094,6|8,0:2|0:0,0:0:0:0:
290,121,66069,2,0,L|80:106,1,176.000005371094,2|0,0:2|0:0,0:0:0:0:
379,163,66498,1,10,0:2:0:0:
161,217,66640,2,0,L|249:224,1,88.000002685547,0|0,0:2|0:0,0:0:0:0:
326,355,66926,6,0,P|342:314|337:271,1,88.000002685547,2|8,0:0|0:0,0:0:0:0:
150,301,67212,2,0,P|144:258|161:218,1,88.000002685547,2|0,0:0|0:0,0:0:0:0:
231,369,67498,1,2,0:0:0:0:
145,301,67640,2,0,P|139:257|156:217,1,88.000002685547,8|0,0:2|0:0,0:0:0:0:
364,97,67926,6,0,L|333:286,1,176.000005371094,2|8,0:2|0:0,0:0:0:0:
323,10,68355,2,0,L|350:183,1,176.000005371094,2|0,0:2|0:0,0:0:0:0:
322,356,68783,1,10,0:2:0:0:
336,270,68925,1,0,0:0:0:0:
350,183,69068,1,0,0:0:0:0:
486,313,69212,6,0,P|445:329|402:324,1,88.000002685547,2|8,0:0|0:0,0:0:0:0:
350,183,69498,2,0,P|390:166|433:171,1,88.000002685547,2|0,0:0|0:0,0:0:0:0:
262,266,69783,1,2,0:0:0:0:
349,178,69926,2,0,P|389:161|432:166,1,88.000002685547,8|0,0:0|0:0,0:0:0:0:
198,132,70212,6,0,P|263:187|348:178,1,176.000005371094,2|8,0:2|0:0,0:0:0:0:
115,235,70640,2,0,P|180:179|266:189,1,176.000005371094,2|0,0:2|0:0,0:0:0:0:
108,100,71069,1,10,0:2:0:0:
115,235,71212,2,0,L|128:321,1,88.000002685547,0|0,0:0|0:0,0:0:0:0:
31,133,71498,6,0,P|65:107|109:101,1,88.000002685547,2|8,0:0|0:0,0:0:0:0:
342,156,71783,2,0,P|307:182|264:188,1,88.000002685547,2|0,0:0|0:0,0:0:0:0:
367,42,72069,1,2,0:0:0:0:
344,161,72212,2,0,P|309:186|266:193,1,88.000002685547,8|0,0:0|0:0,0:0:0:0:
109,101,72498,5,10,0:2:0:0:
265,193,72640,1,2,0:3:0:0:
111,185,72783,5,8,0:2:0:0:
280,107,72926,1,2,0:3:0:0:
98,198,73069,5,10,0:2:0:0:
267,120,73212,1,2,0:3:0:0:
95,113,73355,5,8,0:2:0:0:
256,204,73498,1,2,0:3:0:0:
182,30,73640,1,8,0:0:0:0:
85,211,73783,6,0,L|68:315,1,100,2|8,0:1|1:2,0:0:0:0:
160,353,74069,1,8,0:0:0:0:
160,353,74140,1,8,0:0:0:0:
160,353,74212,1,8,1:2:0:0:
252,292,74355,1,8,0:0:0:0:
246,183,74498,1,8,1:2:0:0:
148,135,74640,1,8,0:0:0:0:
160,353,74783,5,4,0:0:0:0:
64,288,83926,6,0,L|74:224,1,60.0000022888184,4|0,1:2|0:0,0:0:0:0:
155,136,84212,1,8,0:0:0:0:
153,238,84355,1,0,1:0:0:0:
64,288,84498,1,0,0:0:0:0:
64,288,84783,1,8,0:0:0:0:
153,238,84926,6,0,L|212:242,1,60.0000022888184,0|0,0:0|1:0,0:0:0:0:
94,219,85212,2,0,L|153:214,1,60.0000022888184,0|8,0:0|0:0,0:0:0:0:
34,206,85498,2,0,L|161:214,1,120.000004577637,0|0,1:0|0:0,0:0:0:0:
269,181,85926,1,8,0:0:0:0:
269,181,86069,1,0,0:0:0:0:
193,42,86212,6,0,L|202:101,1,60.0000022888184,0|0,1:0|0:0,0:0:0:0:
153,214,86498,1,8,0:0:0:0:
123,117,86641,1,0,1:0:0:0:
193,42,86784,1,0,0:0:0:0:
193,42,87069,1,8,0:0:0:0:
123,117,87212,6,0,L|63:112,1,60.0000022888184,0|0,0:0|1:0,0:0:0:0:
193,42,87498,2,0,L|252:46,1,60.0000022888184,0|8,0:0|0:0,0:0:0:0:
119,121,87783,2,0,L|59:116,1,60.0000022888184,0|0,1:0|0:0,0:0:0:0:
193,42,88069,1,0,0:0:0:0:
207,168,88212,1,8,0:0:0:0:
207,168,88498,6,0,L|198:227,1,60.0000022888184,0|0,1:0|0:0,0:0:0:0:
261,306,88783,1,8,0:0:0:0:
361,290,88926,1,0,1:0:0:0:
436,359,89069,1,0,0:0:0:0:
436,359,89355,1,8,0:0:0:0:
361,290,89498,6,0,L|351:230,1,60.0000022888184,0|0,0:0|1:0,0:0:0:0:
261,306,89783,2,0,L|270:246,1,60.0000022888184,0|8,0:0|0:0,0:0:0:0:
379,171,90069,2,0,L|360:289,1,120.000004577637,0|0,1:0|0:0,0:0:0:0:
270,246,90498,1,8,0:0:0:0:
263,147,90640,1,0,0:0:0:0:
345,91,90783,6,0,L|408:95,1,60.0000022888184,0|0,1:0|0:0,0:0:0:0:
493,43,91069,1,8,0:0:0:0:
493,146,91212,1,0,1:0:0:0:
493,249,91355,1,0,0:0:0:0:
493,249,91640,6,0,B|457:263|457:263|354:256,1,107.999996704102,10|0,0:0|0:0,0:0:0:0:
321,209,91926,6,0,B|290:196|290:196|251:199,1,71.9999978027344,8|0,0:0|0:0,0:0:0:0:
118,302,92212,1,8,0:0:0:0:
131,285,92283,1,8,0:0:0:0:
118,302,92354,1,8,0:0:0:0:
131,285,92426,1,8,0:0:0:0:
118,302,92497,1,8,0:0:0:0:
131,285,92569,1,8,0:0:0:0:
118,302,92640,6,0,B|131:286|131:286|152:155,1,150.000005722046,0|0,1:3|0:0,0:0:0:0:
166,138,93069,6,0,P|168:178|166:218,1,80,4|0,0:2|0:0,0:0:0:0:
286,313,93355,1,8,0:0:0:0:
206,289,93498,1,0,0:0:0:0:
360,274,93640,5,0,0:0:0:0:
286,313,93783,1,0,0:0:0:0:
360,274,93926,1,8,0:0:0:0:
286,313,94069,1,0,0:0:0:0:
384,194,94212,5,2,0:2:0:0:
360,274,94355,2,0,P|358:313|359:353,1,80,2|8,0:2|0:0,0:0:0:0:
384,194,94640,6,0,P|386:154|384:114,1,80,2|0,0:0|0:0,0:0:0:0:
241,222,94926,2,0,P|270:195|297:165,1,80,2|8,0:0|0:0,0:0:0:0:
120,140,95212,2,0,P|159:142|199:140,2,80,2|0|0,0:0|0:0|0:0,0:0:0:0:
14,40,95640,5,8,0:0:0:0:
37,120,95783,1,0,0:0:0:0:
83,280,95926,5,0,0:0:0:0:
60,200,96069,1,0,0:0:0:0:
37,120,96212,1,8,0:0:0:0:
14,40,96355,1,0,0:0:0:0:
60,200,96498,5,2,0:2:0:0:
37,120,96640,1,2,0:2:0:0:
83,280,96783,1,8,0:0:0:0:
120,140,96926,6,0,P|125:100|126:60,1,80,2|0,0:0|0:0,0:0:0:0:
252,137,97212,2,0,P|227:105|200:75,1,80,2|8,0:0|0:0,0:0:0:0:
344,40,97498,2,0,P|304:34|264:33,2,80,2|0|0,0:0|0:0|0:0,0:0:0:0:
488,102,97926,6,0,P|448:107|408:108,1,80,8|0,0:0|0:0,0:0:0:0:
252,137,98212,1,0,0:0:0:0:
327,102,98355,1,0,0:0:0:0:
205,205,98498,1,8,0:0:0:0:
252,137,98640,1,0,0:0:0:0:
201,288,98783,6,0,B|206:206|206:206|172:176|172:139,1,160,2|8,0:2|0:0,0:0:0:0:
332,130,99212,6,0,P|293:134|253:137,1,80,2|0,0:0|0:0,0:0:0:0:
421,124,99498,2,0,P|381:119|342:117,1,80,2|8,0:0|0:0,0:0:0:0:
512,134,99783,2,0,P|472:136|433:135,1,80,2|0,0:0|0:0,0:0:0:0:
294,56,100069,5,0,0:0:0:0:
432,134,100212,1,8,0:0:0:0:
294,56,100355,1,0,0:0:0:0:
436,138,100498,2,0,P|476:139|516:138,1,80,2|0,0:2|0:0,0:0:0:0:
256,192,100783,5,8,0:0:0:0:
294,56,100926,1,0,0:0:0:0:
440,142,101069,2,0,P|480:143|520:142,1,80,2|0,0:2|0:0,0:0:0:0:
294,56,101355,5,10,0:0:0:0:
444,146,101498,2,0,P|484:147|524:146,1,80,2|0,0:2|0:0,0:0:0:0:
294,56,101783,5,10,0:0:0:0:
256,192,101926,1,8,0:0:0:0:
218,328,102069,1,8,0:0:0:0:
120,154,102212,5,4,1:2:0:0:
256,192,102283,12,8,104212,1:2:0:0:
99,259,104498,6,0,L|194:265,1,71.9999978027344,0|0,1:2|0:2,0:0:0:0:
47,179,104783,1,8,1:2:0:0:
103,264,104926,2,0,L|198:270,1,71.9999978027344,0|0,0:2|1:2,0:0:0:0:
256,128,105355,5,8,1:2:0:0:
465,179,105640,5,0,1:2:0:0:
413,259,105783,1,0,0:2:0:0:
465,179,105926,1,8,1:2:0:0:
413,259,106069,2,0,L|341:264,1,71.9999978027344,0|0,0:2|1:2,0:0:0:0:
256,128,106498,5,8,1:2:0:0:
145,88,106783,6,0,L|156:16,1,71.9999978027344,0|0,1:2|0:2,0:0:0:0:
63,137,107069,1,8,1:2:0:0:
150,84,107212,2,0,L|161:12,1,71.9999978027344,0|0,0:2|1:2,0:0:0:0:
256,128,107640,5,8,1:2:0:0:
449,137,107926,5,0,1:2:0:0:
367,88,108069,2,0,L|355:16,1,71.9999978027344,0|8,0:2|1:2,0:0:0:0:
449,137,108355,2,0,L|460:208,1,71.9999978027344,0|0,0:2|1:2,0:0:0:0:
256,128,108783,5,8,1:2:0:0:
63,137,109069,6,0,L|51:208,1,71.9999978027344,0|0,1:2|0:2,0:0:0:0:
145,88,109355,1,8,1:2:0:0:
58,141,109498,2,0,L|46:212,1,71.9999978027344,0|0,0:2|1:2,0:0:0:0:
256,128,109926,5,8,1:2:0:0:
256,32,110355,5,2,0:0:0:0:
256,128,110498,1,8,0:1:0:0:
256,224,110640,2,0,L|256:384,1,143.999995605469,2|0,0:0|0:0,0:0:0:0:
403,329,111069,5,8,0:1:0:0:
443,217,111212,1,8,0:1:0:0:
443,199,111283,1,8,0:1:0:0:
443,177,111355,6,0,B|465:42|465:42|495:14,1,167.999994873047,4|0,1:2|1:0,0:0:0:0:
502,250,111783,2,0,B|480:115|480:115|450:87,1,167.999994873047,0|0,0:0|1:0,0:0:0:0:
350,251,112212,2,0,B|359:239|359:239|370:171,1,83.9999974365235,2|0,0:2|1:0,0:0:0:0:
300,49,112498,5,0,1:0:0:0:
267,161,112640,1,0,1:0:0:0:
155,128,112783,1,0,0:0:0:0:
188,16,112926,1,0,1:0:0:0:
155,128,113069,6,0,B|148:167|148:167|127:196|127:196|119:251,1,120.000004577637,10|0,0:2|0:0,0:0:0:0:
122,251,113640,6,0,B|111:187|111:187|101:170,1,83.9999974365235,0|0,1:0|0:0,0:0:0:0:
36,309,113926,1,0,1:0:0:0:
126,247,114069,2,0,B|115:183|115:183|105:166,1,83.9999974365235,0|8,1:0|0:0,0:0:0:0:
30,90,114355,2,0,B|124:105,2,83.9999974365235,0|2|0,1:0|0:0|1:0,0:0:0:0:
33,198,114783,5,0,1:0:0:0:
112,103,114925,1,0,1:0:0:0:
234,124,115069,1,0,1:0:0:0:
276,240,115212,1,0,1:0:0:0:
234,124,115355,6,0,B|240:84|240:84|261:55|261:55|269:0,1,120.000004577637,10|0,0:2|0:0,0:0:0:0:
273,0,115926,6,0,B|250:21|250:21|228:156,1,167.999994873047,0|0,1:0|1:0,0:0:0:0:
182,312,116355,2,0,B|205:291|205:291|227:156,1,167.999994873047,0|0,1:0|1:0,0:0:0:0:
344,77,116783,2,0,B|438:92,2,83.9999974365235,2|0|0,0:0|1:0|1:0,0:0:0:0:
227,155,117212,5,0,1:0:0:0:
353,217,117355,1,0,1:0:0:0:
344,77,117498,1,0,1:0:0:0:
353,217,117640,6,0,B|347:257|347:257|326:286|326:286|318:341,1,120.000004577637,10|0,0:2|0:0,0:0:0:0:
321,346,118212,6,0,L|314:250,1,83.9999974365235,0|0,1:0|0:0,0:0:0:0:
224,358,118498,1,0,1:0:0:0:
325,342,118640,2,0,L|318:246,1,83.9999974365235,0|8,1:0|0:0,0:0:0:0:
251,160,118926,2,0,B|157:145,2,83.9999974365235,0|2|0,1:0|0:2|1:0,0:0:0:0:
416,176,119355,5,8,1:1:0:0:
251,160,119498,1,8,1:1:0:0:
416,176,119640,1,0,1:0:0:0:
251,160,119783,1,0,1:0:0:0:
416,176,119926,6,0,B|380:164|380:164|291:171|291:171|238:156,1,167.999994873047,2|0,0:2|0:0,0:0:0:0:
87,63,120498,6,0,L|183:63,1,88.000002685547,4|0,1:2|0:0,0:0:0:0:
263,63,120926,2,0,L|167:63,1,88.000002685547,0|0,1:0|0:0,0:0:0:0:
83,67,121355,2,0,L|179:67,1,88.000002685547,2|0,1:2|0:2,0:0:0:0:
75,151,121640,6,0,P|68:107|83:66,1,88.000002685547,0|0,1:2|0:0,0:0:0:0:
66,235,122069,2,0,P|80:194|75:151,1,88.000002685547,0|0,1:0|0:0,0:0:0:0:
76,319,122498,2,0,P|61:278|66:234,1,88.000002685547,2|0,1:2|0:2,0:0:0:0:
169,269,122783,6,0,L|265:269,1,88.000002685547,0|0,1:0|0:0,0:0:0:0:
345,269,123212,2,0,L|249:269,1,88.000002685547,0|0,1:0|0:0,0:0:0:0:
165,273,123640,2,0,L|261:273,1,88.000002685547,2|0,1:2|0:2,0:0:0:0:
260,188,123926,6,0,P|266:231|252:273,1,88.000002685547,0|0,1:0|0:0,0:0:0:0:
268,104,124355,2,0,P|253:145|259:188,1,88.000002685547,0|0,1:0|0:0,0:0:0:0:
276,19,124783,2,0,P|282:62|268:104,1,88.000002685547,2|0,1:2|0:0,0:0:0:0:
130,123,125069,6,0,P|196:96|268:103,1,143.999995605469,0|0,1:0|0:0,0:0:0:0:
355,180,125498,2,0,B|366:251,1,71.9999978027344,2|0,1:0|0:0,0:0:0:0:
133,129,125926,2,0,P|164:111|199:102,1,71.9999978027344,2|0,1:2|0:0,0:0:0:0:
352,163,126212,6,0,B|371:292,1,107.999996704102,2|0,1:2|0:0,0:0:0:0:
370,285,126498,1,2,0:0:0:0:
256,352,126641,1,2,1:0:0:0:
143,269,126783,2,0,B|154:197,1,71.9999978027344,2|0,0:0|0:0,0:0:0:0:
38,230,127069,1,2,1:2:0:0:
38,230,127212,1,0,0:2:0:0:
131,348,127355,6,0,B|154:197,1,151.999995941162,2|0,1:2|1:2,0:0:0:0:
38,230,127783,1,2,0:1:0:0:
154,197,127926,2,0,B|165:121,1,75.9999979705811,0|0,1:0|0:0,0:0:0:0:
291,16,128212,6,0,B|313:164,1,150,2|0,1:0|0:0,0:0:0:0:
322,226,128498,5,8,0:0:0:0:
276,215,128569,1,8,0:0:0:0:
251,174,128641,1,8,0:0:0:0:
261,126,128712,1,8,0:0:0:0:
303,102,128784,1,8,0:0:0:0:
350,113,128855,1,8,0:0:0:0:
374,154,128927,1,8,0:0:0:0:
363,200,128998,1,8,0:0:0:0:
313,164,129069,5,0,1:0:0:0:
313,164,130498,6,0,L|313:224,1,60.0000022888184,14|0,3:3|0:0,0:0:0:0:
512,74,130783,6,0,P|421:78|362:15,1,176.000005371094,6|8,0:2|0:0,0:0:0:0:
401,255,131212,2,0,L|428:81,1,176.000005371094,2|0,0:2|0:0,0:0:0:0:
246,226,131640,1,8,0:2:0:0:
213,52,131783,1,2,0:2:0:0:
79,185,131925,6,0,B|55:212|55:212|70:117,1,132.00000402832,2|0,0:2|0:0,0:0:0:0:
78,184,132212,1,8,0:0:0:0:
107,358,132354,2,0,L|76:168,1,176.000005371094,2|0,0:2|0:0,0:0:0:0:
213,52,132783,1,8,0:0:0:0:
246,226,132926,6,0,P|285:242|340:232,1,88.000002685547,2|0,0:2|0:0,0:0:0:0:
298,123,133211,1,2,0:2:0:0:
233,313,133355,6,0,L|246:226,1,88.000002685547,10|0,0:0|0:0,0:0:0:0:
107,358,133640,2,0,L|93:271,1,88.000002685547,2|0,0:0|0:0,0:0:0:0:
179,180,133925,1,8,0:0:0:0:
107,358,134069,6,0,L|76:168,1,176.000005371094,2|0,0:2|0:0,0:0:0:0:
137,18,134497,1,8,0:0:0:0:
78,184,134640,1,2,0:2:0:0:
298,123,134783,6,0,P|341:117|381:132,1,88.000002685547,2|0,0:0|0:0,0:0:0:0:
289,334,135069,2,0,P|245:339|205:324,1,88.000002685547,10|0,0:0|0:0,0:0:0:0:
381,132,135355,6,0,L|409:306,1,176.000005371094,2|8,0:2|0:0,0:0:0:0:
463,101,135783,2,0,P|400:45|318:67,1,176.000005371094,2|0,0:2|0:0,0:0:0:0:
409,306,136211,1,8,0:0:0:0:
381,132,136354,1,2,0:2:0:0:
289,334,136498,6,0,L|309:203,1,132.00000402832,2|0,0:2|0:0,0:0:0:0:
309,203,136783,1,8,0:0:0:0:
366,365,136926,2,0,P|322:360|288:333,1,88.000002685547,2|0,0:2|0:0,0:0:0:0:
381,132,137212,5,2,0:2:0:0:
461,255,137355,1,8,0:0:0:0:
362,369,137498,2,0,P|318:364|284:337,1,88.000002685547,2|0,0:1|0:0,0:0:0:0:
213,194,137783,1,2,0:2:0:0:
285,338,137926,5,8,0:0:0:0:
213,194,138069,1,0,0:0:0:0:
108,351,138212,2,0,B|80:355|80:355|20:350,1,88.000002685547,2|0,0:0|0:0,0:0:0:0:
213,194,138498,5,10,0:0:0:0:
104,355,138640,2,0,B|76:359|76:359|16:354,1,88.000002685547,10|0,0:2|0:0,0:0:0:0:
43,230,139069,5,2,0:0:0:0:
43,230,139212,1,2,0:0:0:0:
127,225,139355,6,0,L|43:230,1,83.9999974365235,2|0,0:0|0:0,0:0:0:0:
133,204,139640,6,0,L|38:210,1,96,2|0,0:0|0:0,0:0:0:0:
39,189,139926,6,0,B|102:193|102:193|157:213|157:213|235:218,1,200,12|8,0:2|0:0,0:0:0:0:
403,106,140355,1,2,0:2:0:0:
361,286,140498,2,0,B|349:263|349:263|335:176,1,100,8|0,0:0|0:0,0:0:0:0:
306,1,140783,5,8,0:0:0:0:
337,189,140926,1,2,0:2:0:0:
306,1,141069,2,0,B|294:23|294:23|280:110,1,100,8|0,0:0|0:0,0:0:0:0:
459,67,141355,5,8,0:0:0:0:
301,0,141498,2,0,B|289:22|289:22|275:109,1,100,2|8,0:2|0:0,0:0:0:0:
459,67,141783,5,2,0:2:0:0:
301,0,141926,1,8,0:0:0:0:
258,163,142069,2,0,B|234:172|234:172|160:177,1,100,2|8,0:2|0:0,0:0:0:0:
301,0,142355,5,2,0:2:0:0:
258,168,142498,2,0,B|234:177|234:177|160:182,1,100,10|0,0:0|0:0,0:0:0:0:
361,81,142783,2,0,B|384:71|384:71|458:66,1,100,10|0,0:0|0:0,0:0:0:0:
295,246,143069,5,8,0:2:0:0:
360,76,143212,2,0,B|383:66|383:66|457:61,1,100,2|8,0:2|0:0,0:0:0:0:
295,246,143498,5,2,0:2:0:0:
360,76,143640,1,8,0:0:0:0:
295,246,143783,1,2,0:2:0:0:
224,48,143926,6,0,B|217:25|217:25|205:101,1,100,10|0,0:0|0:0,0:0:0:0:
202,339,144212,2,0,B|208:361|208:361|220:285,1,100,10|0,0:0|0:0,0:0:0:0:
303,36,144498,6,0,B|239:40|239:40|169:77|169:77|112:81,1,200,12|8,0:2|0:0,0:0:0:0:
73,277,144926,1,2,0:2:0:0:
214,149,145069,2,0,B|181:143|181:143|85:149,1,100,8|0,0:0|0:0,0:0:0:0:
0,331,145355,5,8,0:0:0:0:
114,147,145498,1,2,0:2:0:0:
202,339,145640,2,0,B|239:343|239:343|356:335,1,150,8|0,0:0|0:0,0:0:0:0:
376,332,145926,5,8,0:0:0:0:
311,120,146069,2,0,B|305:98|305:98|293:174,2,100,2|8|0,0:2|0:0|0:0,0:0:0:0:
376,332,146498,5,10,0:0:0:0:
311,120,146640,1,2,3:0:0:0:
376,332,146783,2,0,B|382:354|382:354|394:278,1,100,8|0,0:0|0:0,0:0:0:0:
423,55,147069,5,10,0:0:0:0:
394,277,147211,1,2,0:3:0:0:
423,55,147355,2,0,B|417:33|417:33|405:109,1,100,8|0,0:0|0:0,0:0:0:0:
476,336,147640,5,10,0:0:0:0:
404,109,147783,1,2,0:3:0:0:
290,333,147926,5,2,1:3:0:0:
277,333,147997,1,2,2:3:0:0:
265,334,148068,1,2,2:3:0:0:
252,335,148140,1,2,2:3:0:0:
240,336,148211,1,8,1:1:0:0:
227,337,148283,1,2,2:3:0:0:
215,338,148354,1,2,2:3:0:0:
202,339,148426,1,2,2:3:0:0:
189,338,148498,5,10,1:2:0:0:
158,301,148569,1,8,2:0:0:0:
150,252,148640,1,8,2:0:0:0:
168,206,148712,1,8,2:0:0:0:
206,175,148783,1,8,1:2:0:0:
244,144,148855,1,8,0:2:0:0:
262,98,148927,1,8,0:2:0:0:
254,49,148998,1,8,0:2:0:0:
223,13,149069,6,0,L|223:76,1,60,2|0,3:2|0:0,0:0:0:0:
154,125,149355,5,4,0:2:0:0:
39,0,149498,2,0,L|223:13,1,184.000003509522,2|0,0:2|0:0,0:0:0:0:
259,207,149927,1,10,0:2:0:0:
154,125,150069,2,0,L|139:34,1,92.0000017547608,0|0,0:0|0:0,0:0:0:0:
39,234,150355,6,0,P|84:237|126:219,1,92.0000017547608,2|8,0:0|0:0,0:0:0:0:
139,34,150640,2,0,P|93:28|51:45,1,92.0000017547608,2|8,0:0|0:0,0:0:0:0:
223,105,150927,1,2,0:0:0:0:
138,29,151069,2,0,P|92:23|50:40,1,92.0000017547608,8|8,0:2|0:0,0:0:0:0:
193,286,151355,6,0,L|224:92,1,184.000003509522,2|8,0:2|0:0,0:0:0:0:
238,376,151783,2,0,L|208:194,1,184.000003509522,2|0,0:2|0:0,0:0:0:0:
236,14,152212,1,10,0:2:0:0:
222,104,152354,1,0,0:0:0:0:
208,194,152497,1,0,0:0:0:0:
393,165,152641,6,0,P|410:122|406:77,1,92.0000017547608,2|8,0:0|0:0,0:0:0:0:
380,279,152926,2,0,P|425:272|462:246,1,92.0000017547608,2|0,0:0|0:0,0:0:0:0:
284,211,153212,1,2,0:0:0:0:
383,283,153355,2,0,P|428:276|465:250,1,92.0000017547608,8|0,0:0|0:0,0:0:0:0:
242,351,153640,6,0,P|294:280|383:283,1,184.000003509522,2|8,0:2|0:0,0:0:0:0:
155,211,154069,2,0,P|207:283|296:279,1,184.000003509522,2|0,0:2|0:0,0:0:0:0:
87,316,154498,1,10,0:2:0:0:
155,211,154641,2,0,L|170:107,1,92.0000017547608
402,143,154926,6,0,P|356:146|314:129,1,92.0000017547608,2|8,0:0|0:0,0:0:0:0:
136,25,155212,2,0,P|181:21|223:38,1,92.0000017547608,2|0,0:0|0:0,0:0:0:0:
76,114,155498,1,2,0:0:0:0:
137,20,155640,2,0,P|182:16|224:33,1,92.0000017547608,8|0,0:0|0:0,0:0:0:0:
197,301,155926,6,0,L|168:120,1,184.000003509522,2|8,0:2|0:0,0:0:0:0:
280,371,156355,2,0,L|309:189,1,184.000003509522,2|0,0:2|0:0,0:0:0:0:
339,8,156783,1,10,0:2:0:0:
324,100,156925,1,0,0:0:0:0:
310,190,157068,1,0,0:0:0:0:
419,324,157212,6,0,L|405:233,1,92.0000017547608,2|8,0:0|0:0,0:0:0:0:
339,8,157498,2,0,L|310:190,1,184.000003509522,2|0,0:2|0:0,0:0:0:0:
280,371,157926,1,8,0:0:0:0:
280,371,158212,6,0,L|265:276,1,95.9999970703126,6|0,0:2|0:0,0:0:0:0:
108,376,158498,1,8,0:0:0:0:
126,261,158640,2,0,L|141:160,1,95.9999970703126,2|0,0:2|0:0,0:0:0:0:
265,276,158926,1,0,0:0:0:0:
377,121,159069,5,10,0:2:0:0:
394,234,159212,1,0,0:2:0:0:
412,348,159355,1,0,0:0:0:0:
474,153,159498,6,0,P|476:106|460:61,1,95.9999970703126,2|8,0:0|0:0,0:0:0:0:
296,177,159783,2,0,P|280:132|283:85,1,95.9999970703126,2|0,0:0|0:0,0:0:0:0:
394,234,160069,1,2,0:0:0:0:
291,178,160212,2,0,P|275:133|278:86,1,95.9999970703126,8|0,0:2|0:0,0:0:0:0:
474,153,160498,6,0,L|489:247,1,95.9999970703126,2|0,0:2|0:0,0:0:0:0:
381,356,160783,1,8,0:0:0:0:
306,272,160926,2,0,L|290:177,1,95.9999970703126,2|0,0:2|0:0,0:0:0:0:
207,37,161212,1,0,0:0:0:0:
61,160,161355,5,10,0:2:0:0:
176,168,161498,1,0,0:0:0:0:
290,177,161641,1,0,0:0:0:0:
117,74,161783,6,0,P|71:58|24:63,1,95.9999970703126,2|8,0:0|0:0,0:0:0:0:
117,251,162069,2,0,P|162:266|209:261,1,95.9999970703126,2|0,0:0|0:0,0:0:0:0:
61,160,162355,1,2,0:0:0:0:
118,256,162498,2,0,P|163:271|210:266,1,95.9999970703126,8|0,0:0|0:0,0:0:0:0:
354,58,162783,6,0,B|366:42|366:42|379:121,1,100,6|0,0:2|0:0,0:0:0:0:
210,265,163069,1,8,0:0:0:0:
231,157,163212,2,0,B|243:77|243:77|256:93,1,100,2|0,0:2|0:0,0:0:0:0:
331,281,163498,1,0,0:0:0:0:
379,121,163640,5,10,0:2:0:0:
231,157,163783,1,0,0:0:0:0:
379,121,163926,1,0,0:0:0:0:
231,157,164069,6,0,B|167:152|167:152|133:139,1,100,2|8,0:0|0:0,0:0:0:0:
379,121,164355,2,0,B|442:125|442:125|476:138,1,100,2|0,0:0|0:0,0:0:0:0:
231,157,164640,1,2,0:0:0:0:
382,116,164783,2,0,B|445:120|445:120|479:133,1,100,8|0,0:0|0:0,0:0:0:0:
274,282,165069,5,10,0:2:0:0:
335,59,165211,1,2,0:3:0:0:
365,273,165355,5,8,0:2:0:0:
248,66,165497,1,2,0:3:0:0:
374,293,165640,5,10,0:2:0:0:
257,84,165783,1,2,0:3:0:0:
283,300,165926,5,8,0:2:0:0:
344,77,166069,1,2,0:3:0:0:
201,257,166212,5,10,1:2:0:0:
169,277,166283,1,8,2:2:0:0:
133,282,166354,1,8,2:2:0:0:
97,272,166426,1,8,2:2:0:0:
69,247,166498,5,8,1:2:0:0:
71,197,166569,1,8,2:2:0:0:
74,147,166640,1,8,2:2:0:0:
76,97,166712,1,8,2:2:0:0:
78,47,166783,6,0,P|57:38|23:41,1,44.0000013427735,8|8,0:2|0:2,0:0:0:0:
136,164,166926,2,0,P|156:172|177:173,1,44.0000013427735,8|8,0:2|0:2,0:0:0:0:
207,41,167069,5,4,1:3:0:0:
210,38,167140,1,8,2:3:0:0:
213,35,167211,1,8,2:3:0:0:
216,32,167283,1,8,2:3:0:0:
219,29,167354,1,12,1:2:0:0:
273,268,167640,5,0,0:0:0:0:
190,273,167783,1,0,0:0:0:0:
106,279,167926,1,2,0:0:0:0:
166,102,168212,5,0,0:0:0:0:
250,96,168355,1,2,0:0:0:0:
411,163,168640,1,2,0:0:0:0:
273,268,168926,1,2,0:0:0:0:
397,80,169212,5,2,0:0:0:0:
411,163,169355,1,2,0:0:0:0:
424,247,169498,2,0,L|435:322,1,55.9999982910157,2|2,0:0|0:0,0:0:0:0:
397,80,169926,5,0,0:0:0:0:
411,163,170069,1,0,0:0:0:0:
424,247,170212,1,2,0:0:0:0:
286,352,170498,5,0,0:0:0:0:
273,268,170640,1,2,0:0:0:0:
411,163,170926,1,2,0:0:0:0:
252,96,171212,1,2,0:0:0:0:
84,109,171498,5,2,0:0:0:0:
167,102,171641,1,2,0:0:0:0:
252,96,171784,2,0,L|328:90,1,55.9999982910157,2|2,0:0|0:0,0:0:0:0:
84,109,172212,5,0,0:0:0:0:
167,102,172355,1,0,0:0:0:0:
252,96,172498,1,2,0:0:0:0:
411,163,172783,5,0,0:0:0:0:
328,170,172926,1,2,0:0:0:0:
167,102,173212,1,2,0:0:0:0:
189,276,173498,1,2,0:0:0:0:
30,350,173783,5,2,0:0:0:0:
44,267,173926,1,2,0:0:0:0:
57,183,174069,2,0,L|68:107,1,55.9999982910157,2|2,0:0|0:0,0:0:0:0:
30,350,174498,5,0,0:0:0:0:
44,267,174641,1,0,0:0:0:0:
57,183,174784,1,2,0:0:0:0:
153,19,175069,5,0,0:0:0:0:
167,102,175212,1,2,0:0:0:0:
44,267,175498,1,2,0:0:0:0:
290,278,175783,6,0,L|363:283,1,55.9999982910157,2|0,0:0|0:0,0:0:0:0:
222,106,176069,2,0,L|148:100,1,55.9999982910157,2|0,0:0|0:0,0:0:0:0:
256,192,176355,5,2,0:0:0:0:
