osu file format v14

[General]
AudioFilename: audio.mp3
AudioLeadIn: 0
PreviewTime: 56069
Countdown: 0
SampleSet: Normal
StackLeniency: 0.7
Mode: 1
LetterboxInBreaks: 0
WidescreenStoryboard: 1

[Editor]
DistanceSpacing: 0.1
BeatDivisor: 4
GridSize: 8
TimelineZoom: 2.7

[Metadata]
Title:Streaming Heart
TitleUnicode:ストリーミングハート
Artist:Ayaponzu*
ArtistUnicode:あやぽんず*
Creator:Lasse
Version:Chromoxx' Oni
Source:
Tags:deco*27 deco27 cover utaite pon'po drop toybot karen chromoxx
BeatmapID:1176482
BeatmapSetID:552702

[Difficulty]
HPDrainRate:5
CircleSize:3
OverallDifficulty:6
ApproachRate:3
SliderMultiplier:1.4
SliderTickRate:1

[Events]
//Background and Video events
0,0,"bg.jpg",0,0
//Break Periods
//Storyboard Layer 0 (Background)
//Storyboard Layer 1 (Fail)
//Storyboard Layer 2 (Pass)
//Storyboard Layer 3 (Foreground)
//Storyboard Sound Samples

[TimingPoints]
498,285.714285714286,4,1,0,90,1,0
56498,-100,4,1,0,90,0,1
74783,-100,4,1,0,90,0,0
130783,-100,4,1,0,90,0,1
138640,-100,4,1,0,90,0,0
139926,-100,4,1,0,90,0,1
149069,-100,4,1,0,90,0,0
149355,-100,4,1,0,90,0,1
167355,-100,4,1,0,90,0,0

[Colours]
Combo1 : 20,231,152
Combo2 : 26,221,242
Combo3 : 255,51,122
Combo4 : 130,138,198

[HitObjects]
176,176,498,5,0,0:0:0:0:
224,208,783,1,0,0:0:0:0:
224,208,1069,1,0,0:0:0:0:
224,208,1355,1,0,0:0:0:0:
224,208,1640,1,0,0:0:0:0:
224,208,1926,1,0,0:0:0:0:
224,208,2212,1,0,0:0:0:0:
224,208,2498,1,0,0:0:0:0:
224,192,2783,1,8,0:0:0:0:
224,192,3069,1,8,0:0:0:0:
224,192,3355,1,8,0:0:0:0:
224,192,3640,1,8,0:0:0:0:
224,192,3926,1,8,0:0:0:0:
224,192,4212,1,8,0:0:0:0:
224,192,4498,1,8,0:0:0:0:
224,192,4783,1,8,0:0:0:0:
224,192,5069,1,0,0:0:0:0:
224,192,5355,1,8,0:0:0:0:
224,192,5640,1,0,0:0:0:0:
224,192,5926,1,8,0:0:0:0:
224,192,6212,1,0,0:0:0:0:
224,192,6498,1,8,0:0:0:0:
224,192,6783,1,0,0:0:0:0:
224,192,7069,1,8,0:0:0:0:
224,192,7355,1,0,0:0:0:0:
224,192,8498,1,8,0:0:0:0:
328,248,8569,1,8,0:0:0:0:
328,248,8640,1,8,0:0:0:0:
328,248,8712,1,8,0:0:0:0:
328,248,8783,1,8,0:0:0:0:
304,312,8926,1,8,0:0:0:0:
328,240,9069,1,0,0:0:0:0:
328,240,9140,1,0,0:0:0:0:
328,240,9212,1,0,0:0:0:0:
328,240,9283,1,0,0:0:0:0:
328,240,9355,1,0,0:0:0:0:
312,312,9498,1,0,0:0:0:0:
312,296,9640,1,4,0:0:0:0:
304,288,9926,1,8,0:0:0:0:
312,288,10069,1,0,0:0:0:0:
312,288,10140,1,0,0:0:0:0:
104,152,10212,1,0,0:0:0:0:
112,144,10355,1,0,0:0:0:0:
112,144,10498,1,8,0:0:0:0:
304,272,10783,1,0,0:0:0:0:
296,232,10926,1,8,0:0:0:0:
296,232,10998,1,8,0:0:0:0:
296,232,11069,1,8,0:0:0:0:
296,232,11212,1,8,0:0:0:0:
296,232,11355,1,0,0:0:0:0:
304,224,11498,1,0,0:0:0:0:
304,224,11640,1,8,0:0:0:0:
312,296,11926,1,4,0:0:0:0:
304,288,12212,1,8,0:0:0:0:
312,288,12355,1,0,0:0:0:0:
312,288,12426,1,0,0:0:0:0:
104,152,12498,1,0,0:0:0:0:
112,144,12641,1,0,0:0:0:0:
112,144,12784,1,8,0:0:0:0:
304,272,13069,1,0,0:0:0:0:
296,232,13212,1,8,0:0:0:0:
296,232,13284,1,8,0:0:0:0:
296,232,13355,1,8,0:0:0:0:
296,232,13498,1,8,0:0:0:0:
296,232,13641,1,0,0:0:0:0:
304,224,13784,1,0,0:0:0:0:
304,224,13926,1,8,0:0:0:0:
312,296,14212,1,4,0:0:0:0:
304,288,14498,1,8,0:0:0:0:
312,288,14641,1,0,0:0:0:0:
312,288,14712,1,0,0:0:0:0:
104,152,14784,1,0,0:0:0:0:
112,144,14927,1,0,0:0:0:0:
112,144,15070,1,8,0:0:0:0:
304,272,15355,1,0,0:0:0:0:
296,232,15498,1,8,0:0:0:0:
296,232,15570,1,8,0:0:0:0:
296,232,15641,1,8,0:0:0:0:
296,232,15784,1,8,0:0:0:0:
296,232,15927,1,0,0:0:0:0:
304,224,16070,1,0,0:0:0:0:
304,224,16212,1,8,0:0:0:0:
312,296,16498,1,4,0:0:0:0:
304,288,16784,1,8,0:0:0:0:
312,288,16927,1,0,0:0:0:0:
312,288,16998,1,0,0:0:0:0:
104,152,17070,1,0,0:0:0:0:
112,144,17213,1,0,0:0:0:0:
112,144,17356,1,8,0:0:0:0:
304,272,17641,1,0,0:0:0:0:
296,232,17784,1,8,0:0:0:0:
296,232,17856,1,8,0:0:0:0:
296,232,17927,1,8,0:0:0:0:
296,232,18070,1,8,0:0:0:0:
296,232,18213,1,0,0:0:0:0:
304,224,18356,1,0,0:0:0:0:
304,224,18498,1,8,0:0:0:0:
312,296,18783,1,4,0:0:0:0:
304,288,19069,1,8,0:0:0:0:
312,288,19212,1,0,0:0:0:0:
312,288,19283,1,0,0:0:0:0:
104,152,19355,1,0,0:0:0:0:
112,144,19498,1,0,0:0:0:0:
112,144,19641,1,8,0:0:0:0:
304,272,19926,1,0,0:0:0:0:
296,232,20069,1,8,0:0:0:0:
296,232,20141,1,8,0:0:0:0:
296,232,20212,1,8,0:0:0:0:
296,232,20355,1,8,0:0:0:0:
296,232,20498,1,0,0:0:0:0:
304,224,20641,1,0,0:0:0:0:
304,224,20783,1,8,0:0:0:0:
312,296,21069,1,4,0:0:0:0:
304,288,21355,1,8,0:0:0:0:
312,288,21498,1,0,0:0:0:0:
312,288,21569,1,0,0:0:0:0:
104,152,21641,1,0,0:0:0:0:
112,144,21784,1,0,0:0:0:0:
112,144,21927,1,8,0:0:0:0:
304,272,22212,1,0,0:0:0:0:
296,232,22355,1,8,0:0:0:0:
296,232,22427,1,8,0:0:0:0:
296,232,22498,1,8,0:0:0:0:
296,232,22641,1,8,0:0:0:0:
296,232,22784,1,0,0:0:0:0:
304,224,22927,1,0,0:0:0:0:
304,224,23069,1,8,0:0:0:0:
312,296,23355,1,4,0:0:0:0:
304,288,23641,1,8,0:0:0:0:
312,288,23784,1,0,0:0:0:0:
312,288,23855,1,0,0:0:0:0:
104,152,23927,1,0,0:0:0:0:
112,144,24070,1,0,0:0:0:0:
112,144,24213,1,8,0:0:0:0:
304,272,24498,1,0,0:0:0:0:
296,232,24641,1,8,0:0:0:0:
296,232,24713,1,8,0:0:0:0:
296,232,24784,1,8,0:0:0:0:
296,232,24927,1,8,0:0:0:0:
296,232,25070,1,0,0:0:0:0:
304,224,25213,1,0,0:0:0:0:
304,224,25355,1,8,0:0:0:0:
312,296,25640,1,4,0:0:0:0:
304,288,25926,1,8,0:0:0:0:
312,288,26069,1,0,0:0:0:0:
312,288,26140,1,0,0:0:0:0:
104,152,26212,1,0,0:0:0:0:
112,144,26355,1,0,0:0:0:0:
112,144,26498,1,8,0:0:0:0:
304,272,26783,1,0,0:0:0:0:
296,232,26926,1,8,0:0:0:0:
296,232,26998,1,8,0:0:0:0:
296,232,27069,1,8,0:0:0:0:
296,232,27212,1,8,0:0:0:0:
296,232,27355,1,0,0:0:0:0:
304,224,27498,1,0,0:0:0:0:
304,224,27640,1,8,0:0:0:0:
296,272,27926,1,0,0:0:0:0:
304,248,29069,1,0,0:0:0:0:
288,248,29640,1,8,0:0:0:0:
288,248,29926,1,0,0:0:0:0:
288,240,30069,1,0,0:0:0:0:
288,232,30355,1,0,0:0:0:0:
288,232,30498,1,0,0:0:0:0:
168,136,30783,1,8,0:0:0:0:
168,136,30926,1,0,0:0:0:0:
168,136,31069,1,0,0:0:0:0:
216,272,31355,1,8,0:0:0:0:
352,208,31926,1,8,0:0:0:0:
296,280,32212,1,0,0:0:0:0:
288,272,32355,1,8,0:0:0:0:
296,280,32640,1,8,0:0:0:0:
144,144,32783,1,0,0:0:0:0:
168,184,33069,1,8,0:0:0:0:
192,224,33212,1,0,0:0:0:0:
192,232,33355,1,8,0:0:0:0:
192,232,33640,1,0,0:0:0:0:
200,256,34212,1,8,0:0:0:0:
216,256,34498,1,0,0:0:0:0:
216,256,34640,1,0,0:0:0:0:
208,256,34926,1,0,0:0:0:0:
208,256,35069,1,0,0:0:0:0:
208,248,35355,1,8,0:0:0:0:
216,256,35498,1,0,0:0:0:0:
216,256,35640,1,0,0:0:0:0:
184,136,35926,1,8,0:0:0:0:
352,200,36498,1,8,0:0:0:0:
352,200,36783,1,8,0:0:0:0:
352,200,37069,1,0,0:0:0:0:
352,184,37212,1,8,0:0:0:0:
352,184,37283,1,8,0:0:0:0:
352,184,37355,1,8,0:0:0:0:
352,184,37498,1,8,0:0:0:0:
352,184,37640,1,0,0:0:0:0:
352,184,37783,1,8,0:0:0:0:
352,184,37926,1,8,0:0:0:0:
352,176,38069,1,8,0:0:0:0:
352,176,38140,1,8,0:0:0:0:
352,176,38212,1,0,0:0:0:0:
360,256,38498,1,8,0:0:0:0:
312,288,38640,1,0,0:0:0:0:
296,280,38712,1,0,0:0:0:0:
312,288,38783,1,0,0:0:0:0:
280,280,38926,1,0,0:0:0:0:
280,264,39069,1,8,0:0:0:0:
280,264,39355,1,0,0:0:0:0:
176,144,39498,1,8,0:0:0:0:
176,144,39569,1,8,0:0:0:0:
176,144,39640,1,0,0:0:0:0:
176,144,39783,1,8,0:0:0:0:
176,144,39926,1,0,0:0:0:0:
176,144,40069,1,0,0:0:0:0:
176,144,40212,1,8,0:0:0:0:
248,336,40355,1,8,0:0:0:0:
336,272,40498,1,0,0:0:0:0:
248,328,40783,1,8,0:0:0:0:
144,280,40926,1,8,0:0:0:0:
144,272,40998,1,8,0:0:0:0:
160,328,41069,1,0,0:0:0:0:
240,320,41212,1,0,0:0:0:0:
216,304,41355,1,8,0:0:0:0:
224,280,41640,1,0,0:0:0:0:
224,296,41783,1,0,0:0:0:0:
240,304,41926,1,8,0:0:0:0:
360,224,42069,1,0,0:0:0:0:
360,224,42140,1,0,0:0:0:0:
360,224,42212,1,8,0:0:0:0:
360,224,42355,1,0,0:0:0:0:
360,224,42498,1,8,0:0:0:0:
360,224,42640,1,8,0:0:0:0:
360,224,42783,1,0,0:0:0:0:
368,256,43069,1,8,0:0:0:0:
368,256,43212,1,0,0:0:0:0:
368,256,43283,1,0,0:0:0:0:
368,256,43355,1,0,0:0:0:0:
368,256,43498,1,0,0:0:0:0:
368,256,43640,1,8,0:0:0:0:
368,256,43926,1,0,0:0:0:0:
160,160,44069,1,0,0:0:0:0:
160,152,44140,1,0,0:0:0:0:
160,152,44212,1,8,0:0:0:0:
160,152,44355,1,8,0:0:0:0:
160,152,44498,1,0,0:0:0:0:
160,152,44640,1,0,0:0:0:0:
160,152,44783,1,8,0:0:0:0:
320,288,44926,1,8,0:0:0:0:
320,288,45069,1,0,0:0:0:0:
200,184,45355,1,8,0:0:0:0:
256,176,45498,1,0,0:0:0:0:
256,176,45569,1,0,0:0:0:0:
256,176,45640,1,8,0:0:0:0:
256,176,45783,1,0,0:0:0:0:
256,176,45926,1,8,0:0:0:0:
256,176,46212,1,0,0:0:0:0:
256,176,46355,1,0,0:0:0:0:
256,176,46498,1,8,0:0:0:0:
256,176,46640,1,0,0:0:0:0:
256,176,46712,1,0,0:0:0:0:
256,176,46783,1,8,0:0:0:0:
256,176,46926,1,0,0:0:0:0:
256,176,47069,1,8,0:0:0:0:
336,256,47355,1,0,0:0:0:0:
336,256,47783,1,0,0:0:0:0:
232,280,48212,1,0,0:0:0:0:
312,248,48498,1,8,0:0:0:0:
312,248,48926,1,8,0:0:0:0:
232,280,49355,1,8,0:0:0:0:
232,280,49640,1,0,0:0:0:0:
232,280,50069,1,0,0:0:0:0:
232,280,50498,1,0,0:0:0:0:
232,280,50783,1,8,0:0:0:0:
232,280,51355,1,8,0:0:0:0:
199,189,51640,1,8,0:0:0:0:
232,280,51926,1,0,0:0:0:0:
304,224,52355,1,0,0:0:0:0:
304,224,52783,1,0,0:0:0:0:
304,224,53069,1,8,0:0:0:0:
304,224,53498,1,8,0:0:0:0:
304,224,53926,1,8,0:0:0:0:
304,224,54212,1,0,0:0:0:0:
288,216,54498,1,0,0:0:0:0:
288,216,54783,1,0,0:0:0:0:
288,216,55069,1,0,0:0:0:0:
360,240,55355,1,8,0:0:0:0:
360,240,55426,1,8,0:0:0:0:
360,240,55498,1,8,0:0:0:0:
360,240,55569,1,8,0:0:0:0:
360,240,55640,1,8,0:0:0:0:
360,240,55712,1,8,0:0:0:0:
360,240,55783,1,8,0:0:0:0:
304,280,55926,1,0,0:0:0:0:
296,280,56498,1,4,0:0:0:0:
264,280,56783,1,8,0:0:0:0:
280,232,56926,1,0,0:0:0:0:
280,232,56998,1,0,0:0:0:0:
280,232,57069,1,0,0:0:0:0:
280,232,57212,1,0,0:0:0:0:
280,232,57355,1,8,0:0:0:0:
280,232,57640,1,0,0:0:0:0:
280,232,57783,1,8,0:0:0:0:
280,232,57855,1,8,0:0:0:0:
280,232,57926,1,8,0:0:0:0:
280,232,58069,1,8,0:0:0:0:
280,232,58212,1,0,0:0:0:0:
296,216,58355,1,0,0:0:0:0:
296,216,58426,1,0,0:0:0:0:
296,216,58498,1,8,0:0:0:0:
280,232,58640,1,8,0:0:0:0:
280,232,58783,1,0,0:0:0:0:
200,216,59069,1,8,0:0:0:0:
200,216,59355,1,0,0:0:0:0:
192,232,59498,1,0,0:0:0:0:
192,224,59640,1,8,0:0:0:0:
192,240,59783,1,8,0:0:0:0:
192,240,59855,1,8,0:0:0:0:
192,240,59926,1,0,0:0:0:0:
208,280,60069,1,0,0:0:0:0:
208,272,60212,1,8,0:0:0:0:
184,160,60355,1,8,0:0:0:0:
192,152,60498,1,0,0:0:0:0:
192,144,60569,1,0,0:0:0:0:
192,144,60640,1,0,0:0:0:0:
192,144,60783,1,8,0:0:0:0:
312,272,61069,1,4,0:0:0:0:
344,256,61355,1,8,0:0:0:0:
344,256,61498,1,0,0:0:0:0:
344,256,61569,1,0,0:0:0:0:
344,256,61640,1,0,0:0:0:0:
344,256,61783,1,0,0:0:0:0:
344,256,61926,1,8,0:0:0:0:
344,256,62212,1,0,0:0:0:0:
320,208,62355,1,0,0:0:0:0:
320,208,62426,1,0,0:0:0:0:
344,256,62498,1,8,0:0:0:0:
344,256,62640,1,8,0:0:0:0:
344,256,62783,1,0,0:0:0:0:
296,176,62926,1,8,0:0:0:0:
296,176,62998,1,8,0:0:0:0:
296,176,63069,1,8,0:0:0:0:
256,320,63212,1,8,0:0:0:0:
256,304,63355,1,0,0:0:0:0:
256,304,63498,1,8,0:0:0:0:
216,344,63640,1,0,0:0:0:0:
72,176,63712,1,0,0:0:0:0:
200,320,63783,1,8,0:0:0:0:
72,176,63926,1,0,0:0:0:0:
88,176,64069,1,8,0:0:0:0:
88,176,64212,1,0,0:0:0:0:
184,144,64283,1,0,0:0:0:0:
184,144,64355,1,8,0:0:0:0:
184,144,64426,1,8,0:0:0:0:
184,144,64498,1,0,0:0:0:0:
312,176,65069,1,8,0:0:0:0:
344,232,65140,1,8,0:0:0:0:
344,232,65212,1,8,0:0:0:0:
344,232,65283,1,8,0:0:0:0:
344,232,65355,1,8,0:0:0:0:
264,216,65498,1,8,0:0:0:0:
240,232,65640,1,4,0:0:0:0:
288,160,65926,1,8,0:0:0:0:
288,160,66069,1,8,0:0:0:0:
288,160,66140,1,8,0:0:0:0:
248,320,66212,1,0,0:0:0:0:
288,160,66355,1,0,0:0:0:0:
288,160,66498,1,8,0:0:0:0:
272,224,66640,1,8,0:0:0:0:
272,256,66783,1,0,0:0:0:0:
256,272,67069,1,8,0:0:0:0:
296,208,67212,1,0,0:0:0:0:
296,208,67283,1,0,0:0:0:0:
352,208,67355,1,0,0:0:0:0:
352,208,67498,1,0,0:0:0:0:
352,208,67640,1,8,0:0:0:0:
352,248,67926,1,0,0:0:0:0:
320,224,68212,1,8,0:0:0:0:
264,264,68355,1,0,0:0:0:0:
256,304,68426,1,0,0:0:0:0:
312,256,68498,1,8,0:0:0:0:
312,248,68640,1,0,0:0:0:0:
312,248,68783,1,8,0:0:0:0:
312,248,68926,1,8,0:0:0:0:
312,248,69069,1,0,0:0:0:0:
336,248,69355,1,8,0:0:0:0:
336,240,69498,1,8,0:0:0:0:
328,240,69569,1,8,0:0:0:0:
336,248,69640,1,8,0:0:0:0:
336,248,69783,1,0,0:0:0:0:
336,240,69926,1,8,0:0:0:0:
216,184,70212,1,0,0:0:0:0:
216,184,70498,1,8,0:0:0:0:
216,184,70640,1,8,0:0:0:0:
216,184,70712,1,8,0:0:0:0:
216,184,70783,1,0,0:0:0:0:
256,304,70926,1,0,0:0:0:0:
216,320,71069,1,8,0:0:0:0:
216,184,71212,1,8,0:0:0:0:
216,184,71355,1,0,0:0:0:0:
352,256,71498,1,0,0:0:0:0:
352,256,71640,1,8,0:0:0:0:
352,256,71783,1,0,0:0:0:0:
352,256,71855,1,0,0:0:0:0:
352,256,71926,1,0,0:0:0:0:
352,256,72069,1,0,0:0:0:0:
352,256,72212,1,8,0:0:0:0:
248,224,72498,1,0,0:0:0:0:
248,224,72640,1,8,0:0:0:0:
248,224,72783,1,0,0:0:0:0:
248,224,72855,1,0,0:0:0:0:
248,224,72926,1,8,0:0:0:0:
248,224,73069,1,0,0:0:0:0:
248,224,73212,1,8,0:0:0:0:
248,224,73283,1,8,0:0:0:0:
248,224,73355,1,0,0:0:0:0:
200,336,73426,1,0,0:0:0:0:
248,224,73498,1,8,0:0:0:0:
344,312,73640,1,0,0:0:0:0:
112,144,73783,1,0,0:0:0:0:
120,120,73926,1,8,0:0:0:0:
120,120,74069,1,8,0:0:0:0:
120,120,74140,1,8,0:0:0:0:
120,120,74212,1,8,0:0:0:0:
120,120,74355,1,8,0:0:0:0:
120,120,74498,1,8,0:0:0:0:
120,120,74640,1,8,0:0:0:0:
120,120,74783,1,0,0:0:0:0:
136,288,75069,1,0,0:0:0:0:
216,288,75212,1,0,0:0:0:0:
256,240,75355,1,8,0:0:0:0:
176,192,75640,1,0,0:0:0:0:
256,240,75926,1,0,0:0:0:0:
168,280,76069,1,8,0:0:0:0:
256,240,76212,1,0,0:0:0:0:
232,288,76355,1,0,0:0:0:0:
256,240,76498,1,8,0:0:0:0:
184,240,76783,1,0,0:0:0:0:
184,240,77069,1,0,0:0:0:0:
200,176,77355,1,0,0:0:0:0:
256,208,77498,1,8,0:0:0:0:
208,240,77641,1,8,0:0:0:0:
216,184,77926,1,0,0:0:0:0:
208,240,78212,1,0,0:0:0:0:
216,288,78355,1,8,0:0:0:0:
216,288,78498,1,8,0:0:0:0:
232,328,78640,1,0,0:0:0:0:
232,328,78783,1,8,0:0:0:0:
248,312,79069,1,0,0:0:0:0:
248,312,79355,1,0,0:0:0:0:
344,296,79640,1,0,0:0:0:0:
344,296,79783,1,0,0:0:0:0:
328,296,79926,1,8,0:0:0:0:
328,296,80212,1,0,0:0:0:0:
328,296,80498,1,0,0:0:0:0:
312,320,80640,1,8,0:0:0:0:
160,168,80783,1,0,0:0:0:0:
160,168,80926,1,0,0:0:0:0:
160,168,81069,1,8,0:0:0:0:
160,168,81355,1,0,0:0:0:0:
160,160,81640,1,0,0:0:0:0:
160,152,81926,1,0,0:0:0:0:
160,152,82069,1,8,0:0:0:0:
160,152,82212,1,8,0:0:0:0:
152,144,82498,1,0,0:0:0:0:
160,152,82783,1,0,0:0:0:0:
160,152,82926,1,8,0:0:0:0:
160,152,83069,1,8,0:0:0:0:
168,160,83212,1,0,0:0:0:0:
168,160,83355,1,8,0:0:0:0:
272,256,83640,1,0,0:0:0:0:
272,256,83926,1,0,0:0:0:0:
264,248,84355,1,0,0:0:0:0:
248,272,85069,1,0,0:0:0:0:
248,272,85498,1,0,0:0:0:0:
240,280,86212,1,0,0:0:0:0:
240,280,86640,1,0,0:0:0:0:
240,280,87355,1,0,0:0:0:0:
240,280,87783,1,0,0:0:0:0:
240,280,88498,1,0,0:0:0:0:
232,256,88926,1,0,0:0:0:0:
232,256,89640,1,0,0:0:0:0:
232,256,90069,1,0,0:0:0:0:
232,256,90783,1,0,0:0:0:0:
232,256,91212,1,0,0:0:0:0:
232,240,91926,1,0,0:0:0:0:
232,240,92212,1,8,0:0:0:0:
304,272,92283,1,8,0:0:0:0:
160,128,92355,1,8,0:0:0:0:
120,112,92426,1,8,0:0:0:0:
120,112,92498,1,8,0:0:0:0:
120,112,92640,1,8,0:0:0:0:
352,176,93069,1,4,0:0:0:0:
360,256,93355,1,8,0:0:0:0:
312,288,93497,1,0,0:0:0:0:
296,280,93569,1,0,0:0:0:0:
312,288,93640,1,0,0:0:0:0:
280,280,93783,1,0,0:0:0:0:
280,264,93926,1,8,0:0:0:0:
280,264,94212,1,0,0:0:0:0:
176,144,94355,1,8,0:0:0:0:
176,144,94426,1,8,0:0:0:0:
176,144,94497,1,0,0:0:0:0:
176,144,94640,1,8,0:0:0:0:
176,144,94783,1,0,0:0:0:0:
176,144,94926,1,0,0:0:0:0:
176,144,95069,1,8,0:0:0:0:
248,336,95212,1,8,0:0:0:0:
336,272,95355,1,0,0:0:0:0:
248,328,95640,1,8,0:0:0:0:
144,280,95783,1,8,0:0:0:0:
144,272,95855,1,8,0:0:0:0:
160,328,95926,1,0,0:0:0:0:
240,320,96069,1,0,0:0:0:0:
216,304,96212,1,8,0:0:0:0:
224,280,96497,1,0,0:0:0:0:
224,296,96640,1,0,0:0:0:0:
240,304,96783,1,8,0:0:0:0:
360,224,96926,1,0,0:0:0:0:
360,224,96997,1,0,0:0:0:0:
360,224,97069,1,8,0:0:0:0:
360,224,97212,1,0,0:0:0:0:
360,224,97355,1,8,0:0:0:0:
360,224,97497,1,8,0:0:0:0:
360,224,97640,1,0,0:0:0:0:
368,256,97926,1,8,0:0:0:0:
368,256,98069,1,0,0:0:0:0:
368,256,98140,1,0,0:0:0:0:
368,256,98212,1,0,0:0:0:0:
368,256,98355,1,0,0:0:0:0:
368,256,98497,1,8,0:0:0:0:
368,256,98783,1,0,0:0:0:0:
160,160,98926,1,0,0:0:0:0:
160,152,98997,1,0,0:0:0:0:
160,152,99069,1,8,0:0:0:0:
160,152,99212,1,8,0:0:0:0:
160,152,99355,1,0,0:0:0:0:
160,152,99497,1,0,0:0:0:0:
160,152,99640,1,8,0:0:0:0:
320,288,99783,1,8,0:0:0:0:
320,288,99926,1,0,0:0:0:0:
200,184,100212,1,8,0:0:0:0:
256,176,100355,1,0,0:0:0:0:
256,176,100426,1,0,0:0:0:0:
256,176,100497,1,8,0:0:0:0:
256,176,100640,1,0,0:0:0:0:
256,176,100783,1,8,0:0:0:0:
256,176,101069,1,0,0:0:0:0:
256,176,101212,1,0,0:0:0:0:
256,176,101355,1,8,0:0:0:0:
256,176,101497,1,0,0:0:0:0:
256,176,101569,1,0,0:0:0:0:
256,176,101640,1,8,0:0:0:0:
256,176,101783,1,8,0:0:0:0:
256,176,101926,1,8,0:0:0:0:
336,256,102069,1,8,0:0:0:0:
72,160,102212,1,0,0:0:0:0:
336,256,102640,1,0,0:0:0:0:
336,256,103355,1,0,0:0:0:0:
336,256,103640,1,0,0:0:0:0:
104,128,103783,1,0,0:0:0:0:
304,232,104498,1,0,0:0:0:0:
304,232,104926,1,0,0:0:0:0:
304,232,105640,1,0,0:0:0:0:
304,232,105926,1,0,0:0:0:0:
304,232,106069,1,0,0:0:0:0:
296,208,106783,1,0,0:0:0:0:
296,208,107212,1,0,0:0:0:0:
296,208,107926,1,0,0:0:0:0:
296,208,108069,1,0,0:0:0:0:
296,208,108355,1,0,0:0:0:0:
240,208,109069,1,0,0:0:0:0:
240,208,109498,1,0,0:0:0:0:
232,160,110498,1,8,0:0:0:0:
128,176,111069,1,8,0:0:0:0:
272,216,111355,1,4,0:0:0:0:
320,232,111640,1,8,0:0:0:0:
264,312,111783,1,0,0:0:0:0:
328,232,111926,1,0,0:0:0:0:
328,224,112069,1,8,0:0:0:0:
328,224,112212,1,8,0:0:0:0:
328,224,112355,1,0,0:0:0:0:
328,224,112498,1,8,0:0:0:0:
256,336,112640,1,0,0:0:0:0:
336,264,112783,1,8,0:0:0:0:
336,272,112926,1,8,0:0:0:0:
328,280,113069,1,0,0:0:0:0:
72,192,113212,1,0,0:0:0:0:
216,192,113355,1,8,0:0:0:0:
216,192,113640,1,0,0:0:0:0:
216,192,113926,1,8,0:0:0:0:
304,256,114069,1,8,0:0:0:0:
304,256,114212,1,0,0:0:0:0:
160,128,114355,1,8,0:0:0:0:
160,128,114498,1,8,0:0:0:0:
160,128,114640,1,0,0:0:0:0:
160,128,114783,1,8,0:0:0:0:
344,232,114926,1,0,0:0:0:0:
344,232,115069,1,0,0:0:0:0:
344,232,115212,1,0,0:0:0:0:
112,208,115355,1,8,0:0:0:0:
264,296,115498,1,0,0:0:0:0:
280,336,115640,1,8,0:0:0:0:
248,304,115926,1,0,0:0:0:0:
272,288,116212,1,8,0:0:0:0:
264,296,116355,1,0,0:0:0:0:
264,296,116498,1,0,0:0:0:0:
256,304,116640,1,8,0:0:0:0:
256,304,116783,1,8,0:0:0:0:
256,304,116926,1,0,0:0:0:0:
304,320,117069,1,8,0:0:0:0:
256,304,117212,1,0,0:0:0:0:
264,208,117355,1,0,0:0:0:0:
264,208,117498,1,0,0:0:0:0:
200,144,117640,1,8,0:0:0:0:
200,144,117783,1,0,0:0:0:0:
200,144,117926,1,8,0:0:0:0:
296,216,118212,1,0,0:0:0:0:
296,216,118498,1,8,0:0:0:0:
296,216,118640,1,8,0:0:0:0:
296,216,118783,1,0,0:0:0:0:
168,128,118926,1,8,0:0:0:0:
168,128,119069,1,8,0:0:0:0:
168,128,119212,1,0,0:0:0:0:
168,128,119355,1,8,0:0:0:0:
264,328,119498,1,8,0:0:0:0:
264,344,119640,1,0,0:0:0:0:
264,344,119783,1,0,0:0:0:0:
168,128,119926,1,8,0:0:0:0:
336,256,120498,1,0,0:0:0:0:
336,256,120926,1,0,0:0:0:0:
232,280,121355,1,0,0:0:0:0:
312,248,121641,1,8,0:0:0:0:
312,248,122069,1,8,0:0:0:0:
232,280,122498,1,8,0:0:0:0:
232,280,122783,1,0,0:0:0:0:
232,280,123212,1,0,0:0:0:0:
232,280,123641,1,0,0:0:0:0:
232,280,123926,1,8,0:0:0:0:
232,280,124498,1,8,0:0:0:0:
119,152,124783,1,8,0:0:0:0:
232,280,125069,1,0,0:0:0:0:
304,224,125498,1,0,0:0:0:0:
304,224,125926,1,0,0:0:0:0:
304,224,126212,1,8,0:0:0:0:
304,224,126641,1,8,0:0:0:0:
304,224,127069,1,8,0:0:0:0:
304,224,127355,1,0,0:0:0:0:
288,216,127641,1,0,0:0:0:0:
288,216,127926,1,0,0:0:0:0:
288,216,128212,1,0,0:0:0:0:
360,240,128498,1,8,0:0:0:0:
360,240,128569,1,8,0:0:0:0:
360,240,128641,1,8,0:0:0:0:
360,240,128712,1,8,0:0:0:0:
360,240,128783,1,8,0:0:0:0:
360,240,128855,1,8,0:0:0:0:
360,240,128926,1,8,0:0:0:0:
304,280,129069,1,0,0:0:0:0:
296,200,130498,1,8,0:0:0:0:
296,280,130783,1,4,0:0:0:0:
264,280,131068,1,8,0:0:0:0:
280,232,131211,1,0,0:0:0:0:
280,232,131283,1,0,0:0:0:0:
280,232,131354,1,0,0:0:0:0:
280,232,131497,1,0,0:0:0:0:
280,232,131640,1,8,0:0:0:0:
208,208,131783,1,8,0:0:0:0:
280,232,131925,1,0,0:0:0:0:
280,232,132068,1,8,0:0:0:0:
280,232,132140,1,8,0:0:0:0:
280,232,132211,1,8,0:0:0:0:
280,232,132354,1,8,0:0:0:0:
280,232,132497,1,0,0:0:0:0:
296,216,132640,1,0,0:0:0:0:
296,216,132711,1,0,0:0:0:0:
296,216,132783,1,8,0:0:0:0:
280,232,132925,1,8,0:0:0:0:
280,232,133068,1,0,0:0:0:0:
200,216,133354,1,8,0:0:0:0:
152,152,133498,1,0,0:0:0:0:
152,144,133569,1,0,0:0:0:0:
200,216,133640,1,0,0:0:0:0:
192,232,133783,1,0,0:0:0:0:
192,224,133925,1,8,0:0:0:0:
192,240,134068,1,8,0:0:0:0:
192,240,134140,1,8,0:0:0:0:
192,240,134211,1,0,0:0:0:0:
208,280,134354,1,0,0:0:0:0:
208,272,134497,1,8,0:0:0:0:
184,160,134640,1,8,0:0:0:0:
192,152,134783,1,0,0:0:0:0:
192,144,134854,1,0,0:0:0:0:
192,144,134925,1,0,0:0:0:0:
192,144,135068,1,8,0:0:0:0:
312,272,135354,1,4,0:0:0:0:
344,256,135640,1,8,0:0:0:0:
344,256,135783,1,0,0:0:0:0:
344,256,135854,1,0,0:0:0:0:
344,256,135925,1,0,0:0:0:0:
344,256,136068,1,0,0:0:0:0:
344,256,136211,1,8,0:0:0:0:
208,264,136355,1,8,0:0:0:0:
344,256,136497,1,0,0:0:0:0:
320,208,136640,1,0,0:0:0:0:
320,208,136711,1,0,0:0:0:0:
344,256,136783,1,8,0:0:0:0:
344,256,136925,1,8,0:0:0:0:
344,256,137068,1,0,0:0:0:0:
296,176,137211,1,8,0:0:0:0:
296,176,137283,1,8,0:0:0:0:
296,176,137354,1,8,0:0:0:0:
256,320,137497,1,8,0:0:0:0:
256,304,137640,1,0,0:0:0:0:
256,304,137783,1,8,0:0:0:0:
216,344,137925,1,0,0:0:0:0:
72,176,137997,1,0,0:0:0:0:
200,320,138068,1,8,0:0:0:0:
72,176,138211,1,0,0:0:0:0:
88,176,138354,1,8,0:0:0:0:
88,176,138497,1,0,0:0:0:0:
184,144,138568,1,0,0:0:0:0:
184,144,138640,1,8,0:0:0:0:
184,144,138711,1,8,0:0:0:0:
184,144,138783,1,0,0:0:0:0:
216,144,139355,1,8,0:0:0:0:
216,144,139640,1,8,0:0:0:0:
216,136,139926,1,4,0:0:0:0:
184,72,140069,1,8,0:0:0:0:
184,64,140212,1,0,0:0:0:0:
184,64,140283,1,0,0:0:0:0:
184,64,140355,1,8,0:0:0:0:
184,64,140498,1,0,0:0:0:0:
184,64,140640,1,8,0:0:0:0:
184,64,140783,1,0,0:0:0:0:
184,64,140926,1,8,0:0:0:0:
184,64,140998,1,8,0:0:0:0:
184,64,141069,1,0,0:0:0:0:
184,64,141212,1,8,0:0:0:0:
296,312,141355,1,0,0:0:0:0:
296,304,141498,1,0,0:0:0:0:
304,304,141640,1,8,0:0:0:0:
304,304,141783,1,0,0:0:0:0:
320,328,141926,1,8,0:0:0:0:
296,320,142069,1,8,0:0:0:0:
304,336,142140,1,8,0:0:0:0:
224,312,142212,1,0,0:0:0:0:
144,168,142355,1,8,0:0:0:0:
304,216,142498,1,0,0:0:0:0:
304,216,142569,1,0,0:0:0:0:
304,216,142640,1,8,0:0:0:0:
304,216,142783,1,0,0:0:0:0:
304,216,142926,1,8,0:0:0:0:
304,216,143069,1,0,0:0:0:0:
304,216,143212,1,8,0:0:0:0:
304,216,143283,1,8,0:0:0:0:
304,216,143355,1,0,0:0:0:0:
304,216,143498,1,8,0:0:0:0:
304,216,143640,1,0,0:0:0:0:
304,216,143712,1,0,0:0:0:0:
304,216,143783,1,8,0:0:0:0:
296,336,143926,1,0,0:0:0:0:
256,320,144069,1,0,0:0:0:0:
232,352,144212,1,8,0:0:0:0:
240,304,144498,1,0,0:0:0:0:
272,216,144640,1,8,0:0:0:0:
272,200,144783,1,0,0:0:0:0:
280,200,144855,1,0,0:0:0:0:
280,192,144926,1,8,0:0:0:0:
280,192,145069,1,0,0:0:0:0:
280,192,145212,1,8,0:0:0:0:
280,192,145355,1,0,0:0:0:0:
280,192,145498,1,8,0:0:0:0:
280,192,145569,1,8,0:0:0:0:
280,192,145640,1,0,0:0:0:0:
280,192,145783,1,8,0:0:0:0:
280,192,145926,1,0,0:0:0:0:
280,192,145998,1,0,0:0:0:0:
280,192,146069,1,8,0:0:0:0:
280,192,146212,1,0,0:0:0:0:
344,320,146355,1,8,0:0:0:0:
328,248,146498,1,0,0:0:0:0:
328,248,146569,1,0,0:0:0:0:
328,248,146640,1,8,0:0:0:0:
328,248,146712,1,8,0:0:0:0:
328,248,146783,1,0,0:0:0:0:
328,248,146926,1,8,0:0:0:0:
328,248,147069,1,0,0:0:0:0:
328,248,147140,1,0,0:0:0:0:
328,248,147212,1,8,0:0:0:0:
328,248,147283,1,8,0:0:0:0:
328,248,147355,1,0,0:0:0:0:
328,248,147498,1,8,0:0:0:0:
328,240,147640,1,0,0:0:0:0:
328,240,147712,1,0,0:0:0:0:
328,240,147783,1,8,0:0:0:0:
328,240,147855,1,8,0:0:0:0:
328,240,147926,1,0,0:0:0:0:
368,272,148212,1,0,0:0:0:0:
152,192,148498,1,8,0:0:0:0:
344,256,149069,1,4,0:0:0:0:
344,256,149355,1,12,0:0:0:0:
368,192,149498,1,0,0:0:0:0:
368,184,149569,1,0,0:0:0:0:
368,184,149640,1,0,0:0:0:0:
368,184,149783,1,0,0:0:0:0:
368,184,149926,1,8,0:0:0:0:
368,184,150069,1,8,0:0:0:0:
368,176,150212,1,0,0:0:0:0:
368,176,150355,1,8,0:0:0:0:
368,176,150426,1,8,0:0:0:0:
368,176,150498,1,0,0:0:0:0:
368,176,150640,1,8,0:0:0:0:
368,176,150783,1,0,0:0:0:0:
368,176,150926,1,0,0:0:0:0:
368,176,151069,1,8,0:0:0:0:
352,288,151355,1,4,0:0:0:0:
352,248,151640,1,8,0:0:0:0:
144,160,151783,1,0,0:0:0:0:
144,160,151855,1,0,0:0:0:0:
144,160,151926,1,8,0:0:0:0:
144,160,152069,1,0,0:0:0:0:
144,160,152212,1,8,0:0:0:0:
144,160,152355,1,8,0:0:0:0:
144,152,152498,1,0,0:0:0:0:
320,312,152640,1,0,0:0:0:0:
280,304,152783,1,8,0:0:0:0:
304,216,152926,1,8,0:0:0:0:
304,216,152998,1,8,0:0:0:0:
304,216,153069,1,0,0:0:0:0:
312,208,153212,1,0,0:0:0:0:
312,208,153355,1,8,0:0:0:0:
344,256,153640,1,4,0:0:0:0:
344,256,153926,1,12,0:0:0:0:
368,192,154069,1,0,0:0:0:0:
368,184,154140,1,0,0:0:0:0:
368,184,154211,1,0,0:0:0:0:
368,184,154354,1,0,0:0:0:0:
368,184,154497,1,8,0:0:0:0:
368,184,154640,1,8,0:0:0:0:
368,176,154783,1,0,0:0:0:0:
368,176,154926,1,8,0:0:0:0:
368,176,154997,1,8,0:0:0:0:
368,176,155069,1,0,0:0:0:0:
368,176,155211,1,8,0:0:0:0:
368,176,155354,1,0,0:0:0:0:
368,176,155497,1,0,0:0:0:0:
368,176,155640,1,8,0:0:0:0:
352,288,155926,1,4,0:0:0:0:
352,248,156211,1,8,0:0:0:0:
144,160,156354,1,0,0:0:0:0:
144,160,156426,1,0,0:0:0:0:
144,160,156497,1,8,0:0:0:0:
144,160,156640,1,0,0:0:0:0:
144,160,156783,1,8,0:0:0:0:
144,160,156926,1,8,0:0:0:0:
144,152,157069,1,0,0:0:0:0:
320,312,157211,1,0,0:0:0:0:
280,304,157354,1,8,0:0:0:0:
304,216,157497,1,8,0:0:0:0:
304,216,157569,1,8,0:0:0:0:
304,216,157640,1,0,0:0:0:0:
312,208,157783,1,0,0:0:0:0:
312,208,157926,1,8,0:0:0:0:
216,128,158212,1,4,0:0:0:0:
216,112,158355,1,8,0:0:0:0:
216,112,158498,1,0,0:0:0:0:
216,112,158569,1,0,0:0:0:0:
216,112,158640,1,8,0:0:0:0:
216,112,158783,1,0,0:0:0:0:
216,112,158926,1,8,0:0:0:0:
216,112,159069,1,0,0:0:0:0:
344,336,159140,1,0,0:0:0:0:
216,112,159212,1,8,0:0:0:0:
216,112,159283,1,8,0:0:0:0:
216,112,159355,1,0,0:0:0:0:
216,112,159498,1,8,0:0:0:0:
216,112,159640,1,0,0:0:0:0:
208,104,159712,1,0,0:0:0:0:
208,104,159783,1,8,0:0:0:0:
208,104,159926,1,0,0:0:0:0:
208,104,160069,1,8,0:0:0:0:
208,104,160140,1,8,0:0:0:0:
208,104,160212,1,0,0:0:0:0:
208,104,160355,1,8,0:0:0:0:
280,280,160498,1,4,0:0:0:0:
360,272,160640,1,8,0:0:0:0:
360,272,160783,1,0,0:0:0:0:
360,264,160855,1,0,0:0:0:0:
360,264,160926,1,8,0:0:0:0:
360,264,161069,1,0,0:0:0:0:
360,264,161212,1,8,0:0:0:0:
360,256,161355,1,0,0:0:0:0:
360,256,161498,1,8,0:0:0:0:
296,136,161569,1,8,0:0:0:0:
296,136,161640,1,0,0:0:0:0:
296,136,161783,1,8,0:0:0:0:
232,152,161926,1,0,0:0:0:0:
232,152,161998,1,0,0:0:0:0:
232,152,162069,1,8,0:0:0:0:
232,152,162212,1,0,0:0:0:0:
232,152,162355,1,8,0:0:0:0:
232,152,162426,1,8,0:0:0:0:
232,152,162498,1,0,0:0:0:0:
232,152,162569,1,0,0:0:0:0:
232,152,162640,1,8,0:0:0:0:
360,232,162783,1,4,0:0:0:0:
360,232,162926,1,8,0:0:0:0:
360,232,163069,1,0,0:0:0:0:
360,232,163140,1,0,0:0:0:0:
360,232,163212,1,8,0:0:0:0:
360,232,163355,1,0,0:0:0:0:
360,232,163498,1,8,0:0:0:0:
360,232,163640,1,0,0:0:0:0:
360,232,163712,1,0,0:0:0:0:
360,232,163783,1,8,0:0:0:0:
360,232,163855,1,8,0:0:0:0:
360,232,163926,1,0,0:0:0:0:
360,232,164069,1,8,0:0:0:0:
360,232,164212,1,0,0:0:0:0:
360,232,164283,1,0,0:0:0:0:
360,232,164355,1,8,0:0:0:0:
360,232,164498,1,0,0:0:0:0:
360,232,164640,1,8,0:0:0:0:
408,304,164712,1,8,0:0:0:0:
392,288,164783,1,0,0:0:0:0:
376,304,164926,1,8,0:0:0:0:
400,248,165069,1,4,0:0:0:0:
400,248,165212,1,8,0:0:0:0:
400,240,165355,1,0,0:0:0:0:
400,240,165426,1,0,0:0:0:0:
400,240,165498,1,8,0:0:0:0:
400,240,165640,1,0,0:0:0:0:
400,240,165783,1,8,0:0:0:0:
400,240,165926,1,0,0:0:0:0:
400,240,165998,1,0,0:0:0:0:
400,240,166069,1,8,0:0:0:0:
400,240,166140,1,8,0:0:0:0:
400,240,166212,1,0,0:0:0:0:
400,240,166355,1,8,0:0:0:0:
400,240,166426,1,8,0:0:0:0:
400,240,166498,1,0,0:0:0:0:
400,240,166640,1,8,0:0:0:0:
400,240,166783,1,0,0:0:0:0:
400,240,166926,1,8,0:0:0:0:
400,240,166998,1,8,0:0:0:0:
400,240,167069,1,0,0:0:0:0:
400,240,167140,1,0,0:0:0:0:
400,240,167212,1,8,0:0:0:0:
400,240,167355,1,0,0:0:0:0:
176,254,167640,1,0,0:0:0:0:
68,156,167926,1,8,0:0:0:0:
68,156,168498,1,0,0:0:0:0:
192,120,169640,1,8,0:0:0:0:
225,241,169926,1,0,0:0:0:0:
104,111,170212,1,8,0:0:0:0:
104,111,170783,1,0,0:0:0:0:
232,184,171926,1,0,0:0:0:0:
183,233,172212,1,8,0:0:0:0:
183,233,172498,1,0,0:0:0:0:
183,233,173069,1,8,0:0:0:0:
183,233,174212,1,0,0:0:0:0:
183,233,174498,1,0,0:0:0:0:
183,233,174783,1,8,0:0:0:0:
224,160,175355,1,0,0:0:0:0:
224,160,175926,1,8,0:0:0:0:
224,160,176355,1,8,0:0:0:0:
