osu file format v14

[General]
AudioFilename: audio.mp3
AudioLeadIn: 0
PreviewTime: 56069
Countdown: 0
SampleSet: Normal
StackLeniency: 0.7
Mode: 1
LetterboxInBreaks: 0
WidescreenStoryboard: 1

[Editor]
DistanceSpacing: 0.1
BeatDivisor: 4
GridSize: 8
TimelineZoom: 2.7

[Metadata]
Title:Streaming Heart
TitleUnicode:ストリーミングハート
Artist:Ayaponzu*
ArtistUnicode:あやぽんず*
Creator:Lasse
Version:Chromoxx' Muzukashii
Source:
Tags:deco*27 deco27 cover utaite pon'po drop toybot karen chromoxx
BeatmapID:1179451
BeatmapSetID:552702

[Difficulty]
HPDrainRate:5
CircleSize:3
OverallDifficulty:5
ApproachRate:3
SliderMultiplier:1.4
SliderTickRate:1

[Events]
//Background and Video events
0,0,"bg.jpg",0,0
//Break Periods
//Storyboard Layer 0 (Background)
//Storyboard Layer 1 (Fail)
//Storyboard Layer 2 (Pass)
//Storyboard Layer 3 (Foreground)
//Storyboard Sound Samples

[TimingPoints]
498,285.714285714286,4,1,0,90,1,0
56498,-100,4,1,0,90,0,1
74783,-100,4,1,0,90,0,0
130783,-100,4,1,0,90,0,1
138640,-100,4,1,0,90,0,0
139926,-100,4,1,0,90,0,1
149069,-100,4,1,0,90,0,0
149355,-100,4,1,0,90,0,1
167355,-100,4,1,0,90,0,0

[Colours]
Combo1 : 20,231,152
Combo2 : 26,221,242
Combo3 : 255,51,122
Combo4 : 130,138,198

[HitObjects]
194,134,498,5,0,0:0:0:0:
194,134,1069,1,0,0:0:0:0:
218,180,1640,1,8,0:0:0:0:
218,180,1926,1,8,0:0:0:0:
218,180,2212,1,0,0:0:0:0:
218,180,2498,1,0,0:0:0:0:
218,180,2783,1,8,0:0:0:0:
215,163,3355,1,0,0:0:0:0:
215,163,3926,1,8,0:0:0:0:
222,272,4212,1,0,0:0:0:0:
222,272,4498,1,8,0:0:0:0:
222,272,4783,1,8,0:0:0:0:
222,272,5069,1,0,0:0:0:0:
193,263,5640,1,8,0:0:0:0:
199,241,6212,1,0,0:0:0:0:
215,163,6498,1,8,0:0:0:0:
38,125,6783,1,0,0:0:0:0:
38,125,7069,1,0,0:0:0:0:
48,107,7355,1,8,0:0:0:0:
283,211,8498,1,8,0:0:0:0:
283,211,8569,1,8,0:0:0:0:
283,211,8640,1,8,0:0:0:0:
283,211,8783,1,8,0:0:0:0:
325,286,9069,1,0,0:0:0:0:
252,269,9140,1,0,0:0:0:0:
325,286,9212,1,0,0:0:0:0:
272,258,9355,1,0,0:0:0:0:
272,256,9640,1,4,0:0:0:0:
291,240,9926,1,0,0:0:0:0:
279,242,10069,1,0,0:0:0:0:
155,150,10212,1,8,0:0:0:0:
307,274,10498,1,0,0:0:0:0:
307,274,10640,1,8,0:0:0:0:
307,274,10783,1,0,0:0:0:0:
199,245,10926,1,0,0:0:0:0:
329,277,11212,1,0,0:0:0:0:
170,222,11355,1,8,0:0:0:0:
170,222,11640,1,0,0:0:0:0:
170,222,11926,1,4,0:0:0:0:
240,273,12212,1,8,0:0:0:0:
283,210,12355,1,0,0:0:0:0:
190,204,12498,1,8,0:0:0:0:
245,250,12783,1,0,0:0:0:0:
244,250,12926,1,0,0:0:0:0:
245,265,13069,1,8,0:0:0:0:
245,264,13212,1,8,0:0:0:0:
245,250,13498,1,0,0:0:0:0:
245,250,13640,1,8,0:0:0:0:
265,256,13926,1,8,0:0:0:0:
272,256,14212,1,4,0:0:0:0:
291,240,14498,1,0,0:0:0:0:
279,242,14641,1,0,0:0:0:0:
155,150,14784,1,8,0:0:0:0:
307,274,15070,1,0,0:0:0:0:
307,274,15212,1,8,0:0:0:0:
307,274,15355,1,0,0:0:0:0:
199,245,15498,1,0,0:0:0:0:
329,277,15784,1,0,0:0:0:0:
170,222,15927,1,8,0:0:0:0:
170,222,16212,1,0,0:0:0:0:
170,222,16498,1,4,0:0:0:0:
240,273,16784,1,8,0:0:0:0:
283,210,16927,1,0,0:0:0:0:
190,204,17070,1,8,0:0:0:0:
245,250,17355,1,0,0:0:0:0:
244,250,17498,1,0,0:0:0:0:
245,265,17641,1,8,0:0:0:0:
245,264,17784,1,8,0:0:0:0:
245,250,18070,1,0,0:0:0:0:
245,250,18212,1,8,0:0:0:0:
265,256,18498,1,8,0:0:0:0:
272,256,18783,1,4,0:0:0:0:
291,240,19069,1,0,0:0:0:0:
279,242,19212,1,0,0:0:0:0:
155,150,19355,1,8,0:0:0:0:
307,274,19641,1,0,0:0:0:0:
307,274,19783,1,8,0:0:0:0:
307,274,19926,1,0,0:0:0:0:
199,245,20069,1,0,0:0:0:0:
329,277,20355,1,0,0:0:0:0:
170,222,20498,1,8,0:0:0:0:
170,222,20783,1,0,0:0:0:0:
170,222,21069,1,4,0:0:0:0:
240,273,21355,1,8,0:0:0:0:
283,210,21498,1,0,0:0:0:0:
190,204,21641,1,8,0:0:0:0:
245,250,21926,1,0,0:0:0:0:
244,250,22069,1,0,0:0:0:0:
245,265,22212,1,8,0:0:0:0:
245,264,22355,1,8,0:0:0:0:
245,250,22641,1,0,0:0:0:0:
245,250,22783,1,8,0:0:0:0:
265,256,23069,1,8,0:0:0:0:
272,256,23355,1,4,0:0:0:0:
291,240,23641,1,0,0:0:0:0:
279,242,23784,1,0,0:0:0:0:
155,150,23927,1,8,0:0:0:0:
307,274,24213,1,0,0:0:0:0:
307,274,24355,1,8,0:0:0:0:
307,274,24498,1,0,0:0:0:0:
199,245,24641,1,0,0:0:0:0:
329,277,24927,1,0,0:0:0:0:
170,222,25070,1,8,0:0:0:0:
170,222,25355,1,0,0:0:0:0:
170,222,25641,1,4,0:0:0:0:
240,273,25927,1,8,0:0:0:0:
283,210,26070,1,0,0:0:0:0:
190,204,26213,1,8,0:0:0:0:
245,250,26498,1,0,0:0:0:0:
244,250,26641,1,0,0:0:0:0:
245,265,26784,1,8,0:0:0:0:
245,264,26927,1,8,0:0:0:0:
245,250,27213,1,0,0:0:0:0:
245,250,27355,1,8,0:0:0:0:
265,256,27641,1,8,0:0:0:0:
332,172,27926,1,0,0:0:0:0:
332,170,29069,1,0,0:0:0:0:
154,154,29640,1,8,0:0:0:0:
158,139,30212,1,0,0:0:0:0:
158,141,30498,1,0,0:0:0:0:
140,157,30783,1,8,0:0:0:0:
249,255,31069,1,0,0:0:0:0:
139,149,31355,1,0,0:0:0:0:
227,228,31926,1,8,0:0:0:0:
208,165,32498,1,0,0:0:0:0:
208,165,32783,1,0,0:0:0:0:
52,99,33069,1,8,0:0:0:0:
247,292,33355,1,8,0:0:0:0:
260,276,33640,1,0,0:0:0:0:
242,281,34212,1,8,0:0:0:0:
81,120,34783,1,0,0:0:0:0:
255,222,35069,1,0,0:0:0:0:
255,222,35355,1,8,0:0:0:0:
255,222,35640,1,0,0:0:0:0:
106,123,35926,1,0,0:0:0:0:
352,258,36498,1,8,0:0:0:0:
107,166,36783,1,8,0:0:0:0:
257,221,37069,1,0,0:0:0:0:
196,178,37212,1,8,0:0:0:0:
196,155,37355,1,8,0:0:0:0:
196,152,37498,1,8,0:0:0:0:
194,146,37640,1,0,0:0:0:0:
288,260,37926,1,8,0:0:0:0:
232,259,38069,1,0,0:0:0:0:
245,259,38140,1,0,0:0:0:0:
244,261,38212,1,0,0:0:0:0:
200,251,38498,1,8,0:0:0:0:
265,212,38783,1,0,0:0:0:0:
265,212,38926,1,0,0:0:0:0:
265,212,39069,1,8,0:0:0:0:
265,212,39355,1,0,0:0:0:0:
265,212,39498,1,0,0:0:0:0:
265,212,39640,1,8,0:0:0:0:
232,231,39783,1,0,0:0:0:0:
212,167,40069,1,0,0:0:0:0:
212,167,40212,1,8,0:0:0:0:
212,167,40355,1,8,0:0:0:0:
212,167,40498,1,0,0:0:0:0:
288,256,40783,1,8,0:0:0:0:
288,256,40926,1,8,0:0:0:0:
279,264,41069,1,0,0:0:0:0:
279,264,41212,1,0,0:0:0:0:
271,252,41355,1,8,0:0:0:0:
231,242,41640,1,0,0:0:0:0:
245,245,41783,1,0,0:0:0:0:
154,184,41926,1,8,0:0:0:0:
154,184,42069,1,0,0:0:0:0:
149,172,42355,1,0,0:0:0:0:
149,172,42498,1,8,0:0:0:0:
149,172,42640,1,0,0:0:0:0:
149,172,42783,1,0,0:0:0:0:
237,204,43069,1,8,0:0:0:0:
225,228,43212,1,0,0:0:0:0:
225,227,43355,1,0,0:0:0:0:
224,223,43640,1,8,0:0:0:0:
213,192,43926,1,0,0:0:0:0:
208,181,44069,1,0,0:0:0:0:
219,179,44212,1,8,0:0:0:0:
230,218,44355,1,0,0:0:0:0:
305,244,44640,1,0,0:0:0:0:
305,244,44783,1,8,0:0:0:0:
305,244,44926,1,8,0:0:0:0:
291,234,45069,1,0,0:0:0:0:
266,216,45355,1,8,0:0:0:0:
266,216,45498,1,8,0:0:0:0:
265,208,45640,1,0,0:0:0:0:
265,208,45783,1,0,0:0:0:0:
262,203,45926,1,8,0:0:0:0:
291,202,46212,1,0,0:0:0:0:
290,200,46355,1,0,0:0:0:0:
289,195,46498,1,8,0:0:0:0:
122,175,46640,1,0,0:0:0:0:
122,175,46926,1,0,0:0:0:0:
122,175,47069,1,8,0:0:0:0:
122,175,47355,1,0,0:0:0:0:
229,250,48212,1,0,0:0:0:0:
229,250,48498,1,8,0:0:0:0:
229,250,49069,1,8,0:0:0:0:
229,250,49640,1,0,0:0:0:0:
249,261,50498,1,0,0:0:0:0:
249,261,50783,1,8,0:0:0:0:
249,261,51355,1,0,0:0:0:0:
249,261,51926,1,8,0:0:0:0:
249,261,52783,1,0,0:0:0:0:
249,261,53069,1,8,0:0:0:0:
249,261,53640,1,8,0:0:0:0:
249,261,54212,1,0,0:0:0:0:
285,138,54498,1,0,0:0:0:0:
285,138,54783,1,0,0:0:0:0:
285,138,55069,1,0,0:0:0:0:
282,128,55355,1,8,0:0:0:0:
282,128,55498,1,8,0:0:0:0:
172,299,55569,1,8,0:0:0:0:
282,128,55640,1,8,0:0:0:0:
138,285,55783,1,0,0:0:0:0:
145,277,55855,1,0,0:0:0:0:
241,133,55926,1,0,0:0:0:0:
231,130,56498,1,4,0:0:0:0:
178,115,56783,1,8,0:0:0:0:
178,115,56926,1,8,0:0:0:0:
178,115,57069,1,0,0:0:0:0:
178,115,57212,1,0,0:0:0:0:
178,115,57355,1,8,0:0:0:0:
177,107,57640,1,0,0:0:0:0:
177,107,57783,1,0,0:0:0:0:
177,107,57926,1,8,0:0:0:0:
177,107,58069,1,0,0:0:0:0:
177,107,58355,1,0,0:0:0:0:
177,107,58498,1,8,0:0:0:0:
177,107,58640,1,8,0:0:0:0:
177,107,58783,1,0,0:0:0:0:
177,107,58926,1,0,0:0:0:0:
177,107,59069,1,8,0:0:0:0:
177,107,59355,1,0,0:0:0:0:
192,184,59640,1,8,0:0:0:0:
224,280,59783,1,0,0:0:0:0:
240,256,60069,1,0,0:0:0:0:
240,258,60212,1,8,0:0:0:0:
119,165,60355,1,8,0:0:0:0:
118,153,60498,1,0,0:0:0:0:
119,165,60783,1,8,0:0:0:0:
316,291,61069,1,4,0:0:0:0:
270,280,61355,1,8,0:0:0:0:
151,263,61498,1,0,0:0:0:0:
133,270,61640,1,0,0:0:0:0:
183,248,61783,1,0,0:0:0:0:
181,250,61926,1,8,0:0:0:0:
180,240,62212,1,0,0:0:0:0:
217,205,62355,1,8,0:0:0:0:
225,310,62498,1,0,0:0:0:0:
218,317,62640,1,8,0:0:0:0:
215,213,62926,1,0,0:0:0:0:
213,297,63069,1,8,0:0:0:0:
214,300,63212,1,8,0:0:0:0:
195,274,63355,1,0,0:0:0:0:
195,274,63498,1,8,0:0:0:0:
196,273,63640,1,0,0:0:0:0:
193,248,63783,1,8,0:0:0:0:
64,158,63926,1,0,0:0:0:0:
304,197,64212,1,8,0:0:0:0:
305,185,64498,1,0,0:0:0:0:
290,184,65069,1,8,0:0:0:0:
135,235,65212,1,8,0:0:0:0:
304,201,65283,1,8,0:0:0:0:
156,238,65355,1,8,0:0:0:0:
158,257,65498,1,0,0:0:0:0:
162,179,65569,1,0,0:0:0:0:
162,179,65640,1,0,0:0:0:0:
252,136,65926,1,8,0:0:0:0:
200,193,66212,1,0,0:0:0:0:
200,193,66355,1,0,0:0:0:0:
215,193,66498,1,8,0:0:0:0:
215,193,66640,1,0,0:0:0:0:
195,173,66926,1,0,0:0:0:0:
195,167,67069,1,8,0:0:0:0:
195,167,67212,1,0,0:0:0:0:
195,165,67498,1,0,0:0:0:0:
99,150,67640,1,8,0:0:0:0:
253,166,67926,1,0,0:0:0:0:
253,166,68212,1,8,0:0:0:0:
195,165,68498,1,0,0:0:0:0:
231,173,68640,1,8,0:0:0:0:
231,173,68783,1,8,0:0:0:0:
190,206,68926,1,0,0:0:0:0:
208,207,69212,1,8,0:0:0:0:
211,206,69355,1,0,0:0:0:0:
213,202,69498,1,8,0:0:0:0:
213,235,69783,1,0,0:0:0:0:
213,235,69926,1,8,0:0:0:0:
186,184,70212,1,0,0:0:0:0:
185,174,70498,1,8,0:0:0:0:
185,172,70783,1,0,0:0:0:0:
184,169,70926,1,0,0:0:0:0:
184,167,71069,1,8,0:0:0:0:
184,166,71212,1,0,0:0:0:0:
184,166,71498,1,0,0:0:0:0:
185,172,71640,1,8,0:0:0:0:
184,161,71783,1,0,0:0:0:0:
184,167,72069,1,0,0:0:0:0:
184,166,72212,1,8,0:0:0:0:
298,200,72498,1,0,0:0:0:0:
298,200,72640,1,8,0:0:0:0:
298,200,72783,1,0,0:0:0:0:
137,162,72926,1,8,0:0:0:0:
134,147,73069,1,0,0:0:0:0:
303,267,73355,1,8,0:0:0:0:
303,267,73498,1,8,0:0:0:0:
213,231,73640,1,0,0:0:0:0:
117,173,73783,1,0,0:0:0:0:
117,173,73926,1,8,0:0:0:0:
293,176,74069,1,8,0:0:0:0:
293,176,74140,1,8,0:0:0:0:
293,176,74212,1,8,0:0:0:0:
293,176,74498,1,8,0:0:0:0:
293,176,74640,1,8,0:0:0:0:
293,176,74783,1,0,0:0:0:0:
243,201,75355,1,8,0:0:0:0:
154,178,75640,1,0,0:0:0:0:
134,246,75926,1,8,0:0:0:0:
188,214,76498,1,8,0:0:0:0:
188,214,76783,1,0,0:0:0:0:
188,214,77069,1,0,0:0:0:0:
214,186,77640,1,8,0:0:0:0:
132,244,77926,1,0,0:0:0:0:
229,257,78212,1,8,0:0:0:0:
112,177,78783,1,8,0:0:0:0:
229,257,79069,1,0,0:0:0:0:
254,213,79355,1,0,0:0:0:0:
254,213,79926,1,8,0:0:0:0:
194,280,80212,1,0,0:0:0:0:
119,230,80498,1,8,0:0:0:0:
254,213,81069,1,8,0:0:0:0:
208,263,81355,1,0,0:0:0:0:
254,213,81640,1,0,0:0:0:0:
191,235,82212,1,8,0:0:0:0:
160,234,82498,1,0,0:0:0:0:
159,234,82783,1,8,0:0:0:0:
77,201,83355,1,8,0:0:0:0:
149,158,83640,1,0,0:0:0:0:
149,158,83926,1,0,0:0:0:0:
209,265,85069,1,0,0:0:0:0:
208,262,86212,1,0,0:0:0:0:
204,257,87355,1,0,0:0:0:0:
204,257,87926,1,8,0:0:0:0:
204,257,88498,1,0,0:0:0:0:
203,255,89640,1,0,0:0:0:0:
203,250,90783,1,0,0:0:0:0:
203,250,91926,1,0,0:0:0:0:
154,103,92212,1,8,0:0:0:0:
154,103,92355,1,8,0:0:0:0:
154,103,92426,1,8,0:0:0:0:
203,250,92498,1,8,0:0:0:0:
203,250,92640,1,8,0:0:0:0:
200,196,93069,1,4,0:0:0:0:
200,251,93355,1,8,0:0:0:0:
229,318,93498,1,8,0:0:0:0:
265,212,93640,1,0,0:0:0:0:
265,212,93783,1,0,0:0:0:0:
265,212,93926,1,8,0:0:0:0:
265,212,94212,1,0,0:0:0:0:
265,212,94355,1,0,0:0:0:0:
265,212,94497,1,8,0:0:0:0:
232,231,94640,1,0,0:0:0:0:
212,167,94926,1,0,0:0:0:0:
212,167,95069,1,8,0:0:0:0:
212,167,95212,1,8,0:0:0:0:
212,167,95355,1,0,0:0:0:0:
253,252,95498,1,0,0:0:0:0:
288,256,95640,1,8,0:0:0:0:
279,264,95926,1,0,0:0:0:0:
279,264,96069,1,0,0:0:0:0:
271,252,96212,1,8,0:0:0:0:
288,256,96355,1,8,0:0:0:0:
231,242,96497,1,0,0:0:0:0:
245,245,96640,1,0,0:0:0:0:
154,184,96783,1,8,0:0:0:0:
154,184,96926,1,0,0:0:0:0:
149,172,97212,1,0,0:0:0:0:
149,172,97355,1,8,0:0:0:0:
149,172,97497,1,0,0:0:0:0:
149,172,97640,1,0,0:0:0:0:
237,204,97926,1,8,0:0:0:0:
225,228,98069,1,0,0:0:0:0:
225,227,98212,1,0,0:0:0:0:
312,334,98355,1,0,0:0:0:0:
224,223,98497,1,8,0:0:0:0:
213,192,98783,1,0,0:0:0:0:
208,181,98926,1,0,0:0:0:0:
219,179,99069,1,8,0:0:0:0:
230,218,99212,1,0,0:0:0:0:
305,244,99497,1,0,0:0:0:0:
305,244,99640,1,8,0:0:0:0:
305,244,99783,1,8,0:0:0:0:
291,234,99926,1,0,0:0:0:0:
224,170,100069,1,0,0:0:0:0:
266,216,100212,1,8,0:0:0:0:
265,208,100497,1,0,0:0:0:0:
265,208,100640,1,0,0:0:0:0:
262,203,100783,1,8,0:0:0:0:
266,216,100926,1,8,0:0:0:0:
291,202,101069,1,0,0:0:0:0:
290,200,101212,1,0,0:0:0:0:
289,195,101355,1,8,0:0:0:0:
122,175,101497,1,0,0:0:0:0:
122,175,101783,1,0,0:0:0:0:
122,175,101926,1,8,0:0:0:0:
348,214,102069,1,8,0:0:0:0:
122,175,102212,1,0,0:0:0:0:
348,256,103355,1,0,0:0:0:0:
348,256,103783,1,0,0:0:0:0:
348,291,104498,1,0,0:0:0:0:
348,291,105640,1,0,0:0:0:0:
348,291,106069,1,0,0:0:0:0:
348,291,106783,1,0,0:0:0:0:
348,291,107926,1,0,0:0:0:0:
348,291,108355,1,0,0:0:0:0:
330,269,109069,1,0,0:0:0:0:
283,207,110498,1,8,0:0:0:0:
305,177,111069,1,8,0:0:0:0:
305,177,111355,1,4,0:0:0:0:
299,166,111926,1,8,0:0:0:0:
300,152,112498,1,0,0:0:0:0:
300,152,112783,1,0,0:0:0:0:
291,201,112926,1,0,0:0:0:0:
300,152,113069,1,8,0:0:0:0:
300,152,113355,1,8,0:0:0:0:
298,143,113640,1,0,0:0:0:0:
291,201,114212,1,8,0:0:0:0:
291,201,114783,1,0,0:0:0:0:
291,201,115069,1,8,0:0:0:0:
291,201,115212,1,8,0:0:0:0:
282,205,115355,1,0,0:0:0:0:
282,205,115640,1,0,0:0:0:0:
282,205,115926,1,0,0:0:0:0:
285,189,116498,1,8,0:0:0:0:
247,221,117212,1,0,0:0:0:0:
285,189,117355,1,0,0:0:0:0:
314,175,117498,1,0,0:0:0:0:
317,181,117640,1,8,0:0:0:0:
137,143,117926,1,8,0:0:0:0:
143,132,118212,1,0,0:0:0:0:
245,204,118783,1,8,0:0:0:0:
261,174,119355,1,0,0:0:0:0:
261,174,119640,1,0,0:0:0:0:
261,174,119783,1,0,0:0:0:0:
245,179,119926,1,8,0:0:0:0:
122,175,120498,1,0,0:0:0:0:
229,250,121355,1,0,0:0:0:0:
229,250,121641,1,8,0:0:0:0:
229,250,122212,1,8,0:0:0:0:
229,250,122783,1,0,0:0:0:0:
249,261,123641,1,0,0:0:0:0:
249,261,123926,1,8,0:0:0:0:
249,261,124498,1,0,0:0:0:0:
249,261,125069,1,8,0:0:0:0:
249,261,125926,1,0,0:0:0:0:
249,261,126212,1,8,0:0:0:0:
249,261,126783,1,8,0:0:0:0:
249,261,127355,1,0,0:0:0:0:
285,138,127641,1,0,0:0:0:0:
285,138,127926,1,0,0:0:0:0:
285,138,128212,1,0,0:0:0:0:
282,128,128498,1,8,0:0:0:0:
282,128,128641,1,8,0:0:0:0:
172,299,128712,1,8,0:0:0:0:
282,128,128783,1,8,0:0:0:0:
138,285,128926,1,0,0:0:0:0:
145,277,128998,1,0,0:0:0:0:
241,133,129069,1,0,0:0:0:0:
157,183,130498,1,8,0:0:0:0:
231,130,130783,1,4,0:0:0:0:
178,115,131068,1,8,0:0:0:0:
178,115,131211,1,8,0:0:0:0:
178,115,131354,1,0,0:0:0:0:
178,115,131497,1,0,0:0:0:0:
178,115,131640,1,8,0:0:0:0:
177,107,131925,1,0,0:0:0:0:
177,107,132068,1,0,0:0:0:0:
177,107,132211,1,8,0:0:0:0:
177,107,132354,1,0,0:0:0:0:
177,107,132640,1,0,0:0:0:0:
177,107,132783,1,8,0:0:0:0:
177,107,132925,1,8,0:0:0:0:
177,107,133068,1,0,0:0:0:0:
177,107,133211,1,0,0:0:0:0:
177,107,133354,1,8,0:0:0:0:
177,107,133640,1,0,0:0:0:0:
275,246,133783,1,0,0:0:0:0:
192,184,133925,1,8,0:0:0:0:
224,280,134068,1,0,0:0:0:0:
240,256,134354,1,0,0:0:0:0:
240,258,134497,1,8,0:0:0:0:
119,165,134640,1,8,0:0:0:0:
118,153,134783,1,0,0:0:0:0:
274,246,134926,1,0,0:0:0:0:
119,165,135068,1,8,0:0:0:0:
297,245,135355,1,4,0:0:0:0:
270,280,135640,1,8,0:0:0:0:
151,263,135783,1,0,0:0:0:0:
133,270,135925,1,0,0:0:0:0:
183,248,136068,1,0,0:0:0:0:
181,250,136211,1,8,0:0:0:0:
180,240,136497,1,0,0:0:0:0:
217,205,136640,1,8,0:0:0:0:
225,310,136783,1,0,0:0:0:0:
218,317,136925,1,8,0:0:0:0:
215,213,137211,1,0,0:0:0:0:
213,297,137354,1,8,0:0:0:0:
214,300,137497,1,8,0:0:0:0:
195,274,137640,1,0,0:0:0:0:
195,274,137783,1,8,0:0:0:0:
196,273,137925,1,0,0:0:0:0:
193,248,138068,1,8,0:0:0:0:
64,158,138211,1,0,0:0:0:0:
229,196,138498,1,12,0:0:0:0:
229,196,138640,1,12,0:0:0:0:
292,175,139355,1,8,0:0:0:0:
292,175,139640,1,8,0:0:0:0:
292,175,139926,1,4,0:0:0:0:
288,162,140212,1,8,0:0:0:0:
289,153,140355,1,8,0:0:0:0:
298,157,140498,1,0,0:0:0:0:
289,153,140640,1,0,0:0:0:0:
217,137,140783,1,8,0:0:0:0:
214,126,141069,1,0,0:0:0:0:
213,124,141355,1,8,0:0:0:0:
199,120,141498,1,8,0:0:0:0:
197,119,141640,1,0,0:0:0:0:
197,119,141783,1,0,0:0:0:0:
197,119,141926,1,8,0:0:0:0:
197,119,142069,1,0,0:0:0:0:
214,125,142212,1,0,0:0:0:0:
251,205,142498,1,8,0:0:0:0:
251,205,142640,1,0,0:0:0:0:
251,205,142783,1,0,0:0:0:0:
257,202,143069,1,8,0:0:0:0:
305,230,143212,1,8,0:0:0:0:
226,152,143355,1,0,0:0:0:0:
237,247,143498,1,8,0:0:0:0:
312,250,143640,1,8,0:0:0:0:
312,250,143783,1,8,0:0:0:0:
312,250,143926,1,0,0:0:0:0:
313,238,144212,1,8,0:0:0:0:
335,204,144498,1,0,0:0:0:0:
334,196,144640,1,8,0:0:0:0:
334,196,144783,1,0,0:0:0:0:
334,194,144926,1,8,0:0:0:0:
334,193,145069,1,0,0:0:0:0:
331,182,145355,1,8,0:0:0:0:
331,182,145498,1,8,0:0:0:0:
331,181,145640,1,0,0:0:0:0:
331,181,145783,1,8,0:0:0:0:
331,181,145926,1,0,0:0:0:0:
331,181,146069,1,0,0:0:0:0:
331,182,146212,1,8,0:0:0:0:
236,281,146498,1,0,0:0:0:0:
236,281,146640,1,8,0:0:0:0:
192,279,146783,1,0,0:0:0:0:
192,279,147069,1,0,0:0:0:0:
192,279,147212,1,8,0:0:0:0:
132,160,147355,1,0,0:0:0:0:
132,160,147498,1,0,0:0:0:0:
132,153,147640,1,8,0:0:0:0:
132,153,147783,1,8,0:0:0:0:
132,152,147926,1,0,0:0:0:0:
300,277,148498,1,8,0:0:0:0:
286,246,149355,1,12,0:0:0:0:
200,193,149640,1,0,0:0:0:0:
200,193,149783,1,0,0:0:0:0:
215,193,149926,1,8,0:0:0:0:
215,193,150068,1,0,0:0:0:0:
195,173,150354,1,0,0:0:0:0:
195,167,150497,1,8,0:0:0:0:
217,291,150640,1,8,0:0:0:0:
231,334,150783,1,0,0:0:0:0:
195,165,150926,1,0,0:0:0:0:
99,150,151068,1,8,0:0:0:0:
253,166,151354,1,0,0:0:0:0:
253,166,151640,1,8,0:0:0:0:
178,293,151783,1,0,0:0:0:0:
195,165,151926,1,0,0:0:0:0:
231,173,152068,1,0,0:0:0:0:
231,173,152211,1,8,0:0:0:0:
190,206,152354,1,0,0:0:0:0:
208,207,152640,1,8,0:0:0:0:
211,206,152783,1,0,0:0:0:0:
213,202,152926,1,8,0:0:0:0:
235,235,153069,1,8,0:0:0:0:
213,235,153211,1,0,0:0:0:0:
213,235,153354,1,8,0:0:0:0:
186,184,153640,1,0,0:0:0:0:
185,174,153926,1,8,0:0:0:0:
264,200,154069,1,8,0:0:0:0:
185,172,154211,1,0,0:0:0:0:
184,169,154354,1,0,0:0:0:0:
184,167,154497,1,8,0:0:0:0:
184,166,154640,1,0,0:0:0:0:
184,166,154926,1,0,0:0:0:0:
185,172,155068,1,8,0:0:0:0:
236,260,155212,1,8,0:0:0:0:
229,141,155355,1,0,0:0:0:0:
184,167,155497,1,0,0:0:0:0:
184,166,155640,1,8,0:0:0:0:
336,217,155926,1,0,0:0:0:0:
336,217,156069,1,8,0:0:0:0:
334,208,156212,1,0,0:0:0:0:
333,206,156355,1,8,0:0:0:0:
332,204,156498,1,0,0:0:0:0:
340,181,156783,1,8,0:0:0:0:
341,180,156926,1,8,0:0:0:0:
341,180,157069,1,0,0:0:0:0:
341,180,157212,1,0,0:0:0:0:
341,180,157355,1,8,0:0:0:0:
341,180,157498,1,0,0:0:0:0:
340,181,157640,1,0,0:0:0:0:
341,180,157926,1,8,0:0:0:0:
367,196,158212,1,4,0:0:0:0:
192,129,158498,1,8,0:0:0:0:
355,303,158640,1,0,0:0:0:0:
200,193,158783,1,0,0:0:0:0:
200,193,158926,1,0,0:0:0:0:
215,193,159069,1,8,0:0:0:0:
215,193,159211,1,0,0:0:0:0:
195,173,159497,1,0,0:0:0:0:
195,167,159640,1,8,0:0:0:0:
217,291,159783,1,8,0:0:0:0:
231,334,159926,1,0,0:0:0:0:
195,165,160069,1,0,0:0:0:0:
99,150,160211,1,8,0:0:0:0:
336,256,160355,1,0,0:0:0:0:
253,166,160497,1,0,0:0:0:0:
253,166,160783,1,8,0:0:0:0:
178,293,160926,1,0,0:0:0:0:
195,165,161069,1,0,0:0:0:0:
231,173,161211,1,0,0:0:0:0:
231,173,161354,1,8,0:0:0:0:
190,206,161497,1,0,0:0:0:0:
208,207,161783,1,8,0:0:0:0:
211,206,161926,1,0,0:0:0:0:
213,202,162069,1,8,0:0:0:0:
235,235,162212,1,8,0:0:0:0:
213,235,162354,1,0,0:0:0:0:
213,235,162497,1,8,0:0:0:0:
205,264,162640,1,8,0:0:0:0:
186,184,162783,1,0,0:0:0:0:
185,174,163069,1,8,0:0:0:0:
264,200,163212,1,8,0:0:0:0:
185,172,163354,1,0,0:0:0:0:
184,169,163497,1,0,0:0:0:0:
184,167,163640,1,8,0:0:0:0:
184,166,163783,1,0,0:0:0:0:
184,166,164069,1,0,0:0:0:0:
185,172,164211,1,8,0:0:0:0:
236,260,164355,1,8,0:0:0:0:
229,141,164498,1,0,0:0:0:0:
184,167,164640,1,0,0:0:0:0:
184,166,164783,1,8,0:0:0:0:
253,296,164926,1,0,0:0:0:0:
336,217,165069,1,0,0:0:0:0:
336,217,165212,1,8,0:0:0:0:
334,208,165355,1,0,0:0:0:0:
333,206,165498,1,8,0:0:0:0:
332,204,165641,1,0,0:0:0:0:
340,181,165926,1,8,0:0:0:0:
341,180,166069,1,8,0:0:0:0:
341,180,166212,1,0,0:0:0:0:
341,180,166355,1,0,0:0:0:0:
341,180,166498,1,8,0:0:0:0:
341,180,166641,1,0,0:0:0:0:
340,181,166783,1,0,0:0:0:0:
272,287,166926,1,8,0:0:0:0:
128,272,166998,1,8,0:0:0:0:
341,180,167069,1,8,0:0:0:0:
280,159,167212,1,8,0:0:0:0:
317,290,167355,1,0,0:0:0:0:
373,193,168498,1,8,0:0:0:0:
373,193,169069,1,0,0:0:0:0:
373,193,169640,1,8,0:0:0:0:
372,192,170783,1,0,0:0:0:0:
372,192,171355,1,8,0:0:0:0:
372,192,171926,1,0,0:0:0:0:
371,192,173069,1,8,0:0:0:0:
371,192,173640,1,0,0:0:0:0:
371,192,174212,1,8,0:0:0:0:
371,192,175355,1,0,0:0:0:0:
295,231,175926,1,8,0:0:0:0:
150,171,176355,1,8,0:0:0:0:
