osu file format v14

[General]
AudioFilename: audio.mp3
AudioLeadIn: 0
PreviewTime: 56069
Countdown: 0
SampleSet: Soft
StackLeniency: 0.7
Mode: 0
LetterboxInBreaks: 0
WidescreenStoryboard: 1

[Editor]
DistanceSpacing: 1.8
BeatDivisor: 4
GridSize: 32
TimelineZoom: 1.3

[Metadata]
Title:Streaming Heart
TitleUnicode:ストリーミングハート
Artist:Ayaponzu*
ArtistUnicode:あやぽんず*
Creator:Lasse
Version:Expert
Source:
Tags:deco*27 deco27 cover utaite pon'po drop toybot karen chromoxx
BeatmapID:1172029
BeatmapSetID:552702

[Difficulty]
HPDrainRate:6
CircleSize:3
OverallDifficulty:8.2
ApproachRate:9.2
SliderMultiplier:1.76
SliderTickRate:1

[Events]
//Background and Video events
0,0,"bg.jpg",0,0
//Break Periods
2,74983,83356
//Storyboard Layer 0 (Background)
//Storyboard Layer 1 (Fail)
//Storyboard Layer 2 (Pass)
//Storyboard Layer 3 (Foreground)
//Storyboard Sound Samples

[TimingPoints]
498,285.714285714286,4,2,1,55,1,0
498,-111.111111111111,4,2,1,55,0,0
9640,-100,4,2,1,70,0,0
27640,-100,4,2,2,70,0,0
27926,-80,4,2,1,40,0,0
28069,-100,4,2,1,40,0,0
28212,-100,4,2,1,5,0,0
28307,-100,4,2,1,40,0,0
28498,-100,4,2,1,44,0,0
28688,-100,4,2,1,48,0,0
28878,-100,4,2,1,52,0,0
29069,-111.111111111111,4,2,1,58,0,0
37069,-111.111111111111,4,2,1,60,0,0
37498,-111.111111111111,4,2,1,62,0,0
38069,-111.111111111111,4,2,1,64,0,0
38212,-100,4,1,1,65,0,0
47355,-153.846153846153,4,2,1,50,0,0
48212,-76.9230769230769,4,2,1,50,0,0
48498,-153.846153846153,4,2,1,50,0,0
49355,-76.9230769230769,4,2,1,50,0,0
49640,-153.846153846153,4,2,1,50,0,0
50498,-76.9230769230769,4,2,1,50,0,0
50783,-153.846153846153,4,2,1,50,0,0
51640,-76.9230769230769,4,2,1,50,0,0
51926,-120.481927710843,4,2,1,55,0,0
53283,-120.481927710843,4,2,99,5,0,0
53355,-120.481927710843,4,2,1,55,0,0
54212,-100,4,2,1,60,0,0
55283,-100,4,2,99,5,0,0
55355,-100,4,2,1,60,0,0
55426,-100,4,2,1,61,0,0
55498,-100,4,2,1,62,0,0
55569,-100,4,2,1,63,0,0
55640,-100,4,2,1,65,0,0
55712,-100,4,2,1,67,0,0
55783,-100,4,2,1,70,0,0
55855,-100,4,2,1,73,0,0
55926,-133.333333333333,4,2,1,67,0,0
55998,-133.333333333333,4,2,98,20,0,0
56426,-133.333333333333,4,2,99,5,0,0
56498,-90.9090909090908,4,1,33,75,0,1
56783,-90.9090909090908,4,1,1,75,0,1
57855,-90.9090909090908,4,2,99,5,0,1
57926,-90.9090909090908,4,1,1,75,0,1
62426,-90.9090909090908,4,2,99,5,0,1
62498,-90.9090909090908,4,1,1,75,0,1
63355,-90.9090909090908,4,1,1,78,0,1
64355,-133.333333333333,4,1,1,78,0,1
64498,-133.333333333333,4,2,1,65,0,0
64712,-133.333333333333,4,2,99,5,0,0
64783,-133.333333333333,4,2,1,30,0,0
64926,-133.333333333333,4,2,1,50,0,0
65069,-100,4,2,1,63,0,0
65140,-100,4,2,1,64,0,0
65212,-100,4,2,1,65,0,0
65283,-100,4,2,1,66,0,0
65354,-100,4,2,2,68,0,0
65426,-100,4,2,2,70,0,0
65497,-100,4,2,2,72,0,0
65569,-100,4,2,2,74,0,0
65640,-90.9090909090908,4,1,1,77,0,1
72498,-90.9090909090908,4,1,1,80,0,1
73783,-90.9090909090908,4,1,1,78,0,1
73926,-90.9090909090908,4,2,2,78,0,1
74069,-90.9090909090908,4,2,2,75,0,1
74355,-90.9090909090908,4,2,2,72,0,1
74498,-90.9090909090908,4,2,2,70,0,1
74640,-90.9090909090908,4,2,2,68,0,1
74783,-99.9999999999999,4,2,1,66,0,0
74926,-99.9999999999999,4,2,1,60,0,0
83926,-133.333333333333,4,2,44,50,0,0
91640,-111.111111111111,4,2,44,53,0,0
91855,-111.111111111111,4,2,99,5,0,0
91926,-111.111111111111,4,2,1,56,0,0
92212,-111.111111111111,4,2,2,59,0,0
92283,-111.111111111111,4,2,2,61,0,0
92355,-111.111111111111,4,2,2,63,0,0
92426,-111.111111111111,4,2,2,65,0,0
92498,-111.111111111111,4,2,2,67,0,0
92569,-111.111111111111,4,2,2,69,0,0
92640,-133.333333333333,4,2,1,71,0,0
92712,-133.333333333333,4,2,98,20,0,0
92998,-111.111111111111,4,2,99,5,0,0
93069,-100,4,1,1,65,0,0
102212,-111.111111111111,4,2,1,70,0,0
102283,-111.111111111111,4,2,1,55,0,0
104212,-111.111111111111,4,2,44,55,0,0
110355,-111.111111111111,4,2,1,45,0,0
110498,-111.111111111111,4,2,44,50,0,0
110640,-111.111111111111,4,2,1,40,0,0
110926,-111.111111111111,4,2,1,35,0,0
111069,-111.111111111111,4,2,44,55,0,0
111212,-111.111111111111,4,2,44,62,0,0
111355,-99.9999999999999,4,2,55,70,0,0
113069,-200,4,2,55,70,0,0
113640,-99.9999999999999,4,2,55,70,0,0
115355,-200,4,2,55,70,0,0
115926,-99.9999999999999,4,2,55,70,0,0
117640,-200,4,2,55,70,0,0
118212,-99.9999999999999,4,2,55,70,0,0
119926,-133.333333333333,4,2,1,60,0,0
119998,-133.333333333333,4,2,1,10,0,0
120355,-133.333333333333,4,2,99,10,0,0
120498,-153.846153846153,4,2,1,50,0,0
121355,-76.9230769230769,4,2,1,50,0,0
121640,-153.846153846153,4,2,1,50,0,0
122498,-76.9230769230769,4,2,1,50,0,0
122783,-153.846153846153,4,2,1,50,0,0
123640,-76.9230769230769,4,2,1,50,0,0
123926,-153.846153846153,4,2,1,50,0,0
124783,-76.9230769230769,4,2,1,50,0,0
125069,-111.111111111111,4,2,1,57,0,0
126426,-111.111111111111,4,2,99,5,0,0
126498,-111.111111111111,4,2,1,57,0,0
127355,-105.263157894737,4,2,1,60,0,0
128426,-105.263157894737,4,2,99,5,0,0
128498,-100,4,2,1,64,0,0
128569,-100,4,2,1,65,0,0
128641,-100,4,2,1,66,0,0
128712,-100,4,2,1,67,0,0
128783,-100,4,2,1,70,0,0
128855,-100,4,2,1,72,0,0
128926,-100,4,2,1,74,0,0
128998,-100,4,2,1,76,0,0
129069,-100,4,2,1,78,0,0
130498,-50,4,1,33,75,0,0
130712,-133.333333333333,4,2,99,5,0,0
130783,-90.9090909090908,4,1,33,77,0,1
131069,-90.9090909090908,4,1,1,77,0,1
132140,-90.9090909090908,4,2,99,5,0,1
132212,-90.9090909090908,4,1,1,77,0,1
136712,-90.9090909090908,4,2,99,5,0,1
136783,-90.9090909090908,4,1,1,77,0,1
137640,-90.9090909090908,4,1,1,78,0,1
138498,-90.9090909090908,4,1,1,80,0,1
138640,-200,4,2,1,60,0,0
139069,-133.333333333333,4,2,1,50,0,0
139355,-142.857142857143,4,2,1,53,0,0
139569,-133.333333333333,4,2,99,5,0,0
139640,-125,4,2,1,56,0,0
139855,-133.333333333333,4,2,99,5,0,0
139926,-86.9565217391304,4,1,1,82,0,1
145855,-86.9565217391304,4,2,99,5,0,1
145926,-86.9565217391304,4,1,1,82,0,1
146498,-86.9565217391304,4,1,1,83,0,1
147069,-86.9565217391304,4,1,1,84,0,1
147640,-86.9565217391304,4,1,1,85,0,1
147926,-86.9565217391304,4,1,1,75,0,1
148212,-86.9565217391304,4,1,1,78,0,1
148498,-86.9565217391304,4,2,2,80,0,1
148783,-86.9565217391304,4,2,2,83,0,1
149069,-200,4,1,33,50,0,0
149283,-166.666666666667,4,2,99,5,0,0
149355,-90.9090909090908,4,1,1,78,0,1
157926,-90.9090909090908,4,1,1,70,0,0
158212,-86.9565217391304,4,1,1,80,0,1
162498,-86.9565217391304,4,1,1,72,0,0
162783,-86.9565217391304,4,1,1,82,0,1
165069,-86.9565217391304,4,1,1,84,0,1
166212,-86.9565217391304,4,1,2,82,0,1
166783,-90.9090909090909,4,1,1,80,0,1
166926,-90.9090909090909,4,1,1,78,0,1
167069,-90.9090909090909,4,1,1,76,0,1
167212,-90.9090909090909,4,1,1,74,0,1
167355,-133.333333333333,4,1,1,55,0,0
167640,-133.333333333333,4,2,1,50,0,0
169640,-133.333333333333,4,2,1,48,0,0
171926,-133.333333333333,4,2,1,46,0,0
174212,-133.333333333333,4,2,1,44,0,0
176498,-133.333333333333,4,2,1,42,0,0

[Colours]
Combo1 : 20,231,152
Combo2 : 26,221,242
Combo3 : 255,51,122
Combo4 : 130,138,198

[HitObjects]
28,222,498,5,0,1:2:0:0:
20,203,783,5,0,1:2:0:0:
36,78,926,1,0,0:2:0:0:
137,155,1069,2,0,P|145:196|141:249,1,79.1999975830079,0|0,1:2|0:2,0:0:0:0:
54,87,1355,5,0,1:2:0:0:
20,203,1498,2,0,P|12:244|16:297,1,79.1999975830079,2|0,0:2|1:2,0:0:0:0:
199,212,1783,2,0,P|161:223|127:244,1,79.1999975830079,0|0,0:2|1:2,0:0:0:0:
280,371,2069,2,0,P|250:344|216:325,1,79.1999975830079,2|0,0:2|1:2,0:0:0:0:
13,281,2355,5,0,0:2:0:0:
127,244,2498,1,0,1:2:0:0:
216,325,2640,2,0,L|300:328,1,79.1999975830079,2|0,0:2|1:2,0:0:0:0:
446,31,3069,5,0,1:2:0:0:
422,156,3212,1,0,0:2:0:0:
326,72,3355,2,0,L|242:69,1,79.1999975830079,0|0,1:2|0:2,0:0:0:0:
432,139,3640,5,0,1:2:0:0:
336,223,3783,2,0,L|252:226,1,79.1999975830079,2|0,0:2|1:2,0:0:0:0:
256,87,4069,2,0,L|339:90,1,79.1999975830079,0|0,0:2|1:2,0:0:0:0:
346,241,4355,2,0,L|262:244,1,79.1999975830079,2|0,0:2|1:2,0:0:0:0:
144,104,4640,5,0,0:2:0:0:
166,221,4783,1,0,1:2:0:0:
278,261,4926,2,0,P|317:263|355:253,1,79.1999975830079,2|0,0:2|1:2,0:0:0:0:
51,307,5355,5,0,1:2:0:0:
156,238,5498,1,0,0:2:0:0:
44,182,5640,2,0,B|37:141|37:141|40:103,1,79.1999975830079,0|0,1:2|0:2,0:0:0:0:
147,255,5926,5,0,1:2:0:0:
156,120,6069,2,0,B|159:82|159:82|152:41,1,79.1999975830079,2|0,0:2|1:2,0:0:0:0:
249,156,6355,2,0,B|283:140|283:140|315:114,1,79.1999975830079,0|0,0:2|1:2,0:0:0:0:
264,254,6640,2,0,B|294:276|294:276|333:290,1,79.1999975830079,2|0,0:2|1:2,0:0:0:0:
512,241,6926,5,0,0:2:0:0:
447,141,7069,1,0,1:2:0:0:
334,107,7212,2,0,L|255:98,1,79.1999975830079,2|0,0:2|1:2,0:0:0:0:
254,97,8498,6,0,P|235:97|207:89,1,39.5999987915039,4|0,3:0|3:0,0:0:0:0:
128,47,8640,2,0,P|114:32|104:15,1,39.5999987915039,4|0,3:0|3:0,0:0:0:0:
132,145,8783,1,8,3:0:0:0:
214,73,8926,5,4,3:0:0:0:
204,227,9069,1,8,3:2:0:0:
343,159,9212,1,0,3:0:0:0:
347,155,9283,1,0,3:0:0:0:
350,151,9355,2,0,P|354:131|356:111,1,39.5999987915039,8|0,3:2|3:0,0:0:0:0:
298,269,9498,2,0,P|294:249|292:229,1,39.5999987915039,8|0,3:2|3:2,0:0:0:0:
444,322,9640,6,0,P|383:262|298:268,1,176,6|0,1:2|0:0,0:0:0:0:
216,321,10069,1,0,1:2:0:0:
94,234,10212,1,8,0:0:0:0:
105,215,10498,2,0,L|108:121,1,88,2|0,0:1|0:0,0:0:0:0:
243,30,10783,6,0,P|286:23|330:25,1,88,2|0,1:2|0:0,0:0:0:0:
239,52,10998,2,0,P|282:51|326:58,1,88,0|0,1:0|0:0,0:0:0:0:
235,74,11212,1,0,1:0:0:0:
107,127,11355,1,8,0:0:0:0:
96,146,11640,2,0,L|93:240,1,88,2|0,0:1|0:0,0:0:0:0:
238,348,11926,6,0,B|302:340|302:340|350:356|350:356|410:351,1,176,2|0,1:2|0:0,0:0:0:0:
506,332,12355,1,0,1:0:0:0:
363,266,12498,1,8,0:0:0:0:
348,250,12783,2,0,L|345:162,1,88,2|0,0:1|0:0,0:0:0:0:
434,42,13069,6,0,P|391:50|348:40,1,88,2|0,1:2|0:0,0:0:0:0:
451,54,13283,2,0,P|480:87|492:129,1,88,0|0,1:0|0:0,0:0:0:0:
471,44,13498,1,0,1:0:0:0:
364,150,13640,1,8,0:0:0:0:
345,162,13926,2,0,L|348:250,1,88,2|0,0:1|0:0,0:0:0:0:
214,363,14212,6,0,B|233:323|233:323|229:176,1,176,2|0,1:2|0:0,0:0:0:0:
223,94,14640,1,0,1:0:0:0:
85,43,14783,1,8,0:0:0:0:
78,64,15069,2,0,L|75:152,1,88,2|0,0:1|0:0,0:0:0:0:
29,300,15355,5,2,1:2:0:0:
142,371,15498,1,0,0:0:0:0:
142,371,15569,2,0,P|160:326|168:278,1,88,0|0,1:0|0:0,0:0:0:0:
50,294,15783,1,0,1:0:0:0:
75,151,15926,1,8,0:0:0:0:
82,130,16212,2,0,L|85:42,1,88,2|0,0:1|0:0,0:0:0:0:
244,93,16498,6,0,B|278:87|295:61|295:61|345:92|404:73,1,176,2|0,1:2|0:0,0:0:0:0:
479,11,16926,1,0,1:0:0:0:
512,157,17069,1,8,0:0:0:0:
501,176,17355,2,0,L|498:264,1,88,2|0,0:1|0:0,0:0:0:0:
362,354,17640,5,2,1:2:0:0:
323,230,17783,1,0,0:0:0:0:
323,230,17855,2,0,P|280:212|219:215,1,88,0|0,1:0|0:0,0:0:0:0:
155,268,18069,1,0,1:2:0:0:
35,183,18212,2,0,P|17:142|15:99,1,88,8|0,0:0|0:0,0:0:0:0:
54,14,18426,1,4,0:3:0:0:
54,14,18498,1,8,0:3:0:0:
132,118,18640,1,8,0:3:0:0:
276,26,18783,6,0,B|366:13|347:73|446:52,1,176,6|0,1:2|0:0,0:0:0:0:
509,126,19212,1,0,1:2:0:0:
410,232,19355,1,8,0:0:0:0:
396,249,19640,2,0,L|308:246,1,88,2|0,0:1|0:0,0:0:0:0:
149,352,19926,6,0,P|106:349|65:333,1,88,2|0,1:2|0:0,0:0:0:0:
159,331,20140,2,0,P|123:306|96:271,1,88,0|0,1:0|0:0,0:0:0:0:
169,310,20355,1,0,1:0:0:0:
308,246,20498,1,8,0:0:0:0:
322,229,20783,2,0,L|410:232,1,88,2|0,0:1|0:0,0:0:0:0:
505,71,21069,6,0,P|439:127|353:95,1,176,2|0,1:2|0:0,0:0:0:0:
307,20,21498,1,0,1:0:0:0:
225,146,21640,1,8,0:0:0:0:
210,162,21926,2,0,L|122:159,1,88,2|0,0:1|0:0,0:0:0:0:
40,15,22212,6,0,P|48:58|36:100,1,88,2|0,1:2|0:0,0:0:0:0:
12,195,22426,2,0,P|5:152|17:110,1,88,0|0,1:0|0:0,0:0:0:0:
63,20,22640,1,0,1:0:0:0:
122,159,22783,1,8,0:0:0:0:
137,143,23069,2,0,L|225:146,1,88,2|0,0:1|0:0,0:0:0:0:
355,32,23355,6,0,B|346:95|346:95|355:145|355:145|346:205,1,176,2|0,1:2|0:0,0:0:0:0:
325,300,23783,1,0,1:0:0:0:
173,338,23926,1,8,0:0:0:0:
156,324,24212,2,0,L|68:321,1,88,2|0,0:1|0:0,0:0:0:0:
22,167,24498,5,2,1:2:0:0:
147,222,24640,1,0,0:0:0:0:
147,222,24712,2,0,P|152:176|137:117,1,88,0|0,1:0|0:0,0:0:0:0:
27,188,24926,1,0,1:0:0:0:
68,321,25069,1,8,0:0:0:0:
85,335,25355,2,0,L|173:338,1,88,2|0,0:1|0:0,0:0:0:0:
333,301,25640,6,0,P|260:258|262:174,1,176,2|0,1:2|0:0,0:0:0:0:
318,95,26069,1,0,1:0:0:0:
188,28,26212,1,8,0:0:0:0:
170,40,26498,2,0,L|82:37,1,88,2|0,0:1|0:0,0:0:0:0:
5,145,26783,5,2,1:2:0:0:
147,222,26926,1,0,0:0:0:0:
147,222,26998,2,0,P|168:264|168:318,1,88,0|0,1:0|0:0,0:0:0:0:
254,364,27212,1,0,1:0:0:0:
379,285,27355,2,0,P|399:246|402:202,1,88,8|0,0:0|0:0,0:0:0:0:
375,103,27569,1,4,0:3:0:0:
375,103,27640,1,8,0:2:0:0:
300,218,27783,1,8,0:2:0:0:
234,90,27926,6,0,B|196:46|105:88|82:42|82:42|127:30|148:76|142:129,1,293.333333333333,8|2,0:3|0:0,0:0:0:0:
0,258,28498,5,2,0:0:0:0:
183,317,28688,1,2,0:0:0:0:
143,129,28878,1,2,0:0:0:0:
199,332,29069,6,0,P|239:341|300:325,1,79.1999975830079,0|0,1:0|0:0,0:0:0:0:
356,249,29355,1,0,0:0:0:0:
242,222,29498,1,0,1:0:0:0:
375,254,29640,1,8,0:2:0:0:
394,259,29926,5,0,0:0:0:0:
368,141,30069,2,0,P|358:102|356:63,1,79.1999975830079,0|0,0:0|0:0,0:0:0:0:
253,144,30355,2,0,P|243:182|241:221,1,79.1999975830079,0|0,1:0|1:0,0:0:0:0:
148,101,30640,2,0,P|130:65|119:27,2,79.1999975830079,0|8|0,0:0|0:0|1:0,0:0:0:0:
241,221,31069,1,0,0:0:0:0:
159,118,31212,1,0,0:0:0:0:
15,199,31355,6,0,B|6:240|6:240|12:290,1,79.1999975830079,0|0,1:0|0:0,0:0:0:0:
135,249,31640,1,0,0:0:0:0:
96,371,31783,1,0,1:0:0:0:
144,231,31926,1,8,0:0:0:0:
153,213,32212,5,0,0:0:0:0:
241,313,32355,2,0,P|279:321|317:313,1,79.1999975830079,0|0,0:0|0:0,0:0:0:0:
242,164,32640,2,0,P|253:201|279:230,1,79.1999975830079,0|0,1:0|1:0,0:0:0:0:
370,88,32926,2,0,P|342:117|329:154,1,79.1999975830079,0|8,0:0|0:0,0:0:0:0:
443,224,33212,2,0,B|408:206|364:220|364:220|360:186|329:153,1,158.399995166016,0|0,1:0|0:0,0:0:0:0:
402,313,33640,6,0,B|390:357|390:357|352:326,1,79.1999975830079,0|0,1:0|0:0,0:0:0:0:
279,230,33926,1,0,0:0:0:0:
231,356,34069,1,0,1:0:0:0:
263,218,34212,1,8,0:2:0:0:
247,206,34498,5,0,0:0:0:0:
126,265,34640,2,0,P|86:268|47:258,1,79.1999975830079,0|0,0:0|0:0,0:0:0:0:
60,108,34926,2,0,P|83:141|94:179,1,79.1999975830079,0|0,1:0|1:0,0:0:0:0:
215,71,35212,2,0,P|192:103|181:141,2,79.1999975830079,0|8|0,0:0|0:0|1:0,0:0:0:0:
344,34,35640,1,0,0:0:0:0:
233,62,35783,1,0,0:0:0:0:
404,147,35926,6,0,B|410:187|410:187|405:226,1,79.1999975830079,0|0,1:0|0:0,0:0:0:0:
300,335,36212,1,0,0:0:0:0:
257,190,36355,1,0,1:0:0:0:
285,348,36498,1,8,0:0:0:0:
270,361,36783,6,0,L|184:358,1,79.1999975830079,2|0,0:0|0:0,0:0:0:0:
272,177,37069,5,0,1:0:0:0:
300,335,37212,1,8,0:0:0:0:
285,348,37283,1,8,0:0:0:0:
270,361,37355,1,8,1:2:0:0:
167,221,37498,6,0,P|158:183|167:136,1,79.1999975830079,0|0,1:2|1:0,0:0:0:0:
233,18,37783,1,8,1:2:0:0:
272,177,37926,1,8,1:2:0:0:
385,51,38069,5,8,0:0:0:0:
403,43,38140,1,8,0:0:0:0:
421,35,38212,1,4,1:2:0:0:
508,134,38355,5,0,0:0:0:0:
440,247,38498,2,0,P|427:289|426:332,1,88,10|0,0:2|0:0,0:0:0:0:
278,198,38783,5,0,0:0:0:0:
290,333,38926,1,0,0:0:0:0:
436,225,39069,1,8,0:0:0:0:
407,343,39212,1,0,0:0:0:0:
284,219,39355,6,0,B|279:196|279:196|291:166|277:132,1,88,2|0,0:2|0:0,0:0:0:0:
148,31,39640,1,10,0:0:0:0:
87,150,39783,2,0,P|128:162|172:164,1,88,2|0,0:2|0:0,0:0:0:0:
342,135,40069,2,0,P|301:123|257:123,1,88,2|8,0:2|0:0,0:0:0:0:
92,172,40355,2,0,P|134:185|178:186,1,88,2|0,0:0|0:0,0:0:0:0:
357,119,40640,5,0,0:2:0:0:
408,305,40783,1,8,0:0:0:0:
436,197,40926,1,0,0:0:0:0:
301,335,41069,5,0,0:2:0:0:
408,305,41212,1,0,0:0:0:0:
436,197,41355,1,8,0:0:0:0:
357,119,41498,1,0,0:0:0:0:
408,305,41640,6,0,B|443:245|436:197|436:197|407:227|371:226,1,176,2|10,0:2|0:0,0:0:0:0:
271,111,42069,2,0,P|314:107|356:118,1,88,2|0,0:2|0:0,0:0:0:0:
310,315,42355,2,0,P|266:319|224:307,1,88,2|8,0:2|0:0,0:0:0:0:
261,131,42640,2,0,P|304:125|347:138,1,88,2|0,0:0|0:0,0:0:0:0:
215,287,42926,5,0,0:0:0:0:
155,145,43069,1,8,0:0:0:0:
114,246,43212,1,0,0:0:0:0:
258,153,43355,6,0,B|263:123|249:94|249:94|288:117,1,88,0|0,0:0|0:0,0:0:0:0:
224,307,43640,1,8,0:0:0:0:
135,241,43783,1,0,0:0:0:0:
269,172,43926,5,0,0:0:0:0:
156,236,44069,1,0,0:0:0:0:
191,62,44212,5,10,0:0:0:0:
354,13,44355,2,0,B|454:25,1,88,2|0,0:2|0:0,0:0:0:0:
317,102,44640,2,0,B|417:114,1,88,2|8,0:2|0:0,0:0:0:0:
280,191,44926,2,0,B|380:203,1,88,2|0,0:0|0:0,0:0:0:0:
469,287,45212,5,0,0:0:0:0:
404,112,45355,1,8,0:0:0:0:
367,201,45498,1,0,0:0:0:0:
242,274,45640,5,0,0:0:0:0:
205,363,45783,1,0,0:0:0:0:
338,311,45926,1,8,0:0:0:0:
375,222,46069,1,0,0:0:0:0:
316,96,46212,6,0,P|267:77|220:83,1,88,2|0,0:2|0:2,0:0:0:0:
375,222,46498,1,10,0:2:0:0:
332,80,46640,2,0,P|292:63|249:64,1,88,2|0,0:1|0:0,0:0:0:0:
383,230,46926,5,10,0:2:0:0:
383,230,46998,1,10,0:2:0:0:
383,230,47069,1,10,0:0:0:0:
354,69,47212,1,10,0:2:0:0:
479,204,47355,6,0,P|437:240|383:230,1,114.399994763184,4|0,1:2|0:0,0:0:0:0:
487,216,47783,2,0,P|446:252|392:243,1,114.399994763184,0|0,1:0|0:0,0:0:0:0:
495,228,48212,2,0,P|454:264|400:255,1,114.399994763184,2|0,1:2|0:2,0:0:0:0:
288,221,48498,6,0,P|233:210|191:246,1,114.399994763184,0|0,1:2|0:0,0:0:0:0:
280,209,48926,2,0,P|225:198|183:235,1,114.399994763184,0|0,1:0|0:0,0:0:0:0:
272,197,49355,2,0,P|217:186|175:223,1,114.399994763184,2|0,1:2|0:2,0:0:0:0:
82,325,49640,6,0,B|72:336|72:336|42:294|67:241,1,114.399994763184,0|0,1:0|0:0,0:0:0:0:
72,335,50069,2,0,B|62:346|62:346|32:304|57:251,1,114.399994763184,0|0,1:0|0:0,0:0:0:0:
62,345,50498,2,0,B|51:355|51:355|21:313|46:260,1,114.399994763184,2|0,1:2|0:2,0:0:0:0:
130,141,50783,6,0,B|156:89|126:47|126:47|115:57,1,114.399994763184,0|0,1:0|0:0,0:0:0:0:
140,131,51212,2,0,B|166:79|136:37|136:37|125:47,1,114.399994763184,0|0,1:0|0:0,0:0:0:0:
151,122,51640,2,0,B|176:69|146:27|146:27|136:38,1,114.399994763184,2|0,1:2|0:0,0:0:0:0:
260,88,51926,6,0,B|315:84|315:84|347:73|347:73|404:69,1,146.080002117554,0|0,1:0|0:0,0:0:0:0:
332,167,52355,2,0,L|235:174,1,73.0400010587769,0|0,1:0|0:0,0:0:0:0:
192,228,52640,1,0,0:0:0:0:
346,253,52783,2,0,L|273:258,1,73.0400010587769,2|0,1:2|0:0,0:0:0:0:
412,320,53069,6,0,B|434:289|434:289|437:196,1,109.560001588165,0|0,1:0|0:0,0:0:0:0:
438,188,53355,1,0,0:0:0:0:
325,79,53498,1,0,1:0:0:0:
182,143,53640,2,0,L|109:148,1,73.0400010587769,0|0,0:0|0:0,0:0:0:0:
273,258,53926,2,0,L|345:252,1,73.0400010587769,2|2,1:2|0:2,0:0:0:0:
228,53,54212,6,0,L|129:45,1,88,0|0,1:0|0:0,0:0:0:0:
11,186,54498,1,2,1:2:0:0:
11,186,54640,1,2,0:0:0:0:
182,143,54783,2,0,L|90:149,1,88,0|0,1:0|0:0,0:0:0:0:
33,310,55069,6,0,B|66:273|66:273|105:252|177:274,1,132,2|0,1:2|0:0,0:0:0:0:
226,317,55355,5,8,2:2:0:0:
247,318,55426,1,8,2:2:0:0:
269,320,55498,1,8,2:2:0:0:
290,323,55569,1,8,2:2:0:0:
312,325,55640,1,8,2:2:0:0:
334,328,55712,1,8,2:2:0:0:
356,329,55783,1,8,2:2:0:0:
378,331,55855,1,8,2:2:0:0:
400,334,55926,6,0,B|415:348|420:375|420:375|433:332|429:265|406:288|400:232|424:195,1,231.000008811951,0|0,1:0|0:0,0:0:0:0:
494,117,56498,6,0,B|439:90|439:90|386:99|386:99|277:93,1,193.600005908203,6|8,0:2|0:0,0:0:0:0:
213,311,56926,2,0,B|268:338|268:338|321:329|321:329|430:335,1,193.600005908203,2|0,0:2|0:0,0:0:0:0:
288,189,57355,1,8,0:2:0:0:
117,251,57498,1,2,0:2:0:0:
69,62,57640,6,0,B|94:35|94:35|102:143,1,145.200004431152,2|0,0:2|0:0,0:0:0:0:
106,167,57926,1,8,0:0:0:0:
37,329,58069,2,0,B|120:280|120:280|212:310,1,193.600005908203,2|0,0:2|0:0,0:0:0:0:
366,371,58498,1,8,0:0:0:0:
471,232,58640,6,0,B|478:126,1,96.8000029541017,2|0,0:2|0:0,0:0:0:0:
377,269,58926,1,2,0:2:0:0:
477,135,59069,6,0,B|484:29,1,96.8000029541017,10|0,0:0|0:0,0:0:0:0:
312,179,59355,2,0,B|305:73,1,96.8000029541017,2|0,0:0|0:0,0:0:0:0:
163,8,59640,1,8,0:0:0:0:
126,198,59783,6,0,B|223:227|214:148|312:178,1,193.600005908203,2|0,0:2|0:0,0:0:0:0:
434,289,60212,1,8,0:0:0:0:
398,140,60355,1,2,0:2:0:0:
273,261,60498,6,0,L|268:360,1,96.8000029541017,2|0,0:0|0:0,0:0:0:0:
126,198,60783,2,0,L|130:101,1,96.8000029541017,10|0,0:0|0:0,0:0:0:0:
121,302,61069,6,0,B|144:267|144:267|150:116,1,193.600005908203,2|8,0:2|0:0,0:0:0:0:
273,261,61498,2,0,B|257:224|257:224|263:68,1,193.600005908203,2|0,0:2|0:0,0:0:0:0:
147,201,61926,1,8,0:0:0:0:
73,37,62069,1,2,0:2:0:0:
3,207,62212,6,0,B|-5:251|-5:251|5:303|5:303|-2:368,1,145.200004431152,2|0,0:2|0:0,0:0:0:0:
0,374,62498,1,8,0:0:0:0:
140,343,62640,2,0,P|193:332|246:336,1,96.8000029541017,2|0,0:2|0:0,0:0:0:0:
428,358,62926,5,2,0:2:0:0:
401,180,63069,1,8,0:0:0:0:
253,352,63212,6,0,P|205:362|157:360,1,96.8000029541017,2|8,0:1|0:0,0:0:0:0:
82,207,63498,1,2,0:3:0:0:
299,266,63640,5,10,0:0:0:0:
95,187,63783,1,2,0:3:0:0:
284,132,63926,2,0,B|296:103|296:103|296:38,1,96.8000029541017,10|2,0:0|0:3,0:0:0:0:
415,242,64212,5,10,0:0:0:0:
309,17,64355,1,2,0:2:0:0:
149,60,64498,6,0,B|81:79|81:79|1:60|1:60|32:104,1,198.000007553101,2|0,2:3|0:0,0:0:0:0:
64,251,65069,5,8,0:0:0:0:
65,272,65140,1,8,0:0:0:0:
66,294,65212,1,8,0:0:0:0:
67,316,65283,1,8,0:0:0:0:
68,338,65355,5,8,0:0:0:0:
94,357,65426,1,8,0:0:0:0:
126,362,65498,1,8,0:0:0:0:
157,352,65569,1,8,0:0:0:0:
181,327,65640,6,0,B|215:294|268:303|268:303|312:333|366:316,1,193.600005908203,6|8,0:2|0:0,0:0:0:0:
361,98,66069,2,0,B|352:81|336:69|336:69|314:101|325:152|338:144|344:180|328:218,1,193.600005908203,2|0,0:2|0:0,0:0:0:0:
181,327,66498,1,10,0:2:0:0:
97,223,66640,2,0,L|86:114,1,96.8000029541017,0|0,0:2|0:0,0:0:0:0:
268,73,66926,6,0,P|305:88|386:98,1,96.8000029541017,2|8,0:0|0:0,0:0:0:0:
189,198,67212,2,0,P|143:215|96:222,1,96.8000029541017,2|0,0:0|0:0,0:0:0:0:
273,100,67498,1,2,0:0:0:0:
196,221,67640,2,0,P|159:236|78:246,1,96.8000029541017,8|0,0:2|0:0,0:0:0:0:
314,336,67926,6,0,B|451:357|451:357|516:328,1,193.600005908203,2|8,0:2|0:0,0:0:0:0:
481,113,68355,2,0,B|452:76|452:76|439:234,1,193.600005908203,2|0,0:2|0:0,0:0:0:0:
314,336,68783,1,10,0:2:0:0:
276,246,68926,1,0,0:0:0:0:
238,156,69069,1,0,0:0:0:0:
126,333,69212,6,0,P|70:344|9:329,1,96.8000029541017,2|8,0:0|0:0,0:0:0:0:
21,151,69498,2,0,P|58:193|76:254,1,96.8000029541017,2|0,0:0|0:0,0:0:0:0:
204,67,69783,1,2,0:0:0:0:
65,66,69926,2,0,P|36:104|21:150,1,96.8000029541017,8|0,0:0|0:0,0:0:0:0:
126,332,70212,6,0,B|157:274|157:274|171:198|127:154,1,193.600005908203,2|8,0:2|0:0,0:0:0:0:
269,344,70640,2,0,P|363:353|440:298,1,193.600005908203,2|0,0:2|0:0,0:0:0:0:
494,114,71069,1,10,0:2:0:0:
339,127,71212,2,0,P|331:175|329:223,1,96.8000029541017,0|0,0:0|0:0,0:0:0:0:
179,98,71498,6,0,L|160:-22,1,96.8000029541017,2|8,0:0|0:0,0:0:0:0:
20,150,71783,2,0,L|4:245,1,96.8000029541017,2|0,0:0|0:0,0:0:0:0:
159,112,72069,1,2,0:0:0:0:
35,169,72212,2,0,L|19:264,1,96.8000029541017,8|0,0:0|0:0,0:0:0:0:
234,303,72498,5,10,0:2:0:0:
139,126,72640,1,2,0:3:0:0:
210,305,72783,5,8,0:2:0:0:
159,112,72926,1,2,0:3:0:0:
186,307,73069,5,10,0:2:0:0:
179,98,73212,1,2,0:3:0:0:
162,309,73355,5,8,0:2:0:0:
199,84,73498,1,2,0:3:0:0:
315,222,73640,1,8,0:0:0:0:
445,106,73783,6,0,B|477:71|477:71|430:54,1,96.8000029541017,2|8,0:1|1:2,0:0:0:0:
315,222,74069,1,8,0:0:0:0:
311,226,74140,1,8,0:0:0:0:
307,230,74212,1,8,1:2:0:0:
199,84,74355,1,8,0:0:0:0:
116,224,74498,1,8,1:2:0:0:
179,98,74640,1,8,0:0:0:0:
234,303,74783,5,4,0:0:0:0:
172,330,83926,6,0,L|83:322,1,66.0000025177003,4|0,1:2|0:0,0:0:0:0:
29,260,84212,1,8,0:0:0:0:
19,160,84355,1,0,1:0:0:0:
82,82,84498,1,0,0:0:0:0:
107,74,84783,1,8,0:0:0:0:
198,152,84926,6,0,L|263:157,1,66.0000025177003,0|0,0:0|1:0,0:0:0:0:
205,178,85212,2,0,L|270:183,1,66.0000025177003,0|8,0:0|0:0,0:0:0:0:
255,301,85498,2,0,P|239:239|271:182,1,132.000005035401,0|0,1:0|0:0,0:0:0:0:
343,116,85926,1,8,0:0:0:0:
442,122,86069,1,0,0:0:0:0:
407,248,86212,6,0,P|374:254|342:250,1,66.0000025177003,0|0,1:0|0:0,0:0:0:0:
270,182,86498,1,8,0:0:0:0:
343,116,86640,1,0,1:0:0:0:
271,48,86783,1,0,0:0:0:0:
257,25,87069,1,8,0:0:0:0:
156,98,87212,6,0,L|149:163,1,66.0000025177003,0|0,0:0|1:0,0:0:0:0:
143,75,87498,2,0,L|136:140,1,66.0000025177003,0|8,0:0|0:0,0:0:0:0:
130,52,87783,2,0,L|123:117,1,66.0000025177003,0|0,1:0|0:0,0:0:0:0:
65,199,88069,1,0,0:0:0:0:
8,281,88212,1,8,0:0:0:0:
118,345,88498,6,0,P|149:336|182:334,1,66.0000025177003,0|0,1:0|0:0,0:0:0:0:
279,355,88783,1,8,0:0:0:0:
376,334,88926,1,0,1:0:0:0:
473,355,89069,1,0,0:0:0:0:
491,336,89355,1,8,0:0:0:0:
439,219,89498,6,0,P|429:187|428:154,1,66.0000025177003,0|0,0:0|1:0,0:0:0:0:
416,233,89783,2,0,P|406:201|404:168,1,66.0000025177003,0|8,0:0|0:0,0:0:0:0:
434,60,90069,2,0,P|446:125|401:169,1,132.000005035401,0|0,1:0|0:0,0:0:0:0:
303,164,90498,1,8,0:0:0:0:
204,160,90640,1,0,0:0:0:0:
258,47,90783,6,0,P|284:36|337:41,1,66.0000025177003,0|0,1:0|0:0,0:0:0:0:
434,60,91069,1,8,0:0:0:0:
403,168,91212,1,0,1:0:0:0:
372,276,91355,1,0,0:0:0:0:
360,300,91640,6,0,B|322:304|322:304|281:295|281:295|242:297,1,118.799996374512,10|0,0:0|0:0,0:0:0:0:
254,273,91926,6,0,P|262:215|260:188,1,79.1999975830079,8|0,0:0|0:0,0:0:0:0:
169,99,92212,1,8,0:0:0:0:
165,95,92283,1,8,0:0:0:0:
161,91,92355,1,8,0:0:0:0:
157,87,92426,1,8,0:0:0:0:
153,83,92498,1,8,0:0:0:0:
149,79,92569,1,8,0:0:0:0:
145,75,92640,6,0,B|110:45|66:56|80:72|18:84|7:31|47:20|75:44,1,165.000006294251,0|0,1:3|0:0,0:0:0:0:
63,62,93069,6,0,B|62:155,1,88,4|0,0:2|0:0,0:0:0:0:
39,322,93355,1,8,0:0:0:0:
68,173,93498,1,0,0:0:0:0:
177,332,93640,5,0,0:0:0:0:
79,194,93783,1,0,0:0:0:0:
166,311,93926,1,8,0:0:0:0:
90,215,94069,1,0,0:0:0:0:
256,192,94212,5,2,0:2:0:0:
332,288,94355,2,0,P|339:331|338:383,1,88,2|8,0:2|0:0,0:0:0:0:
422,214,94640,6,0,L|442:128,1,88,2|0,0:0|0:0,0:0:0:0:
256,192,94926,2,0,L|256:104,1,88,2|8,0:0|0:0,0:0:0:0:
90,215,95212,2,0,L|69:129,2,88,2|0|0,0:0|0:0|0:0,0:0:0:0:
226,319,95640,5,8,0:0:0:0:
256,192,95783,1,0,0:0:0:0:
368,76,95926,5,0,0:0:0:0:
272,177,96069,1,0,0:0:0:0:
384,61,96212,1,8,0:0:0:0:
288,162,96355,1,0,0:0:0:0:
439,179,96498,5,2,0:2:0:0:
304,147,96640,1,2,0:2:0:0:
400,46,96783,1,8,0:0:0:0:
423,194,96926,6,0,L|418:295,1,88,2|0,0:0|0:0,0:0:0:0:
320,132,97212,2,0,L|315:233,1,88,2|8,0:0|0:0,0:0:0:0:
217,70,97498,2,0,L|212:157,2,88,2|0|0,0:0|0:0|0:0,0:0:0:0:
222,268,97926,6,0,P|179:264|141:242,1,88,8|0,0:0|0:0,0:0:0:0:
93,68,98212,1,0,0:0:0:0:
131,223,98355,1,0,0:0:0:0:
83,49,98498,1,8,0:0:0:0:
121,204,98640,1,0,0:0:0:0:
212,157,98783,6,0,B|256:174|298:145|298:145|326:181|370:185,1,176,2|8,0:2|0:0,0:0:0:0:
414,7,99212,2,0,P|389:43|377:84,1,88,2|0,0:0|0:0,0:0:0:0:
408,262,99498,2,0,P|382:226|370:184,1,88,2|8,0:0|0:0,0:0:0:0:
264,327,99783,2,0,P|279:286|280:243,1,88,2|0,0:0|0:0,0:0:0:0:
237,63,100069,5,0,0:0:0:0:
272,222,100212,1,8,0:0:0:0:
143,112,100355,1,0,0:0:0:0:
135,274,100498,2,0,L|121:378,1,88,2|0,0:2|0:0,0:0:0:0:
264,201,100783,5,8,0:0:0:0:
135,91,100926,1,0,0:0:0:0:
127,253,101069,2,0,L|113:357,1,88,2|0,0:2|0:0,0:0:0:0:
127,70,101355,5,10,0:0:0:0:
119,232,101498,2,0,L|105:336,1,88,2|0,0:2|0:0,0:0:0:0:
256,180,101783,5,10,0:0:0:0:
119,49,101926,1,8,0:0:0:0:
111,211,102069,1,8,0:0:0:0:
248,53,102212,5,4,1:2:0:0:
256,192,102283,12,8,104212,1:2:0:0:
67,54,104498,6,0,L|67:150,1,79.1999975830079,0|0,1:2|0:2,0:0:0:0:
116,215,104783,1,8,1:2:0:0:
116,215,104926,2,0,L|116:311,1,79.1999975830079,0|0,0:2|1:2,0:0:0:0:
116,373,105355,2,0,L|116:293,1,79.1999975830079,8|0,1:2|0:2,0:0:0:0:
223,238,105640,5,0,1:2:0:0:
291,303,105783,1,0,0:2:0:0:
373,258,105926,1,8,1:2:0:0:
355,166,106069,2,0,L|355:70,1,79.1999975830079,0|0,0:2|1:2,0:0:0:0:
355,7,106498,2,0,L|355:103,1,79.1999975830079,8|0,1:2|0:2,0:0:0:0:
373,258,106783,6,0,P|405:268|475:260,1,79.1999975830079,0|0,1:2|0:2,0:0:0:0:
296,248,107069,1,8,1:2:0:0:
296,248,107212,2,0,P|335:246|373:257,1,79.1999975830079,0|0,0:2|1:2,0:0:0:0:
450,266,107640,2,0,P|410:267|373:257,1,79.1999975830079,8|0,1:2|0:2,0:0:0:0:
313,132,107926,5,0,1:2:0:0:
313,132,108069,2,0,P|274:121|235:122,1,79.1999975830079,0|8,0:2|1:2,0:0:0:0:
390,142,108355,2,0,P|350:142|312:131,1,79.1999975830079,0|0,0:2|1:2,0:0:0:0:
235,121,108783,2,0,P|275:121|313:132,1,79.1999975830079,8|0,1:2|0:2,0:0:0:0:
157,132,109069,6,0,P|196:132|234:121,1,79.1999975830079,0|0,1:2|0:2,0:0:0:0:
79,121,109355,1,8,1:2:0:0:
79,121,109498,2,0,P|118:120|156:131,1,79.1999975830079,0|0,0:2|1:2,0:0:0:0:
234,120,109926,2,0,P|196:131|157:132,1,79.1999975830079,8|0,1:2|0:2,0:0:0:0:
63,322,110355,5,2,0:0:0:0:
118,238,110498,1,8,0:1:0:0:
215,264,110640,2,0,B|243:270|263:269|263:269|282:258|282:258|328:247|382:266,1,158.399995166016,2|0,0:0|0:0,0:0:0:0:
470,334,111069,1,8,0:1:0:0:
483,210,111212,1,8,0:1:0:0:
487,187,111283,1,8,0:1:0:0:
491,164,111355,6,0,B|494:121|494:121|473:35|473:35|463:88,1,176,4|0,1:2|1:0,0:0:0:0:
366,138,111783,2,0,B|302:134|302:134|262:116|262:116|194:112,1,176,0|0,0:0|1:0,0:0:0:0:
136,213,112212,2,0,L|125:330,1,88,2|0,0:2|1:0,0:0:0:0:
11,222,112498,5,0,1:0:0:0:
16,363,112640,1,0,1:0:0:0:
7,243,112783,1,0,0:0:0:0:
12,384,112926,1,0,1:0:0:0:
148,292,113069,6,0,B|160:290|172:298|172:298|179:293|179:293|217:313|250:303,1,88,10|0,0:2|0:0,0:0:0:0:
409,355,113640,6,0,P|392:313|386:255,1,88,0|0,1:0|0:0,0:0:0:0:
420,160,113926,1,0,1:0:0:0:
365,279,114069,2,0,P|353:321|353:365,1,88,0|8,1:0|0:0,0:0:0:0:
275,241,114355,1,0,1:0:0:0:
402,173,114498,2,0,B|489:181,1,88,2|0,0:0|1:0,0:0:0:0:
371,55,114783,5,0,1:0:0:0:
512,62,114926,1,0,1:0:0:0:
349,49,115069,1,0,1:0:0:0:
491,56,115212,1,0,1:0:0:0:
383,185,115355,6,0,B|377:197|377:197|383:200|383:200|377:216|382:230|382:230|376:234|376:234|381:257|375:277,1,88,10|0,0:2|0:0,0:0:0:0:
198,356,115926,6,0,P|145:282|46:311,1,176,0|0,1:0|1:0,0:0:0:0:
180,262,116355,2,0,P|218:187|172:117,1,176,0|0,1:0|1:0,0:0:0:0:
256,193,116783,2,0,P|303:194|363:171,2,88,2|0|0,0:0|1:0|1:0,0:0:0:0:
151,109,117212,5,0,1:0:0:0:
289,92,117355,1,0,1:0:0:0:
427,75,117498,1,0,1:0:0:0:
481,192,117640,6,0,B|485:225|470:246|470:246|472:232|467:212,1,88,10|0,0:2|0:0,0:0:0:0:
310,86,118212,6,0,L|199:79,1,88,0|0,1:0|0:0,0:0:0:0:
106,129,118498,1,0,1:0:0:0:
214,60,118640,2,0,L|301:65,1,88,0|8,1:0|0:0,0:0:0:0:
401,142,118926,1,0,1:0:0:0:
359,261,119069,2,0,P|347:308|344:372,1,88,2|0,0:2|1:0,0:0:0:0:
231,280,119355,6,0,P|210:272|188:269,1,44,8|8,1:1|2:1,0:0:0:0:
102,307,119498,2,0,P|85:320|71:338,1,44,8|8,1:1|2:1,0:0:0:0:
28,200,119640,1,0,1:0:0:0:
127,96,119783,1,0,1:0:0:0:
267,129,119926,6,0,B|293:133|317:118|317:118|331:145|331:145|349:132|349:132|370:143|370:143|404:129|438:143,1,198.000007553101,2|0,0:2|0:0,0:0:0:0:
421,310,120498,6,0,B|413:321|413:321|405:220,1,114.399994763184,4|0,1:2|0:0,0:0:0:0:
398,232,120926,2,0,B|405:332|405:332|413:321,1,114.399994763184,0|0,1:0|0:0,0:0:0:0:
405,332,121355,2,0,B|397:343|397:343|390:243,1,114.399994763184,2|0,1:2|0:2,0:0:0:0:
330,146,121640,6,0,B|323:46|323:46|315:57,1,114.399994763184,0|0,1:2|0:0,0:0:0:0:
307,68,122069,2,0,B|315:57|315:57|322:157,1,114.399994763184,0|0,1:0|0:0,0:0:0:0:
315,169,122498,2,0,B|307:68|307:68|299:79,1,114.399994763184,2|0,1:2|0:2,0:0:0:0:
171,236,122783,6,0,B|118:261|76:231|76:231|87:221,1,114.399994763184,0|0,1:0|0:0,0:0:0:0:
96,210,123212,2,0,B|86:221|86:221|128:251|180:225,1,114.399994763184,0|0,1:0|0:0,0:0:0:0:
190,215,123640,2,0,B|138:241|96:211|96:211|106:200,1,114.399994763184,2|0,1:2|0:2,0:0:0:0:
203,113,123926,6,0,B|213:102|213:102|171:72|119:98,1,114.399994763184,0|0,1:0|0:0,0:0:0:0:
129,88,124355,2,0,B|181:62|223:92|223:92|213:103,1,114.399994763184,0|0,1:0|0:0,0:0:0:0:
222,92,124783,2,0,B|233:82|233:82|191:52|138:77,1,114.399994763184,2|0,1:2|0:0,0:0:0:0:
106,199,125069,6,0,B|103:222|92:243|92:243|108:269|108:269|87:307|102:348,1,158.399995166016,0|0,1:0|0:0,0:0:0:0:
262,333,125498,2,0,P|226:319|187:316,1,79.1999975830079,2|0,1:0|0:0,0:0:0:0:
375,126,125926,2,0,P|411:111|450:108,1,79.1999975830079,2|0,1:2|0:0,0:0:0:0:
440,241,126212,6,0,B|315:231,1,118.799996374512,2|0,1:2|0:0,0:0:0:0:
293,231,126498,1,2,0:0:0:0:
187,316,126640,1,2,1:0:0:0:
166,181,126783,2,0,L|160:85,1,79.1999975830079,2|0,0:0|0:0,0:0:0:0:
32,33,127069,1,2,1:2:0:0:
32,33,127212,1,0,0:2:0:0:
4,194,127355,6,0,B|55:206|94:178|94:178|134:167|174:184,1,167.199995535278,2|0,1:2|1:2,0:0:0:0:
293,231,127783,1,2,0:1:0:0:
365,137,127926,2,0,P|376:98|380:44,1,83.5999977676392,0|0,1:0|0:0,0:0:0:0:
471,190,128212,2,0,L|461:340,1,125.399996651459,2|0,1:0|0:0,0:0:0:0:
361,348,128498,5,8,0:0:0:0:
339,354,128569,1,8,0:0:0:0:
318,355,128640,1,8,0:0:0:0:
296,352,128712,1,8,0:0:0:0:
275,344,128783,1,8,0:0:0:0:
254,336,128855,1,8,0:0:0:0:
232,333,128926,1,8,0:0:0:0:
210,334,128998,1,8,0:0:0:0:
189,340,129069,5,0,1:0:0:0:
189,340,130498,6,0,P|202:268|81:315,1,264,14|0,3:3|0:0,0:0:0:0:
82,328,130783,6,0,B|115:234|30:243|71:141,1,193.600005908203,6|8,0:2|0:0,0:0:0:0:
253,74,131212,2,0,P|241:165|153:188,1,193.600005908203,2|0,0:2|0:0,0:0:0:0:
35,57,131640,1,8,0:2:0:0:
69,229,131783,1,2,0:2:0:0:
248,157,131926,6,0,B|306:158|306:158|338:168|338:168|403:168,1,145.200004431152,2|0,0:2|0:0,0:0:0:0:
416,167,132212,1,8,0:0:0:0:
478,331,132355,2,0,B|432:313|432:313|392:326|392:326|289:323,1,193.600005908203,2|0,0:2|0:0,0:0:0:0:
116,298,132783,1,8,0:0:0:0:
248,156,132926,6,0,P|259:110|250:63,1,96.8000029541017,2|0,0:2|0:0,0:0:0:0:
101,14,133212,1,2,0:2:0:0:
48,187,133355,6,0,P|37:141|45:94,1,96.8000029541017,10|0,0:0|0:0,0:0:0:0:
255,178,133640,2,0,P|266:132|258:85,1,96.8000029541017,2|0,0:0|0:0,0:0:0:0:
57,211,133926,1,8,0:0:0:0:
216,275,134069,6,0,B|261:294|309:268|309:268|339:307|394:308,1,193.600005908203,2|0,0:2|0:0,0:0:0:0:
503,184,134498,1,8,0:0:0:0:
433,36,134640,1,2,0:2:0:0:
258,84,134783,6,0,P|247:130|255:177,1,96.8000029541017,2|0,0:0|0:0,0:0:0:0:
393,308,135069,2,0,P|403:261|395:214,1,96.8000029541017,10|0,0:0|0:0,0:0:0:0:
249,61,135355,6,0,B|154:23|156:103|61:64,1,193.600005908203,2|8,0:2|0:0,0:0:0:0:
157,257,135783,2,0,B|194:294|194:294|205:155,1,193.600005908203,2|0,0:2|0:0,0:0:0:0:
41,53,136212,1,8,0:0:0:0:
22,223,136355,1,2,0:2:0:0:
223,138,136498,6,0,P|302:121|368:156,1,145.200004431152,2|0,0:2|0:0,0:0:0:0:
373,166,136783,1,8,0:0:0:0:
302,316,136926,2,0,P|286:271|285:223,1,96.8000029541017,2|0,0:2|0:0,0:0:0:0:
346,28,137212,5,2,0:2:0:0:
388,186,137355,1,8,0:0:0:0:
204,123,137498,6,0,B|167:113|167:113|91:112,1,96.8000029541017,2|0,0:1|0:0,0:0:0:0:
0,268,137783,1,2,0:2:0:0:
87,99,137926,1,8,0:0:0:0:
117,259,138069,1,0,0:0:0:0:
219,104,138212,2,0,P|236:53|233:-1,1,96.8000029541017,2|0,0:0|0:0,0:0:0:0:
304,207,138498,5,10,0:0:0:0:
388,85,138640,2,0,P|401:43|400:0,1,88,10|0,0:2|0:0,0:0:0:0:
488,147,139069,5,2,0:0:0:0:
488,147,139212,1,2,0:0:0:0:
484,239,139355,6,0,L|489:120,1,92.3999971801759,2|0,0:0|0:0,0:0:0:0:
403,175,139640,6,0,L|397:293,1,105.6,2|0,0:0|0:0,0:0:0:0:
485,337,139926,6,0,B|391:293|389:378|291:328,1,202.400003860474,12|8,0:2|0:0,0:0:0:0:
189,193,140355,1,2,0:2:0:0:
79,331,140498,2,0,L|73:213,1,101.200001930237,8|0,0:0|0:0,0:0:0:0:
57,48,140783,5,8,0:0:0:0:
175,172,140926,1,2,0:2:0:0:
323,50,141069,2,0,B|374:37|374:37|429:41,1,101.200001930237,8|0,0:0|0:0,0:0:0:0:
346,222,141355,5,8,0:0:0:0:
234,92,141498,2,0,B|183:79|183:79|134:82,1,101.200001930237,2|8,0:2|0:0,0:0:0:0:
165,258,141783,5,2,0:2:0:0:
252,110,141926,1,8,0:0:0:0:
360,243,142069,2,0,B|380:286|366:324|366:324|352:312,1,101.200001930237,2|8,0:2|0:0,0:0:0:0:
270,128,142355,5,2,0:2:0:0:
147,276,142498,2,0,P|84:289|24:264,1,101.200001930237,10|0,0:0|0:0,0:0:0:0:
20,63,142783,2,0,P|83:50|143:75,1,101.200001930237,10|0,0:0|0:0,0:0:0:0:
288,146,143069,5,8,0:2:0:0:
74,175,143212,2,0,B|44:186|17:160|17:160|46:144|61:157,1,101.200001930237,2|8,0:2|0:0,0:0:0:0:
165,294,143498,5,2,0:2:0:0:
288,171,143640,1,8,0:0:0:0:
333,339,143783,1,2,0:2:0:0:
453,159,143926,6,0,B|457:52,1,101.200001930237,10|0,0:0|0:0,0:0:0:0:
288,196,144212,2,0,B|284:94,1,101.200001930237,10|0,0:0|0:0,0:0:0:0:
193,254,144498,6,0,B|302:205|302:205|388:226,1,202.400003860474,12|8,0:2|0:0,0:0:0:0:
475,76,144926,1,2,0:2:0:0:
284,94,145069,2,0,B|251:95|251:95|200:86|200:86|216:123,1,101.200001930237,8|0,0:0|0:0,0:0:0:0:
367,250,145355,1,8,0:0:0:0:
298,115,145498,1,2,0:2:0:0:
193,254,145640,6,0,P|179:304|178:368,1,101.200001930237,8|0,0:0|0:0,0:0:0:0:
33,197,145926,1,8,0:0:0:0:
28,369,146069,2,0,P|72:281|54:183,1,202.400003860474,2|0,0:2|0:0,0:0:0:0:
222,46,146498,5,10,0:0:0:0:
294,239,146640,1,2,3:0:0:0:
424,79,146783,2,0,P|472:96|506:133,1,101.200001930237,8|0,0:0|0:0,0:0:0:0:
200,164,147069,5,10,0:0:0:0:
334,3,147212,1,2,0:3:0:0:
406,198,147355,2,0,P|415:247|400:295,1,101.200001930237,8|0,0:0|0:0,0:0:0:0:
201,32,147640,5,10,0:0:0:0:
445,65,147783,1,2,0:3:0:0:
177,173,147926,6,0,P|146:165|122:143,3,50.6000009651184,2|2|2|2,1:3|2:3|2:3|2:3,0:0:0:0:
138,254,148212,2,0,P|115:276|103:306,3,50.6000009651184,8|2|2|2,1:1|2:3|2:3|2:3,0:0:0:0:
188,328,148498,5,10,1:2:0:0:
232,351,148569,1,8,2:0:0:0:
282,349,148640,1,8,2:0:0:0:
324,322,148712,1,8,2:0:0:0:
346,277,148783,1,8,1:2:0:0:
368,232,148855,1,8,0:2:0:0:
410,205,148926,1,8,0:2:0:0:
460,203,148998,1,8,0:2:0:0:
505,227,149069,6,0,L|505:142,1,66,2|0,3:2|0:0,0:0:0:0:
479,64,149355,5,4,0:2:0:0:
336,133,149498,2,0,B|265:127|265:127|221:108|221:108|142:102,1,193.600005908203,2|0,0:2|0:0,0:0:0:0:
60,253,149926,1,10,0:2:0:0:
192,291,150069,2,0,B|199:264|199:264|196:195,1,96.8000029541017,0|0,0:0|0:0,0:0:0:0:
65,42,150355,6,0,B|50:90|50:90|55:136,1,96.8000029541017,2|8,0:0|0:0,0:0:0:0:
172,305,150640,2,0,B|187:257|187:257|181:210,1,96.8000029541017,2|0,0:0|0:0,0:0:0:0:
37,261,150926,1,2,0:0:0:0:
152,319,151069,2,0,B|167:271|167:271|161:224,1,96.8000029541017,8|0,0:2|0:0,0:0:0:0:
82,59,151355,6,0,B|131:81|131:81|175:62|175:62|276:67,1,193.600005908203,2|8,0:2|0:0,0:0:0:0:
351,238,151783,2,0,P|309:166|391:133,1,193.600005908203,2|0,0:2|0:0,0:0:0:0:
469,297,152212,1,10,0:2:0:0:
484,201,152355,1,0,0:0:0:0:
499,105,152498,1,0,0:0:0:0:
351,238,152640,6,0,P|295:249|235:220,1,96.8000029541017,2|8,0:0|0:0,0:0:0:0:
118,141,152926,2,0,P|152:176|165:222,1,96.8000029541017,2|0,0:0|0:0,0:0:0:0:
0,251,153212,1,2,0:0:0:0:
26,118,153355,2,0,P|49:75|91:51,1,96.8000029541017,8|0,0:0|0:0,0:0:0:0:
299,153,153640,6,0,P|216:108|202:16,1,193.600005908203,2|8,0:2|0:0,0:0:0:0:
389,103,154069,2,0,P|392:196|319:254,1,193.600005908203,2|0,0:2|0:0,0:0:0:0:
141,222,154498,1,10,0:2:0:0:
194,346,154640,2,0,L|302:355,1,96.8000029541017,0|0,0:0|0:0,0:0:0:0:
471,345,154926,6,0,P|457:298|451:250,1,96.8000029541017,2|8,0:0|0:0,0:0:0:0:
512,79,155212,2,0,P|506:127|491:174,1,96.8000029541017,2|0,0:0|0:0,0:0:0:0:
370,10,155498,1,2,0:0:0:0:
497,60,155640,2,0,P|490:107|476:153,1,96.8000029541017,8|0,0:0|0:0,0:0:0:0:
296,264,155926,6,0,B|222:258|222:258|161:234|161:234|201:271,1,193.600005908203,2|8,0:2|0:0,0:0:0:0:
365,359,156355,2,0,P|413:264|376:177,1,193.600005908203,2|0,0:2|0:0,0:0:0:0:
252,68,156783,1,10,0:2:0:0:
226,169,156926,1,0,0:0:0:0:
200,270,157069,1,0,0:0:0:0:
89,107,157212,6,0,P|80:50|86:1,1,96.8000029541017,2|8,0:0|0:0,0:0:0:0:
19,177,157498,2,0,L|-3:391,1,193.600005908203,2|0,0:2|0:0,0:0:0:0:
200,270,157926,1,8,0:0:0:0:
219,287,158212,6,0,P|268:300|332:285,1,101.200001930237,6|0,0:2|0:0,0:0:0:0:
239,120,158498,1,8,0:0:0:0:
116,224,158640,2,0,P|103:273|118:337,2,101.200001930237,2|0|0,0:2|0:0|0:0,0:0:0:0:
256,102,159069,5,10,0:2:0:0:
355,172,159212,1,0,0:2:0:0:
474,151,159355,1,0,0:0:0:0:
272,83,159498,6,0,P|223:72|173:67,1,101.200001930237,2|8,0:0|0:0,0:0:0:0:
200,185,159783,2,0,P|150:190|101:202,1,101.200001930237,2|0,0:0|0:0,0:0:0:0:
367,194,160069,1,2,0:0:0:0:
285,61,160212,2,0,P|236:50|186:45,1,101.200001930237,8|0,0:2|0:0,0:0:0:0:
80,218,160498,6,0,P|98:170|93:120,1,101.200001930237,2|0,0:2|0:0,0:0:0:0:
274,240,160783,1,8,0:0:0:0:
114,332,160926,2,0,P|63:336|16:319,2,101.200001930237,2|0|0,0:2|0:0|0:0,0:0:0:0:
297,251,161355,5,10,0:2:0:0:
404,310,161498,1,0,0:0:0:0:
508,246,161640,1,0,0:0:0:0:
414,86,161783,6,0,L|405:186,1,101.200001930237,2|8,0:0|0:0,0:0:0:0:
306,352,162069,2,0,L|297:251,1,101.200001930237,2|0,0:0|0:0,0:0:0:0:
296,40,162355,1,2,0:0:0:0:
420,112,162498,2,0,L|411:212,1,101.200001930237,8|0,0:0|0:0,0:0:0:0:
281,361,162783,6,0,P|219:339|171:347,1,101.200001930237,6|0,0:2|0:0,0:0:0:0:
26,373,163069,1,8,0:0:0:0:
127,246,163212,2,0,P|149:183|141:136,1,101.200001930237,2|0,0:2|0:0,0:0:0:0:
82,33,163498,1,0,0:0:0:0:
11,178,163640,5,10,0:2:0:0:
132,127,163783,1,0,0:0:0:0:
257,177,163926,1,0,0:0:0:0:
443,108,164069,6,0,B|448:6,1,101.200001930237,2|8,0:0|0:0,0:0:0:0:
280,188,164355,2,0,B|274:86,1,101.200001930237,2|0,0:0|0:0,0:0:0:0:
375,240,164640,1,2,0:0:0:0:
451,132,164783,2,0,B|456:30,1,101.200001930237,8|0,0:0|0:0,0:0:0:0:
184,43,165069,5,10,0:2:0:0:
364,129,165212,1,2,0:3:0:0:
191,142,165355,5,8,0:2:0:0:
357,30,165498,1,2,0:3:0:0:
102,99,165640,5,10,0:2:0:0:
280,188,165783,1,2,0:3:0:0:
109,197,165926,5,8,0:2:0:0:
274,86,166069,1,2,0:3:0:0:
20,154,166212,5,10,1:2:0:0:
227,278,166355,2,0,P|275:292|325:281,1,101.200001930237,8|8,2:2|1:2,0:0:0:0:
274,86,166640,1,8,2:2:0:0:
102,99,166783,5,8,0:2:0:0:
132,77,166854,1,8,0:2:0:0:
166,67,166925,1,8,0:2:0:0:
203,67,166997,1,8,0:2:0:0:
239,76,167068,1,4,1:3:0:0:
273,86,167140,1,8,2:3:0:0:
311,83,167212,1,8,2:3:0:0:
346,74,167283,1,8,2:3:0:0:
376,55,167354,5,12,1:2:0:0:
484,299,167640,5,0,0:0:0:0:
404,265,167783,1,0,0:0:0:0:
322,297,167926,1,2,0:0:0:0:
28,299,168212,5,0,0:0:0:0:
108,265,168355,1,2,0:0:0:0:
190,87,168640,1,2,0:0:0:0:
322,297,168926,1,2,0:0:0:0:
484,85,169212,5,2,0:0:0:0:
404,119,169355,1,2,0:0:0:0:
322,87,169498,2,0,L|303:14,1,66.0000025177003,2|2,0:0|0:0,0:0:0:0:
28,85,169926,5,0,0:0:0:0:
108,119,170069,1,0,0:0:0:0:
190,87,170212,1,2,0:0:0:0:
322,297,170498,5,0,0:0:0:0:
404,265,170640,1,2,0:0:0:0:
322,87,170926,1,2,0:0:0:0:
190,297,171212,1,2,0:0:0:0:
28,85,171498,5,2,0:0:0:0:
108,119,171641,1,2,0:0:0:0:
190,87,171783,2,0,L|209:14,1,66.0000025177003,2|2,0:0|0:0,0:0:0:0:
484,85,172212,5,0,0:0:0:0:
404,119,172355,1,0,0:0:0:0:
322,87,172498,1,2,0:0:0:0:
108,119,172783,5,0,0:0:0:0:
190,87,172926,1,2,0:0:0:0:
108,265,173212,1,2,0:0:0:0:
28,85,173498,1,2,0:0:0:0:
28,299,173783,5,2,0:0:0:0:
108,265,173926,1,2,0:0:0:0:
190,297,174069,2,0,L|209:370,1,66.0000025177003,2|2,0:0|0:0,0:0:0:0:
484,299,174498,5,0,0:0:0:0:
404,265,174641,1,0,0:0:0:0:
322,297,174784,1,2,0:0:0:0:
108,119,175069,5,0,0:0:0:0:
190,87,175212,1,2,0:0:0:0:
322,297,175498,1,2,0:0:0:0:
322,87,175783,6,0,L|303:14,1,66.0000025177003,2|0,0:0|0:0,0:0:0:0:
322,297,176069,2,0,L|303:370,1,66.0000025177003,2|0,0:0|0:0,0:0:0:0:
256,192,176355,5,2,0:0:0:0:
