osu file format v14

[General]
AudioFilename: audio.mp3
AudioLeadIn: 0
PreviewTime: 56069
Countdown: 0
SampleSet: Normal
StackLeniency: 0.7
Mode: 0
LetterboxInBreaks: 0
WidescreenStoryboard: 1

[Editor]
DistanceSpacing: 1.1
BeatDivisor: 4
GridSize: 8
TimelineZoom: 1

[Metadata]
Title:Streaming Heart
TitleUnicode:ストリーミングハート
Artist:Ayaponzu*
ArtistUnicode:あやぽんず*
Creator:Lasse
Version:Easy
Source:
Tags:deco*27 deco27 cover utaite pon'po drop toybot karen chromoxx
BeatmapID:1170454
BeatmapSetID:552702

[Difficulty]
HPDrainRate:2
CircleSize:3
OverallDifficulty:2
ApproachRate:3
SliderMultiplier:0.78
SliderTickRate:1

[Events]
//Background and Video events
0,0,"bg.jpg",0,0
//Break Periods
2,74983,82486
2,104698,109058
//Storyboard Layer 0 (Background)
//Storyboard Layer 1 (Fail)
//Storyboard Layer 2 (Pass)
//Storyboard Layer 3 (Foreground)
//Storyboard Sound Samples

[TimingPoints]
498,285.714285714286,4,2,1,55,1,0
9640,-100,4,2,1,70,0,0
27640,-100,4,2,2,70,0,0
27926,-100,4,2,1,40,0,0
28069,-100,4,2,1,40,0,0
28212,-100,4,2,1,5,0,0
28307,-100,4,2,1,40,0,0
28498,-100,4,2,1,44,0,0
28688,-100,4,2,1,48,0,0
28878,-100,4,2,1,52,0,0
29069,-100,4,2,1,58,0,0
37069,-100,4,2,1,60,0,0
37498,-100,4,2,1,62,0,0
38069,-100,4,2,1,64,0,0
38212,-100,4,1,1,65,0,0
47355,-100,4,2,1,50,0,0
51926,-100,4,2,1,55,0,0
53283,-100,4,2,99,5,0,0
53355,-100,4,2,1,55,0,0
54212,-100,4,2,1,60,0,0
55283,-100,4,2,99,5,0,0
55355,-100,4,2,1,60,0,0
55426,-100,4,2,1,61,0,0
55498,-100,4,2,1,62,0,0
55569,-100,4,2,1,63,0,0
55640,-100,4,2,1,65,0,0
55712,-100,4,2,1,67,0,0
55783,-100,4,2,1,70,0,0
55855,-100,4,2,1,73,0,0
55926,-100,4,2,1,67,0,0
55998,-100,4,2,98,20,0,0
56426,-100,4,2,99,5,0,0
56498,-100,4,1,33,75,0,1
56783,-100,4,1,1,75,0,1
57855,-100,4,2,99,5,0,1
57926,-100,4,1,1,75,0,1
62426,-100,4,2,99,5,0,1
62498,-100,4,1,1,75,0,1
63355,-100,4,1,1,78,0,1
64498,-100,4,2,1,65,0,0
64712,-100,4,2,99,5,0,0
64783,-100,4,2,1,30,0,0
64926,-100,4,2,1,50,0,0
65069,-100,4,2,1,63,0,0
65140,-100,4,2,1,64,0,0
65212,-100,4,2,1,65,0,0
65283,-100,4,2,1,66,0,0
65354,-100,4,2,2,68,0,0
65426,-100,4,2,2,70,0,0
65497,-100,4,2,2,72,0,0
65569,-100,4,2,2,74,0,0
65640,-100,4,1,1,77,0,1
72498,-100,4,1,1,80,0,1
73783,-100,4,1,1,78,0,1
73926,-100,4,2,2,78,0,1
74069,-100,4,2,2,75,0,1
74355,-100,4,2,2,72,0,1
74498,-100,4,2,2,70,0,1
74640,-100,4,2,2,68,0,1
74783,-100,4,2,1,66,0,0
74926,-100,4,2,1,60,0,0
83926,-100,4,2,44,50,0,0
91640,-100,4,2,44,53,0,0
91855,-100,4,2,99,5,0,0
91926,-100,4,2,1,56,0,0
92212,-100,4,2,2,59,0,0
92283,-100,4,2,2,61,0,0
92355,-100,4,2,2,63,0,0
92426,-100,4,2,2,65,0,0
92498,-100,4,2,2,67,0,0
92569,-100,4,2,2,69,0,0
92640,-100,4,2,1,71,0,0
92712,-100,4,2,98,20,0,0
92998,-100,4,2,99,5,0,0
93069,-100,4,1,1,65,0,0
102212,-100,4,2,1,70,0,0
102283,-100,4,2,1,55,0,0
104212,-100,4,2,44,55,0,0
104498,-111.111111111111,4,2,44,30,0,0
110355,-100,4,2,1,45,0,0
110498,-100,4,2,44,50,0,0
110640,-100,4,2,1,40,0,0
110926,-100,4,2,1,35,0,0
111069,-100,4,2,44,55,0,0
111212,-100,4,2,44,62,0,0
111355,-100,4,2,55,70,0,0
119926,-100,4,2,1,60,0,0
119998,-100,4,2,1,10,0,0
120355,-100,4,2,99,10,0,0
120498,-100,4,2,1,50,0,0
125069,-100,4,2,1,57,0,0
126426,-100,4,2,99,5,0,0
126498,-100,4,2,1,57,0,0
127355,-100,4,2,1,60,0,0
128426,-100,4,2,99,5,0,0
128498,-100,4,2,1,64,0,0
128569,-100,4,2,1,65,0,0
128641,-100,4,2,1,66,0,0
128712,-100,4,2,1,67,0,0
128783,-100,4,2,1,70,0,0
128855,-100,4,2,1,72,0,0
128926,-100,4,2,1,74,0,0
128998,-100,4,2,1,76,0,0
129069,-100,4,2,1,78,0,0
130498,-100,4,1,33,75,0,0
130712,-100,4,2,99,5,0,0
130783,-100,4,1,33,77,0,1
131069,-100,4,1,1,77,0,1
132140,-100,4,2,99,5,0,1
132212,-100,4,1,1,77,0,1
136712,-100,4,2,99,5,0,1
136783,-100,4,1,1,77,0,1
137640,-100,4,1,1,78,0,1
138498,-100,4,1,1,80,0,1
138640,-100,4,2,1,60,0,0
139069,-100,4,2,1,50,0,0
139355,-100,4,2,1,53,0,0
139569,-100,4,2,99,5,0,0
139640,-100,4,2,1,56,0,0
139855,-100,4,2,99,5,0,0
139926,-100,4,1,1,82,0,1
145855,-100,4,2,99,5,0,1
145926,-100,4,1,1,82,0,1
146498,-100,4,1,1,83,0,1
147069,-100,4,1,1,84,0,1
147640,-100,4,1,1,85,0,1
147926,-100,4,1,1,75,0,1
148212,-100,4,1,1,78,0,1
148498,-100,4,2,2,80,0,1
148783,-100,4,2,2,83,0,1
149069,-100,4,1,33,50,0,0
149283,-100,4,2,99,5,0,0
149355,-100,4,1,1,78,0,1
157926,-100,4,1,1,70,0,0
158212,-100,4,1,1,80,0,1
162498,-100,4,1,1,72,0,0
162783,-100,4,1,1,82,0,1
165069,-100,4,1,1,84,0,1
166212,-100,4,1,2,82,0,1
166783,-100,4,1,1,80,0,1
166926,-100,4,1,1,78,0,1
167069,-100,4,1,1,76,0,1
167212,-100,4,1,1,74,0,1
167355,-100,4,1,1,55,0,0
167640,-100,4,2,1,50,0,0
169640,-100,4,2,1,48,0,0
171926,-100,4,2,1,46,0,0
174212,-100,4,2,1,44,0,0
176498,-100,4,2,1,42,0,0

[Colours]
Combo1 : 20,231,152
Combo2 : 26,221,242
Combo3 : 255,51,122
Combo4 : 130,138,198

[HitObjects]
161,290,498,6,0,P|136:216|156:142,1,156,0|0,1:2|1:2,0:0:0:0:
214,79,1355,1,0,1:2:0:0:
293,113,1640,2,0,B|342:121|342:121|459:108,1,156,0|0,1:2|1:2,0:0:0:0:
512,268,2783,6,0,B|463:260|463:260|346:273,1,156,0|0,1:2|1:2,0:0:0:0:
276,300,3640,1,0,1:2:0:0:
194,328,3926,2,0,L|25:321,1,156,0|0,1:2|1:2,0:0:0:0:
128,175,5069,6,0,B|148:138|138:100|138:100|146:56|194:46,1,156,0|0,1:2|1:2,0:0:0:0:
273,29,5926,1,0,1:2:0:0:
330,92,6212,2,0,B|412:117|407:68|496:96,1,156,0|0,1:2|1:2,0:0:0:0:
459,262,7355,1,0,1:2:0:0:
194,43,8498,6,0,B|86:32|86:32|40:49,1,156,4|8,3:0|3:2,0:0:0:0:
12,129,9355,1,8,3:2:0:0:
68,195,9640,6,0,B|74:250|74:250|63:292|63:292|70:348,1,156,6|8,1:2|0:0,0:0:0:0:
218,261,10783,2,0,B|224:205|224:205|213:163|213:163|220:107,1,156,2|8,1:2|0:0,0:0:0:0:
282,47,11640,1,2,0:1:0:0:
359,86,11926,6,0,B|436:108|431:57|511:80,1,156,2|8,1:2|0:0,0:0:0:0:
510,251,13069,2,0,B|476:267|438:250|438:250|390:244|366:278,1,156,2|8,1:2|0:0,0:0:0:0:
322,351,13926,1,2,0:1:0:0:
238,332,14212,6,0,B|177:324|177:324|146:328|146:328|78:320,1,156,2|8,1:2|0:0,0:0:0:0:
153,162,15355,2,0,B|160:111|160:111|133:60|169:11,1,156,2|8,1:2|0:0,0:0:0:0:
233,67,16212,1,2,0:1:0:0:
258,149,16498,6,0,B|250:212|250:212|254:243|254:243|247:303,1,156,2|8,1:2|0:0,0:0:0:0:
406,367,17640,2,0,B|437:327|437:327|449:212,1,156,2|8,1:2|0:0,0:0:0:0:
448,136,18498,1,8,0:3:0:0:
384,77,18783,6,0,B|350:66|317:74|317:74|295:64|295:64|267:75|233:67,1,156,6|8,1:2|0:0,0:0:0:0:
122,198,19926,2,0,B|119:231|130:254|130:254|121:271|121:271|136:314|113:355,1,156,2|8,1:2|0:0,0:0:0:0:
41,305,20783,1,2,0:1:0:0:
7,225,21069,6,0,B|2:193|12:174|12:174|-1:145|-1:145|-7:107|6:74,1,156,2|8,1:2|0:0,0:0:0:0:
172,117,22212,2,0,B|252:132|241:81|323:97,1,156,2|8,1:2|0:0,0:0:0:0:
404,125,23069,1,2,0:1:0:0:
420,209,23355,6,0,B|413:259|413:259|429:299|429:299|422:362,1,156,2|8,1:2|0:0,0:0:0:0:
259,306,24498,2,0,B|252:255|252:255|268:215|268:215|261:153,1,156,2|8,1:2|0:0,0:0:0:0:
224,76,25355,1,2,0:1:0:0:
139,86,25640,6,0,B|110:83|110:83|85:83|85:83|61:76|61:76|18:90|23:138,1,156,2|8,1:2|0:0,0:0:0:0:
104,286,26783,2,0,L|275:307,1,156,2|8,1:2|0:0,0:0:0:0:
343,291,27640,1,8,0:2:0:0:
428,277,27926,5,8,0:3:0:0:
89,218,29069,6,0,B|54:175|54:175|43:118|66:77,1,156,0|8,1:0|0:2,0:0:0:0:
224,145,30212,2,0,P|260:158|308:148,1,77.9999999999999,0|0,0:0|1:0,0:0:0:0:
356,89,30783,2,0,P|430:73|497:110,1,156,8|0,0:0|1:0,0:0:0:0:
502,282,31926,1,8,0:0:0:0:
343,347,32498,6,0,B|279:341|279:341|240:329|240:329|184:325,1,156,0|8,0:0|0:0,0:0:0:0:
34,251,33640,2,0,P|10:186|53:105,1,156,0|8,1:0|0:2,0:0:0:0:
203,44,34783,6,0,L|290:51,1,77.9999999999999,0|0,0:0|1:0,0:0:0:0:
329,121,35355,2,0,B|347:196|306:199|324:274,1,156,8|0,0:0|1:0,0:0:0:0:
469,365,36498,1,8,0:0:0:0:
509,196,37069,6,0,B|514:126|514:126|525:99|525:99|505:23|428:22,1,234,0|8,1:0|1:2,0:0:0:0:
364,79,38212,6,0,B|283:98|296:51|211:64,1,156,4|0,1:2|0:0,0:0:0:0:
128,82,39069,1,8,0:0:0:0:
71,147,39355,2,0,B|57:193|57:193|57:212|57:212|32:246|48:300,1,156,2|0,0:2|0:0,0:0:0:0:
207,359,40498,6,0,B|247:361|276:328|276:328|302:356|345:358,1,156,0|0,0:0|0:2,0:0:0:0:
428,338,41355,1,8,0:0:0:0:
478,271,41640,2,0,B|469:219|469:219|489:176|472:119,1,156,2|0,0:2|0:0,0:0:0:0:
308,64,42783,6,0,B|296:103|314:146|314:146|311:181|286:214,1,156,0|0,0:0|0:0,0:0:0:0:
205,235,43640,1,8,0:0:0:0:
122,258,43926,2,0,L|34:250,2,77.9999999999999,0|10|0,0:0|0:0|0:0,0:0:0:0:
266,351,45069,6,0,B|370:360|370:360|417:334,1,156,0|0,0:0|0:0,0:0:0:0:
464,265,45926,1,8,0:0:0:0:
462,179,46212,2,0,L|472:59,2,117,2|2|10,0:2|0:1|0:0,0:0:0:0:
389,224,47355,5,4,1:2:0:0:
180,36,48498,1,0,1:2:0:0:
121,310,49640,1,0,1:0:0:0:
389,224,50783,1,0,1:0:0:0:
180,36,51926,6,0,B|103:23|103:23|51:31,2,117,0|0|2,1:0|1:0|1:2,0:0:0:0:
241,95,53069,2,0,B|317:108|317:108|394:87|394:87|455:133,1,234,0|2,1:0|1:2,0:0:0:0:
502,205,54212,6,0,B|503:245|487:271|487:271|488:294|488:294|481:331|458:350,1,156,0|0,1:0|1:0,0:0:0:0:
375,368,55069,1,2,1:2:0:0:
318,305,55355,2,0,B|295:298|295:298|272:298|272:298|257:292|257:292|235:295|235:295|212:288|212:288|191:291|191:291|153:285,1,156,8|0,2:2|1:0,0:0:0:0:
47,141,56498,6,0,B|35:97|56:66|56:66|44:15,2,117,6|2|8,0:2|0:2|0:2,0:0:0:0:
137,116,57640,2,0,P|193:99|287:132,1,156,2|0,0:2|0:0,0:0:0:0:
343,200,58498,1,8,0:0:0:0:
429,164,58783,6,0,P|458:92|441:18,1,156,0|2,0:0|0:0,0:0:0:0:
253,17,59926,2,0,B|192:26|192:26|142:-1|93:24,1,156,0|2,0:0|0:0,0:0:0:0:
141,104,60783,1,10,0:0:0:0:
223,149,61069,6,0,L|357:156,2,117,2|2|8,0:2|0:2|0:0,0:0:0:0:
144,198,62212,2,0,L|10:191,2,117,2|2|8,0:2|0:2|0:0,0:0:0:0:
225,243,63355,6,0,P|235:281|225:318,1,77.9999999999999,8|10,0:0|0:0,0:0:0:0:
143,361,63926,2,0,L|59:356,1,77.9999999999999,10|10,0:0|0:0,0:0:0:0:
2,287,64498,5,2,2:3:0:0:
86,120,65069,2,0,P|123:110|160:120,1,77.9999999999999,8|8,0:0|0:0,0:0:0:0:
248,154,65640,6,0,L|383:148,2,117,6|2|10,0:2|0:2|0:2,0:0:0:0:
174,212,66783,2,0,P|144:285|180:352,1,156,0|0,0:0|0:0,0:0:0:0:
270,366,67640,1,8,0:2:0:0:
349,313,67926,6,0,B|382:296|426:305|426:305|458:326|499:318,1,156,2|0,0:2|0:0,0:0:0:0:
499,131,69069,2,0,B|457:123|425:144|425:144|381:153|348:136,1,156,0|0,0:0|0:0,0:0:0:0:
275,77,69926,1,8,0:0:0:0:
187,110,70212,6,0,L|53:96,2,117,2|2|10,0:2|0:2|0:2,0:0:0:0:
259,170,71355,2,0,B|306:217|306:217|320:321|247:363,1,234,0|8,0:0|0:0,0:0:0:0:
169,312,72498,6,0,B|134:297|95:319|95:319|48:334|9:308,1,156,10|10,0:2|0:2,0:0:0:0:
62,231,73355,1,8,0:2:0:0:
145,189,73640,2,0,L|261:201,2,117,8|8|8,0:0|0:0|1:2,0:0:0:0:
68,139,74783,5,4,0:0:0:0:
105,67,83926,6,0,B|92:112|92:112|95:136|95:136|67:175|80:227,1,156,4|0,1:2|0:0,0:0:0:0:
194,343,85069,2,0,B|220:349|245:348|245:348|276:338|276:338|299:349|299:349|372:372|432:345,1,234,0|8,1:0|0:0,0:0:0:0:
476,283,86212,6,0,B|493:186|493:186|481:122,1,156,0|0,1:0|0:0,0:0:0:0:
326,201,87355,2,0,B|269:211|269:211|172:194,1,156,0|0,1:0|0:0,0:0:0:0:
92,162,88212,1,8,0:0:0:0:
124,82,88498,6,0,B|180:71|180:71|277:88,1,156,0|0,1:0|0:0,0:0:0:0:
430,164,89640,2,0,P|469:265|384:347,1,234,0|8,1:0|0:0,0:0:0:0:
304,342,90783,6,0,B|253:335|253:335|205:364|153:339,1,156,0|0,1:0|0:0,0:0:0:0:
84,288,91640,1,10,0:0:0:0:
94,203,91926,2,0,B|100:167|100:167|96:132|96:132|105:115|105:115|97:94|97:94|106:71|106:71|100:49|100:49|107:5,1,195,8|0,0:0|1:3,0:0:0:0:
227,56,93069,6,0,B|275:67|275:67|317:56|317:56|379:67,1,156,4|0,0:2|0:0,0:0:0:0:
441,125,93926,1,8,0:0:0:0:
502,182,94212,2,0,B|517:230|517:230|517:288|482:337,1,156,2|0,0:2|0:0,0:0:0:0:
315,319,95355,6,0,B|277:315|243:332|243:332|199:341|163:300,1,156,0|0,0:0|0:0,0:0:0:0:
113,240,96212,1,8,0:0:0:0:
170,174,96498,2,0,B|179:152|178:121|178:121|142:71|170:22,1,156,2|0,0:2|0:0,0:0:0:0:
332,73,97640,6,0,B|354:82|385:81|385:81|435:45|484:73,1,156,0|0,0:0|0:0,0:0:0:0:
441,147,98498,1,8,0:0:0:0:
403,224,98783,2,0,L|395:312,2,77.9999999999999,2|8|0,0:2|0:0|0:0,0:0:0:0:
332,73,99926,6,0,B|278:48|278:48|224:44|172:73,1,156,0|2,0:0|0:2,0:0:0:0:
115,118,100783,1,8,0:0:0:0:
96,202,101069,2,0,L|101:330,2,117,2|2|8,0:2|0:2|0:0,0:0:0:0:
32,143,102212,5,4,1:2:0:0:
256,192,102355,12,0,104498,1:0:0:0:
281,339,110498,6,0,L|117:322,1,156,8|8,0:1|0:1,0:0:0:0:
61,265,111355,6,0,P|42:181|77:113,1,156,4|8,1:2|0:0,0:0:0:0:
227,50,112498,2,0,L|304:58,1,77.9999999999999,0|0,1:0|0:0,0:0:0:0:
388,41,113069,1,10,0:2:0:0:
458,197,113640,6,0,B|458:243|458:243|448:265|448:265|464:309|434:357,1,156,0|8,1:0|0:0,0:0:0:0:
288,266,114783,2,0,P|250:253|200:251,1,77.9999999999999,0|0,1:0|1:0,0:0:0:0:
131,280,115355,1,10,0:2:0:0:
3,165,115926,6,0,B|-2:91|-2:91|10:52|52:33,1,156,0|8,1:0|0:0,0:0:0:0:
208,103,117069,2,0,P|241:111|285:104,1,77.9999999999999,0|0,1:0|1:0,0:0:0:0:
361,67,117640,1,10,0:2:0:0:
447,215,118212,6,0,B|424:283|424:283|383:314|345:297,1,156,0|8,1:0|0:0,0:0:0:0:
273,251,119069,1,2,0:2:0:0:
200,204,119355,2,0,P|162:195|123:202,1,77.9999999999999,8|0,1:1|1:0,0:0:0:0:
46,239,119926,1,2,0:2:0:0:
165,362,120498,5,4,1:2:0:0:
380,182,121640,1,0,1:2:0:0:
117,86,122783,1,0,1:0:0:0:
165,362,123926,1,0,1:0:0:0:
380,182,125069,6,0,B|426:172|426:172|466:182|466:182|500:180,2,117,0|2|2,1:0|1:0|1:2,0:0:0:0:
300,149,126212,2,0,B|260:140|260:140|223:141|223:141|179:129|154:100|154:100|108:94|83:130,1,234,2|2,1:2|1:2,0:0:0:0:
61,206,127355,6,0,B|58:248|58:248|63:264|63:264|47:312|47:312|68:363,1,156,2|0,1:2|1:0,0:0:0:0:
149,368,128212,1,2,1:0:0:0:
216,315,128498,2,0,B|239:309|239:309|262:311|262:311|277:306|277:306|299:310|299:310|322:305|322:305|343:309|343:309|381:306,1,156,8|0,0:0|1:0,0:0:0:0:
368,306,130498,5,14,3:3:0:0:
431,237,130783,6,0,B|432:197|432:197|422:170|422:170|430:149|428:113,2,117,6|2|8,0:2|0:2|0:2,0:0:0:0:
339,216,131926,2,0,B|285:204|285:204|251:186|251:186|186:194,1,156,2|0,0:2|0:0,0:0:0:0:
106,237,132783,1,8,0:0:0:0:
26,186,133069,6,0,P|-3:114|29:41,1,156,0|2,0:0|0:0,0:0:0:0:
211,33,134212,2,0,B|274:40|274:40|299:35|299:35|365:43,1,156,0|2,0:0|0:0,0:0:0:0:
451,83,135069,1,10,0:0:0:0:
509,156,135355,6,0,B|511:195|511:195|491:226|491:226|489:275,2,117,2|2|8,0:2|0:2|0:0,0:0:0:0:
417,170,136498,2,0,B|378:172|378:172|347:152|347:152|298:150,2,117,2|2|8,0:2|0:2|0:0,0:0:0:0:
451,83,137640,6,0,P|456:43|441:10,1,77.9999999999999,0|8,0:0|0:0,0:0:0:0:
361,59,138212,2,0,L|234:58,1,117,2|10,0:0|0:2,0:0:0:0:
139,348,139926,6,0,P|82:358|27:338,2,117,12|2|8,0:2|0:2|0:0,0:0:0:0:
200,276,141069,2,0,P|274:256|352:279,1,156,8|8,0:0|0:0,0:0:0:0:
418,340,141926,1,8,0:0:0:0:
498,293,142212,6,0,L|505:121,1,156,8|10,0:0|0:0,0:0:0:0:
460,54,143069,1,8,0:2:0:0:
365,51,143355,2,0,B|322:39|322:39|291:48|291:48|241:43,2,117,8|2|10,0:0|0:2|0:0,0:0:0:0:
409,134,144498,6,0,B|399:178|399:178|386:199|386:199|389:230|389:230|376:248|373:295,1,156,12|8,0:2|0:0,0:0:0:0:
204,362,145640,2,0,B|162:352|162:352|123:317|137:246,1,156,8|8,0:0|0:0,0:0:0:0:
148,154,146498,1,10,0:0:0:0:
202,78,146783,6,0,P|239:71|281:80,1,77.9999999999999,8|10,0:0|0:0,0:0:0:0:
332,155,147355,2,0,L|342:244,1,77.9999999999999,8|10,0:0|0:0,0:0:0:0:
375,319,147926,2,0,P|409:336|448:339,1,78,2|8,1:3|1:1,0:0:0:0:
509,267,148498,1,10,1:2:0:0:
507,79,149069,5,2,3:2:0:0:
416,58,149355,2,0,B|386:49|386:49|363:48|363:48|341:36,2,77.9999999999999,4|0|10,0:2|0:0|0:2,0:0:0:0:
365,137,150212,2,0,B|356:193|356:193|360:234|360:234|348:296,1,156,0|0,0:0|0:0,0:0:0:0:
288,362,151069,1,8,0:2:0:0:
217,301,151355,6,0,B|190:287|159:291|159:291|144:285|144:285|103:307|67:292,1,156,2|0,0:2|0:0,0:0:0:0:
10,113,152498,2,0,B|45:98|86:120|86:120|101:114|101:114|132:118|159:104,1,156,0|0,0:0|0:0,0:0:0:0:
227,39,153355,1,8,0:0:0:0:
292,106,153640,6,0,B|301:145|275:182|275:182|264:222|291:263,1,156,2|0,0:2|0:0,0:0:0:0:
464,312,154783,2,0,P|485:238|464:164,1,156,0|0,0:0|0:0,0:0:0:0:
386,111,155640,1,8,0:0:0:0:
292,106,155926,6,0,L|127:91,1,156,2|0,0:2|0:0,0:0:0:0:
31,247,157069,2,0,B|77:276|77:276|255:292,1,234,0|8,0:0|0:0,0:0:0:0:
343,326,158212,6,0,B|384:337|384:337|418:329|418:329|470:347,2,117,6|2|10,0:2|0:2|0:2,0:0:0:0:
381,241,159355,2,0,B|396:207|396:207|389:166,1,77.9999999999999,0|8,0:0|0:0,0:0:0:0:
325,98,159926,2,0,L|236:90,1,77.9999999999999,0|8,0:0|0:2,0:0:0:0:
173,149,160498,6,0,B|162:191|162:191|167:221|167:221|152:253|152:253|162:278|162:278|133:331|82:321,1,234,2|10,0:2|0:2,0:0:0:0:
24,247,161640,2,0,L|27:165,1,77.9999999999999,0|8,0:0|0:0,0:0:0:0:
94,104,162212,2,0,L|118:25,1,77.9999999999999,0|8,0:0|0:0,0:0:0:0:
210,25,162783,6,0,B|267:38|267:38|304:33|304:33|371:69,1,156,6|0,0:2|0:0,0:0:0:0:
428,122,163640,1,10,0:2:0:0:
389,207,163926,2,0,B|380:241|392:267|392:267|384:286|384:286|396:321|375:357,1,156,0|0,0:0|0:0,0:0:0:0:
195,302,165069,6,0,B|168:296|168:296|142:306|142:306|117:298|117:298|76:309|39:278,1,156,10|10,0:2|0:2,0:0:0:0:
12,197,165926,1,8,0:2:0:0:
94,153,166212,2,0,B|117:148|139:151|139:151|163:160|163:160|185:152|185:152|206:163|206:163|236:157|236:157|274:173|327:159,1,234,10|4,1:2|1:3,0:0:0:0:
401,133,167355,6,0,B|419:55|419:55|403:14|353:13,1,156,12|2,1:2|0:0,0:0:0:0:
281,45,168212,2,0,B|222:52|231:24|165:33,1,117,0|2,0:0|0:0,0:0:0:0:
93,78,168926,2,0,B|54:119|54:119|51:220,1,156,2|2,0:0|0:0,0:0:0:0:
129,320,169926,6,0,B|185:321|185:321|220:309|220:309|291:321,1,156,0|0,0:0|0:0,0:0:0:0:
365,299,170783,2,0,P|383:244|364:189,1,117,0|2,0:0|0:0,0:0:0:0:
284,158,171498,2,0,L|202:144,1,77.9999999999999,2|2,0:0|0:0,0:0:0:0:
148,30,172212,6,0,B|181:23|181:23|237:32,1,77.9999999999999,0|2,0:0|0:0,0:0:0:0:
301,68,172783,2,0,B|354:89|362:61|414:87,1,117,0|2,0:0|0:0,0:0:0:0:
457,161,173498,2,0,B|474:208|474:208|476:266|433:314,1,156,2|2,0:0|0:0,0:0:0:0:
313,331,174498,6,0,L|225:323,1,77.9999999999999,0|2,0:0|0:0,0:0:0:0:
164,274,175069,2,0,B|153:225|153:225|197:156|166:86,1,195,0|2,0:0|0:0,0:0:0:0:
99,33,176069,2,0,L|11:25,1,77.9999999999999,2|2,0:0|0:0,0:0:0:0:
