osu file format v14

[General]
AudioFilename: audio.mp3
AudioLeadIn: 0
PreviewTime: 56069
Countdown: 0
SampleSet: Soft
StackLeniency: 0.3
Mode: 0
LetterboxInBreaks: 0
WidescreenStoryboard: 1

[Editor]
DistanceSpacing: 1.3
BeatDivisor: 4
GridSize: 32
TimelineZoom: 2.3

[Metadata]
Title:Streaming Heart
TitleUnicode:ストリーミングハート
Artist:Ayaponzu*
ArtistUnicode:あやぽんず*
Creator:Lasse
Version:Ambiguity
Source:
Tags:deco*27 deco27 cover utaite pon'po drop toybot karen chromoxx
BeatmapID:1170453
BeatmapSetID:552702

[Difficulty]
HPDrainRate:6
CircleSize:4.2
OverallDifficulty:9
ApproachRate:9.5
SliderMultiplier:1.92
SliderTickRate:1

[Events]
//Background and Video events
0,0,"bg.jpg",0,0
//Break Periods
2,74983,83401
//Storyboard Layer 0 (Background)
//Storyboard Layer 1 (Fail)
//Storyboard Layer 2 (Pass)
//Storyboard Layer 3 (Foreground)
//Storyboard Sound Samples

[TimingPoints]
498,285.714285714286,4,2,1,55,1,0
498,-117.647058823529,4,2,1,55,0,0
9355,-108.695652173913,4,2,1,55,0,0
9640,-100,4,2,1,70,0,0
11355,-125,4,2,1,70,0,0
11640,-100,4,2,1,70,0,0
15926,-125,4,2,1,70,0,0
16212,-100,4,2,1,70,0,0
20498,-125,4,2,1,70,0,0
20783,-100,4,2,1,70,0,0
25069,-125,4,2,1,70,0,0
25355,-100,4,2,1,70,0,0
27640,-100,4,2,2,70,0,0
27926,-133.333333333333,4,2,1,40,0,0
28069,-133.333333333333,4,2,1,40,0,0
28212,-133.333333333333,4,2,1,5,0,0
28307,-133.333333333333,4,2,1,40,0,0
28498,-133.333333333333,4,2,1,44,0,0
28688,-133.333333333333,4,2,1,48,0,0
28878,-133.333333333333,4,2,1,52,0,0
29069,-111.111111111111,4,2,1,58,0,0
37069,-111.111111111111,4,2,1,60,0,0
37498,-111.111111111111,4,2,1,62,0,0
38069,-111.111111111111,4,2,1,64,0,0
38212,-100,4,1,1,65,0,0
47355,-181.818181818181,4,2,1,50,0,0
48212,-90.9090909090909,4,2,1,50,0,0
48498,-181.818181818181,4,2,1,50,0,0
49355,-90.9090909090909,4,2,1,50,0,0
49640,-181.818181818181,4,2,1,50,0,0
50498,-90.9090909090909,4,2,1,50,0,0
50783,-181.818181818181,4,2,1,50,0,0
51640,-90.9090909090909,4,2,1,50,0,0
51926,-133.333333333333,4,2,1,55,0,0
53283,-133.333333333333,4,2,99,5,0,0
53355,-133.333333333333,4,2,1,55,0,0
54212,-100,4,2,1,60,0,0
55069,-83.3333333333333,4,2,1,60,0,0
55283,-83.3333333333333,4,2,99,5,0,0
55355,-90.9090909090909,4,2,1,60,0,0
55426,-90.9090909090909,4,2,1,61,0,0
55498,-90.9090909090909,4,2,1,62,0,0
55569,-90.9090909090909,4,2,1,63,0,0
55640,-90.9090909090909,4,2,1,65,0,0
55712,-90.9090909090909,4,2,1,67,0,0
55783,-90.9090909090909,4,2,1,70,0,0
55855,-90.9090909090909,4,2,1,73,0,0
55926,-200,4,2,1,67,0,0
55998,-200,4,2,98,20,0,0
56426,-200,4,2,99,5,0,0
56498,-90.9090909090909,4,1,33,75,0,1
56783,-90.9090909090909,4,1,1,75,0,1
57855,-90.9090909090909,4,2,99,5,0,1
57926,-90.9090909090909,4,1,1,75,0,1
62426,-90.9090909090909,4,2,99,5,0,1
62498,-90.9090909090909,4,1,1,75,0,1
63355,-90.9090909090909,4,1,1,78,0,1
64355,-90.9090909090909,4,1,1,78,0,1
64498,-133.333333333333,4,2,1,65,0,0
64712,-133.333333333333,4,2,99,5,0,0
64783,-153.846153846153,4,2,1,30,0,0
64926,-153.846153846153,4,2,1,50,0,0
65069,-100,4,2,1,63,0,0
65140,-100,4,2,1,64,0,0
65212,-100,4,2,1,65,0,0
65283,-100,4,2,1,66,0,0
65354,-100,4,2,2,68,0,0
65426,-100,4,2,2,70,0,0
65497,-100,4,2,2,72,0,0
65569,-100,4,2,2,74,0,0
65640,-90.9090909090909,4,1,1,77,0,1
72498,-86.9565217391304,4,1,1,80,0,1
73783,-80,4,1,1,78,0,1
73926,-80,4,2,2,78,0,1
74069,-86.9565217391304,4,2,2,75,0,1
74355,-86.9565217391304,4,2,2,72,0,1
74498,-86.9565217391304,4,2,2,70,0,1
74640,-86.9565217391304,4,2,2,68,0,1
74783,-99.9999999999999,4,2,1,66,0,0
74926,-99.9999999999999,4,2,1,60,0,0
83926,-133.333333333333,4,2,44,50,0,0
91640,-111.111111111111,4,2,44,53,0,0
91855,-111.111111111111,4,2,99,5,0,0
91926,-111.111111111111,4,2,1,56,0,0
92212,-111.111111111111,4,2,2,59,0,0
92283,-111.111111111111,4,2,2,61,0,0
92355,-111.111111111111,4,2,2,63,0,0
92426,-111.111111111111,4,2,2,65,0,0
92498,-111.111111111111,4,2,2,67,0,0
92569,-111.111111111111,4,2,2,69,0,0
92640,-133.333333333333,4,2,1,71,0,0
92712,-133.333333333333,4,2,98,20,0,0
92998,-111.111111111111,4,2,99,5,0,0
93069,-100,4,1,1,65,0,0
102212,-111.111111111111,4,2,1,70,0,0
102283,-111.111111111111,4,2,1,55,0,0
104212,-111.111111111111,4,2,44,55,0,0
110355,-111.111111111111,4,2,1,45,0,0
110498,-111.111111111111,4,2,44,50,0,0
110640,-111.111111111111,4,2,1,40,0,0
110926,-111.111111111111,4,2,1,35,0,0
111069,-111.111111111111,4,2,44,55,0,0
111212,-111.111111111111,4,2,44,62,0,0
111355,-95.2380952380952,4,2,55,70,0,0
113069,-133.333333333333,4,2,55,70,0,0
113640,-95.2380952380952,4,2,55,70,0,0
115355,-133.333333333333,4,2,55,70,0,0
115926,-95.2380952380952,4,2,55,70,0,0
117640,-133.333333333333,4,2,55,70,0,0
118212,-95.2380952380952,4,2,55,70,0,0
119926,-125,4,2,1,60,0,0
119998,-111.111111111111,4,2,1,10,0,0
120355,-111.111111111111,4,2,99,10,0,0
120498,-181.818181818182,4,2,1,50,0,0
121355,-90.9090909090909,4,2,1,50,0,0
121640,-181.818181818182,4,2,1,50,0,0
122498,-90.9090909090909,4,2,1,50,0,0
122783,-181.818181818182,4,2,1,50,0,0
123640,-90.9090909090909,4,2,1,50,0,0
123925,-181.818181818182,4,2,1,50,0,0
124783,-90.9090909090909,4,2,1,50,0,0
125069,-111.111111111111,4,2,1,57,0,0
126426,-111.111111111111,4,2,99,5,0,0
126498,-111.111111111111,4,2,1,57,0,0
127355,-105.263157894737,4,2,1,60,0,0
128212,-80.0000000000001,4,2,1,60,0,0
128426,-80.0000000000001,4,2,99,5,0,0
128498,-100,4,2,1,64,0,0
128569,-100,4,2,1,65,0,0
128641,-100,4,2,1,66,0,0
128712,-100,4,2,1,67,0,0
128783,-100,4,2,1,70,0,0
128855,-100,4,2,1,72,0,0
128926,-100,4,2,1,74,0,0
128998,-100,4,2,1,76,0,0
129069,-100,4,2,1,78,0,0
130498,-33.3333333333333,4,1,33,75,0,0
130533,-33.3333333333333,4,2,99,5,0,0
130712,-62.5,4,2,99,5,0,0
130783,-90.9090909090908,4,1,33,77,0,1
131069,-90.9090909090908,4,1,1,77,0,1
132140,-90.9090909090908,4,2,99,5,0,1
132212,-90.9090909090908,4,1,1,77,0,1
136712,-90.9090909090908,4,2,99,5,0,1
136783,-90.9090909090908,4,1,1,77,0,1
137640,-90.9090909090908,4,1,1,78,0,1
138498,-90.9090909090908,4,1,1,80,0,1
138640,-200,4,2,1,60,0,0
139069,-166.666666666667,4,2,1,50,0,0
139355,-142.857142857143,4,2,1,53,0,0
139569,-142.857142857143,4,2,99,5,0,0
139640,-125,4,2,1,56,0,0
139855,-133.333333333333,4,2,99,5,0,0
139926,-80,4,1,1,82,0,1
145855,-80,4,2,99,5,0,1
145926,-80,4,1,1,82,0,1
146498,-80,4,1,1,83,0,1
147069,-80,4,1,1,84,0,1
147640,-80,4,1,1,85,0,1
147926,-80,4,1,1,75,0,1
148212,-80,4,1,1,78,0,1
148498,-80,4,2,2,80,0,1
148783,-80,4,2,2,83,0,1
149069,-200,4,1,33,50,0,0
149283,-200,4,2,99,5,0,0
149355,-86.9565217391304,4,1,1,78,0,1
157926,-86.9565217391304,4,1,1,70,0,0
158212,-83.3333333333333,4,1,1,80,0,1
162498,-83.3333333333333,4,1,1,72,0,0
162783,-80,4,1,1,82,0,1
165069,-80,4,1,1,84,0,1
166212,-80,4,1,2,82,0,1
166783,-90.9090909090909,4,1,1,80,0,1
166926,-90.9090909090909,4,1,1,78,0,1
167069,-90.9090909090909,4,1,1,76,0,1
167212,-90.9090909090909,4,1,1,74,0,1
167355,-142.857142857143,4,1,1,55,0,0
167640,-142.857142857143,4,2,1,50,0,0
169640,-142.857142857143,4,2,1,48,0,0
171926,-142.857142857143,4,2,1,46,0,0
174212,-142.857142857143,4,2,1,44,0,0
176498,-142.857142857143,4,2,1,42,0,0

[Colours]
Combo1 : 20,231,152
Combo2 : 26,221,242
Combo3 : 255,51,122
Combo4 : 130,138,198

[HitObjects]
58,279,498,5,0,1:2:0:0:
80,48,783,5,0,1:2:0:0:
137,146,926,1,0,0:2:0:0:
193,48,1069,2,0,P|230:42|272:56,1,81.6000015563965,0|0,1:2|0:2,0:0:0:0:
237,204,1355,5,0,1:2:0:0:
137,146,1498,2,0,P|99:140|57:154,1,81.6000015563965,2|0,0:2|1:2,0:0:0:0:
137,289,1783,2,0,P|129:249|104:217,1,81.6000015563965,0|0,0:2|1:2,0:0:0:0:
0,333,2069,2,0,P|35:313|58:279,1,81.6000015563965,2|0,0:2|1:2,0:0:0:0:
137,146,2355,5,0,0:2:0:0:
237,204,2498,1,0,1:2:0:0:
323,126,2640,2,0,B|351:118|351:118|408:117,1,81.6000015563965,2|0,0:2|1:2,0:0:0:0:
482,332,3069,5,0,1:2:0:0:
443,225,3212,1,0,0:2:0:0:
403,117,3355,2,0,P|393:77|390:36,1,81.6000015563965,0|0,1:2|0:2,0:0:0:0:
507,62,3640,5,0,1:2:0:0:
403,117,3783,2,0,P|363:126|322:129,1,81.6000015563965,2|0,0:2|1:2,0:0:0:0:
302,242,4069,2,0,P|267:220|236:193,1,81.6000015563965,0|0,0:2|1:2,0:0:0:0:
142,258,4355,2,0,P|132:218|129:177,1,81.6000015563965,2|0,0:2|1:2,0:0:0:0:
236,56,4640,5,0,0:2:0:0:
322,129,4783,1,0,1:2:0:0:
302,242,4926,2,0,L|299:326,1,81.6000015563965,2|0,0:2|1:2,0:0:0:0:
75,353,5355,5,0,1:2:0:0:
38,245,5498,1,0,0:2:0:0:
128,176,5640,2,0,P|172:170|223:184,1,81.6000015563965,0|0,1:2|0:2,0:0:0:0:
299,323,5926,5,0,1:2:0:0:
206,257,6069,2,0,P|200:216|208:177,1,81.6000015563965,2|0,0:2|1:2,0:0:0:0:
316,214,6355,2,0,P|322:173|314:133,1,81.6000015563965,0|0,0:2|1:2,0:0:0:0:
208,176,6640,2,0,P|200:136|206:95,1,81.6000015563965,2|0,0:2|1:2,0:0:0:0:
329,19,6926,5,0,0:2:0:0:
314,133,7069,1,0,1:2:0:0:
208,176,7212,2,0,B|180:174|180:174|156:165|156:165|128:163,1,81.6000015563965,2|0,0:2|1:2,0:0:0:0:
127,162,8498,6,0,P|124:144|124:118,1,40.8000007781983,4|0,3:0|3:0,0:0:0:0:
175,18,8640,2,0,P|178:36|178:62,1,40.8000007781983,4|0,3:0|3:0,0:0:0:0:
151,90,8783,1,8,3:0:0:0:
256,136,8926,5,4,3:0:0:0:
331,39,9069,1,8,3:2:0:0:
391,184,9212,1,0,3:0:0:0:
391,184,9283,1,0,3:0:0:0:
390,183,9355,2,0,P|393:205|393:227,1,44.1599985175782,8|0,3:2|3:0,0:0:0:0:
487,119,9498,2,0,P|486:96|490:75,1,44.1599985175782,8|0,3:2|3:2,0:0:0:0:
492,269,9640,6,0,P|423:330|332:315,1,192,6|0,1:2|0:0,0:0:0:0:
240,240,10069,1,0,1:2:0:0:
96,353,10212,1,8,0:0:0:0:
96,353,10498,2,0,L|-13:343,1,96,2|0,0:1|0:0,0:0:0:0:
79,181,10783,6,0,P|105:114|92:78,1,96,2|0,1:2|0:0,0:0:0:0:
35,32,10998,2,0,P|80:88|117:94,1,96,0|0,1:0|0:0,0:0:0:0:
187,68,11212,1,0,1:0:0:0:
288,172,11355,2,0,P|274:223|215:195,1,115.2,8|0,0:0|0:0,0:0:0:0:
288,172,11640,2,0,L|397:182,1,96,2|0,0:1|0:0,0:0:0:0:
492,33,11926,6,0,B|455:62|455:62|302:46,1,192,2|0,1:2|0:0,0:0:0:0:
187,68,12355,1,0,1:0:0:0:
163,249,12498,1,8,0:0:0:0:
163,249,12783,2,0,L|171:344,1,96,2|0,0:1|0:0,0:0:0:0:
348,364,13069,6,0,P|383:332|429:319,1,96,2|0,1:2|0:0,0:0:0:0:
362,255,13283,2,0,P|388:295|429:319,1,96,0|0,1:0|0:0,0:0:0:0:
450,230,13498,1,0,1:0:0:0:
368,136,13640,1,8,0:0:0:0:
364,132,13712,1,0,3:0:0:0:
360,128,13783,1,0,3:0:0:0:
356,124,13855,1,0,3:0:0:0:
352,120,13926,2,0,L|243:110,1,96,2|0,0:1|0:0,0:0:0:0:
95,22,14212,6,0,B|123:127|61:109|84:209,1,192,2|0,1:2|0:0,0:0:0:0:
122,318,14640,1,0,1:0:0:0:
207,171,14783,1,8,0:0:0:0:
207,171,15069,2,0,L|316:161,1,96,2|0,0:1|0:0,0:0:0:0:
420,326,15355,5,2,1:2:0:0:
293,277,15498,1,0,0:0:0:0:
288,256,15569,2,0,B|291:222|291:222|300:198|300:198|302:161,1,96,0|0,1:0|0:0,0:0:0:0:
310,74,15783,1,0,1:0:0:0:
207,171,15926,2,0,P|159:174|155:105,1,115.2,8|0,0:0|0:0,0:0:0:0:
207,171,16212,2,0,L|197:280,1,96,2|0,0:1|0:0,0:0:0:0:
420,326,16498,6,0,B|427:255|427:255|413:211|413:211|420:136,1,192,2|0,1:2|0:0,0:0:0:0:
470,33,16926,1,0,1:0:0:0:
305,103,17069,1,8,0:0:0:0:
305,103,17355,2,0,L|196:93,1,96,2|0,0:1|0:0,0:0:0:0:
31,27,17640,5,2,1:2:0:0:
86,130,17783,1,0,0:0:0:0:
97,149,17855,2,0,P|102:196|85:240,1,96,0|0,1:0|0:0,0:0:0:0:
32,310,18069,1,0,1:2:0:0:
154,359,18212,2,0,B|180:366|180:366|250:362,1,96,8|0,0:0|0:0,0:0:0:0:
334,364,18426,1,4,0:3:0:0:
356,362,18498,1,8,0:3:0:0:
449,283,18640,1,8,0:3:0:0:
297,168,18783,6,0,B|241:107|291:35|291:35|324:66,1,192,6|0,1:2|0:0,0:0:0:0:
398,155,19212,1,0,1:2:0:0:
257,261,19355,1,8,0:0:0:0:
257,261,19641,2,0,L|148:251,1,96,2|0,0:1|0:0,0:0:0:0:
9,364,19926,6,0,P|32:320|22:272,1,96,2|0,1:2|0:0,0:0:0:0:
39,188,20140,2,0,P|16:229|23:275,1,96,0|0,1:0|0:0,0:0:0:0:
106,311,20355,1,0,1:0:0:0:
177,180,20498,2,0,B|145:174|118:187|118:187|117:155|97:137,1,115.2,8|0,0:0|0:0,0:0:0:0:
177,180,20783,2,0,L|272:188,1,96,2|0,0:1|0:0,0:0:0:0:
382,357,21069,6,0,B|366:311|366:311|393:272|393:272|403:174,1,192,2|0,1:2|0:0,0:0:0:0:
416,61,21498,1,0,1:0:0:0:
272,188,21641,1,8,0:0:0:0:
272,188,21926,2,0,L|177:180,1,96,2|0,0:1|0:0,0:0:0:0:
41,43,22212,6,0,P|76:75|123:46,1,96,2|0,1:2|0:0,0:0:0:0:
181,102,22426,2,0,P|133:99|120:46,1,96,0|0,1:0|0:0,0:0:0:0:
79,151,22641,1,0,1:0:0:0:
161,252,22783,1,8,0:0:0:0:
165,256,22855,1,0,3:0:0:0:
169,260,22926,1,0,3:0:0:0:
173,264,22998,1,0,3:0:0:0:
177,268,23069,2,0,L|167:377,1,96,2|0,0:1|0:0,0:0:0:0:
3,293,23355,6,0,P|75:251|82:160,1,192,2|0,1:2|0:0,0:0:0:0:
27,47,23783,1,0,1:0:0:0:
181,102,23926,1,8,0:0:0:0:
181,102,24212,2,0,L|276:110,1,96,2|0,0:1|0:0,0:0:0:0:
403,254,24498,5,2,1:2:0:0:
278,226,24641,1,0,0:0:0:0:
274,205,24712,2,0,B|268:167|268:167|276:109,1,96,0|0,1:0|0:0,0:0:0:0:
327,39,24926,1,0,1:0:0:0:
411,158,25069,2,0,B|452:189|500:171|500:171|482:157,1,115.2,8|0,0:0|0:0,0:0:0:0:
411,158,25355,2,0,L|403:253,1,96,2|0,0:1|0:0,0:0:0:0:
266,356,25640,6,0,B|225:370|174:342|202:330|146:285|91:311,1,192,2|0,1:2|0:0,0:0:0:0:
0,374,26069,1,0,1:0:0:0:
58,199,26212,1,8,0:0:0:0:
58,199,26498,2,0,L|167:189,1,96,2|0,0:1|0:0,0:0:0:0:
284,57,26783,5,2,1:2:0:0:
257,196,26926,1,0,0:0:0:0:
242,212,26998,2,0,P|195:213|154:190,1,96,0|0,1:0|0:0,0:0:0:0:
114,100,27212,1,0,1:0:0:0:
47,218,27355,2,0,B|46:251|46:251|55:276|55:276|54:312,1,96,8|0,0:0|0:0,0:0:0:0:
113,375,27569,1,4,0:3:0:0:
134,379,27641,1,8,0:2:0:0:
224,292,27783,1,8,0:2:0:0:
370,364,27926,6,0,B|382:344|381:316|381:316|397:303|397:303|414:235|368:179,1,192.000007324219,8|2,0:3|0:0,0:0:0:0:
209,18,28498,5,2,0:0:0:0:
224,292,28688,5,2,0:0:0:0:
453,144,28878,5,2,0:0:0:0:
295,151,29069,6,0,L|208:144,1,86.3999973632813,0|0,1:0|0:0,0:0:0:0:
88,162,29355,1,0,0:0:0:0:
157,62,29498,1,0,1:0:0:0:
161,229,29640,1,8,0:2:0:0:
162,251,29926,5,0,0:0:0:0:
311,166,30069,2,0,P|325:135|317:82,1,86.3999973632813,0|0,0:0|0:0,0:0:0:0:
160,65,30355,1,0,1:0:0:0:
160,65,30498,1,0,1:0:0:0:
311,166,30640,2,0,P|342:180|395:172,2,86.3999973632813,0|8|0,0:0|0:0|1:0,0:0:0:0:
237,19,31069,1,0,0:0:0:0:
167,143,31212,1,0,0:0:0:0:
331,177,31355,6,0,B|339:209|339:209|336:272,1,86.3999973632813,0|0,1:0|0:0,0:0:0:0:
272,368,31640,1,0,0:0:0:0:
240,251,31783,1,0,1:0:0:0:
361,360,31926,1,8,0:0:0:0:
371,379,32212,5,0,0:0:0:0:
507,294,32355,2,0,L|515:194,1,86.3999973632813,0|0,0:0|0:0,0:0:0:0:
453,78,32640,1,0,1:0:0:0:
453,78,32783,1,0,1:0:0:0:
329,175,32926,2,0,P|286:179|244:166,1,86.3999973632813,0|8,0:0|0:0,0:0:0:0:
322,27,33212,2,0,B|361:63|361:63|369:124|330:175,1,172.799994726563,0|0,1:0|0:0,0:0:0:0:
159,118,33640,6,0,P|119:100|76:99,1,86.3999973632813,0|0,1:0|0:0,0:0:0:0:
91,227,33926,1,0,0:0:0:0:
159,118,34069,1,0,1:0:0:0:
173,295,34212,1,8,0:2:0:0:
180,315,34498,5,0,0:0:0:0:
238,164,34640,2,0,B|254:138|247:96|247:96|261:107,1,86.3999973632813,0|0,0:0|0:0,0:0:0:0:
400,158,34926,1,0,1:0:0:0:
400,158,35069,1,0,1:0:0:0:
290,28,35212,2,0,B|264:12|222:19|222:19|233:4,2,86.3999973632813,0|8|0,0:0|0:0|1:0,0:0:0:0:
318,190,35640,1,0,0:0:0:0:
387,57,35783,1,0,0:0:0:0:
461,221,35926,6,0,B|464:256|464:256|456:277|456:277|459:307,1,86.3999973632813,0|0,1:0|0:0,0:0:0:0:
332,364,36212,1,0,0:0:0:0:
318,190,36355,1,0,1:0:0:0:
458,305,36498,1,8,0:0:0:0:
458,305,36783,6,0,B|456:277|456:277|464:256|464:256|461:221,1,86.3999973632813,2|0,0:0|0:0,0:0:0:0:
387,57,37069,5,0,1:0:0:0:
325,197,37212,1,8,0:0:0:0:
325,197,37283,1,8,0:0:0:0:
325,197,37355,1,8,1:2:0:0:
312,26,37498,5,0,1:2:0:0:
389,247,37640,1,0,1:0:0:0:
462,26,37783,5,8,1:2:0:0:
314,278,37926,1,8,1:2:0:0:
237,57,38069,5,8,0:0:0:0:
214,45,38140,1,8,0:0:0:0:
191,33,38212,1,4,1:2:0:0:
45,108,38355,5,0,0:0:0:0:
130,226,38498,2,0,P|138:273|139:321,1,96,10|0,0:2|0:0,0:0:0:0:
325,197,38783,5,0,0:0:0:0:
130,226,38926,1,0,0:0:0:0:
333,292,39069,1,8,0:0:0:0:
138,321,39212,1,0,0:0:0:0:
342,188,39355,6,0,B|376:187|402:210|402:210|389:182,1,96,2|0,0:2|0:0,0:0:0:0:
287,34,39640,1,10,0:0:0:0:
234,184,39783,2,0,L|226:285,1,96,2|0,0:2|0:0,0:0:0:0:
33,342,40069,5,2,0:2:0:0:
33,342,40140,1,2,0:2:0:0:
33,342,40212,1,8,0:0:0:0:
89,161,40355,2,0,P|97:114|98:66,1,96,2|0,0:0|0:0,0:0:0:0:
234,184,40640,5,0,0:2:0:0:
344,26,40783,1,8,0:0:0:0:
214,51,40926,1,0,0:0:0:0:
362,195,41069,5,0,0:2:0:0:
211,70,41212,1,0,0:0:0:0:
408,105,41355,1,8,0:0:0:0:
237,203,41498,1,0,0:0:0:0:
411,85,41640,6,0,P|456:72|502:83,1,96,2|0,0:2|0:0,0:0:0:0:
365,214,41926,1,10,0:0:0:0:
302,72,42069,2,0,P|256:58|210:69,1,96,2|0,0:2|0:0,0:0:0:0:
65,181,42355,5,2,0:2:0:0:
65,181,42426,1,2,0:2:0:0:
65,181,42498,1,8,0:0:0:0:
208,161,42640,2,0,P|221:115|210:69,1,96,2|0,0:0|0:0,0:0:0:0:
8,10,42926,5,0,0:0:0:0:
65,181,43069,1,8,0:0:0:0:
113,43,43212,1,0,0:0:0:0:
149,244,43355,5,0,0:0:0:0:
122,60,43498,1,0,0:0:0:0:
56,198,43640,1,8,0:0:0:0:
217,144,43783,1,0,0:0:0:0:
232,322,43926,5,0,0:0:0:0:
208,161,44069,1,0,0:0:0:0:
138,343,44212,1,10,0:0:0:0:
277,227,44355,2,0,B|298:201|306:167|306:167|306:186|315:211,1,96,2|0,0:2|0:0,0:0:0:0:
411,358,44640,5,2,0:2:0:0:
411,358,44712,1,2,0:2:0:0:
411,358,44783,1,8,0:0:0:0:
499,230,44926,2,0,L|507:116,1,96,2|0,0:0|0:0,0:0:0:0:
333,7,45212,5,0,0:0:0:0:
386,204,45355,1,8,0:0:0:0:
505,134,45498,1,0,0:0:0:0:
302,124,45640,5,0,0:0:0:0:
497,152,45783,1,0,0:0:0:0:
325,25,45926,1,8,0:0:0:0:
378,222,46069,1,0,0:0:0:0:
196,132,46212,5,2,0:2:0:0:
370,240,46355,1,0,0:2:0:0:
317,43,46498,1,10,0:2:0:0:
240,253,46640,2,0,L|232:367,1,96,2|0,0:1|0:0,0:0:0:0:
70,288,46926,5,10,0:2:0:0:
66,240,46997,1,10,0:2:0:0:
63,192,47068,1,10,0:0:0:0:
196,132,47212,1,10,0:2:0:0:
49,28,47355,6,0,B|29:14|29:14|16:109,1,105.600003222656,4|0,1:2|0:0,0:0:0:0:
57,47,47783,2,0,B|37:33|37:33|26:114,1,105.600003222656,0|0,1:0|0:0,0:0:0:0:
65,66,48212,2,0,B|45:52|45:52|34:133,1,105.600003222656,2|0,1:2|0:2,0:0:0:0:
103,198,48498,6,0,P|149:216|183:180,1,105.600003222656,0|0,1:2|0:0,0:0:0:0:
108,177,48926,2,0,P|154:195|188:159,1,105.600003222656,0|0,1:0|0:0,0:0:0:0:
109,154,49355,2,0,P|155:171|189:135,1,105.600003222656,2|0,1:2|0:2,0:0:0:0:
245,43,49640,6,0,B|286:35|286:35|367:46,1,105.600003222656,0|0,1:0|0:0,0:0:0:0:
247,63,50069,2,0,B|288:55|288:55|352:64,1,105.600003222656,0|0,1:0|0:0,0:0:0:0:
249,83,50498,2,0,B|290:75|290:75|354:84,1,105.600003222656,2|0,1:2|0:2,0:0:0:0:
423,168,50783,6,0,B|411:226|434:222|427:271,1,105.600003222656,0|0,1:0|0:0,0:0:0:0:
403,176,51212,2,0,B|391:234|414:230|406:280,1,105.600003222656,0|0,1:0|0:0,0:0:0:0:
383,184,51640,2,0,B|371:242|394:238|386:288,1,105.600003222656,2|0,1:2|0:0,0:0:0:0:
272,353,51926,6,0,P|205:312|133:324,1,144.000005493164,0|0,1:0|0:0,0:0:0:0:
14,373,52355,2,0,P|41:379|90:370,1,72.0000027465821,0|0,1:0|0:0,0:0:0:0:
142,319,52640,1,0,0:0:0:0:
48,246,52783,2,0,P|41:210|48:175,1,72.0000027465821,2|0,1:2|0:0,0:0:0:0:
151,55,53069,6,0,B|173:74|173:74|255:68,1,108.000004119873,0|0,1:0|0:0,0:0:0:0:
275,63,53355,1,0,0:0:0:0:
305,182,53498,1,0,1:0:0:0:
434,96,53640,2,0,P|442:62|445:26,1,72.0000027465821,0|0,0:0|0:0,0:0:0:0:
507,179,53926,1,2,1:2:0:0:
507,179,54069,1,2,0:2:0:0:
381,293,54212,6,0,L|257:281,1,96,0|0,1:0|0:0,0:0:0:0:
151,349,54498,1,2,1:2:0:0:
151,349,54640,1,2,0:0:0:0:
296,262,54783,2,0,L|391:271,1,96,0|0,1:0|0:0,0:0:0:0:
503,98,55069,6,0,P|470:171|392:154,1,172.799994726563,2|0,1:2|0:0,0:0:0:0:
341,85,55355,5,8,2:2:0:0:
298,55,55426,1,8,2:2:0:0:
246,56,55497,1,8,2:2:0:0:
205,87,55569,1,8,2:2:0:0:
190,137,55640,1,8,2:2:0:0:
175,187,55712,1,8,2:2:0:0:
134,218,55784,1,8,2:2:0:0:
82,219,55855,1,8,2:2:0:0:
38,189,55926,6,0,B|41:168|56:159|56:159|72:188|64:223|48:215|37:253|54:290,1,168,0|0,1:0|0:0,0:0:0:0:
171,341,56498,6,0,B|254:333|254:333|296:350|296:350|391:341,1,211.200006445313,6|8,0:2|0:0,0:0:0:0:
361,109,56926,2,0,B|328:61|328:61|318:234,1,211.200006445313,2|0,0:2|0:0,0:0:0:0:
171,341,57355,1,8,0:2:0:0:
113,159,57498,1,2,0:2:0:0:
319,213,57640,6,0,B|369:239|427:199|427:199|414:214|412:245,1,158.400004833985,2|0,0:2|0:0,0:0:0:0:
411,265,57926,1,8,0:0:0:0:
420,49,58069,2,0,B|385:-2|385:-2|323:67|363:133,1,211.200006445313,2|0,0:2|0:0,0:0:0:0:
512,274,58498,1,8,0:0:0:0:
342,360,58640,6,0,B|282:360|282:360|240:347,1,105.600003222656,2|0,0:2|0:0,0:0:0:0:
102,277,58926,1,2,0:2:0:0:
247,162,59069,6,0,P|265:113|258:61,1,105.600003222656,10|0,0:0|0:0,0:0:0:0:
102,277,59355,2,0,P|84:325|91:377,1,105.600003222656,2|0,0:0|0:0,0:0:0:0:
13,205,59640,1,8,0:0:0:0:
247,162,59783,6,0,B|298:189|298:189|279:226|224:266|173:209,1,211.200006445313,2|0,0:2|0:0,0:0:0:0:
73,20,60212,1,8,0:0:0:0:
13,205,60355,1,2,0:2:0:0:
199,47,60498,6,0,P|251:40|299:61,1,105.600003222656,2|0,0:0|0:0,0:0:0:0:
312,336,60783,2,0,P|260:343|212:322,1,105.600003222656,10|0,0:0|0:0,0:0:0:0:
458,100,61069,6,0,B|485:144|485:144|478:307,1,211.200006445313,2|8,0:2|0:0,0:0:0:0:
271,253,61498,2,0,P|292:159|389:166,1,211.200006445313,2|0,0:2|0:0,0:0:0:0:
413,384,61926,1,8,0:0:0:0:
507,204,62069,1,2,0:2:0:0:
274,256,62212,6,0,B|157:247|157:247|203:226,1,158.400004833985,2|0,0:2|0:0,0:0:0:0:
274,256,62498,1,8,0:0:0:0:
503,307,62640,2,0,P|513:255|506:203,1,105.600003222656,2|0,0:2|0:0,0:0:0:0:
348,59,62926,5,2,0:2:0:0:
274,256,63069,1,8,0:0:0:0:
98,113,63212,6,0,P|88:61|95:9,1,105.600003222656,2|8,0:1|0:0,0:0:0:0:
348,59,63498,1,2,0:3:0:0:
98,113,63640,5,10,0:0:0:0:
343,85,63783,1,2,0:3:0:0:
10,170,63926,5,10,0:0:0:0:
338,111,64069,1,2,0:3:0:0:
5,64,64212,5,10,0:0:0:0:
312,218,64355,1,2,0:2:0:0:
105,334,64498,6,0,B|66:346|66:346|87:216|87:216|122:245,1,216.000008239746,2|0,2:3|0:0,0:0:0:0:
190,301,65069,5,8,0:0:0:0:
222,315,65140,1,8,0:0:0:0:
258,313,65211,1,8,0:0:0:0:
289,294,65283,1,8,0:0:0:0:
309,265,65355,5,8,0:0:0:0:
312,218,65426,1,8,0:0:0:0:
314,170,65497,1,8,0:0:0:0:
317,122,65569,1,8,0:0:0:0:
318,74,65640,6,0,B|287:33|287:33|279:192,1,211.200006445313,6|8,0:2|0:0,0:0:0:0:
489,297,66069,2,0,P|495:199|401:174,1,211.200006445313,2|0,0:2|0:0,0:0:0:0:
258,313,66498,1,10,0:2:0:0:
152,236,66640,2,0,P|145:185|157:133,1,105.600003222656,0|0,0:2|0:0,0:0:0:0:
395,69,66926,6,0,L|401:174,1,105.600003222656,2|8,0:0|0:0,0:0:0:0:
157,133,67212,2,0,L|163:27,1,105.600003222656,2|0,0:0|0:0,0:0:0:0:
336,277,67498,1,2,0:0:0:0:
401,174,67640,2,0,L|395:69,1,105.600003222656,8|0,0:2|0:0,0:0:0:0:
147,6,67926,6,0,L|135:216,1,211.200006445313,2|8,0:2|0:0,0:0:0:0:
7,379,68355,2,0,B|-11:322|-11:322|1:153,1,211.200006445313,2|0,0:2|0:0,0:0:0:0:
147,6,68783,1,10,0:2:0:0:
140,111,68926,1,0,0:0:0:0:
134,216,69069,1,0,0:0:0:0:
329,76,69212,6,0,P|379:63|429:78,1,105.600003222656,2|8,0:0|0:0,0:0:0:0:
182,307,69498,2,0,P|132:320|82:305,1,105.600003222656,2|0,0:0|0:0,0:0:0:0:
256,192,69783,1,2,0:0:0:0:
328,307,69926,2,0,P|378:320|429:306,1,105.600003222656,8|0,0:0|0:0,0:0:0:0:
430,78,70212,6,0,P|350:138|377:233,1,211.200006445313,2|8,0:2|0:0,0:0:0:0:
338,11,70640,2,0,P|268:88|255:191,1,211.200006445313,2|0,0:2|0:0,0:0:0:0:
429,305,71069,1,10,0:2:0:0:
307,360,71212,2,0,L|200:353,1,105.600003222656,0|0,0:0|0:0,0:0:0:0:
157,146,71498,6,0,P|170:95|174:42,1,105.600003222656,2|8,0:0|0:0,0:0:0:0:
376,232,71783,2,0,P|363:182|359:129,1,105.600003222656,2|0,0:0|0:0,0:0:0:0:
162,275,72069,1,2,0:0:0:0:
157,146,72212,2,0,P|160:93|174:42,1,105.600003222656,8|0,0:0|0:0,0:0:0:0:
410,26,72498,5,10,0:2:0:0:
293,267,72640,1,2,0:3:0:0:
288,31,72783,5,8,0:2:0:0:
393,252,72926,1,2,0:3:0:0:
415,0,73069,5,10,0:2:0:0:
288,293,73212,1,2,0:3:0:0:
283,5,73355,5,8,0:2:0:0:
398,278,73498,1,2,0:3:0:0:
494,84,73640,1,8,0:0:0:0:
241,203,73783,6,0,P|183:201|139:162,1,120,2|8,0:1|1:2,0:0:0:0:
82,14,74069,1,8,0:0:0:0:
82,14,74140,1,8,0:0:0:0:
82,14,74212,1,8,1:2:0:0:
45,229,74355,1,8,0:0:0:0:
215,117,74498,1,8,1:2:0:0:
0,106,74640,1,8,0:0:0:0:
133,319,74783,5,4,0:0:0:0:
47,238,83926,6,0,L|53:166,1,72.0000027465821,4|0,1:2|0:0,0:0:0:0:
115,85,84212,1,8,0:0:0:0:
217,98,84355,1,0,1:0:0:0:
256,192,84498,1,0,0:0:0:0:
256,192,84783,1,8,0:0:0:0:
149,249,84926,6,0,L|155:177,1,72.0000027465821,0|0,0:0|1:0,0:0:0:0:
357,177,85212,2,0,L|363:249,1,72.0000027465821,0|8,0:0|0:0,0:0:0:0:
432,99,85498,2,0,P|368:69|299:83,1,144.000005493164,0|0,1:0|0:0,0:0:0:0:
256,192,85926,1,8,0:0:0:0:
212,300,86069,1,0,0:0:0:0:
154,177,86212,6,0,L|148:105,1,72.0000027465821,0|0,1:0|0:0,0:0:0:0:
101,15,86498,1,8,0:0:0:0:
11,62,86640,1,0,1:0:0:0:
58,152,86783,1,0,0:0:0:0:
58,152,87069,1,8,0:0:0:0:
152,248,87212,6,0,P|157:212|154:177,1,72.0000027465821,0|0,0:0|1:0,0:0:0:0:
256,264,87498,2,0,L|256:192,1,72.0000027465821,0|8,0:0|0:0,0:0:0:0:
359,248,87783,2,0,P|354:212|357:177,1,72.0000027465821,0|0,1:0|0:0,0:0:0:0:
400,84,88069,1,0,0:0:0:0:
501,96,88212,1,8,0:0:0:0:
501,96,88498,6,0,L|495:168,1,72.0000027465821,0|0,1:0|0:0,0:0:0:0:
481,266,88783,1,8,0:0:0:0:
403,329,88926,1,0,1:0:0:0:
302,316,89069,1,0,0:0:0:0:
302,316,89355,1,8,0:0:0:0:
256,192,89498,6,0,L|256:96,1,72.0000027465821,0|0,0:0|1:0,0:0:0:0:
154,177,89783,2,0,L|148:249,1,72.0000027465821,0|8,0:0|0:0,0:0:0:0:
46,305,90069,2,0,L|31:135,1,144.000005493164,0|0,1:0|0:0,0:0:0:0:
154,177,90498,1,8,0:0:0:0:
256,120,90640,1,0,0:0:0:0:
358,177,90783,6,0,L|364:249,1,72.0000027465821,0|0,1:0|0:0,0:0:0:0:
379,355,91069,1,8,0:0:0:0:
272,371,91212,1,0,1:0:0:0:
256,264,91355,1,0,0:0:0:0:
256,264,91640,6,0,B|240:200|271:204|256:128,1,129.599996044922,10|0,0:0|0:0,0:0:0:0:
200,74,91926,6,0,L|98:64,1,86.3999973632813,8|0,0:0|0:0,0:0:0:0:
26,176,92212,1,8,0:0:0:0:
24,197,92283,1,8,0:0:0:0:
23,219,92354,1,8,0:0:0:0:
22,240,92426,1,8,0:0:0:0:
20,262,92497,1,8,0:0:0:0:
19,283,92569,1,8,0:0:0:0:
20,308,92640,6,0,B|44:352|125:348|137:309|137:309|117:319|98:316,1,180.000006866455,0|0,1:3|0:0,0:0:0:0:
136,309,93069,6,0,B|256:317,1,96,4|0,0:2|0:0,0:0:0:0:
413,237,93355,1,8,0:0:0:0:
270,156,93498,1,0,0:0:0:0:
349,339,93640,5,0,0:0:0:0:
255,174,93783,1,0,0:0:0:0:
428,255,93926,1,8,0:0:0:0:
231,315,94069,1,0,0:0:0:0:
367,154,94212,5,2,0:2:0:0:
246,333,94355,2,0,B|212:341|212:341|140:335,1,96,2|8,0:2|0:0,0:0:0:0:
102,197,94640,6,0,P|97:149|80:104,1,96,2|0,0:0|0:0,0:0:0:0:
255,174,94926,2,0,P|218:143|174:124,1,96,2|8,0:0|0:0,0:0:0:0:
345,48,95212,2,0,P|298:52|253:69,2,96,2|0|0,0:0|0:0|0:0,0:0:0:0:
406,226,95640,5,8,0:0:0:0:
255,174,95783,1,0,0:0:0:0:
424,119,95926,5,0,0:0:0:0:
270,193,96069,1,0,0:0:0:0:
360,29,96212,1,8,0:0:0:0:
391,207,96355,1,0,0:0:0:0:
253,69,96498,5,2,0:2:0:0:
376,188,96640,1,2,0:2:0:0:
168,168,96783,1,8,0:0:0:0:
334,285,96926,6,0,P|378:302|425:300,1,96,2|0,0:0|0:0,0:0:0:0:
217,274,97212,2,0,P|223:321|249:361,1,96,2|8,0:0|0:0,0:0:0:0:
168,168,97498,2,0,P|130:197|108:239,2,96,2|0|0,0:0|0:0|0:0,0:0:0:0:
376,188,97926,6,0,P|420:206|467:204,1,96,8|0,0:0|0:0,0:0:0:0:
397,4,98212,1,0,0:0:0:0:
376,188,98355,1,0,0:0:0:0:
285,10,98498,1,8,0:0:0:0:
436,117,98640,1,0,0:0:0:0:
206,68,98783,6,0,B|66:58|66:58|93:67|120:92,1,192,2|8,0:2|0:0,0:0:0:0:
52,247,99212,2,0,P|34:203|35:156,1,96,2|0,0:0|0:0,0:0:0:0:
148,288,99498,2,0,P|119:326|77:349,1,96,2|8,0:0|0:0,0:0:0:0:
135,185,99783,2,0,P|182:191|223:216,1,96,2|0,0:0|0:0,0:0:0:0:
296,375,100069,5,0,0:0:0:0:
423,200,100212,1,8,0:0:0:0:
222,215,100355,1,0,0:0:0:0:
431,337,100498,2,0,B|468:337|497:310|497:310|494:332,1,96,2|0,0:2|0:0,0:0:0:0:
320,165,100783,5,8,0:0:0:0:
299,356,100926,1,0,0:0:0:0:
423,200,101069,2,0,P|431:151|413:106,1,96,2|0,0:2|0:0,0:0:0:0:
229,28,101355,5,10,0:0:0:0:
222,215,101498,2,0,L|217:320,1,96,2|0,0:2|0:0,0:0:0:0:
94,103,101783,5,10,0:0:0:0:
343,238,101926,1,8,0:0:0:0:
90,261,102069,1,8,0:0:0:0:
349,58,102212,5,4,1:2:0:0:
256,192,102283,12,8,104212,1:2:0:0:
77,103,104498,6,0,P|118:114|160:105,1,86.3999973632813,0|0,1:2|0:2,0:0:0:0:
116,189,104783,1,8,1:2:0:0:
160,105,104926,2,0,P|201:96|243:107,1,86.3999973632813,0|0,0:2|1:2,0:0:0:0:
243,107,105355,2,0,P|284:118|326:109,1,86.3999973632813,8|0,1:2|0:2,0:0:0:0:
433,19,105640,5,0,1:2:0:0:
504,81,105783,1,0,0:2:0:0:
511,175,105926,1,8,1:2:0:0:
447,247,106069,2,0,P|432:287|437:329,1,86.3999973632813,0|0,0:2|1:2,0:0:0:0:
437,329,106498,2,0,P|396:314|354:319,1,86.3999973632813,8|0,1:2|0:2,0:0:0:0:
222,360,106783,6,0,P|237:320|233:277,1,86.3999973632813,0|0,1:2|0:2,0:0:0:0:
354,318,107069,1,8,1:2:0:0:
233,277,107212,2,0,P|228:234|244:194,1,86.3999973632813,0|0,0:2|1:2,0:0:0:0:
244,194,107640,2,0,P|259:154|255:111,1,86.3999973632813,8|0,1:2|0:2,0:0:0:0:
360,178,107926,5,0,1:2:0:0:
243,194,108069,2,0,P|227:234|233:277,1,86.3999973632813,0|8,0:2|1:2,0:0:0:0:
244,194,108355,2,0,P|259:154|255:111,1,86.3999973632813,0|0,0:2|1:2,0:0:0:0:
255,111,108783,2,0,P|251:68|266:28,1,86.3999973632813,8|0,1:2|0:2,0:0:0:0:
167,103,109069,6,0,P|124:106|84:91,1,86.3999973632813,0|0,1:2|0:2,0:0:0:0:
14,25,109355,1,8,1:2:0:0:
84,91,109498,2,0,P|99:131|95:173,1,86.3999973632813,0|0,0:2|1:2,0:0:0:0:
95,173,109926,2,0,P|79:213|83:255,1,86.3999973632813,8|0,1:2|0:2,0:0:0:0:
83,255,110355,5,2,0:0:0:0:
166,346,110498,1,8,0:1:0:0:
204,228,110640,2,0,B|235:222|259:232|259:232|286:226|286:226|329:245|374:226,1,172.799994726563,2|0,0:0|0:0,0:0:0:0:
450,133,111069,1,8,0:1:0:0:
384,30,111212,1,8,0:1:0:0:
354,26,111283,1,8,0:1:0:0:
324,22,111355,6,0,B|266:16|266:16|213:33|213:33|126:26,1,201.599993847656,4|0,1:2|1:0,0:0:0:0:
152,154,111783,2,0,P|238:183|279:95,1,201.599993847656,0|0,0:0|1:0,0:0:0:0:
152,154,112212,2,0,L|141:271,1,100.799996923828,2|0,0:2|1:0,0:0:0:0:
9,373,112498,5,0,1:0:0:0:
119,362,112640,1,0,1:0:0:0:
142,254,112783,1,0,0:0:0:0:
46,198,112926,1,0,1:0:0:0:
119,362,113069,6,0,B|132:363|140:373|140:373|143:361|143:361|169:376|199:369|199:369|202:365|202:365|224:376|255:369,1,144.000005493164,10|0,0:2|0:0,0:0:0:0:
412,169,113640,6,0,P|363:175|318:155,1,100.799996923828,0|0,1:0|0:0,0:0:0:0:
304,44,113926,1,0,1:0:0:0:
317,154,114069,2,0,P|293:111|293:61,1,100.799996923828,0|8,1:0|0:0,0:0:0:0:
412,169,114355,1,0,1:0:0:0:
353,244,114498,2,0,B|302:248|302:248|255:230,1,100.799996923828,2|0,0:0|1:0,0:0:0:0:
191,91,114783,5,0,1:0:0:0:
137,188,114926,1,0,1:0:0:0:
28,166,115069,1,0,1:0:0:0:
15,56,115212,1,0,1:0:0:0:
137,188,115355,6,0,B|146:216|130:244|130:244|144:240|144:240|117:266|127:309,1,144.000005493164,10|0,0:2|0:0,0:0:0:0:
15,56,115926,6,0,P|105:85|167:9,1,201.599993847656,0|0,1:0|1:0,0:0:0:0:
276,142,116355,2,0,B|326:245|239:237|285:335,1,201.599993847656,0|0,1:0|1:0,0:0:0:0:
441,324,116783,2,0,P|403:290|354:282,2,100.799996923828,2|0|0,0:0|1:0|1:0,0:0:0:0:
285,335,117212,5,0,1:0:0:0:
210,198,117355,1,0,1:0:0:0:
354,282,117498,1,0,1:0:0:0:
155,297,117640,6,0,B|112:264|106:214|106:214|108:244|96:263,1,144.000005493164,10|0,0:2|0:0,0:0:0:0:
9,35,118212,6,0,P|57:49|107:46,1,100.799996923828,0|0,1:0|0:0,0:0:0:0:
219,72,118498,1,0,1:0:0:0:
108,46,118640,2,0,P|158:42|206:56,1,100.799996923828,0|8,1:0|0:0,0:0:0:0:
266,161,118926,1,0,1:0:0:0:
370,101,119069,2,0,B|378:83|382:67|382:67|364:31|386:-17,1,100.799996923828,2|0,0:2|1:0,0:0:0:0:
512,32,119355,6,0,P|487:29|462:30,1,50.3999984619141,8|8,1:1|2:1,0:0:0:0:
430,159,119498,2,0,P|445:139|457:117,1,50.3999984619141,8|8,1:1|2:1,0:0:0:0:
378,3,119640,1,0,1:0:0:0:
347,178,119783,1,0,1:0:0:0:
287,41,119926,6,0,B|277:38|263:42|263:42|252:36|252:36|236:41|236:41|220:31|220:31|201:42|201:42|179:26|179:26|158:45|158:45|120:18|82:37,1,230.4,2|0,0:2|0:0,0:0:0:0:
98,205,120498,6,0,B|117:175|117:175|113:106,1,105.600003222656,4|0,1:2|0:0,0:0:0:0:
133,122,120926,2,0,B|138:192|138:192|119:222,1,105.600003222656,0|0,1:0|0:0,0:0:0:0:
140,238,121355,2,0,B|159:208|159:208|154:138,1,105.600003222656,2|0,1:2|0:2,0:0:0:0:
219,34,121640,6,0,P|270:24|318:46,1,105.600003222656,0|0,1:2|0:0,0:0:0:0:
314,72,122069,2,0,P|266:50|215:60,1,105.600003222656,0|0,1:0|0:0,0:0:0:0:
211,84,122498,2,0,P|262:75|310:97,1,105.600003222656,2|0,1:2|0:2,0:0:0:0:
353,209,122783,6,0,B|351:242|351:242|356:275|356:275|352:314,1,105.600003222656,0|0,1:0|0:0,0:0:0:0:
329,328,123212,2,0,B|333:289|333:289|328:256|328:256|330:223,1,105.600003222656,0|0,1:0|0:0,0:0:0:0:
308,238,123640,2,0,B|305:270|305:270|310:303|310:303|306:342,1,105.600003222656,2|0,1:2|0:2,0:0:0:0:
184,282,123926,6,0,B|107:267|107:267|129:282,1,105.600003222656,0|0,1:0|0:0,0:0:0:0:
152,297,124355,2,0,B|129:282|129:282|206:296,1,105.600003222656,0|0,1:0|0:0,0:0:0:0:
229,312,124783,2,0,B|152:297|152:297|176:311,1,105.600003222656,2|0,1:2|0:0,0:0:0:0:
305,342,125069,6,0,B|426:355|426:355|476:311,1,172.799994726563,0|0,1:0|0:0,0:0:0:0:
410,189,125498,2,0,B|401:216|401:216|395:286,1,86.3999973632813,2|0,1:0|0:0,0:0:0:0:
219,121,125926,2,0,B|214:63|214:63|205:36,1,86.3999973632813,2|0,1:2|0:0,0:0:0:0:
89,112,126212,6,0,B|76:246,1,129.599996044922,2|0,1:2|0:0,0:0:0:0:
75,267,126498,1,2,0:0:0:0:
176,370,126641,1,2,1:0:0:0:
305,252,126783,2,0,P|347:247|388:260,1,86.3999973632813,2|0,0:0|0:0,0:0:0:0:
223,124,127069,1,2,1:2:0:0:
223,124,127212,1,0,0:2:0:0:
224,294,127355,6,0,B|275:299|305:252|305:252|347:237|388:260,1,182.399995129395,2|0,1:2|1:2,0:0:0:0:
502,363,127783,1,2,0:1:0:0:
395,348,127926,2,0,P|382:304|391:251,1,91.1999975646973,0|0,1:0|0:0,0:0:0:0:
432,102,128212,6,0,B|446:63|446:63|483:126|436:201,1,180,2|0,1:0|0:0,0:0:0:0:
387,259,128498,5,8,0:0:0:0:
343,283,128569,1,8,0:0:0:0:
297,280,128640,1,8,0:0:0:0:
256,255,128712,1,8,0:0:0:0:
233,214,128783,1,8,0:0:0:0:
210,173,128855,1,8,0:0:0:0:
169,147,128927,1,8,0:0:0:0:
123,146,128998,1,8,0:0:0:0:
80,168,129069,5,0,1:0:0:0:
80,168,130498,6,0,L|73:263,1,72.0000027465821,14|0,3:3|0:0,0:0:0:0:
80,168,130783,6,0,B|189:142|170:225|282:191,1,211.200006445313,6|8,0:2|0:0,0:0:0:0:
375,6,131212,2,0,B|320:-13|320:-13|238:21|235:102,1,211.200006445313,2|0,0:2|0:0,0:0:0:0:
225,312,131641,1,8,0:2:0:0:
80,168,131784,1,2,0:2:0:0:
296,208,131926,6,0,B|359:231|409:182|409:182|376:169,1,158.400004833985,2|0,0:2|0:0,0:0:0:0:
350,163,132212,1,8,0:0:0:0:
225,312,132355,2,0,B|167:314|134:266|134:266|101:321|44:320,1,211.200006445313,2|0,0:2|0:0,0:0:0:0:
0,117,132784,1,8,0:0:0:0:
219,210,132926,6,0,B|237:105,1,105.600003222656,2|0,0:2|0:0,0:0:0:0:
40,211,133212,1,2,0:2:0:0:
224,312,133355,6,0,P|274:294|309:254,1,105.600003222656,10|0,0:0|0:0,0:0:0:0:
232,3,133640,2,0,P|182:20|147:60,1,105.600003222656,2|0,0:0|0:0,0:0:0:0:
107,264,133926,1,8,0:0:0:0:
0,96,134069,6,0,B|65:103|65:103|124:145|124:145|203:150,1,211.200006445313,2|0,0:2|0:0,0:0:0:0:
22,11,134498,1,8,0:0:0:0:
40,211,134640,1,2,0:2:0:0:
181,73,134784,6,0,B|175:18|175:18|147:59,1,105.600003222656,2|0,0:0|0:0,0:0:0:0:
33,288,135069,2,0,B|5:330|5:330|-1:275,1,105.600003222656,10|0,0:0|0:0,0:0:0:0:
22,11,135355,6,0,B|87:18|87:18|146:60|146:60|225:65,1,211.200006445313,2|8,0:2|0:0,0:0:0:0:
266,279,135783,2,0,P|171:247|167:148,1,211.200006445313,2|0,0:2|0:0,0:0:0:0:
305,14,136212,1,8,0:0:0:0:
243,194,136355,1,2,0:2:0:0:
425,35,136498,6,0,B|400:13|354:5|308:17|308:17|325:34|342:38,1,158.400004833985,2|0,0:2|0:0,0:0:0:0:
425,35,136784,1,8,0:0:0:0:
496,221,136926,2,0,B|504:251|504:251|493:340,1,105.600003222656,2|0,0:2|0:0,0:0:0:0:
239,344,137212,5,2,0:2:0:0:
340,116,137355,1,8,0:0:0:0:
494,324,137498,6,0,P|449:342|383:324,1,105.600003222656,2|0,0:1|0:0,0:0:0:0:
228,116,137783,1,2,0:2:0:0:
239,344,137926,1,8,0:0:0:0:
354,227,138069,1,0,0:0:0:0:
108,161,138212,2,0,L|-5:152,1,105.600003222656,2|0,0:0|0:0,0:0:0:0:
239,344,138498,5,10,0:0:0:0:
340,116,138640,2,0,L|348:6,1,96,10|0,0:2|0:0,0:0:0:0:
441,89,139069,5,2,0:0:0:0:
441,89,139212,1,2,0:0:0:0:
436,183,139355,6,0,P|423:144|459:72,1,100.799996923828,2|0,0:0|0:0,0:0:0:0:
498,138,139640,6,0,P|512:193|484:242,1,115.2,2|0,0:0|0:0,0:0:0:0:
401,303,139926,6,0,B|318:308|318:308|253:276|253:276|168:282,1,240,12|8,0:2|0:0,0:0:0:0:
90,63,140355,1,2,0:2:0:0:
302,108,140498,2,0,B|323:136|323:136|326:220,1,120,8|0,0:0|0:0,0:0:0:0:
116,351,140783,5,8,0:0:0:0:
154,138,140926,1,2,0:2:0:0:
288,323,141069,2,0,P|347:329|400:302,1,120,8|0,0:0|0:0,0:0:0:0:
512,57,141355,5,8,0:0:0:0:
326,220,141498,2,0,P|298:167|303:108,1,120,2|8,0:2|0:0,0:0:0:0:
512,252,141783,5,2,0:2:0:0:
302,108,141926,1,8,0:0:0:0:
171,327,142069,2,0,P|112:333|59:306,1,120,2|8,0:2|0:0,0:0:0:0:
0,36,142355,5,2,0:2:0:0:
133,224,142498,2,0,P|160:171|155:112,1,120,10|0,0:0|0:0,0:0:0:0:
386,183,142783,2,0,P|354:132|300:107,1,120,10|0,0:0|0:0,0:0:0:0:
73,154,143069,5,8,0:2:0:0:
272,310,143212,2,0,P|300:258|296:199,1,120,2|8,0:2|0:0,0:0:0:0:
132,13,143498,5,2,0:2:0:0:
213,244,143640,1,8,0:0:0:0:
348,24,143783,1,2,0:2:0:0:
449,234,143926,6,0,B|443:353,1,120,10|0,0:0|0:0,0:0:0:0:
62,215,144212,2,0,B|56:95,1,120,10|0,0:0|0:0,0:0:0:0:
435,15,144498,6,0,P|376:109|272:72,1,240,12|8,0:2|0:0,0:0:0:0:
62,215,144926,1,2,0:2:0:0:
254,292,145069,2,0,B|289:300|289:300|384:301,1,120,8|0,0:0|0:0,0:0:0:0:
348,24,145355,5,8,0:0:0:0:
254,292,145498,1,2,0:2:0:0:
147,49,145640,2,0,B|116:12|116:12|63:53|97:163,1,180,8|0,0:0|0:0,0:0:0:0:
152,207,145926,5,8,0:0:0:0:
348,24,146069,2,0,P|403:3|461:20,2,120,2|8|0,0:2|0:0|0:0,0:0:0:0:
89,133,146498,5,10,0:0:0:0:
407,203,146640,1,2,3:0:0:0:
147,49,146783,2,0,P|91:28|34:45,1,120,8|0,0:0|0:0,0:0:0:0:
459,19,147069,5,10,0:0:0:0:
89,133,147211,1,2,0:3:0:0:
349,287,147355,2,0,P|405:308|462:291,1,120,8|0,0:0|0:0,0:0:0:0:
256,0,147640,5,10,0:0:0:0:
75,366,147783,1,2,0:3:0:0:
407,203,147926,5,2,1:3:0:0:
413,188,147997,1,2,2:3:0:0:
415,174,148068,1,2,2:3:0:0:
414,159,148140,1,2,2:3:0:0:
410,144,148211,1,8,1:1:0:0:
405,129,148283,1,2,2:3:0:0:
403,115,148354,1,2,2:3:0:0:
404,100,148426,1,2,2:3:0:0:
408,85,148498,5,10,1:2:0:0:
431,139,148569,1,8,2:0:0:0:
426,198,148640,1,8,2:0:0:0:
394,248,148712,1,8,2:0:0:0:
342,277,148783,1,8,1:2:0:0:
282,277,148855,1,8,0:2:0:0:
229,250,148926,1,8,0:2:0:0:
196,201,148998,1,8,0:2:0:0:
190,142,149069,6,0,L|275:147,1,72,2|0,3:2|0:0,0:0:0:0:
320,70,149355,5,4,0:2:0:0:
394,248,149498,2,0,B|336:278|336:278|146:267,1,220.800004211426,2|0,0:2|0:0,0:0:0:0:
0,370,149926,1,10,0:2:0:0:
63,251,150069,2,0,B|75:221|75:221|77:134,1,110.400002105713,0|0,0:0|0:0,0:0:0:0:
327,178,150355,6,0,P|316:124|319:69,1,110.400002105713,2|8,0:0|0:0,0:0:0:0:
76,142,150640,2,0,P|87:88|84:33,1,110.400002105713,2|0,0:0|0:0,0:0:0:0:
250,273,150927,1,2,0:0:0:0:
327,178,151069,2,0,P|330:123|319:69,1,110.400002105713,8|0,0:2|0:0,0:0:0:0:
65,19,151355,6,0,B|36:63|34:140|81:115|85:188|37:233,1,220.800004211426,2|8,0:2|0:0,0:0:0:0:
206,377,151784,2,0,P|280:302|384:324,1,220.800004211426,2|0,0:2|0:0,0:0:0:0:
512,140,152212,1,10,0:2:0:0:
406,107,152355,1,0,0:0:0:0:
300,74,152498,1,0,0:0:0:0:
144,232,152640,6,0,P|92:247|41:227,1,110.400002105713,2|8,0:0|0:0,0:0:0:0:
249,12,152926,2,0,P|301:-3|352:16,1,110.400002105713,2|0,0:0|0:0,0:0:0:0:
314,258,153212,1,2,0:0:0:0:
245,161,153355,2,0,P|257:108|299:74,1,110.400002105713,8|0,0:0|0:0,0:0:0:0:
379,309,153641,6,0,B|383:353|337:378|337:378|309:362|285:304|314:258,1,220.800004211426,2|8,0:2|0:0,0:0:0:0:
450,35,154069,2,0,P|429:136|327:148,1,220.800004211426,2|0,0:2|0:0,0:0:0:0:
149,29,154498,1,10,0:2:0:0:
64,151,154641,2,0,P|47:203|54:267,1,110.400002105713,0|0,0:0|0:0,0:0:0:0:
326,147,154926,6,0,L|330:20,1,110.400002105713,2|8,0:0|0:0,0:0:0:0:
178,218,155212,2,0,L|174:91,1,110.400002105713,2|0,0:0|0:0,0:0:0:0:
195,330,155498,1,2,0:0:0:0:
322,257,155640,2,0,L|326:130,1,110.400002105713,8|0,0:0|0:0,0:0:0:0:
512,0,155926,6,0,B|470:42|470:42|465:232,1,220.800004211426,2|8,0:2|0:0,0:0:0:0:
278,349,156355,2,0,B|320:307|320:307|325:146,1,220.800004211426,2|0,0:2|0:0,0:0:0:0:
149,29,156783,1,10,0:2:0:0:
139,138,156926,1,0,0:0:0:0:
129,248,157069,1,0,0:0:0:0:
324,146,157212,6,0,B|340:117|331:67|331:67|367:99,1,110.400002105713,2|8,0:0|0:0,0:0:0:0:
486,338,157498,2,0,P|425:251|317:252,1,220.800004211426,2|0,0:2|0:0,0:0:0:0:
119,358,157926,1,8,0:0:0:0:
119,358,158212,6,0,P|56:369|-5:330,1,115.199996484375,6|0,0:2|0:0,0:0:0:0:
121,105,158498,1,8,0:0:0:0:
318,251,158640,2,0,P|381:262|442:223,1,115.199996484375,2|0,0:2|0:0,0:0:0:0:
509,49,158926,1,0,0:0:0:0:
318,251,159069,5,10,0:2:0:0:
354,46,159212,1,0,0:2:0:0:
512,207,159355,1,0,0:0:0:0:
235,118,159498,6,0,L|93:101,1,115.199996484375,2|8,0:0|0:0,0:0:0:0:
318,251,159783,2,0,L|176:234,1,115.199996484375,2|0,0:0|0:0,0:0:0:0:
512,207,160069,1,2,0:0:0:0:
349,131,160212,2,0,L|234:117,1,115.199996484375,8|0,0:2|0:0,0:0:0:0:
511,206,160498,6,0,P|529:153|522:96,1,115.199996484375,2|0,0:2|0:0,0:0:0:0:
234,117,160783,1,8,0:0:0:0:
418,267,160926,2,0,P|471:248|511:207,1,115.199996484375,2|0,0:2|0:0,0:0:0:0:
401,28,161212,1,0,0:0:0:0:
302,301,161355,5,10,0:2:0:0:
307,71,161498,1,0,0:0:0:0:
418,267,161640,1,0,0:0:0:0:
234,117,161783,6,0,B|219:81|228:41|228:41|202:69,1,115.199996484375,2|8,0:0|0:0,0:0:0:0:
79,278,162069,2,0,B|64:314|73:354|73:354|47:325,1,115.199996484375,2|0,0:0|0:0,0:0:0:0:
57,55,162355,1,2,0:0:0:0:
203,165,162498,2,0,B|228:193|228:193|219:153|234:117,1,115.199996484375,8|0,0:0|0:0,0:0:0:0:
498,23,162783,6,0,B|495:146,1,120,6|0,0:2|0:0,0:0:0:0:
447,364,163069,1,8,0:0:0:0:
351,126,163212,2,0,P|293:111|234:116,1,120,2|0,0:2|0:0,0:0:0:0:
79,278,163498,1,0,0:0:0:0:
148,0,163640,5,10,0:2:0:0:
204,247,163783,1,0,0:0:0:0:
45,55,163926,1,0,0:0:0:0:
18,344,164069,6,0,B|75:361|75:361|133:345,1,120,2|8,0:0|0:0,0:0:0:0:
410,34,164355,2,0,B|353:17|353:17|294:32,1,120,2|0,0:0|0:0,0:0:0:0:
129,204,164640,1,2,0:0:0:0:
45,55,164783,2,0,B|102:38|102:38|160:53,1,120,8|0,0:0|0:0,0:0:0:0:
454,221,165069,5,10,0:2:0:0:
109,124,165211,1,2,0:3:0:0:
458,137,165355,5,8,0:2:0:0:
129,204,165497,1,2,0:3:0:0:
477,227,165640,5,10,0:2:0:0:
86,118,165783,1,2,0:3:0:0:
481,131,165926,5,8,0:2:0:0:
106,210,166069,1,2,0:3:0:0:
342,19,166212,5,10,1:2:0:0:
381,36,166283,1,8,2:2:0:0:
403,73,166354,1,8,2:2:0:0:
400,117,166426,1,8,2:2:0:0:
372,151,166497,1,8,1:2:0:0:
336,191,166569,1,8,2:2:0:0:
333,245,166641,1,8,2:2:0:0:
361,291,166712,1,8,2:2:0:0:
408,313,166783,6,0,L|463:316,1,52.8000016113282,8|8,0:2|0:2,0:0:0:0:
311,98,166926,2,0,L|255:94,1,52.8000016113282,8|8,0:2|0:2,0:0:0:0:
106,210,167069,5,4,1:3:0:0:
108,268,167140,1,8,2:3:0:0:
162,282,167212,1,8,2:3:0:0:
194,236,167283,1,8,2:3:0:0:
158,192,167355,1,12,1:2:0:0:
0,47,167640,5,0,0:0:0:0:
99,34,167783,1,0,0:0:0:0:
198,22,167926,1,2,0:0:0:0:
361,140,168212,5,0,0:0:0:0:
460,128,168355,1,2,0:0:0:0:
297,10,168640,1,2,0:0:0:0:
277,211,168926,1,2,0:0:0:0:
99,34,169212,5,2,0:0:0:0:
86,135,169355,1,2,0:0:0:0:
74,235,169498,2,0,L|62:330,1,67.1999979492188,2|2,0:0|0:0,0:0:0:0:
336,341,169926,5,0,0:0:0:0:
349,240,170069,1,0,0:0:0:0:
361,140,170212,1,2,0:0:0:0:
507,0,170498,5,0,0:0:0:0:
495,100,170640,1,2,0:0:0:0:
300,43,170926,1,2,0:0:0:0:
349,240,171212,1,2,0:0:0:0:
99,68,171498,5,2,0:0:0:0:
200,55,171641,1,2,0:0:0:0:
300,43,171784,2,0,L|395:31,1,67.1999979492188,2|2,0:0|0:0,0:0:0:0:
449,252,172212,5,0,0:0:0:0:
349,240,172355,1,0,0:0:0:0:
248,227,172498,1,2,0:0:0:0:
99,68,172783,5,0,0:0:0:0:
200,55,172926,1,2,0:0:0:0:
349,240,173212,1,2,0:0:0:0:
114,276,173498,1,2,0:0:0:0:
324,39,173783,5,2,0:0:0:0:
337,140,173926,1,2,0:0:0:0:
349,240,174069,2,0,L|360:335,1,67.1999979492188,2|2,0:0|0:0,0:0:0:0:
101,377,174498,5,0,0:0:0:0:
114,276,174641,1,0,0:0:0:0:
126,176,174784,1,2,0:0:0:0:
324,39,175069,5,0,0:0:0:0:
336,139,175212,1,2,0:0:0:0:
138,76,175498,1,2,0:0:0:0:
300,324,175783,6,0,P|329:335|376:328,1,67.1999979492188,2|0,0:0|0:0,0:0:0:0:
114,276,176069,2,0,P|145:264|178:267,1,67.1999979492188,2|0,0:0|0:0,0:0:0:0:
0,355,176355,5,2,0:0:0:0:
