osu file format v14

[General]
AudioFilename: audio.mp3
AudioLeadIn: 0
PreviewTime: 54850
Countdown: 0
SampleSet: Soft
StackLeniency: 0.4
Mode: 0
LetterboxInBreaks: 0
WidescreenStoryboard: 1

[Editor]
Bookmarks: 14286,19447,24608,34931,45253,50415,55576,66221,76221,86544,96866,107189,112350,117511,127834,138156,148479,153640,156221,158802,162673,167834,183318,184636,188114,190694,198436,201017,208759
DistanceSpacing: 0.8
BeatDivisor: 4
GridSize: 4
TimelineZoom: 2.150002

[Metadata]
Title:Six trillion years and overnight story
TitleUnicode:六兆年と一夜物語
Artist:ayaponzu*
ArtistUnicode:あやぽんず*
Creator:Gottagof4st
Version:Collab Hard
Source:
Tags:ayanokorin shanipika hailie Serizawa Haruki Jack J_a_c_k rolniczy Yugu Rokuchounen to Ichiya Monogatari
BeatmapID:1756356
BeatmapSetID:795001

[Difficulty]
HPDrainRate:5
CircleSize:3.5
OverallDifficulty:6
ApproachRate:8
SliderMultiplier:1.5
SliderTickRate:1

[Events]
//Background and Video events
0,0,"sixtrillion.jpg",0,0
//Break Periods
2,11607,13536
2,76421,85794
2,162873,165471
//Storyboard Layer 0 (Background)
//Storyboard Layer 1 (Fail)
//Storyboard Layer 2 (Pass)
//Storyboard Layer 3 (Foreground)
//Storyboard Sound Samples

[TimingPoints]
1666,769.230769230769,4,2,0,20,1,0
2435,750,4,2,0,20,1,0
3185,714.285714285714,4,2,0,20,1,0
3542,750,4,2,0,20,1,0
4667,714.285714285714,4,2,0,20,1,0
5024,722.89156626506,4,2,0,20,1,0
6108,769.230769230769,4,2,0,20,1,0
6492,869.565217391304,4,2,0,20,1,0
6926,839.160839160839,4,2,0,20,1,0
7765,800,4,2,0,20,1,0
8565,800,4,2,0,20,1,0
8965,714.285714285714,4,2,0,20,1,0
9322,759.493670886076,4,2,0,20,1,0
9701,789.473684210526,4,2,0,20,1,0
10096,869.565217391304,4,2,0,20,1,0
10748,821.917808219178,4,2,0,20,1,0
10953,909.090909090909,4,2,0,20,1,0
13965,322.58064516129,4,2,0,50,1,0
14286,322.58064516129,4,2,0,50,1,0
24608,-125,4,2,0,40,0,0
34850,-125,4,2,0,5,0,0
34931,-111.111111111111,4,2,0,50,0,0
42269,-111.111111111111,4,2,0,50,0,0
42350,-111.111111111111,4,2,0,50,0,0
50415,-111.111111111111,4,2,0,30,0,0
52350,-111.111111111111,4,2,0,60,0,0
52592,-111.111111111111,4,2,0,5,0,0
52673,-111.111111111111,4,2,0,60,0,0
52995,-90.9090909090908,4,2,0,60,0,0
55576,-80,4,2,0,70,0,1
65253,-80,4,2,0,70,0,0
65576,-100,4,2,0,70,0,0
65818,-100,4,2,0,5,0,0
65898,-76.9230769230769,4,2,0,70,0,0
66221,-83.3333333333333,4,2,0,70,0,1
70011,-83.3333333333333,4,2,0,5,0,1
70092,-83.3333333333333,4,2,0,70,0,1
70334,-83.3333333333333,4,2,0,5,0,1
70415,-83.3333333333333,4,2,0,70,0,1
76221,-83.3333333333333,4,2,0,60,0,0
85898,-83.3333333333333,4,2,0,40,0,0
86544,-125,4,2,0,40,0,0
96785,-125,4,2,0,5,0,0
96866,-111.111111111111,4,2,0,50,0,0
112350,-111.111111111111,4,2,0,30,0,0
114285,-111.111111111111,4,2,0,60,0,0
114931,-90.9090909090908,4,2,0,60,0,0
117511,-83.3333333333333,4,2,0,70,0,1
127189,-100,4,2,0,70,0,0
128156,-83.3333333333333,4,2,0,70,0,1
131947,-83.3333333333333,4,2,0,5,0,1
132027,-83.3333333333333,4,2,0,70,0,1
132269,-83.3333333333333,4,2,0,5,0,1
132350,-83.3333333333333,4,2,0,70,0,1
138156,-90.9090909090909,4,2,0,60,0,0
148479,-90.9090909090909,4,2,0,50,0,0
153640,-100,4,2,0,40,0,0
156221,-100,4,2,0,50,0,0
158802,-90.9090909090909,4,2,0,50,0,0
162673,-90.9090909090909,4,2,0,30,0,0
166221,-90.9090909090909,4,2,0,50,0,0
166544,-90.9090909090909,4,2,0,60,0,0
167834,-83.3333333333333,4,2,0,70,0,1
177108,-83.3333333333333,4,2,0,5,0,1
177189,-83.3333333333333,4,2,0,70,0,1
177431,-83.3333333333333,4,2,0,5,0,1
177511,-83.3333333333333,4,2,0,70,0,1
183318,329.67032967033,4,2,0,50,1,0
184636,400,4,2,0,50,1,0
185236,428.571428571429,4,2,0,50,1,0
185450,461.538461538462,4,2,0,50,1,0
185680,500,4,2,0,50,1,0
185930,555.555555555556,4,2,0,50,1,0
186824,322.58064516129,4,2,0,50,1,0
188114,-83.3333333333333,4,2,0,70,0,1
190694,-100,4,2,0,50,0,0

[Colours]
Combo1 : 241,129,254
Combo2 : 0,0,255
Combo3 : 37,185,239

[HitObjects]
161,111,1666,6,0,P|111:90|76:87,2,75,2|2|2,0:0|0:0|0:0,0:0:0:0:
161,111,3185,2,0,P|203:88|243:83,1,75
316,103,3917,1,0,0:0:0:0:
316,103,4667,6,0,L|320:192,1,75
395,237,5385,1,0,0:0:0:0:
341,309,5746,2,0,P|295:313|258:304,1,75,0|0,0:0|0:0,0:0:0:0:
193,247,6492,1,0,0:0:0:0:
90,357,6926,6,0,L|86:197,1,150,0|0,0:0|0:0,0:0:0:0:
111,112,8165,1,0,0:0:0:0:
34,40,8565,2,0,P|79:26|112:27,1,75,0|0,0:0|0:0,0:0:0:0:
194,73,9322,1,0,0:0:0:0:
283,32,9701,1,0,0:0:0:0:
368,91,10096,1,2,0:0:0:0:
368,91,10748,6,0,L|363:114,2,18.75
490,7,11407,1,2,0:0:0:0:
107,110,14286,5,4,1:0:0:0:
201,85,14447,1,12,0:3:0:0:
201,85,15576,5,4,1:0:0:0:
295,110,15737,1,12,0:3:0:0:
295,110,16866,5,4,1:0:0:0:
389,85,17027,1,12,3:0:0:0:
397,93,17995,5,6,3:3:0:0:
397,93,18076,1,6,3:3:0:0:
397,93,18156,2,0,L|402:137,3,37.5,4|0|0|12,1:0|0:0|1:0|0:3,0:0:0:0:
375,163,18479,2,0,L|370:207,3,37.5,0|4|12|4,1:0|3:3|3:3|3:3,0:0:0:0:
387,249,18802,2,0,P|348:233|311:237,1,75,4|0,1:0|1:0,0:0:0:0:
281,260,19044,1,0,1:0:0:0:
281,260,19124,2,0,L|228:263,3,37.5,0|0|0|0,1:0|1:0|1:0|1:0,0:0:0:0:
200,282,19447,6,0,L|204:133,1,150,4|0,1:0|1:0,0:0:0:0:
155,30,19931,1,2,0:0:0:0:
155,30,20011,1,2,0:0:0:0:
155,30,20092,2,0,P|117:19|81:24,1,75,4|2,0:3|0:0,0:0:0:0:
47,130,20415,2,0,P|85:141|121:136,1,75,0|2,1:0|0:0,0:0:0:0:
243,51,20737,6,0,B|321:36|321:36|385:65,1,150,4|0,1:0|1:0,0:0:0:0:
453,155,21221,1,2,0:0:0:0:
453,155,21302,1,0,1:0:0:0:
453,155,21382,2,0,L|459:234,1,75,4|2,1:2|1:2,0:0:0:0:
430,278,21624,1,2,1:2:0:0:
430,278,21705,2,0,L|371:284,3,37.5,0|0|2|0,1:0|1:0|1:2|1:0,0:0:0:0:
352,309,22027,6,0,L|358:366,4,37.5,4|2|0|0|0,1:0|1:2|1:0|1:2|1:0,0:0:0:0:
263,239,22511,6,0,L|269:182,4,37.5,4|2|0|0|0,1:0|1:2|1:0|1:2|1:0,0:0:0:0:
178,313,22995,6,0,L|184:370,4,37.5,4|2|0|0|2,1:0|1:2|1:0|1:2|1:0,0:0:0:0:
55,227,23479,6,0,L|61:170,4,37.5,4|2|0|0|2,1:0|1:2|1:0|1:2|1:0,0:0:0:0:
59,190,24608,6,0,L|207:182,1,120,4|4,0:0|0:3,0:0:0:0:
261,134,25092,1,2,0:0:0:0:
261,134,25253,2,0,L|409:142,1,120,4|4,0:3|0:3,0:0:0:0:
468,187,25737,1,0,3:0:0:0:
468,187,25898,6,0,L|464:119,1,60,4|0,0:3|0:0,0:0:0:0:
407,45,26221,2,0,L|347:48,1,60,4|0,0:3|3:0,0:0:0:0:
252,115,26544,2,0,L|184:111,1,60,4|0,0:3|0:0,0:0:0:0:
119,39,26866,1,4,0:3:0:0:
119,39,27027,1,2,0:0:0:0:
19,20,27189,6,0,B|-1:58|-1:58|0:146,1,120,4|4,0:3|0:3,0:0:0:0:
42,214,27673,1,2,0:0:0:0:
42,214,27834,2,0,B|106:190|106:233|160:212,1,120,4|4,0:3|0:3,0:0:0:0:
236,166,28318,1,2,0:0:0:0:
236,166,28479,6,0,P|283:157|323:159,1,60,4|0,0:3|0:0,0:0:0:0:
350,228,28802,2,0,P|318:191|300:156,1,60,4|2,0:3|0:0,0:0:0:0:
346,98,29124,2,0,P|330:143|308:176,1,60,4|0,0:3|0:0,0:0:0:0:
255,80,29447,1,4,0:3:0:0:
255,80,29769,6,0,P|198:113|206:177,1,120,4|4,0:3|0:3,0:0:0:0:
243,238,30253,1,2,0:0:0:0:
243,238,30415,2,0,L|253:365,1,120,4|4,0:3|0:3,0:0:0:0:
164,376,30898,1,0,3:0:0:0:
164,376,31060,6,0,B|159:335|139:316|139:316|108:298|70:298,1,120,4|4,0:3|0:3,0:0:0:0:
7,338,31544,1,0,3:0:0:0:
7,338,31705,2,0,B|1:288|1:288|12:260|12:260|6:202,1,120,4|4,0:3|0:3,0:0:0:0:
68,51,32350,6,0,P|114:39|150:39,1,60,4|0,0:3|0:0,0:0:0:0:
195,95,32673,1,4,0:3:0:0:
195,95,32834,2,0,B|240:115|240:115|316:113,1,120,2|0,0:0|0:0,0:0:0:0:
379,54,33318,2,0,P|401:98|400:132,1,60,4|2,0:3|0:0,0:0:0:0:
358,182,33640,5,4,0:3:0:0:
295,252,33963,1,4,0:3:0:0:
233,323,34285,1,4,0:3:0:0:
126,328,34608,6,0,P|98:288|50:274,1,90,12|0,0:3|0:0,0:0:0:0:
27,280,34931,6,0,L|29:136,1,134.999995880127,4|0,1:0|1:0,0:0:0:0:
0,40,35415,1,2,0:0:0:0:
0,40,35576,2,0,B|77:9|59:57|135:29,1,134.999995880127,4|0,0:3|1:0,0:0:0:0:
235,1,36060,1,2,0:0:0:0:
235,1,36221,6,0,L|241:74,1,67.4999979400635,4|0,0:3|0:0,0:0:0:0:
324,136,36544,2,0,L|330:63,1,67.4999979400635,0|0,1:0|3:0,0:0:0:0:
423,15,36866,2,0,L|429:88,1,67.4999979400635,4|0,0:3|0:0,0:0:0:0:
415,205,37189,1,0,1:0:0:0:
415,205,37350,1,0,3:0:0:0:
454,326,37511,6,0,B|422:296|422:296|329:299,1,134.999995880127,4|0,1:0|1:0,0:0:0:0:
278,366,37995,1,2,0:0:0:0:
278,366,38156,2,0,P|294:317|251:250,1,134.999995880127,4|0,0:3|1:0,0:0:0:0:
157,204,38640,1,2,0:0:0:0:
157,204,38802,6,0,P|210:184|225:165,1,67.4999979400635,4|0,0:3|0:0,0:0:0:0:
211,68,39124,2,0,P|167:32|143:28,1,67.4999979400635,0|0,1:0|3:0,0:0:0:0:
72,81,39447,1,4,0:3:0:0:
72,81,39527,1,0,1:0:0:0:
72,81,39608,2,0,P|62:136|71:159,1,67.4999979400635,0|0,3:0|1:0,0:0:0:0:
85,258,39931,1,0,3:0:0:0:
85,258,40011,1,0,1:0:0:0:
85,258,40092,6,0,B|72:295|42:314|42:314|72:328|89:370,1,134.999995880127,4|0,1:0|1:0,0:0:0:0:
191,376,40576,1,2,0:0:0:0:
191,376,40737,2,0,P|220:348|326:337,1,134.999995880127,4|0,0:3|1:0,0:0:0:0:
405,383,41221,1,2,0:0:0:0:
405,383,41382,6,0,B|408:323|408:323|394:294|394:294|396:242,1,134.999995880127,4|0,0:3|1:0,0:0:0:0:
460,169,41866,1,0,3:0:0:0:
460,169,42027,2,0,P|412:146|366:148,1,101.249996910095,4|0,0:3|0:0,0:0:0:0:
334,164,42350,2,0,L|334:78,1,67.4999979400635,0|0,1:0|3:0,0:0:0:0:
228,11,42673,6,0,L|90:15,1,134.999995880127,4|0,1:0|1:0,0:0:0:0:
38,138,43156,2,0,P|78:107|170:125,1,134.999995880127,2|0,0:0|0:0,0:0:0:0:
198,208,43640,1,0,1:0:0:0:
198,208,43802,1,2,0:0:0:0:
151,319,43963,5,4,0:3:0:0:
247,290,44124,2,0,L|385:294,1,134.999995880127,0|4,1:0|3:0,0:0:0:0:
458,360,44608,2,0,P|494:321|505:294,1,67.4999979400635,4|0,0:3|1:0,0:0:0:0:
440,226,44931,2,0,P|404:187|393:160,1,67.4999979400635,2|0,0:0|1:0,0:0:0:0:
397,140,45173,1,0,1:0:0:0:
397,140,45253,6,0,B|350:90|350:90|284:90|284:90|237:140,2,202.499993820191,4|8|4,1:0|0:3|0:0,0:0:0:0:
397,140,47189,1,2,0:0:0:0:
425,229,47511,1,4,0:3:0:0:
387,315,47834,6,0,B|276:271|291:350|187:306,2,202.499993820191,4|8|4,1:0|0:3|0:0,0:0:0:0:
387,315,49769,6,0,L|390:375,2,44.999998626709,0|0|0,3:0|3:0|3:0,0:0:0:0:
346,276,50092,2,0,L|349:216,2,44.999998626709,4|12|12,3:3|3:3|3:3,0:0:0:0:
302,299,50415,5,2,0:0:0:0:
302,299,51060,1,2,0:0:0:0:
302,299,51705,1,2,0:0:0:0:
310,306,52189,1,4,0:3:0:0:
310,306,52269,1,4,0:3:0:0:
310,306,52350,6,0,P|260:294|211:310,1,101.249996910095,4|4,1:0|0:3,0:0:0:0:
183,325,52673,2,0,P|177:300|160:278,3,33.7499989700318,0|0|0|0,1:0|1:0|1:0|1:0,0:0:0:0:
155,255,52995,6,0,P|201:211|193:127,1,123.75000377655,4|0,1:0|0:0,0:0:0:0:
194,113,53318,2,0,L|108:110,1,82.5000025177003,4|4,3:0|3:0,0:0:0:0:
40,8,53640,2,0,L|126:5,1,82.5000025177003,4|4,3:0|3:0,0:0:0:0:
241,40,53963,2,0,L|327:43,1,82.5000025177003,12|4,3:0|3:0,0:0:0:0:
442,9,54285,5,12,3:0:0:0:
442,9,54931,5,2,0:0:0:0:
442,9,55253,1,2,0:0:0:0:
442,9,55576,6,0,B|470:47|470:47|477:152,1,140.625,4|0,1:0|1:0,0:0:0:0:
479,182,55898,2,0,P|434:163|386:162,1,93.75,4|0,3:0|1:0,0:0:0:0:
308,225,56221,2,0,L|313:321,1,93.75,4|0,0:3|1:0,0:0:0:0:
316,356,56463,1,4,0:3:0:0:
316,356,56544,2,0,P|269:332|220:333,1,93.75,4|0,0:3|1:0,0:0:0:0:
118,382,56866,6,0,L|113:183,1,187.5,4|4,1:3|3:0,0:0:0:0:
65,102,57350,1,0,1:0:0:0:
130,22,57511,2,0,P|174:14|221:24,1,93.75,6|0,3:3|1:0,0:0:0:0:
250,55,57753,1,0,1:0:0:0:
250,55,57834,2,0,L|353:59,1,93.75,4|0,0:3|1:0,0:0:0:0:
460,93,58156,6,0,B|502:180|502:180|463:290,1,187.5,4|4,1:3|3:0,0:0:0:0:
372,295,58640,1,0,1:0:0:0:
372,295,58802,2,0,L|262:285,1,93.75,4|0,0:3|0:0,0:0:0:0:
177,303,59124,1,4,0:3:0:0:
177,303,59285,1,0,1:0:0:0:
79,246,59447,6,0,B|44:168|44:168|43:62,1,187.5,4|4,1:3|3:0,0:0:0:0:
130,10,59931,1,0,1:0:0:0:
175,102,60092,2,0,P|222:115|267:103,1,93.75,6|0,3:3|1:0,0:0:0:0:
305,8,60415,1,4,0:3:0:0:
404,32,60576,1,0,1:0:0:0:
404,32,60656,1,0,0:0:0:0:
404,32,60737,6,0,B|411:224,1,187.5,4|4,1:0|3:0,0:0:0:0:
444,317,61221,1,0,1:0:0:0:
342,335,61382,2,0,L|236:329,1,93.75,6|0,3:3|1:0,0:0:0:0:
210,329,61624,1,4,3:0:0:0:
210,329,61705,2,0,P|197:275|197:232,1,93.75,4|0,0:3|1:0,0:0:0:0:
284,183,62027,6,0,B|297:129|297:129|286:73,1,93.75,4|0,1:3|3:0,0:0:0:0:
231,5,62350,2,0,L|121:11,1,93.75,4|0,3:0|1:0,0:0:0:0:
33,22,62673,2,0,L|33:138,1,93.75,6|0,0:3|0:0,0:0:0:0:
21,151,62915,1,4,3:0:0:0:
21,151,62995,2,0,L|21:273,1,93.75,4|0,0:3|1:0,0:0:0:0:
83,327,63318,6,0,L|177:322,1,93.75,4|2,1:3|3:0,0:0:0:0:
208,302,63560,1,4,1:3:0:0:
208,302,63640,2,0,L|302:306,1,93.75,4|2,3:0|1:3,0:0:0:0:
387,362,63962,2,0,P|395:315|386:269,1,93.75,4|2,0:3|1:3,0:0:0:0:
362,240,64205,1,4,3:0:0:0:
362,240,64285,2,0,L|355:173,3,46.875,4|0|0|0,1:3|1:0|1:0|1:0,0:0:0:0:
335,162,64608,6,0,L|220:155,1,93.75,12|12,1:3|1:3,0:0:0:0:
232,43,64931,2,0,L|347:36,1,93.75,12|12,1:3|1:3,0:0:0:0:
434,13,65253,1,12,1:3:0:0:
434,13,65576,6,0,L|438:145,1,112.5,4|0,3:0|0:0,0:0:0:0:
459,158,65898,2,0,B|468:170|468:170|472:183|472:183|482:195|482:195|488:211|488:211,3,48.7499977684022,2|2|2|2,0:0|0:0|0:0|0:0,0:0:0:0:
477,235,66221,6,0,P|413:222|329:297,1,179.999994506836,4|4,1:0|3:0,0:0:0:0:
260,361,66705,1,0,1:0:0:0:
260,361,66786,1,0,0:0:0:0:
260,361,66866,2,0,L|170:366,1,89.9999972534181,4|0,0:3|1:0,0:0:0:0:
58,330,67189,6,0,L|53:143,1,179.999994506836,4|4,0:3|1:3,0:0:0:0:
142,105,67673,1,0,3:0:0:0:
200,184,67834,2,0,P|242:198|287:189,1,89.9999972534181,4|0,3:0|1:0,0:0:0:0:
317,172,68076,1,0,0:0:0:0:
317,172,68156,2,0,B|336:123|336:123|335:60,1,89.9999972534181,4|0,0:3|1:0,0:0:0:0:
259,4,68479,6,0,L|79:8,1,179.999994506836,4|4,0:3|1:3,0:0:0:0:
27,93,68963,1,0,3:0:0:0:
27,93,69125,2,0,L|131:99,1,89.9999972534181,0|0,0:0|0:0,0:0:0:0:
158,192,69447,1,4,0:3:0:0:
158,192,69608,1,0,1:0:0:0:
227,261,69770,6,0,P|244:200|308:180,1,134.999995880127,4|0,1:0|0:0,0:0:0:0:
343,180,70092,2,0,P|298:134|313:69,1,134.999995880127,4|0,1:0|0:0,0:0:0:0:
334,41,70415,1,4,1:0:0:0:
426,6,70576,1,4,1:3:0:0:
426,6,70656,1,0,1:0:0:0:
426,6,70737,2,0,L|484:-2,3,44.999998626709,4|0|4|0,1:3|1:0|1:3|1:0,0:0:0:0:
498,23,71060,6,0,B|484:214,1,179.999994506836,4|4,1:0|3:0,0:0:0:0:
493,301,71544,1,0,1:0:0:0:
413,360,71705,2,0,P|364:350|321:349,1,89.9999972534181,4|0,0:3|1:0,0:0:0:0:
290,362,71947,1,4,0:3:0:0:
290,362,72027,2,0,P|241:372|198:373,1,89.9999972534181,4|0,0:3|1:0,0:0:0:0:
101,374,72350,6,0,L|114:263,1,89.9999972534181,4|0,1:3|3:0,0:0:0:0:
12,274,72673,2,0,L|-1:163,1,89.9999972534181,4|0,3:0|1:0,0:0:0:0:
51,99,72996,2,0,L|145:103,1,89.9999972534181,4|0,0:3|1:0,0:0:0:0:
176,110,73238,1,0,1:0:0:0:
176,110,73318,2,0,L|270:106,1,89.9999972534181,4|0,0:3|1:0,0:0:0:0:
347,59,73641,6,0,P|362:105|353:146,1,89.9999972534181,4|2,1:3|3:0,0:0:0:0:
338,177,73883,1,4,1:3:0:0:
338,177,73963,2,0,P|323:223|332:264,1,89.9999972534181,4|2,3:0|1:3,0:0:0:0:
412,334,74285,2,0,P|458:346|502:333,1,89.9999972534181,4|2,0:3|1:3,0:0:0:0:
495,298,74528,1,4,3:0:0:0:
495,298,74608,2,0,L|501:246,3,44.999998626709,4|0|0|0,1:3|1:0|1:0|1:0,0:0:0:0:
506,217,74931,6,0,B|486:197|486:197|422:190,1,89.9999972534181,12|0,1:3|0:0,0:0:0:0:
351,123,75253,2,0,B|371:103|371:103|435:96,1,89.9999972534181,12|12,1:3|1:3,0:0:0:0:
498,22,75576,1,12,1:3:0:0:
498,22,75898,2,0,L|441:18,3,44.999998626709,4|2|2|2,3:0|3:2|3:0|3:2,0:0:0:0:
416,17,76221,5,4,1:0:0:0:
105,82,86544,6,0,B|151:63|151:63|230:66,1,120,4|0,0:0|3:0,0:0:0:0:
292,120,87027,1,2,0:0:0:0:
292,120,87189,2,0,B|338:139|338:139|417:136,1,120,0|0,3:0|3:0,0:0:0:0:
487,84,87673,1,2,0:0:0:0:
487,84,87834,6,0,L|492:155,1,60,2|2,3:2|0:0,0:0:0:0:
440,217,88156,2,0,L|435:288,1,60,0|2,3:0|0:0,0:0:0:0:
466,361,88479,1,0,3:0:0:0:
466,361,88802,2,0,L|391:364,1,60,0|2,3:0|0:0,0:0:0:0:
317,347,89124,6,0,P|266:315|201:314,1,120,2|0,0:0|3:0,0:0:0:0:
125,358,89608,1,2,0:0:0:0:
125,358,89769,2,0,P|127:297|95:241,1,120,0|0,3:0|3:0,0:0:0:0:
34,191,90253,1,2,0:0:0:0:
34,191,90415,6,0,L|29:118,1,60,2|0,3:2|0:0,0:0:0:0:
115,103,90737,2,0,L|110:176,1,60,0|0,3:0|0:0,0:0:0:0:
198,141,91060,2,0,L|193:68,1,60,0|2,3:0|3:0,0:0:0:0:
357,27,91544,5,2,0:0:0:0:
357,27,91705,2,0,B|335:80|387:96|359:147,1,120,4|0,0:0|3:0,0:0:0:0:
312,219,92189,1,2,0:0:0:0:
312,219,92350,1,2,3:0:0:0:
316,223,92834,5,2,0:0:0:0:
316,223,92995,2,0,L|185:230,1,120,2|0,3:2|3:0,0:0:0:0:
115,270,93479,1,2,0:0:0:0:
115,270,93640,1,2,3:3:0:0:
6,118,93963,6,0,L|2:57,1,60,0|2,3:0|0:0,0:0:0:0:
74,4,94285,2,0,L|206:9,1,120,2|0,0:0|3:0,0:0:0:0:
269,57,94769,2,0,L|401:52,1,120,2|0,0:0|0:0,0:0:0:0:
469,11,95253,1,0,3:0:0:0:
469,11,95415,1,2,0:0:0:0:
469,11,96221,5,2,0:0:0:0:
512,85,96544,6,0,P|480:113|466:168,1,90,12|0,0:3|0:0,0:0:0:0:
492,202,96866,6,0,L|348:206,1,134.999995880127,4|0,1:0|1:0,0:0:0:0:
273,251,97350,1,2,0:0:0:0:
273,251,97511,2,0,L|129:246,1,134.999995880127,4|0,0:3|1:0,0:0:0:0:
51,206,97995,1,2,0:0:0:0:
51,206,98156,6,0,B|46:169|46:169|52:131,1,67.4999979400635,4|2,0:3|0:0,0:0:0:0:
117,71,98479,2,0,B|154:66|154:66|192:72,1,67.4999979400635,0|0,1:0|3:0,0:0:0:0:
257,130,98802,1,4,0:3:0:0:
257,130,99124,1,0,1:0:0:0:
315,56,99285,1,0,3:0:0:0:
384,130,99447,6,0,L|392:269,1,134.999995880127,4|0,1:0|1:0,0:0:0:0:
339,344,99931,1,2,0:0:0:0:
339,344,100092,2,0,B|262:308|268:360|206:332,1,134.999995880127,4|0,0:3|1:0,0:0:0:0:
125,287,100576,1,2,0:0:0:0:
125,287,100737,6,0,P|83:254|67:214,1,67.4999979400635,4|0,0:3|0:0,0:0:0:0:
103,151,101060,2,0,P|95:203|68:237,1,67.4999979400635,0|0,1:0|0:0,0:0:0:0:
0,236,101382,1,4,0:3:0:0:
0,236,101463,1,0,1:0:0:0:
0,236,101544,2,0,P|49:216|92:222,1,67.4999979400635,0|0,3:0|0:0,0:0:0:0:
157,268,101866,1,0,3:0:0:0:
157,268,101947,1,0,1:0:0:0:
157,268,102027,6,0,B|198:268|226:291|226:291|257:270|303:268,1,134.999995880127,4|0,1:0|1:0,0:0:0:0:
375,286,102511,1,2,0:0:0:0:
375,286,102673,2,0,B|353:224|353:224|369:130,1,134.999995880127,4|0,0:3|0:0,0:0:0:0:
402,68,103156,1,2,0:0:0:0:
402,68,103318,6,0,L|256:62,1,134.999995880127,4|0,0:3|1:0,0:0:0:0:
183,17,103802,1,0,3:0:0:0:
183,17,103963,2,0,L|37:23,1,134.999995880127,4|0,0:3|1:0,0:0:0:0:
9,207,104608,6,0,P|52:177|143:180,1,134.999995880127,4|0,1:0|1:0,0:0:0:0:
195,246,105092,2,0,P|238:276|329:273,1,134.999995880127,2|0,0:0|0:0,0:0:0:0:
395,221,105576,1,0,1:0:0:0:
395,221,105737,1,2,0:0:0:0:
512,79,106060,6,0,B|465:60|465:60|418:79,1,101.249996910095,0|0,1:0|0:0,0:0:0:0:
394,109,106382,2,0,L|332:115,3,33.7499989700318,4|0|4|0,3:0|0:0|0:3|0:0,0:0:0:0:
326,96,106705,2,0,L|264:90,3,33.7499989700318,0|0|2|0,1:0|0:0|0:0|1:0,0:0:0:0:
256,102,107027,1,0,1:0:0:0:
256,102,107189,6,0,B|265:185|265:185|246:227|246:227|255:305,2,202.499993820191,4|8|4,1:0|0:3|0:0,0:0:0:0:
261,106,108640,1,8,0:3:0:0:
261,106,108802,1,0,1:0:0:0:
206,29,109124,2,0,P|141:16|67:30,1,134.999995880127,8|0,0:3|1:0,0:0:0:0:
42,116,109769,6,0,B|60:324,2,202.499993820191,4|4|4,1:0|0:3|0:0,0:0:0:0:
46,120,111221,1,8,0:3:0:0:
46,120,111382,2,0,L|158:128,1,89.999997253418,0|0,1:0|1:0,0:0:0:0:
181,156,111705,6,0,L|171:214,2,44.999998626709,8|0|8,3:0|3:0|3:0,0:0:0:0:
227,128,112027,2,0,L|217:70,2,44.999998626709,4|12|12,3:3|3:3|3:3,0:0:0:0:
273,156,112350,5,2,0:0:0:0:
273,156,112995,1,2,0:0:0:0:
273,156,113640,1,2,0:0:0:0:
281,164,114124,1,4,0:3:0:0:
281,164,114205,1,4,0:3:0:0:
281,164,114285,2,0,L|290:59,1,89.999997253418,4|0,1:0|0:0,0:0:0:0:
295,38,114608,2,0,L|351:33,3,33.7499989700318,0|0|0|0,1:0|1:0|1:0|1:0,0:0:0:0:
366,34,114931,6,0,B|391:68|391:68|401:166,1,123.75000377655,4|0,1:0|0:0,0:0:0:0:
378,189,115253,2,0,L|373:284,1,82.5000025177003,4|4,3:0|3:0,0:0:0:0:
307,356,115576,2,0,P|270:368|211:370,1,82.5000025177003,4|4,3:0|3:0,0:0:0:0:
150,297,115898,2,0,P|113:285|54:283,1,82.5000025177003,12|4,3:0|3:0,0:0:0:0:
12,374,116221,1,12,3:0:0:0:
12,374,116866,6,0,L|20:321,3,41.2500012588501,2|0|0|0,1:2|1:0|1:0|1:0,0:0:0:0:
36,299,117189,2,0,L|28:246,3,41.2500012588501,2|0|0|0,1:2|1:0|1:0|1:0,0:0:0:0:
5,215,117511,6,0,P|-17:153|5:91,1,134.999995880127,4|0,1:0|1:0,0:0:0:0:
45,60,117834,2,0,L|134:52,1,89.9999972534181,4|0,3:0|1:0,0:0:0:0:
223,8,118156,2,0,P|233:52|223:96,1,89.9999972534181,4|0,0:3|1:0,0:0:0:0:
204,143,118398,1,4,0:3:0:0:
204,143,118479,2,0,P|194:187|204:231,1,89.9999972534181,4|0,0:3|1:0,0:0:0:0:
275,300,118802,6,0,B|341:318|341:318|406:300,1,134.999995880127,4|4,1:3|0:3,0:0:0:0:
453,287,119124,2,0,L|460:197,1,89.9999972534181,4|0,3:0|1:0,0:0:0:0:
504,108,119447,2,0,P|460:98|416:108,1,89.9999972534181,6|0,3:3|1:0,0:0:0:0:
377,133,119689,1,0,1:0:0:0:
377,133,119770,2,0,P|333:143|289:133,1,89.9999972534181,4|0,0:3|0:0,0:0:0:0:
207,80,120092,6,0,B|178:55|139:61|139:61|116:114|139:167,1,179.999994506836,4|4,1:3|3:0,0:0:0:0:
207,244,120576,1,0,1:0:0:0:
207,244,120737,2,0,L|199:333,1,89.9999972534181,4|0,3:3|0:0,0:0:0:0:
114,381,121060,1,4,0:3:0:0:
114,381,121221,1,0,1:0:0:0:
33,324,121382,6,0,B|22:281|22:281|67:203|67:203|55:160,1,179.999994506836,4|4,1:3|3:0,0:0:0:0:
29,63,121866,1,0,1:0:0:0:
119,22,122027,2,0,L|208:29,1,89.9999972534181,6|0,3:3|1:0,0:0:0:0:
307,38,122349,1,4,0:3:0:0:
357,135,122511,1,0,1:0:0:0:
357,135,122592,1,0,1:0:0:0:
357,135,122673,6,0,P|367:199|335:257,1,134.999995880127,4|4,1:0|0:3,0:0:0:0:
290,280,122995,2,0,P|246:290|202:280,1,89.9999972534181,4|0,3:0|1:0,0:0:0:0:
138,205,123318,2,0,B|130:116,1,89.9999972534181,6|0,3:3|0:0,0:0:0:0:
104,79,123560,1,4,3:0:0:0:
104,79,123640,2,0,P|60:69|16:79,1,89.9999972534181,4|0,0:3|1:0,0:0:0:0:
0,176,123963,6,0,L|7:265,1,89.9999972534181,4|0,1:3|0:0,0:0:0:0:
67,345,124285,2,0,L|156:352,1,89.9999972534181,4|0,3:0|1:0,0:0:0:0:
195,260,124608,2,0,L|284:252,1,89.9999972534181,6|0,0:3|0:0,0:0:0:0:
327,224,124850,1,4,3:0:0:0:
327,224,124931,2,0,P|337:180|327:136,1,89.9999972534181,4|0,0:3|0:0,0:0:0:0:
283,49,125253,6,0,P|327:39|371:49,1,89.9999972534181,4|2,1:3|3:0,0:0:0:0:
419,74,125495,1,4,1:3:0:0:
419,74,125576,2,0,L|426:163,1,89.9999972534181,4|2,3:0|1:3,0:0:0:0:
474,251,125898,2,0,L|466:340,1,89.9999972534181,4|2,0:3|1:3,0:0:0:0:
420,349,126140,1,4,3:0:0:0:
420,349,126221,2,0,L|375:344,3,44.999998626709,4|0|0|0,1:3|1:0|1:0|1:0,0:0:0:0:
331,320,126544,6,0,B|323:290|323:290|338:232,1,89.9999972534181,12|0,1:3|0:0,0:0:0:0:
249,190,126866,2,0,B|257:220|257:220|242:278,1,89.9999972534181,12|12,1:3|1:3,0:0:0:0:
216,372,127189,1,12,1:3:0:0:
215,372,127511,6,0,B|198:387|174:383|174:383|159:351|174:318,1,112.5,4|0,3:0|0:0,0:0:0:0:
191,278,127834,2,0,B|154:274,3,37.5,2|2|2|2,0:0|0:0|0:0|0:0,0:0:0:0:
106,260,128156,6,0,B|86:216|106:172|106:172|146:149|146:149|168:110,1,179.999994506836,4|4,1:0|3:0,0:0:0:0:
238,43,128640,1,0,1:0:0:0:
238,43,128721,1,0,0:0:0:0:
238,43,128802,2,0,P|282:33|326:43,1,89.9999972534181,4|0,0:3|0:0,0:0:0:0:
412,90,129124,6,0,L|405:225,1,134.999995880127,4|0,0:3|0:0,0:0:0:0:
375,265,129447,2,0,P|331:275|287:265,1,89.9999972534181,4|0,1:3|0:0,0:0:0:0:
200,220,129769,2,0,L|110:227,1,89.9999972534181,4|0,3:0|1:0,0:0:0:0:
70,254,130011,1,0,0:0:0:0:
70,254,130092,2,0,L|62:343,1,89.9999972534181,4|0,0:3|1:0,0:0:0:0:
159,365,130415,6,0,B|247:395|247:335|335:365,1,179.999994506836,4|0,0:3|0:0,0:0:0:0:
436,386,130898,1,0,3:0:0:0:
436,386,131060,2,0,P|435:340|415:299,1,89.9999972534181,4|0,3:0|0:0,0:0:0:0:
364,224,131382,1,4,0:3:0:0:
364,224,131544,1,0,1:0:0:0:
265,224,131705,6,0,P|221:183|265:142,1,134.999995880127,4|0,1:0|0:0,0:0:0:0:
315,142,132027,2,0,P|359:101|315:60,1,134.999995880127,4|0,1:0|0:0,0:0:0:0:
265,60,132350,1,4,1:0:0:0:
174,76,132511,1,4,1:3:0:0:
174,76,132592,1,0,1:0:0:0:
174,76,132673,2,0,L|129:79,3,44.999998626709,4|0|0|0,1:3|1:0|0:0|1:0,0:0:0:0:
90,110,132995,6,0,B|72:176|72:176|90:241,1,134.999995880127,4|0,1:0|1:0,0:0:0:0:
120,280,133318,2,0,L|209:272,1,89.9999972534181,4|0,3:0|1:0,0:0:0:0:
298,228,133640,2,0,P|308:272|298:316,1,89.9999972534181,4|0,0:3|1:0,0:0:0:0:
281,364,133882,1,4,0:3:0:0:
281,364,133963,2,0,L|370:371,1,89.9999972534181,4|0,0:3|1:0,0:0:0:0:
460,327,134285,6,0,L|467:237,1,89.9999972534181,4|0,1:3|3:0,0:0:0:0:
387,180,134608,2,0,L|379:90,1,89.9999972534181,4|0,3:0|1:0,0:0:0:0:
323,9,134931,2,0,L|233:16,1,89.9999972534181,4|0,0:3|1:0,0:0:0:0:
201,54,135173,1,0,1:0:0:0:
201,54,135253,2,0,P|191:98|201:142,1,89.9999972534181,4|0,0:3|1:0,0:0:0:0:
245,230,135576,6,0,P|255:274|245:318,1,89.9999972534181,4|2,1:3|3:0,0:0:0:0:
217,359,135818,1,4,1:3:0:0:
217,359,135898,2,0,L|127:366,1,89.9999972534181,4|2,3:0|1:3,0:0:0:0:
50,305,136221,2,0,P|40:261|50:217,1,89.9999972534181,4|2,0:3|1:3,0:0:0:0:
76,178,136463,1,4,3:0:0:0:
76,178,136544,2,0,L|121:175,3,44.999998626709,4|0|0|0,1:3|0:0|0:0|0:0,0:0:0:0:
145,132,136866,6,0,B|175:124|175:124|233:139,1,89.9999972534181,12|0,1:3|0:0,0:0:0:0:
275,50,137188,2,0,B|245:58|245:58|187:43,1,89.9999972534181,12|12,1:3|1:3,0:0:0:0:
93,17,137511,1,12,1:3:0:0:
39,103,137673,1,2,1:2:0:0:
39,103,137753,1,0,1:0:0:0:
39,103,137834,2,0,L|35:147,3,44.999998626709,4|2|2|2,1:0|1:2|1:2|1:2,0:0:0:0:
33,193,138156,6,0,B|37:236|73:262|73:262|114:267|142:302,1,165.000005035401,4|6,1:0|3:3,0:0:0:0:
210,364,138640,1,0,1:0:0:0:
292,325,138802,2,0,P|332:316|372:325,1,82.5000025177003,6|0,0:3|0:0,0:0:0:0:
419,344,139044,1,4,0:3:0:0:
419,344,139124,2,0,L|426:261,1,82.5000025177003,4|0,0:3|1:0,0:0:0:0:
466,180,139447,6,0,P|426:171|386:180,1,82.5000025177003,6|2,1:3|1:2,0:0:0:0:
303,215,139769,2,0,P|263:224|223:215,1,82.5000025177003,4|0,3:0|1:0,0:0:0:0:
147,165,140092,1,6,3:3:0:0:
163,82,140253,1,0,1:0:0:0:
163,82,140334,1,0,1:0:0:0:
163,82,140415,2,0,L|205:85,3,41.2500012588501,4|0|0|0,0:3|1:0|0:0|1:0,0:0:0:0:
250,89,140737,5,4,1:0:0:0:
250,89,142027,5,4,1:3:0:0:
300,16,142189,1,0,1:0:0:0:
300,16,142269,1,4,0:3:0:0:
300,16,142350,2,0,L|381:8,1,82.5000025177003,4|0,1:0|1:0,0:0:0:0:
464,48,142673,2,0,L|468:90,3,41.2500012588501,6|0|12|4,3:3|1:0|1:3|3:0,0:0:0:0:
440,125,142995,2,0,L|437:167,3,41.2500012588501,4|0|0|4,0:3|1:0|1:0|0:3,0:0:0:0:
465,203,143318,6,0,P|485:260|465:317,1,123.75000377655,4|6,1:0|0:3,0:0:0:0:
429,345,143640,2,0,L|346:337,1,82.5000025177003,4|2,3:0|1:2,0:0:0:0:
260,333,143963,1,6,3:3:0:0:
260,333,144124,1,0,1:0:0:0:
195,270,144285,2,0,P|186:230|195:190,1,82.5000025177003,4|2,0:3|3:2,0:0:0:0:
221,154,144527,1,0,1:0:0:0:
221,154,144608,6,0,L|310:146,1,82.5000025177003,4|0,1:3|0:0,0:0:0:0:
393,138,144931,2,0,B|389:96,1,41.2500012588501,6|2,3:0|0:0,0:0:0:0:
394,59,145092,1,0,1:0:0:0:
394,59,145173,1,2,1:2:0:0:
394,59,145253,2,0,L|352:62,3,41.2500012588501,6|2|4|12,0:3|1:2|1:3|3:0,0:0:0:0:
316,35,145576,2,0,L|274:32,3,41.2500012588501,4|0|0|0,0:3|1:0|1:0|1:0,0:0:0:0:
238,59,145898,6,0,L|155:66,1,82.5000025177003,4|2,1:0|3:0,0:0:0:0:
82,118,146221,2,0,L|78:159,3,41.2500012588501,4|0|2|2,3:0|1:0|1:3|0:0,0:0:0:0:
106,196,146544,2,0,L|113:278,1,82.5000025177003,4|0,0:3|0:0,0:0:0:0:
165,352,146866,2,0,L|206:355,3,41.2500012588501,4|2|2|2,1:3|1:2|1:2|1:2,0:0:0:0:
243,328,147189,6,0,L|325:320,1,82.5000025177003,14|0,1:3|0:0,0:0:0:0:
399,269,147511,2,0,L|402:227,3,41.2500012588501,12|0|12|8,1:3|1:0|1:3|0:3,0:0:0:0:
375,191,147834,2,0,L|367:108,1,82.5000025177003,4|2,1:0|1:2,0:0:0:0:
316,35,148156,2,0,L|274:31,3,41.2500012588501,6|2|2|0,1:0|1:2|1:2|1:0,0:0:0:0:
238,59,148479,5,4,1:0:0:0:
200,141,148640,1,8,0:3:0:0:
200,141,149124,5,12,0:3:0:0:
252,215,149285,1,8,0:3:0:0:
252,215,149769,5,12,0:3:0:0:
381,125,150092,1,8,0:3:0:0:
238,59,150415,1,12,0:3:0:0:
252,215,150737,2,0,L|255:256,3,41.2500012588501,12|8|4|4,0:3|0:3|0:3|0:3,0:0:0:0:
259,301,151060,5,4,1:0:0:0:
185,354,151221,1,8,0:3:0:0:
185,354,151705,5,12,0:3:0:0:
102,314,151866,1,8,0:3:0:0:
102,314,152350,5,12,0:3:0:0:
168,172,152673,1,8,0:3:0:0:
259,301,152995,1,12,0:3:0:0:
102,314,153318,2,0,L|60:317,3,41.2500012588501,12|8|4|4,0:3|0:3|1:3|1:3,0:0:0:0:
16,321,153640,6,0,B|8:246|8:246|19:208|55:190,1,150,4|0,3:0|3:0,0:0:0:0:
140,154,154124,1,2,0:0:0:0:
140,154,154285,2,0,B|182:144|218:167|218:167|292:161,1,150,0|4,3:0|0:3,0:0:0:0:
366,214,154769,1,2,0:0:0:0:
366,214,154931,6,0,P|374:250|366:286,1,75,4|2,3:0|0:0,0:0:0:0:
297,345,155253,2,0,P|261:353|225:345,1,75,4|2,3:0|0:0,0:0:0:0:
156,286,155576,6,0,L|106:290,2,50,4|0|0,3:0|0:0|0:0,0:0:0:0:
194,240,155898,2,0,L|243:244,2,50,12|0|0,0:3|0:0|0:0,0:0:0:0:
156,194,156221,6,0,B|125:140|156:86|156:86|206:81,1,150,4|2,0:0|0:0,0:0:0:0:
274,75,156705,1,4,0:3:0:0:
330,155,156866,2,0,L|336:229,1,75,0|2,1:0|0:0,0:0:0:0:
388,295,157189,2,0,P|424:303|460:295,1,75,2|4,0:0|0:3,0:0:0:0:
512,230,157511,5,2,0:0:0:0:
503,133,157673,1,0,1:0:0:0:
448,74,157834,2,0,L|373:67,1,75,0|4,3:0|0:3,0:0:0:0:
276,58,158156,1,0,1:0:0:0:
164,219,158479,1,0,1:0:0:0:
269,236,158640,1,4,0:3:0:0:
269,236,158721,1,4,0:3:0:0:
269,236,158802,6,0,B|224:266|211:317|211:317|179:314|150:326,1,165.000005035401,0|0,1:0|1:0,0:0:0:0:
68,365,159285,1,4,0:3:0:0:
10,295,159447,2,0,P|1:255|10:215,1,82.5000025177003,0|4,1:0|0:3,0:0:0:0:
52,135,159769,2,0,P|61:95|52:55,1,82.5000025177003,0|4,1:0|3:0,0:0:0:0:
130,8,160092,6,0,B|160:0|160:0|218:15,1,82.5000025177003,4|4,1:0|0:3,0:0:0:0:
297,36,160415,1,4,1:3:0:0:
290,127,160576,1,4,0:3:0:0:
283,218,160738,6,0,B|265:210|265:210|247:213|247:213|229:207,2,55.0000016784668,4|2|0,1:3|1:3|0:0,0:0:0:0:
320,265,161060,2,0,B|337:257|337:257|355:260|355:260|373:254,2,55.0000016784668,2|2|2,1:3|1:3|1:3,0:0:0:0:
320,265,162673,5,4,0:0:0:0:
320,265,166221,5,12,0:3:0:0:
243,100,166544,1,4,0:0:0:0:
243,100,166866,5,4,1:0:0:0:
191,174,167027,1,0,1:0:0:0:
229,257,167189,1,0,1:0:0:0:
229,257,167511,5,4,1:0:0:0:
342,95,167834,6,0,B|378:69|378:69|467:60,1,134.999995880127,4|4,1:0|0:3,0:0:0:0:
510,87,168156,2,0,P|520:131|510:175,1,89.9999972534181,4|0,3:0|1:0,0:0:0:0:
441,245,168479,2,0,L|448:334,1,89.9999972534181,6|0,3:3|1:0,0:0:0:0:
409,364,168721,1,4,3:0:0:0:
409,364,168802,2,0,P|365:374|321:364,1,89.9999972534181,4|0,0:3|1:0,0:0:0:0:
240,310,169124,6,0,L|247:220,1,89.9999972534181,4|0,1:3|3:0,0:0:0:0:
155,182,169447,2,0,L|147:93,1,89.9999972534181,4|0,3:0|1:0,0:0:0:0:
228,35,169769,2,0,L|317:42,1,89.9999972534181,6|0,0:3|1:0,0:0:0:0:
359,79,170011,1,4,3:0:0:0:
359,79,170092,2,0,P|369:123|359:167,1,89.9999972534181,4|0,0:3|1:0,0:0:0:0:
310,252,170415,6,0,P|300:296|310:340,1,89.9999972534181,4|2,1:3|3:0,0:0:0:0:
348,377,170656,1,4,1:3:0:0:
348,377,170737,2,0,L|437:384,1,89.9999972534181,4|2,3:0|1:3,0:0:0:0:
503,310,171060,2,0,P|493:266|503:222,1,89.9999972534181,4|2,0:3|1:3,0:0:0:0:
512,178,171302,1,4,3:0:0:0:
512,178,171383,2,0,L|467:181,3,44.999998626709,4|0|0|0,1:3|1:0|1:0|1:0,0:0:0:0:
433,145,171705,6,0,B|403:137|403:137|345:152,1,89.9999972534181,12|12,1:3|1:3,0:0:0:0:
303,63,172027,2,0,B|333:71|333:71|391:56,1,89.9999972534181,12|12,1:3|1:3,0:0:0:0:
485,30,172350,2,0,L|481:74,2,44.999998626709,12|0|2,1:3|0:0|0:0,0:0:0:0:
390,56,172673,5,4,1:0:0:0:
307,237,172995,2,0,L|262:232,3,44.999998626709,8|8|8|8,0:3|0:3|0:3|0:3,0:0:0:0:
212,227,173318,6,0,B|167:223|167:223|130:196|130:196|83:197|47:166,1,179.999994506836,4|4,1:0|3:0,0:0:0:0:
0,92,173802,1,0,1:0:0:0:
0,92,173882,1,0,0:0:0:0:
0,92,173963,2,0,P|-10:48|0:4,1,89.9999972534181,4|0,0:3|1:0,0:0:0:0:
89,48,174285,6,0,L|223:59,1,134.999995880127,4|0,0:3|0:0,0:0:0:0:
267,85,174608,2,0,P|277:129|267:173,1,89.9999972534181,4|0,1:3|3:0,0:0:0:0:
223,261,174931,2,0,P|267:271|311:261,1,89.9999972534181,4|0,3:0|1:0,0:0:0:0:
356,239,175173,1,0,0:0:0:0:
356,239,175253,2,0,L|348:328,1,89.9999972534181,4|0,0:3|1:0,0:0:0:0:
443,360,175576,6,0,B|493:383|493:383|482:259,1,179.999994506836,4|4,0:3|1:0,0:0:0:0:
429,182,176060,1,0,1:0:0:0:
429,182,176221,2,0,L|436:92,1,89.9999972534181,12|0,3:0|1:0,0:0:0:0:
359,40,176544,1,4,1:0:0:0:
359,40,176705,1,0,1:0:0:0:
270,82,176866,6,0,B|222:129|222:129|270:177,1,134.999995880127,4|0,1:0|0:0,0:0:0:0:
306,213,177189,2,0,B|353:260|353:260|306:308,1,134.999995880127,4|0,1:0|0:0,0:0:0:0:
271,343,177511,1,4,1:0:0:0:
180,342,177673,1,4,1:3:0:0:
180,342,177753,1,0,1:0:0:0:
180,342,177834,2,0,L|135:338,3,44.999998626709,4|0|4|0,1:3|1:0|1:3|1:0,0:0:0:0:
94,310,178156,6,0,P|72:248|94:186,1,134.999995880127,4|0,1:0|1:0,0:0:0:0:
130,150,178479,2,0,L|122:60,1,89.9999972534181,4|0,3:0|1:0,0:0:0:0:
203,4,178802,2,0,L|292:11,1,89.9999972534181,4|0,0:3|1:0,0:0:0:0:
334,49,179044,1,4,0:3:0:0:
334,49,179124,2,0,P|344:93|334:137,1,89.9999972534181,4|0,0:3|1:0,0:0:0:0:
280,220,179447,6,0,L|287:309,1,89.9999972534181,4|0,1:3|3:0,0:0:0:0:
378,352,179769,2,0,L|467:359,1,89.9999972534181,4|0,3:0|1:0,0:0:0:0:
476,261,180092,2,0,L|468:171,1,89.9999972534181,4|0,0:3|1:0,0:0:0:0:
432,145,180334,1,0,1:0:0:0:
432,145,180414,2,0,P|388:135|344:145,1,89.9999972534181,4|0,0:3|1:0,0:0:0:0:
280,220,180737,6,0,L|191:212,1,89.9999972534181,4|2,1:3|3:0,0:0:0:0:
156,184,180979,1,4,1:3:0:0:
156,184,181059,2,0,P|146:140|156:96,1,89.9999972534181,4|2,3:0|1:3,0:0:0:0:
227,28,181382,2,0,L|316:35,1,89.9999972534181,4|2,0:3|1:3,0:0:0:0:
329,89,181624,1,4,3:0:0:0:
329,89,181705,2,0,L|324:132,3,44.999998626709,4|0|0|0,1:3|1:0|1:0|1:0,0:0:0:0:
357,171,182027,6,0,B|387:179|387:179|445:164,1,89.9999972534181,12|12,1:3|1:3,0:0:0:0:
487,253,182349,2,0,B|457:245|457:245|399:260,1,89.9999972534181,12|12,1:3|1:3,0:0:0:0:
305,286,182672,1,12,1:3:0:0:
257,213,182834,1,0,1:0:0:0:
257,213,182915,1,0,1:0:0:0:
257,213,182995,2,0,L|212:216,3,44.999998626709,2|2|2|2,1:2|1:2|1:2|1:2,0:0:0:0:
175,200,183318,6,0,P|139:137|175:75,1,150,4|4,1:0|3:0,0:0:0:0:
251,40,183812,1,0,1:0:0:0:
318,87,183977,1,4,0:3:0:0:
401,60,184142,1,0,1:0:0:0:
401,60,184224,1,4,0:3:0:0:
401,60,184307,2,0,L|438:63,3,37.5,4|0|0|0,0:3|1:0|1:0|1:0,0:0:0:0:
464,90,184636,6,0,P|467:127|464:164,1,75,4|12,1:0|0:3,0:0:0:0:
380,195,185036,2,0,P|376:232|379:269,1,75,12|12,0:3|0:3,0:0:0:0:
405,350,185450,5,12,3:0:0:0:
325,370,185680,5,0,1:0:0:0:
261,320,185930,5,4,1:3:0:0:
230,235,186207,6,0,B|225:217|225:217|230:199|230:199|225:181|225:181|230:163,1,75,12|2,3:0|2:0,0:0:0:0:
230,163,187469,6,0,L|155:156,1,75,0|8,1:0|3:0,0:0:0:0:
118,156,187711,1,8,3:0:0:0:
118,156,187791,1,0,1:0:0:0:
69,245,187953,1,4,0:3:0:0:
69,245,188033,1,4,0:3:0:0:
69,245,188114,6,0,P|59:289|69:333,1,89.9999972534181,4|2,1:0|3:0,0:0:0:0:
109,369,188356,1,4,1:3:0:0:
109,369,188436,2,0,L|154:372,3,44.999998626709,4|0|10|0,1:3|1:0|1:3|1:0,0:0:0:0:
196,345,188759,2,0,L|240:341,3,44.999998626709,4|12|2|4,1:3|1:3|1:3|3:0,0:0:0:0:
282,369,189082,2,0,L|326:372,3,44.999998626709,12|12|12|12,1:3|1:3|1:3|1:3,0:0:0:0:
368,345,189404,6,0,B|398:337|398:337|456:352,1,89.9999972534181,12|12,1:3|1:3,0:0:0:0:
498,263,189727,2,0,B|468:271|468:271|410:256,1,89.9999972534181,12|12,1:3|1:3,0:0:0:0:
316,230,190049,1,12,1:3:0:0:
316,230,190372,2,0,L|319:186,3,44.999998626709,2|2|2|2,1:2|1:2|1:2|1:2,0:0:0:0:
298,145,190694,6,0,P|224:128|151:145,1,150,4|0,1:0|1:0,0:0:0:0:
98,218,191178,1,2,0:0:0:0:
98,218,191259,1,2,0:0:0:0:
98,218,191340,2,0,L|91:292,1,75,4|0,0:3|0:0,0:0:0:0:
4,271,191662,2,0,L|10:196,1,75,0|2,1:0|0:0,0:0:0:0:
64,122,191985,6,0,B|79:86|64:50|64:50|93:24|134:31,1,150,4|0,1:0|0:0,0:0:0:0:
230,63,192469,1,2,0:0:0:0:
230,63,192549,1,2,0:0:0:0:
230,63,192630,2,0,P|266:71|302:63,1,75,4|0,0:3|0:0,0:0:0:0:
386,27,192953,2,0,P|394:63|386:99,1,75,0|0,1:0|0:0,0:0:0:0:
355,184,193275,6,0,B|335:234|355:284|355:284|315:259,1,150,4|0,1:0|1:0,0:0:0:0:
248,215,193759,1,2,0:0:0:0:
248,215,193840,1,2,0:0:0:0:
248,215,193920,2,0,L|173:221,1,75,4|2,0:3|0:0,0:0:0:0:
97,270,194243,2,0,L|90:344,1,75,0|2,1:0|0:0,0:0:0:0:
182,332,194565,5,4,1:0:0:0:
182,332,194727,1,2,0:0:0:0:
266,362,194888,2,0,L|303:365,3,37.5,0|2|2|2,1:0|0:0|0:0|0:0,0:0:0:0:
347,350,195211,2,0,P|383:342|419:350,1,75,4|0,0:3|0:0,0:0:0:0:
505,380,195533,1,0,1:0:0:0:
496,299,195694,1,2,0:0:0:0:
496,299,195775,1,0,1:0:0:0:
496,299,195856,6,0,B|489:262|489:262|457:236|458:197|458:197|480:166,1,150,4|0,1:0|0:0,0:0:0:0:
463,87,196340,1,2,0:0:0:0:
463,87,196420,1,2,0:0:0:0:
463,87,196501,2,0,P|427:95|391:87,1,75,4|0,0:3|0:0,0:0:0:0:
307,51,196824,2,0,P|299:87|307:123,1,75,0|0,1:0|0:0,0:0:0:0:
355,200,197146,6,0,B|308:238|308:238|218:230,1,150,4|0,1:0|1:0,0:0:0:0:
137,230,197630,1,2,0:0:0:0:
137,230,197711,1,2,0:0:0:0:
137,230,197791,2,0,L|143:304,1,75,4|2,0:3|0:0,0:0:0:0:
60,340,198114,2,0,L|53:265,1,75,0|2,1:0|0:0,0:0:0:0:
72,177,198436,6,0,B|102:150|142:158|142:158|157:195|137:230,1,150,4|0,1:0|1:0,0:0:0:0:
228,273,198920,1,2,1:0:0:0:
228,273,199001,1,2,1:2:0:0:
228,273,199082,2,0,L|265:269,2,37.5,6|2|2,1:3|1:2|1:2,0:0:0:0:
206,360,199404,2,0,L|243:356,3,37.5,0|0|0|0,1:0|1:0|0:0|1:0,0:0:0:0:
285,375,199727,6,0,L|359:381,1,75,4|0,1:0|0:0,0:0:0:0:
411,307,200049,2,0,L|407:269,3,37.5,8|4|2|8,1:3|1:3|1:2|1:3,0:0:0:0:
403,224,200372,2,0,L|399:186,1,37.5,14|8,1:3|1:3,0:0:0:0:
296,100,200694,2,0,L|292:137,3,37.5,2|0|2|2,1:2|1:0|1:2|1:2,0:0:0:0:
266,175,201017,6,0,B|229:189|193:175|193:175|156:189|120:175,1,150,4|0,1:0|1:0,0:0:0:0:
52,133,201501,1,2,0:0:0:0:
52,133,201581,1,2,0:0:0:0:
52,133,201662,2,0,P|44:97|52:61,1,75,4|2,0:3|0:0,0:0:0:0:
120,0,201985,2,0,P|156:-8|192:0,1,75,0|0,1:0|0:0,0:0:0:0:
270,46,202307,6,0,L|419:32,1,150,4|0,1:0|1:0,0:0:0:0:
480,114,202791,1,2,0:0:0:0:
480,114,202872,1,2,0:0:0:0:
480,114,202953,2,0,L|473:188,1,75,4|2,0:3|0:0,0:0:0:0:
391,225,203275,2,0,L|384:150,1,75,0|0,1:0|0:0,0:0:0:0:
296,133,203598,6,0,P|245:148|287:207,1,150,4|0,1:0|0:0,0:0:0:0:
335,296,204082,1,2,0:0:0:0:
335,296,204162,1,2,0:0:0:0:
335,296,204243,2,0,P|343:332|335:368,1,75,4|0,0:3|0:0,0:0:0:0:
253,332,204565,2,0,P|217:324|181:332,1,75,0|2,1:0|0:0,0:0:0:0:
105,379,204888,5,4,1:0:0:0:
105,379,205049,1,2,0:0:0:0:
31,327,205211,2,0,L|34:289,3,37.5,0|0|0|2,1:0|0:0|0:0|0:0,0:0:0:0:
38,244,205533,1,4,0:3:0:0:
38,244,205856,1,0,1:0:0:0:
53,161,206017,1,2,0:0:0:0:
53,161,206098,1,0,1:0:0:0:
53,161,206178,6,0,B|57:113|57:113|113:118|138:168,1,150,4|0,1:0|1:0,0:0:0:0:
180,247,206662,2,0,L|183:284,2,37.5,8|8|4,0:3|0:3|0:3,0:0:0:0:
228,171,206985,2,0,L|231:133,2,37.5,2|4|0,1:2|0:3|0:0,0:0:0:0:
278,258,207307,1,0,1:0:0:0:
278,258,207387,1,0,1:0:0:0:
278,258,207469,6,0,L|352:264,1,75,4|2,1:0|1:2,0:0:0:0:
392,239,207711,1,0,1:0:0:0:
392,239,207791,2,0,P|400:203|392:167,1,75,0|2,1:0|1:2,0:0:0:0:
321,110,208114,2,0,L|283:106,3,37.5,2|2|2|2,1:0|1:2|1:2|1:2,0:0:0:0:
245,130,208436,2,0,L|207:133,3,37.5,0|0|2|0,1:0|1:0|0:0|1:0,0:0:0:0:
168,110,208759,6,0,L|130:106,4,37.5,4|2|0|0|0,1:0|1:2|1:0|1:2|1:0,0:0:0:0:
185,222,209243,6,0,L|151:237,4,37.5,4|2|0|0|0,1:0|1:2|1:0|1:2|1:0,0:0:0:0:
255,310,209727,6,0,L|233:340,4,37.5,4|2|0|0|2,1:0|1:2|1:0|1:2|1:0,0:0:0:0:
400,270,210211,6,0,L|396:307,4,37.5,4|2|0|0|2,1:0|1:2|1:0|1:2|1:0,0:0:0:0:
480,191,210694,2,0,L|483:153,3,37.5,12|12|12|12,0:3|0:3|0:3|0:3,0:0:0:0:
460,115,211017,2,0,L|456:77,3,37.5,0|0|0|0,1:0|1:0|1:0|1:0,0:0:0:0:
480,38,211339,6,0,L|483:0,4,37.5,4|2|0|0|0,1:0|1:2|1:0|1:2|1:0,0:0:0:0:
368,55,211823,6,0,L|352:21,4,37.5,4|2|0|0|0,1:0|1:2|1:0|1:2|1:0,0:0:0:0:
280,125,212307,6,0,L|249:103,4,37.5,4|2|0|0|2,1:0|1:2|1:0|1:2|1:0,0:0:0:0:
320,270,212791,6,0,L|282:266,4,37.5,4|2|0|0|6,1:0|1:2|1:0|1:2|1:1,0:0:0:0:
