osu file format v14

[General]
AudioFilename: audio.mp3
AudioLeadIn: 0
PreviewTime: 54850
Countdown: 0
SampleSet: Soft
StackLeniency: 0.4
Mode: 0
LetterboxInBreaks: 0
WidescreenStoryboard: 1

[Editor]
Bookmarks: 14286,19447,24608,34931,45253,50415,55576,66221,76221,86544,96866,107189,112350,117511,127834,138156,148479,153640,156221,158802,162673,167834,172995,183318,184636,188114,190694,198436,201017,208759
DistanceSpacing: 1
BeatDivisor: 2
GridSize: 32
TimelineZoom: 2.199999

[Metadata]
Title:Six trillion years and overnight story
TitleUnicode:六兆年と一夜物語
Artist:ayaponzu*
ArtistUnicode:あやぽんず*
Creator:Gottagof4st
Version:AyanokoRin's Normal
Source:
Tags:ayanokorin shanipika hailie Serizawa Haruki Jack J_a_c_k rolniczy Yugu Rokuchounen to Ichiya Monogatari
BeatmapID:1755395
BeatmapSetID:795001

[Difficulty]
HPDrainRate:4
CircleSize:3.8
OverallDifficulty:4
ApproachRate:5
SliderMultiplier:0.999999999999999
SliderTickRate:1

[Events]
//Background and Video events
0,0,"sixtrillion.jpg",0,0
//Break Periods
2,86744,95021
2,138357,147279
2,162873,164698
//Storyboard Layer 0 (Background)
//Storyboard Layer 1 (Fail)
//Storyboard Layer 2 (Pass)
//Storyboard Layer 3 (Foreground)
//Storyboard Sound Samples

[TimingPoints]
1666,769.230769230769,4,2,0,20,1,0
2435,750,4,2,0,20,1,0
3185,714.285714285714,4,2,0,20,1,0
3542,750,4,2,0,20,1,0
4667,714.285714285714,4,2,0,20,1,0
5024,722.89156626506,4,2,0,20,1,0
6108,769.230769230769,4,2,0,20,1,0
6492,869.565217391304,4,2,0,20,1,0
6926,839.160839160839,4,2,0,20,1,0
7765,800,4,2,0,20,1,0
8565,800,4,2,0,20,1,0
8965,714.285714285714,4,2,0,20,1,0
9322,759.493670886076,4,2,0,20,1,0
9701,789.473684210526,4,2,0,20,1,0
10096,869.565217391304,4,2,0,20,1,0
10748,821.917808219178,4,2,0,20,1,0
10953,909.090909090909,4,2,0,20,1,0
13965,322.58064516129,4,2,0,50,1,0
14286,322.58064516129,4,2,0,50,1,0
24608,-105.263157894737,4,2,0,40,0,0
34931,-100,4,2,0,50,0,0
50415,-100,4,2,0,30,0,0
52350,-100,4,2,0,60,0,0
55576,-95.2380952380952,4,2,0,70,0,1
65898,-95.2380952380952,4,2,0,70,0,0
66221,-95.2380952380952,4,2,0,70,0,1
76221,-100,4,2,0,60,0,0
85898,-100,4,2,0,40,0,0
86544,-105.263157894737,4,2,0,40,0,0
96866,-105.263157894737,4,2,0,50,0,0
96867,-100,4,2,0,50,0,0
112350,-100,4,2,0,30,0,0
114285,-100,4,2,0,60,0,0
117511,-95.2380952380952,4,2,0,70,0,1
127834,-95.2380952380952,4,2,0,70,0,0
128156,-95.2380952380952,4,2,0,70,0,1
138156,-100,4,2,0,60,0,0
148479,-100,4,2,0,50,0,0
153640,-100,4,2,0,40,0,0
156221,-100,4,2,0,50,0,0
162673,-100,4,2,0,30,0,0
166221,-100,4,2,0,50,0,0
166544,-100,4,2,0,70,0,0
167834,-95.2380952380952,4,2,0,80,0,1
183318,329.67032967033,4,2,0,80,1,1
184636,400,4,2,0,70,1,1
184636,-78.4929356357928,4,2,0,70,0,1
185236,428.571428571429,4,2,0,60,1,1
185450,461.538461538462,4,2,0,50,1,1
185450,-68.0272108843537,4,2,0,50,0,1
185680,500,4,2,0,50,1,1
185930,555.555555555556,4,2,0,50,1,1
185930,-56.5149136577708,4,2,0,50,0,1
186485,-100,4,2,0,50,0,0
186824,322.58064516129,4,2,0,50,1,0
186824,-95.2380952380952,4,2,0,50,0,0
188114,-95.2380952380952,4,2,0,80,0,1
190694,-100,4,2,0,70,0,0

[Colours]
Combo1 : 243,152,254
Combo2 : 0,0,255
Combo3 : 37,185,239

[HitObjects]
194,217,14286,5,4,1:0:0:0:
194,217,14447,1,12,0:3:0:0:
435,88,15576,5,4,1:0:0:0:
435,88,15737,1,12,0:3:0:0:
186,49,16866,5,4,1:0:0:0:
186,49,17027,1,12,3:0:0:0:
290,295,18156,5,4,1:0:0:0:
375,242,18479,1,0,1:0:0:0:
352,144,18802,2,0,L|371:25,1,99.9999999999999,4|0,1:0|1:0,0:0:0:0:
272,13,19447,5,4,1:0:0:0:
197,79,19769,1,0,1:0:0:0:
232,172,20092,2,0,P|209:226|218:290,1,99.9999999999999,4|0,0:3|1:0,0:0:0:0:
273,343,20737,5,4,1:0:0:0:
369,315,21060,2,0,L|483:327,2,99.9999999999999,0|4|0,1:0|1:2|1:0,0:0:0:0:
337,220,22027,6,0,P|349:160|327:58,3,150,4|4|4|4,1:0|1:0|1:0|1:0,0:0:0:0:
243,29,23802,1,2,1:0:0:0:
243,29,23963,1,0,0:0:0:0:
66,86,24608,6,0,L|83:266,1,142.499996194839,4|2,0:0|0:0,0:0:0:0:
93,273,25253,2,0,P|147:307|234:295,1,142.499996194839,4|0,0:3|3:0,0:0:0:0:
259,269,25898,5,4,0:3:0:0:
351,292,26221,1,4,0:3:0:0:
426,233,26544,1,4,0:3:0:0:
396,142,26866,2,0,L|407:85,1,47.4999987316131,4|2,0:3|0:0,0:0:0:0:
388,50,27189,6,0,P|322:61|217:39,1,142.499996194839,4|2,0:3|0:0,0:0:0:0:
213,18,27834,1,4,0:3:0:0:
118,15,28156,2,0,L|55:30,1,47.4999987316131,4|2,0:3|0:0,0:0:0:0:
47,66,28479,5,4,0:3:0:0:
98,146,28802,1,4,0:3:0:0:
54,230,29124,1,4,0:3:0:0:
128,289,29447,1,4,0:3:0:0:
216,254,29769,6,0,L|361:263,1,142.499996194839,4|2,0:3|0:0,0:0:0:0:
401,241,30415,1,4,0:3:0:0:
295,145,30898,1,0,3:0:0:0:
295,145,31060,6,0,P|289:63|258:-1,1,142.499996194839,4|0,0:3|3:0,0:0:0:0:
217,0,31705,1,4,0:3:0:0:
157,73,32027,1,4,0:3:0:0:
71,31,32350,6,0,P|32:75|19:145,1,94.9999974632263,4|4,0:3|0:3,0:0:0:0:
46,148,32834,2,0,L|15:297,1,142.499996194839,2|4,0:0|0:3,0:0:0:0:
30,333,33479,1,2,0:0:0:0:
322,316,34285,5,4,0:3:0:0:
412,344,34608,1,12,0:3:0:0:
474,265,34931,5,4,1:0:0:0:
405,192,35253,2,0,L|417:135,1,50,0|2,1:0|0:0,0:0:0:0:
398,95,35576,1,4,0:3:0:0:
302,64,35898,2,0,L|214:82,1,50,0|2,1:0|0:0,0:0:0:0:
205,56,36221,5,4,0:3:0:0:
143,135,36544,1,0,1:0:0:0:
216,202,36866,1,4,0:3:0:0:
159,284,37189,2,0,L|101:278,1,50,0|0,1:0|3:0,0:0:0:0:
64,301,37511,5,4,1:0:0:0:
13,214,37834,2,0,L|25:161,1,50,0|2,1:0|0:0,0:0:0:0:
13,116,38156,1,4,0:3:0:0:
86,47,38479,2,0,L|141:55,1,50,0|2,1:0|0:0,0:0:0:0:
183,39,38802,5,4,0:3:0:0:
265,94,39124,1,0,1:0:0:0:
207,176,39447,2,0,L|228:321,1,99.9999999999999,4|0,0:3|1:0,0:0:0:0:
320,264,40092,6,0,P|368:246|475:267,1,150,4|2,1:0|0:0,0:0:0:0:
497,297,40737,2,0,L|437:400,1,99.9999999999999,4|0,0:3|1:0,0:0:0:0:
396,384,41221,1,2,0:0:0:0:
347,371,41382,6,0,L|176:384,1,150,4|0,0:3|3:0,0:0:0:0:
154,356,42027,1,4,0:3:0:0:
58,384,42350,1,0,1:0:0:0:
27,288,42673,6,0,P|47:204|40:164,1,99.9999999999999,4|0,1:0|1:0,0:0:0:0:
33,143,43156,1,2,0:0:0:0:
171,85,43640,1,0,1:0:0:0:
171,85,43802,1,2,0:0:0:0:
207,178,44124,6,0,L|190:246,2,50,0|0|4,1:0|1:0|3:0,0:0:0:0:
254,161,44608,1,4,0:3:0:0:
351,182,44931,6,0,P|410:169|469:189,1,99.9999999999999,2|4,0:0|1:0,0:0:0:0:
417,324,45737,1,8,0:3:0:0:
267,338,46221,1,4,0:0:0:0:
126,58,47834,5,4,1:0:0:0:
156,205,48318,1,8,0:3:0:0:
306,219,48802,1,4,0:0:0:0:
430,55,49769,6,0,B|357:90|307:32|230:68,1,200,0|2,3:0|0:0,0:0:0:0:
177,258,51060,1,2,0:0:0:0:
362,331,51705,1,2,0:0:0:0:
497,184,52350,6,0,L|434:68,1,99.9999999999999,4|0,1:0|1:0,0:0:0:0:
352,71,52995,1,4,1:0:0:0:
295,153,53318,2,0,P|295:237|283:271,2,99.9999999999999,4|4|12,3:0|3:0|3:0,0:0:0:0:
195,154,54285,1,12,3:0:0:0:
0,384,55576,5,4,1:0:0:0:
101,359,55898,2,0,L|157:364,1,52.4999983978271,4|0,3:0|1:0,0:0:0:0:
202,346,56221,2,0,P|276:357|306:351,1,104.999996795654,4|4,0:3|0:3,0:0:0:0:
346,319,56705,1,0,1:0:0:0:
385,284,56866,5,4,0:0:0:0:
375,179,57189,2,0,L|379:113,1,52.4999983978271
413,87,57511,1,6,3:3:0:0:
345,8,57834,1,4,0:3:0:0:
252,56,58156,6,0,L|124:46,1,104.999996795654,4|4,1:3|3:0,0:0:0:0:
96,34,58640,1,0,1:0:0:0:
45,19,58802,2,0,L|-14:-23,2,52.4999983978271,4|0|4,0:3|0:0|0:3,0:0:0:0:
2,114,59447,5,4,1:3:0:0:
58,202,59769,2,0,L|52:259,1,52.4999983978271,4|0,3:0|1:0,0:0:0:0:
95,284,60092,1,6,3:3:0:0:
195,252,60415,2,0,L|268:266,1,52.4999983978271,4|0,0:3|1:0,0:0:0:0:
286,295,60737,5,4,1:0:0:0:
388,269,61060,2,0,L|461:283,1,52.4999983978271,4|0,3:0|1:0,0:0:0:0:
479,312,61382,1,6,3:3:0:0:
507,210,61705,2,0,L|494:131,1,52.4999983978271,4|0,0:3|1:0,0:0:0:0:
466,116,62027,6,0,L|395:121,1,52.4999983978271,4|0,1:3|3:0,0:0:0:0:
365,98,62350,2,0,L|341:162,1,52.4999983978271,4|0,3:0|1:0,0:0:0:0:
294,142,62673,1,6,0:3:0:0:
211,197,62995,2,0,L|205:268,1,52.4999983978271,4|0,0:3|1:0,0:0:0:0:
175,291,63318,6,0,P|117:306|55:295,3,104.999996795654,4|4|4|4,1:3|3:0|0:3|1:3,0:0:0:0:
26,206,64608,6,0,L|76:162,1,52.4999983978271,12|12,1:3|1:3,0:0:0:0:
106,138,64931,2,0,L|48:89,1,52.4999983978271,12|12,1:3|1:3,0:0:0:0:
20,77,65253,1,12,1:3:0:0:
103,7,65576,1,4,3:0:0:0:
204,34,65898,1,2,0:0:0:0:
204,34,66221,6,0,L|261:28,1,52.4999983978271,4|2,1:0|0:0,0:0:0:0:
306,11,66544,2,0,P|381:27|444:11,1,104.999996795654,4|4,3:0|0:3,0:0:0:0:
458,8,67027,1,0,1:0:0:0:
507,26,67189,5,0,0:0:0:0:
481,127,67511,2,0,L|470:199,1,52.4999983978271,4|0,0:0|0:0,0:0:0:0:
440,219,67834,1,4,3:0:0:0:
335,228,68156,1,4,0:3:0:0:
278,316,68479,6,0,P|209:294|153:304,1,104.999996795654,4|4,0:3|1:3,0:0:0:0:
128,315,68963,1,0,3:0:0:0:
84,343,69124,2,0,L|40:393,2,52.4999983978271,4|0|4,3:0|1:0|0:3,0:0:0:0:
17,261,69769,5,4,1:0:0:0:
62,166,70092,1,4,1:0:0:0:
107,71,70415,2,0,P|190:85|261:69,1,157.499995193481,4|4,1:0|1:3,0:0:0:0:
302,37,71060,5,4,1:0:0:0:
403,61,71382,2,0,L|410:132,1,52.4999983978271,4|0,3:0|1:0,0:0:0:0:
435,158,71705,1,4,0:3:0:0:
342,207,72027,2,0,L|338:260,1,52.4999983978271,4|0,0:3|1:0,0:0:0:0:
321,309,72350,6,0,L|373:309,1,52.4999983978271,4|0,1:3|3:0,0:0:0:0:
423,290,72673,2,0,L|437:369,1,52.4999983978271,4|0,3:0|1:0,0:0:0:0:
483,353,72995,1,4,0:3:0:0:
503,249,73318,1,4,0:3:0:0:
421,183,73640,6,0,P|385:196|292:180,3,104.999996795654,4|4|4|4,1:3|3:0|0:3|1:3,0:0:0:0:
221,128,74931,6,0,L|170:153,1,52.4999983978271,12|0,1:3|0:0,0:0:0:0:
134,186,75253,2,0,L|69:144,1,52.4999983978271,12|12,1:3|1:3,0:0:0:0:
40,137,75576,1,12,1:3:0:0:
67,30,75898,1,4,3:0:0:0:
162,3,76221,5,4,1:0:0:0:
246,57,76544,1,0,1:0:0:0:
337,18,76866,2,0,L|460:37,1,99.9999999999999,4|0,0:3|1:0,0:0:0:0:
487,118,77511,5,4,1:0:0:0:
409,181,77834,1,0,1:0:0:0:
462,265,78156,2,0,L|436:369,1,99.9999999999999,4|0,0:3|1:0,0:0:0:0:
340,338,78802,5,4,1:0:0:0:
242,357,79124,1,0,1:0:0:0:
181,277,79447,2,0,P|199:215|195:148,1,99.9999999999999,4|0,0:3|1:0,0:0:0:0:
164,86,80092,5,4,1:0:0:0:
249,33,80415,2,0,P|309:62|370:46,1,99.9999999999999,0|4,1:0|0:3,0:0:0:0:
424,4,81060,1,0,1:0:0:0:
503,64,81382,5,4,1:0:0:0:
471,158,81705,1,0,1:0:0:0:
375,129,82027,2,0,L|253:147,1,99.9999999999999,4|0,0:3|1:0,0:0:0:0:
194,201,82673,5,4,1:0:0:0:
109,148,82995,1,0,1:0:0:0:
19,193,83318,2,0,P|38:248|26:302,1,99.9999999999999,4|0,1:2|1:0,0:0:0:0:
0,383,83963,6,0,P|92:355|164:360,3,150,4|4|4|4,1:0|1:0|1:0|1:0,0:0:0:0:
244,368,85737,1,2,1:0:0:0:
244,368,85898,1,0,0:0:0:0:
435,371,86544,5,4,0:0:0:0:
190,316,96221,5,2,0:0:0:0:
100,344,96544,1,8,3:3:0:0:
38,265,96867,5,4,1:0:0:0:
107,192,97189,2,0,L|95:135,1,50,0|2,1:0|0:0,0:0:0:0:
114,95,97512,1,4,0:3:0:0:
210,64,97834,2,0,L|298:82,1,50,0|2,1:0|0:0,0:0:0:0:
307,56,98157,5,4,0:3:0:0:
369,135,98480,1,0,1:0:0:0:
296,202,98802,1,4,0:3:0:0:
353,284,99125,2,0,L|411:278,1,50,0|0,1:0|0:0,0:0:0:0:
448,301,99447,5,4,1:0:0:0:
499,214,99770,2,0,L|487:161,1,50,0|2,1:0|0:0,0:0:0:0:
499,116,100092,1,4,0:3:0:0:
426,47,100415,2,0,L|371:55,1,50,0|2,1:0|0:0,0:0:0:0:
329,39,100738,5,4,0:3:0:0:
247,94,101060,1,0,1:0:0:0:
305,176,101383,2,0,L|284:321,1,99.9999999999999,0|0,0:0|0:0,0:0:0:0:
192,264,102028,6,0,P|144:246|37:267,1,150,4|2,1:0|0:0,0:0:0:0:
15,297,102673,2,0,L|75:400,1,99.9999999999999,4|0,0:3|0:0,0:0:0:0:
116,384,103157,1,2,0:0:0:0:
165,371,103318,6,0,L|336:384,1,150,4|0,0:3|3:0,0:0:0:0:
358,356,103963,1,4,0:3:0:0:
454,384,104286,1,0,1:0:0:0:
485,288,104609,6,0,P|465:204|472:164,1,99.9999999999999,4|0,1:0|0:0,0:0:0:0:
479,143,105092,1,2,0:0:0:0:
341,85,105576,1,0,1:0:0:0:
341,85,105738,1,2,0:0:0:0:
305,178,106060,6,0,L|322:246,2,50,0|0|4,1:0|1:0|3:0,0:0:0:0:
258,161,106544,1,4,0:3:0:0:
161,182,106867,6,0,P|102:169|43:189,1,99.9999999999999,2|4,0:0|1:0,0:0:0:0:
95,324,107673,1,8,0:3:0:0:
245,338,108157,1,4,0:0:0:0:
386,58,109770,5,4,1:0:0:0:
356,205,110254,1,4,0:3:0:0:
206,219,110738,1,4,0:0:0:0:
82,55,111705,6,0,B|155:90|205:32|282:68,1,200,8|2,3:0|0:0,0:0:0:0:
335,258,112996,1,2,0:0:0:0:
150,331,113641,1,2,0:0:0:0:
15,184,114286,6,0,L|78:68,1,99.9999999999999,4|0,1:0|1:0,0:0:0:0:
160,71,114931,1,4,1:0:0:0:
217,153,115254,2,0,P|217:237|229:271,2,99.9999999999999,4|0|0,3:0|0:0|0:0,0:0:0:0:
317,154,116221,1,12,3:0:0:0:
506,191,116866,6,0,P|488:252|491:303,1,99.9999999999999,2|2,1:2|1:2,0:0:0:0:
512,384,117512,5,4,1:0:0:0:
407,379,117834,2,0,L|351:384,1,52.4999983978271,4|0,3:0|1:0,0:0:0:0:
315,348,118157,2,0,P|241:359|211:353,1,104.999996795654,4|4,0:3|0:3,0:0:0:0:
169,321,118641,1,0,1:0:0:0:
130,285,118802,5,0,0:0:0:0:
127,180,119124,2,0,L|139:113,1,52.4999983978271
100,89,119447,1,6,3:3:0:0:
167,8,119770,1,4,0:3:0:0:
260,56,120092,6,0,L|388:46,1,104.999996795654,4|4,1:3|3:0,0:0:0:0:
416,34,120576,1,0,1:0:0:0:
467,19,120738,2,0,L|526:-23,2,52.4999983978271,0|0|0,0:0|0:0|0:0,0:0:0:0:
510,114,121383,5,4,1:3:0:0:
454,202,121705,2,0,L|460:259,1,52.4999983978271,4|0,3:0|1:0,0:0:0:0:
417,284,122028,1,6,3:3:0:0:
317,252,122351,2,0,L|244:266,1,52.4999983978271,4|0,0:3|0:0,0:0:0:0:
226,295,122673,5,4,1:0:0:0:
124,269,122996,2,0,L|51:283,1,52.4999983978271,0|0,0:0|0:0,0:0:0:0:
33,312,123318,1,6,3:3:0:0:
5,210,123641,2,0,L|18:131,1,52.4999983978271,4|0,0:3|0:0,0:0:0:0:
46,116,123963,6,0,L|117:121,1,52.4999983978271,4|0,1:3|0:0,0:0:0:0:
151,120,124286,2,0,L|152:205,1,52.4999983978271
196,200,124609,1,0,0:0:0:0:
301,197,124931,2,0,L|307:268,1,52.4999983978271,4|0,0:3|0:0,0:0:0:0:
337,291,125254,6,0,P|395:306|457:295,3,104.999996795654,4|0|0|0,1:3|0:0|0:0|0:0,0:0:0:0:
486,206,126544,6,0,L|447:167,1,52.4999983978271,12|0,1:3|0:0,0:0:0:0:
402,143,126867,2,0,L|456:79,1,52.4999983978271,12|0,1:3|0:0,0:0:0:0:
482,78,127189,1,12,1:3:0:0:
409,7,127512,1,4,3:0:0:0:
308,34,127834,1,2,0:0:0:0:
308,34,128157,6,0,L|251:28,1,52.4999983978271,4|0,1:0|0:0,0:0:0:0:
206,11,128480,2,0,P|131:27|68:11,1,104.999996795654,0|0,0:0|0:0,0:0:0:0:
54,8,128963,1,0,1:0:0:0:
5,26,129124,5,0,0:0:0:0:
16,130,129447,2,0,L|25:207,1,52.4999983978271
61,217,129770,1,0,0:0:0:0:
163,237,130092,1,4,0:3:0:0:
234,316,130415,6,0,P|303:294|359:304,1,104.999996795654,4|0,0:3|0:0,0:0:0:0:
384,315,130899,1,0,3:0:0:0:
428,343,131060,2,0,L|472:393,2,52.4999983978271,4|0|0,3:0|0:0|0:0,0:0:0:0:
495,261,131705,5,4,1:0:0:0:
450,166,132028,1,4,1:0:0:0:
405,71,132351,2,0,P|322:85|251:69,1,157.499995193481,4|0,1:0|0:0,0:0:0:0:
210,37,132996,5,4,1:0:0:0:
109,61,133318,2,0,L|102:132,1,52.4999983978271,4|0,3:0|1:0,0:0:0:0:
77,158,133641,1,4,0:3:0:0:
170,207,133963,2,0,L|174:260,1,52.4999983978271,4|0,0:3|1:0,0:0:0:0:
191,309,134286,6,0,L|138:309,1,52.4999983978271,4|0,1:3|0:0,0:0:0:0:
86,300,134609,2,0,L|58:345,1,52.4999983978271
7,332,134931,1,4,0:3:0:0:
7,226,135254,1,4,0:3:0:0:
93,167,135576,6,0,P|129:180|222:164,3,104.999996795654,4|0|0|4,1:3|0:0|0:0|1:3,0:0:0:0:
324,110,136867,6,0,L|367:158,1,52.4999983978271
395,186,137189,2,0,L|449:125,1,52.4999983978271,12|0,1:3|0:0,0:0:0:0:
462,105,137512,1,0,0:0:0:0:
450,4,137834,1,4,1:0:0:0:
350,3,138157,5,4,1:0:0:0:
423,86,148479,5,4,1:0:0:0:
423,86,148640,1,8,0:3:0:0:
391,232,149124,5,12,0:3:0:0:
391,232,149285,1,8,0:3:0:0:
265,149,149769,5,12,0:3:0:0:
197,223,150092,1,8,0:3:0:0:
101,192,150415,2,0,P|35:183|-4:194,1,99.9999999999999,12|12,0:3|0:3,0:0:0:0:
1,293,151060,5,4,1:0:0:0:
1,293,151221,1,8,0:3:0:0:
141,345,151705,5,12,0:3:0:0:
141,345,151866,1,8,0:3:0:0:
284,299,152350,6,0,L|414:315,2,99.9999999999999,12|8|12,0:3|0:3|0:3,0:0:0:0:
223,219,153318,6,0,L|94:236,1,99.9999999999999,12|4,0:3|3:0,0:0:0:0:
52,161,153963,1,0,3:0:0:0:
86,67,154285,1,0,3:0:0:0:
185,60,154608,1,4,0:3:0:0:
262,123,154931,2,0,L|367:105,1,99.9999999999999,4|4,3:0|3:0,0:0:0:0:
447,56,155576,6,0,B|406:117|490:161|439:250,1,200,4|4,3:0|0:0,0:0:0:0:
263,341,156866,2,0,L|188:336,1,50,0|2,1:0|0:0,0:0:0:0:
169,362,157189,1,2,0:0:0:0:
73,332,157511,5,2,0:0:0:0:
73,332,157673,2,0,P|79:270|73:211,1,99.9999999999999,0|4,1:0|0:3,0:0:0:0:
51,189,158156,1,0,1:0:0:0:
70,90,158479,1,0,1:0:0:0:
169,78,158802,5,0,1:0:0:0:
251,134,159124,1,0,1:0:0:0:
335,79,159447,1,0,1:0:0:0:
406,148,159769,1,0,1:0:0:0:
490,94,160092,6,0,P|436:51|441:-2,1,99.9999999999999,4|4,1:0|1:3,0:0:0:0:
332,27,160737,6,0,B|304:70|304:70|231:71|231:71|206:23,1,166.666666666667,4|2,1:3|1:3,0:0:0:0:
45,275,162673,5,4,0:0:0:0:
29,362,165898,5,0,0:0:0:0:
29,362,166060,2,0,L|83:366,1,50,2|12,3:0|0:3,0:0:0:0:
171,327,166544,5,4,0:0:0:0:
265,358,166866,2,0,L|323:352,1,50,4|0,1:0|1:0,0:0:0:0:
363,363,167189,1,0,1:0:0:0:
433,292,167511,1,4,1:0:0:0:
371,206,167834,5,4,1:0:0:0:
422,114,168156,2,0,L|408:63,1,52.4999983978271,4|0,3:0|1:0,0:0:0:0:
362,36,168479,1,6,3:3:0:0:
262,68,168802,2,0,L|205:57,1,52.4999983978271,4|0,0:3|1:0,0:0:0:0:
161,76,169124,6,0,L|175:158,1,52.4999983978271,4|0,1:3|3:0,0:0:0:0:
199,171,169447,2,0,L|259:162,1,52.4999983978271,4|0,3:0|1:0,0:0:0:0:
287,200,169769,1,6,0:3:0:0:
230,288,170092,1,4,0:3:0:0:
126,271,170415,6,0,P|107:219|119:166,3,104.999996795654,4|4|4|4,1:3|3:0|0:3|1:3,0:0:0:0:
178,87,171705,6,0,L|237:55,1,52.4999983978271,12|12,1:3|1:3,0:0:0:0:
251,17,172027,2,0,L|345:49,1,52.4999983978271,12|12,1:3|1:3,0:0:0:0:
336,72,172350,2,0,P|384:49|469:21,1,104.999996795654,12|4,1:3|1:0,0:0:0:0:
508,104,172995,1,8,0:3:0:0:
508,104,173318,6,0,L|511:166,1,52.4999983978271,4|2,1:0|0:0,0:0:0:0:
480,199,173640,2,0,P|493:276|479:331,1,104.999996795654,4|4,3:0|0:3,0:0:0:0:
442,326,174124,1,0,1:0:0:0:
404,363,174285,5,0,0:0:0:0:
318,304,174608,2,0,L|259:301,1,52.4999983978271
228,334,174931,1,4,3:0:0:0:
140,291,175253,1,4,0:3:0:0:
43,296,175576,6,0,L|42:153,1,104.999996795654,4|4,0:3|1:0,0:0:0:0:
66,144,176060,2,0,L|61:90,1,52.4999983978271,0|12,1:0|3:0,0:0:0:0:
87,46,176382,1,0,1:0:0:0:
121,6,176544,2,0,L|192:22,1,52.4999983978271,4|0,1:0|0:0,0:0:0:0:
210,53,176866,5,4,1:0:0:0:
226,156,177189,1,4,1:0:0:0:
242,259,177511,2,0,P|314:246|419:284,1,157.499995193481,4|4,1:0|1:3,0:0:0:0:
433,302,178156,5,4,1:0:0:0:
501,222,178479,2,0,L|489:157,1,52.4999983978271,4|0,3:0|1:0,0:0:0:0:
508,120,178802,1,4,0:3:0:0:
437,42,179124,2,0,L|371:52,1,52.4999983978271,4|0,0:3|1:0,0:0:0:0:
356,94,179447,6,0,L|390:177,1,52.4999983978271,4|0,1:3|3:0,0:0:0:0:
370,194,179769,2,0,L|309:222,1,52.4999983978271,4|0,3:0|1:0,0:0:0:0:
313,267,180092,1,4,0:3:0:0:
243,346,180415,1,4,0:3:0:0:
143,299,180737,6,0,P|157:234|146:158,3,104.999996795654,4|4|4|4,1:3|3:0|0:3|1:3,0:0:0:0:
66,139,182027,6,0,L|15:109,1,52.4999983978271,12|12,1:3|1:3,0:0:0:0:
10,60,182350,2,0,L|63:26,1,52.4999983978271,12|12,1:3|1:3,0:0:0:0:
90,0,182673,2,0,P|163:12|273:-3,1,157.499995193481,12|2,1:3|1:2,0:0:0:0:
294,0,183318,5,4,1:0:0:0:
323,95,183647,2,0,L|323:157,1,50,4|0,3:0|1:0,0:0:0:0:
366,170,183977,1,4,0:3:0:0:
352,266,184307,2,0,L|440:284,1,50,4|0,0:3|1:0,0:0:0:0:
433,301,184636,6,0,L|472:216,1,63.7000003693542,4|12,1:0|0:3,0:0:0:0:
510,205,185036,2,0,L|478:85,1,63.7000003693542,12|12,0:3|0:3,0:0:0:0:
448,92,185450,6,0,L|367:104,1,73.499996579361,12|0,3:0|1:0,0:0:0:0:
303,68,185930,2,0,L|261:162,1,88.4722193910163,4|12,1:3|3:0,0:0:0:0:
172,153,186485,1,0,0:0:0:0:
99,337,187469,5,0,1:0:0:0:
201,360,187791,1,0,1:0:0:0:
297,318,188114,6,0,P|368:323|424:311,3,104.999996795654,4|4|4|12,1:0|1:3|1:3|1:3,0:0:0:0:
478,246,189404,6,0,L|426:195,1,52.4999983978271,12|12,1:3|1:3,0:0:0:0:
391,190,189727,2,0,L|442:131,1,52.4999983978271,12|12,1:3|1:3,0:0:0:0:
471,125,190049,1,12,1:3:0:0:
444,26,190372,1,2,1:2:0:0:
344,13,190694,5,4,1:0:0:0:
