osu file format v14

[General]
AudioFilename: audio.mp3
AudioLeadIn: 0
PreviewTime: 58847
Countdown: 0
SampleSet: Soft
StackLeniency: 0.5
Mode: 0
LetterboxInBreaks: 0
EpilepsyWarning: 1
WidescreenStoryboard: 1

[Editor]
Bookmarks: 170747,171647,171947,172847,173147,173747,174347,174947,175547,176447,176747,177647,177947,190097,206747,231797,258647
DistanceSpacing: 1.3
BeatDivisor: 2
GridSize: 8
TimelineZoom: 1.6

[Metadata]
Title:Shiroi Yuki no Princess wa
TitleUnicode:白い雪のプリンセスは
Artist:Ayaponzu*
ArtistUnicode:あやぽんず*
Creator:bossandy
Version:gary00737's Light Insane
Source:
Tags:project diva arcade ayaponz ぽんたすてぃっく! のぼる↑ 歌い手 歌ってみた カバー ボカロイド 初音ミク noboru-P utaite utattemita cover vocaloid hatsune miku a story of a girl and her the princess of white snow Net0 gary00737 MkGuh Sun Rainbow
BeatmapID:1626733
BeatmapSetID:772093

[Difficulty]
HPDrainRate:5.5
CircleSize:3.2
OverallDifficulty:7.5
ApproachRate:8.5
SliderMultiplier:1.3
SliderTickRate:1

[Events]
//Background and Video events
0,0,"BG.png",0,0
//Break Periods
2,189947,205999
//Storyboard Layer 0 (Background)
//Storyboard Layer 1 (Fail)
//Storyboard Layer 2 (Pass)
//Storyboard Layer 3 (Foreground)
//Storyboard Sound Samples

[TimingPoints]
197,300,4,2,1,40,1,0
197,-125,4,2,1,40,0,0
4847,-100,4,2,1,70,0,0
5147,300,4,2,1,70,1,0
57947,-125,4,2,1,70,0,0
60347,-83.3333333333333,4,2,1,80,0,1
68597,-83.3333333333333,4,2,1,80,0,0
69947,-83.3333333333333,4,2,1,80,0,1
79397,-100,4,2,1,70,0,0
97547,-151.515151515152,4,2,1,40,0,0
98747,-100,4,2,1,70,0,0
129947,-83.3333333333333,4,2,1,80,0,1
138197,-83.3333333333333,4,2,1,80,0,0
139547,-83.3333333333333,4,2,1,80,0,1
148997,-100,4,2,1,70,0,0
170747,-125,4,2,1,70,0,0
180347,-100,4,2,1,70,0,0
210047,-125,4,2,1,70,0,0
211547,-83.3333333333333,4,2,1,80,0,1
219797,-83.3333333333333,4,2,1,80,0,0
221147,-83.3333333333333,4,2,1,80,0,1
230597,-100,4,2,1,80,0,0
252347,-83.3333333333333,4,2,1,80,0,0
253547,-83.3333333333333,4,2,2,76,0,0
253847,-83.3333333333333,4,2,2,72,0,0
254147,-83.3333333333333,4,2,2,68,0,0
254447,-83.3333333333333,4,2,2,64,0,0
254747,-83.3333333333333,4,2,2,60,0,0
255047,-83.3333333333333,4,2,2,56,0,0
255347,-83.3333333333333,4,2,2,52,0,0
255647,-83.3333333333333,4,2,2,48,0,0
255947,-83.3333333333333,4,2,2,44,0,0
256247,-83.3333333333333,4,2,2,40,0,0
256547,-83.3333333333333,4,2,2,36,0,0
256847,-83.3333333333333,4,2,2,32,0,0
257147,-83.3333333333333,4,2,2,28,0,0
257447,-83.3333333333333,4,2,2,24,0,0
257747,-83.3333333333333,4,2,2,20,0,0
258047,-83.3333333333333,4,2,2,16,0,0
258347,-83.3333333333333,4,2,2,12,0,0
258647,-83.3333333333333,4,2,2,8,0,0

[Colours]
Combo1 : 176,176,255
Combo2 : 200,200,200
Combo3 : 18,124,255
Combo4 : 13,176,255

[HitObjects]
169,180,197,6,0,P|228:177|274:173,1,104,2|0,0:0|0:0,0:0:0:0:
357,146,647,2,0,P|354:171|353:197,1,52,0|0,0:0|0:0,0:0:0:0:
381,282,947,2,0,P|329:277|277:275,1,104,2|0,0:0|0:0,0:0:0:0:
201,320,1397,6,0,P|149:331|91:302,1,104,2|0,0:0|0:0,0:0:0:0:
70,230,1847,2,0,P|71:204|73:178,1,52,0|0,0:0|0:0,0:0:0:0:
115,100,2147,2,0,P|167:89|225:118,1,104,2|0,0:0|0:0,0:0:0:0:
272,173,2597,6,0,P|319:191|370:179,1,104,2|0,0:0|0:0,0:0:0:0:
457,164,3047,2,0,P|454:189|453:215,1,52,0|0,0:0|0:0,0:0:0:0:
447,304,3347,2,0,P|399:285|348:297,1,104,2|0,0:0|0:0,0:0:0:0:
285,358,3797,6,0,P|234:369|186:351,1,104,2|0,0:0|0:0,0:0:0:0:
128,285,4247,2,0,P|129:259|131:233,1,52,0|0,0:0|0:0,0:0:0:0:
201,177,4547,2,0,P|212:126|194:78,1,104,2|0,0:0|0:0,0:0:0:0:
125,18,4997,6,0,P|176:55|239:51,1,130,4|0,3:1|0:0,0:0:0:0:
321,13,5447,1,8,0:0:0:0:
321,13,5747,1,0,3:2:0:0:
314,103,5897,1,0,0:0:0:0:
307,193,6047,1,8,0:0:0:0:
389,155,6197,6,0,P|389:231|344:276,1,130,0|0,3:2|3:2,0:0:0:0:
265,273,6647,1,8,0:0:0:0:
265,273,6947,1,0,3:2:0:0:
175,266,7097,1,0,0:0:0:0:
85,259,7247,1,8,0:0:0:0:
18,198,7397,6,0,P|74:169|136:184,1,130,0|0,3:2|3:2,0:0:0:0:
175,266,7847,1,8,0:0:0:0:
175,266,8147,1,0,3:2:0:0:
265,273,8297,1,0,0:0:0:0:
307,193,8447,1,8,0:0:0:0:
355,269,8597,6,0,P|411:298|473:283,1,130,4|0,3:1|0:0,0:0:0:0:
512,201,9047,1,8,0:0:0:0:
493,113,9197,2,0,P|439:147|422:208,1,130,4|0,3:1|0:0,0:0:0:0:
473,283,9647,1,8,0:0:0:0:
421,207,9797,6,0,P|365:179|294:203,1,130,4|0,3:1|3:2,0:0:0:0:
241,263,10247,2,0,L|169:258,1,65,8|0,0:0|0:0,0:0:0:0:
96,303,10547,2,0,L|24:308,2,65,0|0|8,3:2|0:0|0:0,0:0:0:0:
176,258,10997,6,0,P|199:189|168:122,1,130,0|0,3:2|3:2,0:0:0:0:
108,81,11447,1,8,0:0:0:0:
108,81,11747,1,0,3:2:0:0:
181,137,11897,1,0,0:0:0:0:
256,84,12047,1,8,0:0:0:0:
329,140,12197,6,0,L|462:130,1,130,4|0,3:1|3:2,0:0:0:0:
470,39,12647,2,0,L|340:48,1,130,8|0,0:0|3:2,0:0:0:0:
256,84,13097,1,0,3:2:0:0:
329,140,13247,1,8,0:0:0:0:
340,47,13397,6,0,L|210:37,1,130,4|0,3:1|0:0,0:0:0:0:
119,30,13847,1,8,0:0:0:0:
49,88,13997,2,0,P|31:149|54:208,1,130,4|0,3:1|0:0,0:0:0:0:
133,253,14447,1,8,0:0:0:0:
176,173,14597,6,0,P|236:212|304:195,1,130,4|0,3:1|3:2,0:0:0:0:
339,280,15047,2,0,P|275:312|255:379,1,130,8|0,0:0|3:2,0:0:0:0:
164,367,15497,2,0,P|167:295|119:245,1,130,8|0,0:0|3:2,0:0:0:0:
111,164,15947,6,0,P|153:169|193:174,1,65,8|0,0:0|3:2,0:0:0:0:
206,86,16247,2,0,P|237:115|266:142,1,65,0|8,3:2|3:2,0:0:0:0:
328,78,16547,2,0,P|341:146|353:210,1,130,0|0,3:0|3:2,0:0:0:0:
352,205,17147,5,12,3:2:0:0:
509,162,17297,1,12,3:2:0:0:
509,162,18197,2,0,P|441:175|377:187,1,130,12|8,0:0|0:0,0:0:0:0:
300,230,18647,1,0,3:2:0:0:
379,279,18797,1,0,3:2:0:0:
381,186,18947,1,0,3:2:0:0:
302,137,19097,1,0,3:2:0:0:
221,181,19247,2,0,B|173:201|173:201|107:188,1,97.5,8|0,3:2|0:0,0:0:0:0:
88,168,19547,6,0,L|71:254,1,65,4|0,3:1|0:0,0:0:0:0:
13,298,19847,2,0,B|61:278|61:278|147:294,1,130,8|0,0:0|3:2,0:0:0:0:
226,310,20297,1,0,3:2:0:0:
297,366,20447,2,0,P|316:301|276:235,1,130,8|0,0:0|3:2,0:0:0:0:
161,110,21047,1,8,0:0:0:0:
161,110,21347,1,0,3:2:0:0:
75,141,21497,1,0,3:2:0:0:
177,124,21647,1,8,0:0:0:0:
59,127,21797,6,0,P|40:192|80:258,1,130,0|0,3:2|3:2,0:0:0:0:
145,290,22247,2,0,P|190:281|237:271,1,65,8|0,0:0|0:0,0:0:0:0:
291,238,22547,2,0,P|299:192|309:145,2,65,0|0|8,3:2|3:2|0:0,0:0:0:0:
446,333,23147,2,0,P|433:269|420:205,1,130,0|8,3:2|0:0,0:0:0:0:
395,117,23597,1,0,3:2:0:0:
395,117,23897,1,0,3:2:0:0:
481,86,24047,1,8,0:0:0:0:
379,103,24197,6,0,P|315:90|251:77,1,130,0|0,3:2|3:2,0:0:0:0:
163,100,24647,2,0,P|200:154|273:167,1,130,8|0,0:0|3:2,0:0:0:0:
251,77,25097,1,0,3:2:0:0:
188,12,25247,1,8,0:0:0:0:
99,34,25397,6,0,P|71:103|99:167,1,130,0|0,3:2|3:2,0:0:0:0:
152,217,25847,1,8,0:0:0:0:
152,217,26147,1,0,0:0:0:0:
238,248,26297,1,0,3:2:0:0:
136,231,26447,1,8,0:0:0:0:
254,234,26597,6,0,P|318:221|382:208,1,130,0|0,3:2|3:2,0:0:0:0:
468,180,27047,1,8,0:0:0:0:
468,180,27347,1,0,3:2:0:0:
499,94,27497,1,0,3:2:0:0:
482,196,27647,2,0,P|475:228|469:260,1,65,8|0,0:0|0:0,0:0:0:0:
398,351,27947,6,0,P|385:287|372:223,1,130,0|8,3:2|0:0,0:0:0:0:
271,293,28397,2,0,P|284:229|297:165,1,130,0|0,3:2|3:2,0:0:0:0:
203,105,28847,2,0,P|199:89|196:73,3,32.5,8|0|0|0,0:0|0:0|3:2|0:0,0:0:0:0:
217,147,29147,6,0,P|182:140|148:133,1,65,4|0,3:1|0:0,0:0:0:0:
65,108,29447,2,0,P|78:172|91:236,1,130,8|0,0:0|3:2,0:0:0:0:
20,294,29897,1,0,3:2:0:0:
105,236,30047,6,0,B|150:216|150:216|250:236,1,130,8|0,0:0|3:2,0:0:0:0:
407,272,30647,1,8,0:0:0:0:
407,272,30947,1,0,3:2:0:0:
438,186,31097,1,0,3:2:0:0:
421,288,31247,1,8,0:0:0:0:
424,170,31397,6,0,P|437:106|450:42,1,130,0|0,3:2|3:2,0:0:0:0:
359,53,31847,2,0,P|326:48|295:40,1,65,8|0,0:0|0:0,0:0:0:0:
207,16,32147,2,0,P|202:48|194:79,2,65,0|0|8,3:2|3:2|0:0,0:0:0:0:
141,185,32747,6,0,P|205:172|269:159,1,130,0|8,3:2|0:0,0:0:0:0:
355,131,33197,1,0,3:2:0:0:
355,131,33497,1,0,3:2:0:0:
386,45,33647,1,8,0:0:0:0:
369,147,33797,6,0,P|433:134|497:121,1,130,0|0,3:2|3:2,0:0:0:0:
509,211,34247,2,0,P|445:224|381:237,1,130,8|0,0:0|3:2,0:0:0:0:
297,201,34697,1,0,3:2:0:0:
205,212,34847,1,8,0:0:0:0:
136,274,34997,6,0,P|73:287|17:257,1,130,0|0,3:2|3:2,0:0:0:0:
86,195,35447,2,0,P|148:181|205:212,1,130,8|0,0:0|3:2,0:0:0:0:
225,303,35897,1,0,3:2:0:0:
136,274,36047,1,12,3:2:0:0:
230,83,36347,6,0,P|217:147|204:211,1,130,4|8,3:2|0:0,0:0:0:0:
225,303,36797,2,0,P|289:316|353:329,1,130,0|0,3:2|3:2,0:0:0:0:
444,307,37247,2,0,P|450:275|457:243,1,65,8|0,0:0|0:0,0:0:0:0:
434,151,37547,6,0,P|380:116|356:56,1,130,0|8,3:2|0:0,0:0:0:0:
269,32,37997,2,0,P|261:105|213:153,1,130,0|0,3:2|3:2,0:0:0:0:
291,208,38447,2,0,P|322:201|354:208,1,65,8|0,0:0|0:0,0:0:0:0:
383,294,38747,6,0,P|321:308|258:293,1,130,0|8,3:2|0:0,0:0:0:0:
192,230,39197,2,0,P|129:215|66:229,1,130,0|0,3:2|3:2,0:0:0:0:
1,293,39647,1,8,0:0:0:0:
159,382,39947,6,0,P|191:376|223:369,1,65,0|0,3:2|3:2,0:0:0:0:
285,303,40247,2,0,P|316:309|348:315,1,65,8|0,0:0|3:2,0:0:0:0:
389,336,40472,1,0,0:0:0:0:
389,336,40547,2,0,P|420:329|452:323,1,65,8|0,0:0|3:2,0:0:0:0:
498,244,40847,2,0,P|491:212|485:180,1,65,8|0,0:0|0:0,0:0:0:0:
438,101,41147,6,0,P|374:114|310:127,1,130,4|8,3:1|0:0,0:0:0:0:
223,156,41597,2,0,P|165:180|107:156,1,130,0|0,0:0|3:2,0:0:0:0:
53,82,42047,1,8,0:0:0:0:
53,82,42347,6,0,P|59:169|63:227,1,130,0|8,3:2|0:0,0:0:0:0:
50,302,42797,2,0,P|137:296|195:292,1,130,0|0,0:0|3:2,0:0:0:0:
269,304,43247,1,8,0:0:0:0:
269,304,43547,6,0,P|327:328|385:304,1,130,0|8,3:2|0:0,0:0:0:0:
439,229,43997,1,0,0:0:0:0:
439,229,44147,2,0,P|442:174|445:137,1,65,0|0,0:0|3:2,0:0:0:0:
459,74,44447,1,8,0:0:0:0:
459,74,44747,5,0,3:2:0:0:
459,74,45047,1,8,0:0:0:0:
372,104,45197,2,0,P|285:98|227:94,1,130,0|0,3:2|3:2,0:0:0:0:
167,42,45647,1,8,0:0:0:0:
167,42,45947,6,0,P|109:18|51:42,1,130,4|8,3:1|0:0,0:0:0:0:
9,124,46397,2,0,P|12:167|18:254,1,130,0|0,0:0|3:2,0:0:0:0:
29,344,46847,1,8,0:0:0:0:
29,344,47147,6,0,P|116:338|174:334,1,130,0|8,3:2|0:0,0:0:0:0:
221,268,47597,2,0,P|279:244|337:268,1,130,0|0,0:0|3:2,0:0:0:0:
391,342,48047,1,8,0:0:0:0:
391,342,48347,6,0,P|385:255|381:197,1,130,0|8,3:2|0:0,0:0:0:0:
453,155,48797,2,0,P|477:97|453:39,1,130,0|0,0:0|3:2,0:0:0:0:
368,4,49247,1,8,0:0:0:0:
368,4,49547,6,0,P|364:52|383:97,1,97.5,6|0,3:2|0:0,0:0:0:0:
382,96,49847,2,0,P|330:92|295:90,1,65,12|0,0:0|3:2,0:0:0:0:
249,181,50147,2,0,P|301:177|336:175,1,65,4|0,0:0|3:2,0:0:0:0:
185,127,50447,2,0,P|165:175|176:223,1,97.5,12|0,0:0|0:0,0:0:0:0:
173,218,50747,6,0,P|86:212|28:208,1,130,4|8,3:1|0:0,0:0:0:0:
51,300,51197,2,0,P|115:304|180:307,1,130,0|0,0:0|3:2,0:0:0:0:
254,255,51647,1,8,0:0:0:0:
254,255,51947,6,0,P|312:231|370:255,1,130,0|8,3:2|0:0,0:0:0:0:
447,305,52397,1,0,0:0:0:0:
447,305,52547,2,0,P|450:255|452:221,1,65,0|0,0:0|3:2,0:0:0:0:
461,149,52847,1,8,0:0:0:0:
461,149,53147,6,0,P|374:143|316:139,1,130,0|8,3:2|0:0,0:0:0:0:
161,73,53747,6,0,P|128:75|96:77,1,65,0|0,0:0|3:2,0:0:0:0:
55,159,54047,2,0,P|57:191|59:223,1,65,8|0,0:0|0:0,0:0:0:0:
133,278,54347,6,0,P|197:273|262:269,1,130,0|8,3:2|0:0,0:0:0:0:
344,309,54797,2,0,P|342:341|340:373,2,65,0|0|0,3:2|0:0|3:2,0:0:0:0:
383,227,55247,1,12,3:2:0:0:
383,227,55547,6,0,P|407:168|383:110,1,130,4|8,3:2|0:0,0:0:0:0:
311,54,55997,2,0,P|246:49|181:45,1,130,0|0,0:0|3:2,0:0:0:0:
90,35,56447,1,8,0:0:0:0:
90,35,56747,6,0,P|91:67|93:99,1,65,0|0,3:2|0:0,0:0:0:0:
165,156,57047,2,0,P|163:188|161:220,1,65,8|8,0:0|0:0,0:0:0:0:
154,311,57347,1,8,3:2:0:0:
79,258,57497,1,8,0:3:0:0:
161,220,57647,1,4,0:3:0:0:
236,273,57797,1,4,0:3:0:0:
229,364,57947,6,0,P|306:359|384:353,1,156,4|0,3:3|0:0,0:0:0:0:
473,345,58547,1,10,0:0:0:0:
473,345,58847,1,8,3:3:0:0:
422,273,58997,1,4,3:3:0:0:
475,203,59147,5,2,0:0:0:0:
475,203,59447,1,2,0:0:0:0:
475,203,59747,1,2,0:0:0:0:
475,203,60047,1,2,0:0:0:0:
475,203,60347,6,0,P|398:198|320:192,1,155.999995239258,4|8,3:1|0:0,0:0:0:0:
217,180,60797,1,0,0:0:0:0:
229,78,60947,1,0,3:2:0:0:
331,90,61097,1,0,3:2:0:0:
319,191,61247,2,0,P|316:229|313:268,1,77.999997619629,8|0,0:0|0:0,0:0:0:0:
237,336,61547,6,0,B|196:334|164:312|164:312|126:335|70:332,1,155.999995239258,0|8,3:2|0:0,0:0:0:0:
9,145,62147,2,0,P|47:148|86:151,1,77.999997619629,0|0,3:2|0:0,0:0:0:0:
189,153,62447,2,0,P|232:195|230:258,1,116.999996429443,8|0,0:0|0:0,0:0:0:0:
233,249,62747,6,0,P|271:246|310:242,1,77.999997619629,0|0,3:2|0:0,0:0:0:0:
389,350,63047,2,0,P|350:347|311:343,1,77.999997619629,8|0,0:0|0:0,0:0:0:0:
310,242,63347,1,0,3:2:0:0:
406,210,63497,1,0,3:2:0:0:
467,292,63647,1,8,0:0:0:0:
467,292,63947,6,0,P|472:215|478:137,1,155.999995239258,4|8,3:2|0:0,0:0:0:0:
492,35,64397,1,0,3:2:0:0:
397,73,64547,2,0,P|327:68|256:63,1,116.999996429443,4|0,3:2|0:0,0:0:0:0:
246,103,64847,2,0,P|189:118|134:88,1,116.999996429443,12|0,3:2|0:0,0:0:0:0:
115,48,65147,6,0,P|120:125|126:203,1,155.999995239258,4|8,3:2|0:0,0:0:0:0:
136,305,65597,1,0,0:0:0:0:
237,295,65747,1,0,0:0:0:0:
227,193,65897,1,0,3:2:0:0:
126,203,66047,2,0,P|87:200|48:197,1,77.999997619629,8|0,0:0|0:0,0:0:0:0:
12,99,66347,6,0,P|89:104|167:110,1,155.999995239258,0|8,3:2|0:0,0:0:0:0:
227,193,66797,2,0,P|288:245|371:221,1,155.999995239258,0|0,3:2|3:2,0:0:0:0:
425,156,67247,2,0,P|367:132|303:147,1,116.999996429443,8|0,0:0|0:0,0:0:0:0:
308,161,67547,6,0,P|313:83|319:5,1,155.999995239258,4|8,3:2|0:0,0:0:0:0:
220,30,67997,1,4,3:2:0:0:
220,30,68297,2,0,P|181:27|142:24,1,77.999997619629,4|0,3:2|0:0,0:0:0:0:
59,130,68597,6,0,P|136:124|214:119,1,155.999995239258,4|0,3:2|3:2,0:0:0:0:
308,161,69047,2,0,P|310:199|313:238,1,77.999997619629,8|8,0:0|0:0,0:0:0:0:
288,282,69272,1,8,0:0:0:0:
288,282,69347,2,0,P|249:284|210:287,1,77.999997619629,8|8,3:2|0:0,0:0:0:0:
163,308,69572,1,8,0:0:0:0:
163,308,69647,2,0,P|124:305|85:302,1,77.999997619629,8|8,3:2|0:0,0:0:0:0:
40,278,69872,1,0,3:2:0:0:
40,278,69947,6,0,P|16:204|53:133,1,155.999995239258,4|8,3:2|0:0,0:0:0:0:
146,115,70397,1,0,0:0:0:0:
216,190,70547,1,0,3:2:0:0:
116,212,70697,1,0,3:2:0:0:
48,137,70847,6,0,P|44:98|42:59,1,77.999997619629,8|0,0:0|0:0,0:0:0:0:
131,12,71147,2,0,P|206:31|247:94,1,155.999995239258,0|8,3:2|0:0,0:0:0:0:
186,288,71747,2,0,P|224:285|263:282,1,77.999997619629,0|0,3:2|0:0,0:0:0:0:
330,206,72047,2,0,P|391:214|430:260,1,116.999996429443,8|0,0:0|0:0,0:0:0:0:
427,252,72347,6,0,P|429:213|432:174,1,77.999997619629,4|0,3:2|0:0,0:0:0:0:
366,42,72647,2,0,P|369:80|371:119,1,77.999997619629,8|0,0:0|0:0,0:0:0:0:
371,119,72872,1,8,0:0:0:0:
371,119,72947,2,0,P|332:115|293:113,1,77.999997619629,0|0,0:0|3:2,0:0:0:0:
205,165,73247,1,8,0:0:0:0:
211,0,73397,6,0,P|204:77|199:155,1,155.999995239258,4|0,3:2|0:0,0:0:0:0:
132,231,73847,2,0,P|93:228|54:225,1,77.999997619629,8|0,0:0|3:2,0:0:0:0:
1,347,74147,2,0,P|39:343|78:341,1,77.999997619629,8|0,0:0|3:2,0:0:0:0:
200,285,74447,2,0,P|238:288|277:290,1,77.999997619629,8|8,0:0|3:3,0:0:0:0:
327,280,74672,1,4,3:3:0:0:
327,280,74747,6,0,P|403:313|471:286,1,155.999995239258,4|8,3:1|0:0,0:0:0:0:
505,193,75197,1,0,0:0:0:0:
440,112,75347,1,0,0:0:0:0:
337,128,75497,1,0,3:2:0:0:
403,209,75647,1,8,0:0:0:0:
273,52,75947,6,0,P|239:128|266:196,1,155.999995239258,0|8,3:2|0:0,0:0:0:0:
335,263,76397,2,0,P|257:256|179:251,1,155.999995239258,0|0,3:2|3:2,0:0:0:0:
77,240,76847,1,8,0:0:0:0:
118,333,76997,1,0,0:0:0:0:
179,251,77147,6,0,P|174:173|167:95,1,155.999995239258,12|0,3:2|3:2,0:0:0:0:
244,28,77597,2,0,B|324:60|324:-4|420:28,1,155.999995239258,12|0,0:0|3:2,0:0:0:0:
474,85,78047,2,0,P|507:161|480:229,1,155.999995239258,12|12,0:0|0:0,0:0:0:0:
401,283,78497,1,8,0:0:0:0:
401,283,78572,1,8,0:0:0:0:
401,283,78647,2,0,P|362:280|323:277,1,77.999997619629,8|8,0:0|0:0,0:0:0:0:
229,239,78947,1,8,0:0:0:0:
244,340,79097,1,8,0:0:0:0:
308,176,79247,1,8,0:0:0:0:
134,203,79397,5,4,3:1:0:0:
134,203,79697,1,0,3:2:0:0:
52,161,79847,2,0,P|55:122|58:83,1,65,8|0,0:0|0:0,0:0:0:0:
108,21,80147,2,0,P|168:0|228:20,1,130,0|8,3:2|0:0,0:0:0:0:
286,91,80597,6,0,P|346:111|406:90,1,130,0|0,3:2|3:2,0:0:0:0:
489,52,81047,2,0,P|487:78|484:117,1,65,8|0,0:0|0:0,0:0:0:0:
424,186,81347,2,0,P|430:250|434:315,1,130,0|8,3:2|0:0,0:0:0:0:
365,374,81797,6,0,P|301:380|236:384,1,130,0|0,3:2|3:2,0:0:0:0:
177,315,82247,2,0,P|174:283|172:250,1,65,8|0,0:0|0:0,0:0:0:0:
94,201,82547,2,0,P|73:140|94:80,1,130,0|8,3:2|0:0,0:0:0:0:
168,27,82997,6,0,P|232:30|297:37,1,130,0|0,3:1|3:2,0:0:0:0:
371,90,83447,1,8,0:0:0:0:
287,127,83597,1,8,0:0:0:0:
381,0,83747,5,0,3:2:0:0:
371,90,83897,1,0,3:2:0:0:
361,180,84047,1,8,0:0:0:0:
278,217,84197,6,0,P|213:213|148:206,1,130,4|0,3:1|3:2,0:0:0:0:
60,184,84647,2,0,P|63:216|64:248,1,65,8|0,0:0|0:0,0:0:0:0:
59,340,84947,2,0,P|123:332|188:329,1,130,0|8,3:2|0:0,0:0:0:0:
275,301,85397,6,0,P|339:308|404:311,1,130,0|0,3:2|3:2,0:0:0:0:
503,293,85847,1,8,0:0:0:0:
471,378,85997,1,0,0:0:0:0:
412,308,86147,5,8,0:0:0:0:
444,223,86297,1,0,3:2:0:0:
373,166,86447,1,0,3:2:0:0:
296,215,86597,1,0,3:0:0:0:
318,303,86747,6,0,P|254:310|189:313,1,130,4|0,3:2|0:0,0:0:0:0:
278,327,87197,6,0,P|214:317|150:303,1,130,4|0,3:2|0:0,0:0:0:0:
233,339,87647,6,0,P|174:313|116:283,1,130,4|0,3:2|0:0,0:0:0:0:
186,338,88097,6,0,P|135:297|87:253,1,130,4|0,3:2|3:2,0:0:0:0:
87,253,88472,1,0,3:2:0:0:
87,253,88547,5,4,3:2:0:0:
75,162,88697,2,0,P|122:122|193:130,1,130,4|0,3:2|0:0,0:0:0:0:
257,201,89147,5,4,3:1:0:0:
186,258,89297,1,0,3:2:0:0:
257,201,89447,2,0,P|289:198|321:194,1,65,8|0,0:0|0:0,0:0:0:0:
409,168,89747,1,0,3:2:0:0:
409,168,90047,2,0,P|411:200|415:232,1,65,8|0,0:0|0:0,0:0:0:0:
442,320,90347,5,0,3:2:0:0:
442,320,90647,1,8,0:0:0:0:
353,300,90797,2,0,P|288:302|223:310,1,130,0|0,3:2|3:2,0:0:0:0:
139,345,91247,1,8,0:0:0:0:
60,299,91397,6,0,P|39:238|60:178,1,130,0|0,3:2|3:2,0:0:0:0:
133,124,91847,1,8,0:0:0:0:
133,124,92147,2,0,P|165:121|197:117,1,65,0|0,3:2|0:0,0:0:0:0:
285,91,92447,1,8,0:0:0:0:
285,91,92747,6,0,P|349:98|414:100,1,130,0|8,3:2|0:0,0:0:0:0:
497,62,93197,1,0,3:2:0:0:
497,62,93497,1,0,3:2:0:0:
414,100,93647,1,8,0:0:0:0:
452,183,93797,6,0,P|459:247|461:312,1,130,0|0,3:2|3:2,0:0:0:0:
397,377,94247,1,8,0:0:0:0:
397,377,94547,1,0,3:2:0:0:
307,362,94697,1,0,3:2:0:0:
217,347,94847,1,8,0:0:0:0:
127,332,94997,6,0,P|106:271|127:211,1,130,0|0,3:2|3:2,0:0:0:0:
206,165,95447,1,8,0:0:0:0:
206,165,95747,2,0,L|270:169,2,65,0|0|8,3:2|3:2|0:0,0:0:0:0:
178,77,96197,6,0,L|322:88,1,130,0|0,3:2|3:2,0:0:0:0:
385,40,96647,1,8,0:0:0:0:
385,40,96947,1,0,3:2:0:0:
431,118,97097,1,0,3:2:0:0:
353,164,97247,1,8,0:0:0:0:
307,86,97397,1,0,3:2:0:0:
307,86,97472,1,0,3:2:0:0:
307,86,97547,6,0,L|178:77,2,128.699999607239,12|2|0,3:3|0:0|0:0,0:0:0:0:
482,35,98747,6,0,L|477:99,1,65,4|0,3:1|0:0,0:0:0:0:
479,190,99047,2,0,P|414:182|349:181,1,130,8|0,0:0|3:2,0:0:0:0:
270,226,99497,1,0,3:2:0:0:
190,181,99647,2,0,P|125:182|60:189,2,130,8|0|8,0:0|3:2|0:0,0:0:0:0:
349,273,100547,1,0,3:2:0:0:
349,181,100697,1,0,3:2:0:0:
270,226,100847,1,8,0:0:0:0:
349,273,100997,6,0,P|413:271|478:264,1,130,0|0,3:2|0:0,0:0:0:0:
511,178,101447,2,0,P|510:145|506:113,1,65,8|0,0:0|0:0,0:0:0:0:
428,66,101747,2,0,P|428:33|432:1,2,65,0|0|8,3:2|3:2|0:0,0:0:0:0:
257,129,102347,6,0,P|192:127|127:120,1,130,0|8,3:2|0:0,0:0:0:0:
43,85,102797,1,0,3:2:0:0:
43,85,103097,1,0,3:2:0:0:
115,30,103247,1,8,0:0:0:0:
127,120,103397,6,0,P|125:184|118:249,1,130,0|0,3:2|3:2,0:0:0:0:
61,322,103847,1,8,0:0:0:0:
61,322,104147,1,0,3:2:0:0:
118,249,104297,1,0,3:3:0:0:
191,306,104447,1,8,0:0:0:0:
248,233,104597,6,0,P|309:212|369:233,1,130,0|0,3:2|3:2,0:0:0:0:
404,316,105047,1,8,0:0:0:0:
404,316,105347,1,0,0:0:0:0:
368,232,105497,1,0,3:2:0:0:
436,171,105647,1,12,0:0:0:0:
340,13,105947,6,0,P|342:77|349:142,1,130,4|8,3:2|0:0,0:0:0:0:
368,232,106397,2,0,P|303:234|238:241,1,130,0|0,3:2|3:2,0:0:0:0:
149,260,106847,1,8,0:0:0:0:
149,260,107147,6,0,P|146:195|139:130,1,130,4|8,3:2|0:0,0:0:0:0:
121,41,107597,2,0,P|185:38|250:31,1,130,0|0,3:2|3:2,0:0:0:0:
340,13,108047,1,8,0:0:0:0:
340,13,108347,6,0,P|342:77|349:142,1,130,4|8,3:2|0:0,0:0:0:0:
368,232,108797,2,0,P|303:234|238:241,1,130,0|0,3:2|3:2,0:0:0:0:
149,260,109247,1,8,0:0:0:0:
149,260,109547,6,0,P|147:207|141:154,1,97.5,4|0,3:2|0:0,0:0:0:0:
133,117,109847,2,0,P|86:118|40:123,1,65,12|0,0:0|3:2,0:0:0:0:
208,30,110147,2,0,P|175:32|143:33,1,65,4|0,0:0|3:2,0:0:0:0:
285,115,110447,2,0,P|252:112|220:111,1,65,12|0,0:0|3:2,0:0:0:0:
341,36,110747,6,0,P|377:90|361:176,1,130,4|8,3:1|0:0,0:0:0:0:
301,209,111197,2,0,P|237:207|172:200,1,130,0|0,0:0|3:2,0:0:0:0:
83,174,111647,1,8,0:0:0:0:
83,174,111947,6,0,P|47:228|63:314,1,130,0|8,3:2|0:0,0:0:0:0:
123,347,112397,2,0,P|187:345|252:338,1,130,0|0,0:0|3:2,0:0:0:0:
341,312,112847,1,8,0:0:0:0:
341,312,113147,6,0,P|376:259|373:195,1,130,0|8,3:2|0:0,0:0:0:0:
309,131,113597,1,0,0:0:0:0:
309,131,113747,2,0,P|276:128|244:127,1,65,0|0,0:0|3:2,0:0:0:0:
153,116,114047,1,8,0:0:0:0:
153,116,114347,5,0,3:2:0:0:
153,116,114647,5,8,0:0:0:0:
97,37,114797,2,0,P|61:89|64:153,1,130,0|0,3:2|3:2,0:0:0:0:
141,210,115247,1,8,0:0:0:0:
141,210,115547,6,0,P|205:208|270:201,1,130,4|8,3:1|0:0,0:0:0:0:
310,118,115997,2,0,P|362:82|426:85,1,130,0|0,0:0|3:2,0:0:0:0:
505,132,116447,1,8,0:0:0:0:
505,132,116747,6,0,P|503:196|496:261,1,130,0|8,3:2|0:0,0:0:0:0:
430,325,117197,2,0,P|366:323|301:316,1,130,0|0,0:0|3:2,0:0:0:0:
237,250,117647,1,8,0:0:0:0:
237,250,117947,6,0,P|239:186|246:121,1,130,0|8,3:2|0:0,0:0:0:0:
154,113,118397,2,0,P|146:177|144:242,1,130,0|0,0:0|3:2,0:0:0:0:
183,325,118847,1,8,0:0:0:0:
183,325,119147,6,0,P|128:304|72:308,1,97.5,4|0,3:2|0:0,0:0:0:0:
47,320,119447,2,0,P|46:273|41:227,1,65,12|0,0:0|3:2,0:0:0:0:
156,222,119747,2,0,P|157:175|162:129,1,65,4|0,0:0|3:2,0:0:0:0:
31,158,120047,2,0,P|30:109|27:60,1,97.5,12|0,0:0|0:0,0:0:0:0:
3,21,120347,6,0,P|52:61|137:46,1,130,4|8,3:1|0:0,0:0:0:0:
207,67,120797,2,0,P|147:89|118:170,1,130,0|0,0:0|3:2,0:0:0:0:
126,237,121247,1,8,0:0:0:0:
126,237,121547,6,0,P|205:231|274:224,1,130,0|8,3:2|0:0,0:0:0:0:
325,166,121997,1,0,0:0:0:0:
325,166,122147,2,0,P|357:169|389:171,1,65,0|0,0:0|3:2,0:0:0:0:
481,171,122447,1,8,0:0:0:0:
481,171,122747,6,0,P|474:235|470:300,1,130,0|8,3:2|0:0,0:0:0:0:
299,364,123347,2,0,P|266:361|234:358,1,65,0|0,0:0|3:2,0:0:0:0:
200,328,123572,1,0,0:0:0:0:
200,328,123647,2,0,P|167:330|135:333,1,65,8|0,0:0|0:0,0:0:0:0:
48,359,123947,6,0,P|51:294|59:229,1,130,0|8,3:2|0:0,0:0:0:0:
94,145,124397,2,0,P|61:143|29:139,2,65,0|0|0,3:2|0:0|3:2,0:0:0:0:
178,179,124847,1,12,0:0:0:0:
178,179,125147,6,0,P|240:172|290:101,1,130,4|8,3:2|0:0,0:0:0:0:
355,68,125597,2,0,P|328:125|364:203,1,130,0|0,0:0|3:2,0:0:0:0:
418,245,126047,1,8,0:0:0:0:
418,245,126347,6,0,P|450:243|482:241,1,65,0|0,3:3|0:0,0:0:0:0:
510,336,126647,2,0,P|478:334|446:332,1,65,8|8,0:0|0:0,0:0:0:0:
356,311,126947,1,8,3:2:0:0:
267,332,127097,1,8,0:3:0:0:
178,311,127247,1,4,0:3:0:0:
89,332,127397,1,4,0:3:0:0:
0,311,127547,5,4,3:3:0:0:
346,186,128147,1,4,3:3:0:0:
202,74,128447,2,0,L|197:23,2,32.5,0|0|0,0:0|0:0|0:0,0:0:0:0:
157,154,128747,6,0,P|101:159|45:130,1,97.5,6|0,3:2|0:0,0:0:0:0:
31,111,129047,2,0,L|43:235,1,97.5,6|0,3:2|0:0,0:0:0:0:
15,247,129347,2,0,P|7:300|33:352,1,97.5,6|0,3:2|0:0,0:0:0:0:
62,363,129647,2,0,L|186:351,1,97.5,6|0,3:2|0:0,0:0:0:0:
196,319,129947,6,0,B|220:311|244:311|244:311|269:320|300:327|300:327|324:327|348:319,1,155.999995239258,4|8,3:1|0:0,0:0:0:0:
424,252,130397,1,0,0:0:0:0:
403,152,130547,1,0,3:2:0:0:
305,120,130697,1,0,3:2:0:0:
228,188,130847,2,0,L|150:180,1,77.999997619629,8|0,0:0|0:0,0:0:0:0:
49,170,131147,6,0,P|20:99|58:34,1,155.999995239258,0|8,3:2|0:0,0:0:0:0:
260,12,131747,2,0,L|252:89,1,77.999997619629,0|0,3:2|0:0,0:0:0:0:
228,188,132047,2,0,P|299:179|341:137,1,116.999996429443,8|0,0:0|0:0,0:0:0:0:
358,106,132347,6,0,L|350:183,1,77.999997619629,0|0,3:2|0:0,0:0:0:0:
470,242,132647,2,0,L|462:164,1,77.999997619629,8|0,0:0|0:0,0:0:0:0:
451,63,132947,1,0,3:2:0:0:
358,106,133097,1,0,3:2:0:0:
265,63,133247,1,8,0:0:0:0:
265,63,133547,6,0,L|105:47,1,155.999995239258,4|8,3:2|0:0,0:0:0:0:
9,35,133997,1,0,3:2:0:0:
48,127,134147,2,0,P|59:196|61:256,1,116.999996429443,4|0,3:2|0:0,0:0:0:0:
47,292,134447,2,0,P|94:256|174:269,1,116.999996429443,12|0,3:2|0:0,0:0:0:0:
185,291,134747,6,0,P|262:316|333:273,1,155.999995239258,4|8,3:2|0:0,0:0:0:0:
345,187,135197,1,0,0:0:0:0:
272,121,135347,1,0,0:0:0:0:
251,217,135497,1,0,3:2:0:0:
324,283,135647,6,0,L|401:275,1,77.999997619629,8|0,0:0|0:0,0:0:0:0:
458,362,135947,2,0,L|302:378,1,155.999995239258,0|8,3:2|0:0,0:0:0:0:
203,356,136397,2,0,P|151:295|175:212,1,155.999995239258,0|0,3:2|3:2,0:0:0:0:
240,158,136847,2,0,P|264:216|249:280,1,116.999996429443,8|0,0:0|0:0,0:0:0:0:
235,275,137147,6,0,L|391:259,1,155.999995239258,4|8,3:2|0:0,0:0:0:0:
445,174,137597,1,4,3:2:0:0:
445,174,137897,2,0,L|367:166,1,77.999997619629,4|0,3:2|0:0,0:0:0:0:
315,78,138197,6,0,P|246:44|174:70,1,155.999995239258,4|0,3:2|3:2,0:0:0:0:
123,156,138647,2,0,L|131:234,1,77.999997619629,8|8,0:0|0:0,0:0:0:0:
134,284,138872,1,8,0:0:0:0:
134,284,138947,2,0,P|184:272|229:281,1,77.999997619629,8|8,3:2|0:0,0:0:0:0:
253,301,139172,1,8,0:0:0:0:
253,301,139247,2,0,P|303:313|348:304,1,77.999997619629,8|8,3:2|0:0,0:0:0:0:
374,286,139472,1,0,3:2:0:0:
374,286,139547,6,0,P|408:217|382:145,1,155.999995239258,4|8,3:2|0:0,0:0:0:0:
308,76,139997,1,0,0:0:0:0:
212,41,140147,1,0,3:2:0:0:
325,60,140297,1,0,3:2:0:0:
195,57,140447,2,0,L|117:49,1,77.999997619629,8|0,0:0|0:0,0:0:0:0:
23,86,140747,6,0,P|-11:155|15:227,1,155.999995239258,0|8,3:2|0:0,0:0:0:0:
195,318,141347,2,0,L|187:241,1,77.999997619629,0|0,3:2|0:0,0:0:0:0:
163,142,141647,2,0,P|234:151|276:193,1,116.999996429443,8|0,0:0|0:0,0:0:0:0:
293,224,141947,6,0,L|285:147,1,77.999997619629,4|0,3:2|0:0,0:0:0:0:
408,90,142247,2,0,L|400:168,1,77.999997619629,8|0,0:0|0:0,0:0:0:0:
400,167,142472,1,8,0:0:0:0:
400,167,142547,2,0,L|478:159,1,77.999997619629,0|0,0:0|3:2,0:0:0:0:
504,56,142847,1,8,0:0:0:0:
318,39,142997,6,0,L|300:210,1,155.999995239258,4|0,3:2|0:0,0:0:0:0:
366,272,143447,2,0,L|444:264,1,77.999997619629,8|0,0:0|3:2,0:0:0:0:
305,364,143747,2,0,L|383:372,1,77.999997619629,8|0,0:0|3:2,0:0:0:0:
182,292,144047,2,0,L|260:284,1,77.999997619629,8|8,0:0|3:3,0:0:0:0:
259,284,144272,1,4,3:3:0:0:
259,284,144347,6,0,P|293:215|267:143,1,155.999995239258,4|8,3:1|0:0,0:0:0:0:
174,102,144797,1,0,0:0:0:0:
78,67,144947,1,0,0:0:0:0:
191,86,145097,1,0,3:2:0:0:
61,83,145247,1,8,0:0:0:0:
22,284,145547,6,0,B|46:292|70:292|70:292|101:285|126:276|126:276|150:276|174:284,1,155.999995239258,0|8,3:2|0:0,0:0:0:0:
241,359,145997,2,0,P|217:286|248:217,1,155.999995239258,0|0,3:2|3:2,0:0:0:0:
349,196,146447,1,8,0:0:0:0:
318,293,146597,1,0,0:0:0:0:
248,217,146747,6,0,B|240:193|240:169|240:169|249:144|256:113|256:113|256:89|248:65,1,155.999995239258,12|0,3:2|3:2,0:0:0:0:
151,30,147197,2,0,P|81:61|91:139,1,155.999995239258,12|0,0:0|3:2,0:0:0:0:
164,193,147647,2,0,L|319:176,1,155.999995239258,12|12,0:0|0:0,0:0:0:0:
416,146,148097,1,8,0:0:0:0:
416,146,148172,1,8,0:0:0:0:
416,146,148247,2,0,L|408:224,1,77.999997619629,8|8,0:0|0:0,0:0:0:0:
398,324,148547,1,8,3:2:0:0:
490,283,148697,1,8,0:0:0:0:
316,264,148847,5,8,0:0:0:0:
335,90,148997,1,4,3:1:0:0:
335,90,149297,6,0,L|338:57,2,32.5,0|0|8,3:2|0:0|0:0,0:0:0:0:
266,150,149597,1,0,0:0:0:0:
183,112,149747,2,0,L|105:120,1,65,0|0,3:2|0:0,0:0:0:0:
37,160,150047,1,8,0:0:0:0:
23,18,150197,6,0,P|31:78|44:177,1,130,0|0,3:2|3:2,0:0:0:0:
101,214,150647,2,0,L|93:292,1,65,8|0,0:0|0:0,0:0:0:0:
39,350,150947,1,0,3:2:0:0:
129,363,151097,1,0,0:0:0:0:
219,350,151247,1,8,0:0:0:0:
309,363,151397,6,0,P|373:354|437:345,1,130,0|0,3:2|3:2,0:0:0:0:
450,255,151847,2,0,P|385:263|321:272,1,130,8|0,0:0|3:2,0:0:0:0:
231,259,152297,1,0,0:0:0:0:
243,168,152447,1,8,0:0:0:0:
334,180,152597,6,0,P|366:175|398:171,1,65,0|0,3:2|0:0,0:0:0:0:
483,135,152897,1,0,3:2:0:0:
410,80,153047,2,0,P|377:84|345:88,1,65,8|0,0:0|0:0,0:0:0:0:
255,77,153347,5,0,3:2:0:0:
243,168,153497,1,0,3:2:0:0:
231,259,153647,1,8,0:0:0:0:
219,350,153797,6,0,P|155:341|91:332,1,130,4|0,3:2|3:2,0:0:0:0:
67,243,154247,2,0,P|99:238|131:235,1,65,8|0,0:0|0:0,0:0:0:0:
154,145,154547,2,0,P|90:136|26:127,1,130,0|8,3:2|0:0,0:0:0:0:
2,37,154997,6,0,P|66:28|130:19,1,130,0|0,3:2|3:2,0:0:0:0:
213,56,155447,1,8,0:0:0:0:
296,19,155597,1,0,0:0:0:0:
379,56,155747,2,0,P|374:88|371:120,1,65,0|0,3:2|0:0,0:0:0:0:
375,209,156047,1,8,0:0:0:0:
295,170,156197,6,0,B|228:146|228:203|143:169,1,130,0|0,3:2|3:2,0:0:0:0:
100,116,156647,1,8,0:0:0:0:
187,88,156797,1,0,0:0:0:0:
168,177,156947,2,0,P|159:241|150:305,1,130,0|8,3:2|0:0,0:0:0:0:
214,374,157397,6,0,P|281:380|325:336,1,130,4|0,3:2|3:2,0:0:0:0:
342,243,157847,2,0,P|337:210|333:178,1,65,8|0,0:0|3:2,0:0:0:0:
432,200,158147,2,0,P|436:167|440:135,1,65,8|0,0:0|3:2,0:0:0:0:
512,248,158447,1,8,0:0:0:0:
422,291,158597,6,0,P|358:282|294:273,1,130,4|0,3:2|3:2,0:0:0:0:
207,304,159047,1,8,0:0:0:0:
151,232,159197,1,0,0:0:0:0:
203,157,159347,1,0,3:2:0:0:
291,184,159497,1,0,0:0:0:0:
293,272,159647,1,8,0:0:0:0:
207,304,159797,6,0,P|143:295|79:286,1,130,4|0,3:2|3:2,0:0:0:0:
22,213,160247,1,8,0:0:0:0:
74,138,160397,2,0,P|138:147|202:156,1,130,0|0,0:0|0:0,0:0:0:0:
283,216,160847,1,8,0:0:0:0:
283,216,160997,2,0,P|287:183|291:151,1,65,0|0,3:2|0:0,0:0:0:0:
366,97,161297,5,0,0:0:0:0:
366,97,161372,1,0,0:0:0:0:
366,97,161447,2,0,P|383:100|399:102,3,32.5,8|0|0|0,0:0|0:0|0:0|0:0,0:0:0:0:
454,123,161747,2,0,P|504:170|490:250,1,130,0|8,3:2|0:0,0:0:0:0:
439,291,162197,6,0,B|372:315|372:258|287:292,1,130,0|0,3:2|3:2,0:0:0:0:
244,345,162647,1,8,0:0:0:0:
331,373,162797,1,8,0:0:0:0:
312,283,162947,2,0,P|317:250|321:218,2,65,0|0|8,3:2|3:2|0:0,0:0:0:0:
244,345,163397,6,0,P|180:336|116:327,1,130,4|0,3:2|3:2,0:0:0:0:
46,265,163847,2,0,P|40:232|36:200,1,65,8|0,0:0|3:2,0:0:0:0:
155,241,164147,2,0,P|160:208|164:176,1,65,8|0,0:0|3:2,0:0:0:0:
264,217,164447,1,8,0:0:0:0:
249,74,164597,6,0,P|258:138|267:202,1,130,4|0,3:2|3:2,0:0:0:0:
361,122,165047,2,0,P|356:154|351:186,1,65,8|0,0:0|3:2,0:0:0:0:
453,96,165347,2,0,P|457:128|462:160,1,65,8|0,0:0|3:2,0:0:0:0:
496,191,165572,1,0,3:2:0:0:
496,191,165647,2,0,P|490:223|486:255,1,65,0|0,3:2|3:2,0:0:0:0:
485,346,165947,6,0,P|421:337|357:328,1,130,4|8,3:1|0:0,0:0:0:0:
281,276,166397,2,0,P|217:285|153:294,1,130,0|0,0:0|3:2,0:0:0:0:
61,300,166847,1,8,0:0:0:0:
112,377,166997,1,0,0:0:0:0:
152,294,167147,6,0,P|143:230|134:166,1,130,0|8,3:2|0:0,0:0:0:0:
108,77,167597,2,0,P|172:68|236:59,1,130,0|0,0:0|3:2,0:0:0:0:
323,29,168047,1,8,0:0:0:0:
409,58,168197,1,0,0:0:0:0:
495,29,168347,6,0,P|486:93|477:157,1,130,0|8,3:2|0:0,0:0:0:0:
461,247,168797,1,0,3:2:0:0:
390,187,168947,1,8,0:0:0:0:
319,247,169097,1,0,3:2:0:0:
248,187,169247,1,8,0:0:0:0:
177,247,169397,1,0,3:2:0:0:
106,187,169547,5,4,3:1:0:0:
18,233,170747,6,0,B|74:233|106:185|106:185|111:240|166:260|166:260|216:225|188:155,1,312,4|0,3:1|3:2,0:0:0:0:
333,132,171947,2,0,P|321:199|372:115,1,312,8|0,0:0|3:2,0:0:0:0:
290,7,173147,6,0,B|260:44|248:100|248:100|212:52|149:30,1,208,0|0,3:1|3:2,0:0:0:0:
274,307,174347,2,0,L|248:100,1,208,8|0,0:0|0:0,0:0:0:0:
67,328,175547,6,0,B|60:281|51:240|51:240|105:267|155:306|155:306|141:251|141:205,1,312,4|0,3:2|3:2,0:0:0:0:
286,214,176747,2,0,B|321:195|321:195|287:148|212:171|224:254|244:293|281:315|323:306|365:266,1,312,8|0,0:0|3:2,0:0:0:0:
419,149,177947,2,0,P|438:196|457:252,2,104,0|0|8,3:2|3:2|0:0,0:0:0:0:
356,16,178847,1,0,3:2:0:0:
356,16,179147,6,0,P|337:47|327:70,1,52,12|0,0:0|3:2,0:0:0:0:
253,27,179447,2,0,P|248:63|248:88,1,52,0|12,3:2|0:0,0:0:0:0:
163,78,179747,2,0,P|173:112|183:135,1,52,0|0,3:2|3:2,0:0:0:0:
101,161,180047,2,0,P|124:188|143:205,1,52,12|0,0:0|0:0,0:0:0:0:
78,262,180347,6,0,P|151:282|213:234,2,130,4|8|0,3:2|0:0|0:0,0:0:0:0:
48,176,181097,1,0,3:2:0:0:
136,199,181247,1,8,0:0:0:0:
136,199,181547,6,0,P|129:118|121:50,1,130,0|8,3:2|0:0,0:0:0:0:
212,89,181997,1,0,0:0:0:0:
212,89,182147,2,0,P|252:85|286:81,1,65,0|0,0:0|3:2,0:0:0:0:
367,72,182447,1,8,0:0:0:0:
367,72,182747,6,0,P|419:109|420:196,1,130,0|8,3:2|0:0,0:0:0:0:
348,333,183347,2,0,P|307:329|273:325,1,65,0|0,0:0|3:2,0:0:0:0:
204,281,183647,2,0,P|163:284|129:288,1,65,8|0,0:0|0:0,0:0:0:0:
57,326,183947,6,0,P|50:245|42:177,1,130,0|8,3:2|0:0,0:0:0:0:
103,127,184397,2,0,P|135:123|167:120,2,65,0|0|0,3:2|0:0|3:2,0:0:0:0:
54,49,184847,1,12,0:0:0:0:
54,49,185147,6,0,P|122:41|191:35,1,130,4|8,3:2|0:0,0:0:0:0:
252,95,185597,2,0,P|317:118|378:78,1,130,0|0,0:0|3:2,0:0:0:0:
404,8,186047,1,8,0:0:0:0:
404,8,186347,6,0,P|428:29|457:43,1,65,0|0,3:2|0:0,0:0:0:0:
458,134,186647,2,0,P|428:148|404:169,1,65,8|8,0:0|0:0,0:0:0:0:
359,248,186947,2,0,L|369:339,1,86.6666666666667,8|8,3:3|3:3,0:0:0:0:
353,350,187247,2,0,P|387:346|421:343,2,43.3333333333333,4|4|4,3:3|3:3|3:3,0:0:0:0:
338,366,187547,6,0,P|270:358|201:352,1,130,4|0,3:2|0:0,0:0:0:0:
120,375,187997,1,0,3:2:0:0:
45,322,188147,2,0,P|17:241|106:191,1,195,8|0,0:0|3:2,0:0:0:0:
178,230,188747,5,4,3:1:0:0:
267,261,206747,6,0,P|301:193|157:174,1,260,4|4,0:0|3:3,0:0:0:0:
166,337,207647,1,4,3:3:0:0:
166,337,207947,1,4,3:3:0:0:
166,337,208247,1,4,3:3:0:0:
166,337,208547,1,4,3:3:0:0:
166,337,208847,1,4,3:3:0:0:
167,154,209147,6,0,P|163:99|159:71,2,65,8|0|0,0:0|3:2|3:2,0:0:0:0:
246,198,209597,2,0,P|264:146|272:118,2,65,8|0|0,0:0|3:2|3:2,0:0:0:0:
301,271,210047,2,0,B|352:312|408:280|408:280|264:360|261:237|116:302,1,416,4|2,0:0|0:0,0:0:0:0:
118,300,211547,6,0,P|176:318|275:297,1,155.999995239258,4|8,3:2|0:0,0:0:0:0:
335,225,211997,1,0,0:0:0:0:
236,205,212147,1,0,3:2:0:0:
267,300,212297,1,0,0:0:0:0:
366,320,212447,2,0,P|422:317|464:314,1,77.999997619629,8|0,0:0|0:0,0:0:0:0:
505,234,212747,6,0,P|506:156|427:99,1,155.999995239258,0|8,3:2|0:0,0:0:0:0:
352,91,213197,1,0,0:0:0:0:
269,150,213347,2,0,P|212:147|171:144,1,77.999997619629,0|0,3:2|0:0,0:0:0:0:
97,105,213647,2,0,P|101:163|103:221,1,116.999996429443,8|0,0:0|0:0,0:0:0:0:
119,270,213947,6,0,P|80:267|41:265,1,77.999997619629,0|0,3:2|0:0,0:0:0:0:
179,362,214247,2,0,P|140:364|101:366,1,77.999997619629,8|0,0:0|0:0,0:0:0:0:
228,264,214547,1,0,3:2:0:0:
288,355,214697,1,0,3:2:0:0:
337,257,214847,1,8,0:0:0:0:
337,257,215147,6,0,P|369:189|337:121,1,155.999995239258,4|8,3:2|0:0,0:0:0:0:
240,89,215597,1,0,3:2:0:0:
165,157,215747,2,0,P|106:171|33:134,1,116.999996429443,4|0,3:2|0:0,0:0:0:0:
21,113,216047,2,0,P|25:171|27:229,1,116.999996429443,12|0,3:2|0:0,0:0:0:0:
13,278,216347,6,0,B|93:254|93:302|189:278,1,155.999995239258,4|8,3:2|0:0,0:0:0:0:
254,232,216797,1,0,0:0:0:0:
341,282,216947,1,0,0:0:0:0:
428,231,217097,1,0,3:2:0:0:
401,133,217247,2,0,P|366:151|340:181,1,77.999997619629,8|0,0:0|0:0,0:0:0:0:
265,314,217547,6,0,P|182:311|101:305,1,155.999995239258,0|8,3:2|0:0,0:0:0:0:
24,248,217997,2,0,P|0:176|33:108,1,155.999995239258,0|0,3:2|3:2,0:0:0:0:
122,58,218447,2,0,P|135:119|103:182,1,116.999996429443,8|0,0:0|0:0,0:0:0:0:
101,183,218747,6,0,P|178:180|256:175,1,155.999995239258,4|8,3:2|0:0,0:0:0:0:
356,152,219197,1,4,3:2:0:0:
356,152,219497,2,0,P|353:190|352:229,1,77.999997619629,4|0,3:2|0:0,0:0:0:0:
449,122,219797,6,0,P|443:200|441:278,1,155.999995239258,4|0,3:2|3:2,0:0:0:0:
370,351,220247,2,0,P|331:348|292:347,1,77.999997619629,8|8,0:0|0:0,0:0:0:0:
256,311,220472,1,8,0:0:0:0:
256,311,220547,2,0,P|215:299|162:314,1,77.999997619629,8|8,3:2|0:0,0:0:0:0:
140,335,220772,1,8,0:0:0:0:
140,335,220847,2,0,P|101:340|64:328,1,77.999997619629,8|4,0:0|3:3,0:0:0:0:
24,297,221072,1,4,3:3:0:0:
24,297,221147,6,0,P|0:225|33:157,1,155.999995239258,4|8,3:2|0:0,0:0:0:0:
133,137,221597,1,0,0:0:0:0:
200,211,221747,1,0,3:2:0:0:
101,232,221897,1,0,3:2:0:0:
33,157,222047,2,0,P|34:118|36:79,1,77.999997619629,8|0,0:0|0:0,0:0:0:0:
122,25,222347,6,0,B|202:49|202:1|298:25,1,155.999995239258,0|8,3:2|0:0,0:0:0:0:
446,131,222947,2,0,P|407:129|368:127,1,77.999997619629,0|0,3:2|0:0,0:0:0:0:
308,210,223247,2,0,P|253:228|199:210,1,116.999996429443,8|0,0:0|0:0,0:0:0:0:
164,172,223547,6,0,P|166:210|167:249,1,77.999997619629,4|0,3:2|0:0,0:0:0:0:
163,351,223847,1,8,0:0:0:0:
67,316,223997,1,0,3:2:0:0:
180,335,224147,1,8,0:0:0:0:
50,332,224297,1,0,3:2:0:0:
53,202,224447,1,8,0:0:0:0:
167,249,224597,6,0,P|244:246|322:240,1,155.999995239258,4|0,3:2|3:2,0:0:0:0:
420,212,225047,2,0,P|417:250|416:289,1,77.999997619629,8|0,0:0|3:2,0:0:0:0:
509,150,225347,2,0,P|511:188|512:227,1,77.999997619629,8|0,0:0|0:0,0:0:0:0:
328,109,225647,2,0,P|330:147|331:186,1,77.999997619629,8|8,0:0|3:3,0:0:0:0:
331,186,225872,1,4,3:3:0:0:
331,186,225947,6,0,P|262:220|190:194,1,155.999995239258,4|8,3:1|0:0,0:0:0:0:
140,106,226397,1,0,0:0:0:0:
89,195,226547,1,0,3:2:0:0:
38,106,226697,1,0,0:0:0:0:
89,17,226847,1,8,0:0:0:0:
191,195,227147,6,0,P|197:272|200:350,1,155.999995239258,4|8,3:1|0:0,0:0:0:0:
281,289,227597,2,0,B|318:274|356:289|356:289|404:305|450:286,1,155.999995239258,0|0,3:2|3:2,0:0:0:0:
482,201,228047,2,0,P|443:194|404:198,1,77.999997619629,8|0,0:0|0:0,0:0:0:0:
281,289,228347,6,0,P|282:250|285:211,2,77.999997619629,12|0|0,3:2|3:2|3:2,0:0:0:0:
183,225,228797,2,0,P|200:190|219:155,2,77.999997619629,12|0|0,0:0|3:2|3:2,0:0:0:0:
119,126,229247,6,0,P|179:60|267:63,1,155.999995239258,12|8,0:0|0:0,0:0:0:0:
331,102,229697,1,0,0:0:0:0:
331,102,229772,1,0,3:2:0:0:
331,102,229847,2,0,P|327:140|326:179,1,77.999997619629,8|8,3:3|3:3,0:0:0:0:
333,281,230147,2,0,P|294:280|256:277,1,77.999997619629,8|4,3:3|3:3,0:0:0:0:
256,277,230372,1,4,3:3:0:0:
256,277,230447,1,4,2:3:0:0:
181,349,230597,6,0,P|112:367|43:328,1,130,4|0,3:1|3:2,0:0:0:0:
28,259,231047,2,0,P|30:217|30:166,1,65,8|0,0:0|0:0,0:0:0:0:
72,112,231347,2,0,P|141:94|210:133,1,130,0|8,3:2|0:0,0:0:0:0:
246,189,231797,6,0,P|305:211|367:192,1,130,0|0,3:2|3:2,0:0:0:0:
449,153,232247,2,0,P|447:185|446:217,1,65,8|0,0:0|0:0,0:0:0:0:
443,308,232547,1,0,3:2:0:0:
443,308,232847,5,8,0:0:0:0:
367,358,232997,2,0,P|302:356|237:352,1,130,0|0,3:2|3:2,0:0:0:0:
163,298,233447,2,0,P|130:299|98:300,1,65,8|0,0:0|0:0,0:0:0:0:
22,249,233747,2,0,P|3:187|25:127,1,130,0|8,3:2|0:0,0:0:0:0:
99,75,234197,6,0,P|163:71|228:69,1,130,0|0,3:2|3:2,0:0:0:0:
319,83,234647,1,8,0:0:0:0:
319,83,234947,1,0,3:2:0:0:
350,169,235097,1,0,3:2:0:0:
333,67,235247,1,8,0:0:0:0:
336,185,235397,6,0,P|271:181|206:179,1,130,4|0,3:2|3:2,0:0:0:0:
118,156,235847,2,0,P|119:188|120:220,1,65,8|0,0:0|0:0,0:0:0:0:
98,309,236147,2,0,P|162:305|227:303,1,130,0|8,3:2|0:0,0:0:0:0:
294,366,236597,6,0,P|355:384|415:362,1,130,0|0,3:2|3:2,0:0:0:0:
454,279,237047,2,0,P|453:246|451:214,1,65,8|0,0:0|0:0,0:0:0:0:
405,135,237347,2,0,P|343:116|283:138,1,130,0|8,3:2|0:0,0:0:0:0:
224,208,237797,2,0,P|164:230|102:211,1,130,0|0,3:2|3:2,0:0:0:0:
18,175,238247,2,0,P|19:207|20:239,1,65,8|0,0:0|0:0,0:0:0:0:
8,330,238547,6,0,P|72:326|137:324,1,130,0|8,3:2|0:0,0:0:0:0:
228,329,238997,1,4,3:2:0:0:
367,212,239297,1,0,3:2:0:0:
271,173,239447,2,0,P|272:205|273:237,1,65,8|0,0:0|3:2,0:0:0:0:
273,237,239672,1,0,3:2:0:0:
273,237,239747,2,0,P|240:235|208:234,1,65,8|0,0:0|3:2,0:0:0:0:
117,238,240047,1,8,0:0:0:0:
36,194,240197,6,0,P|17:132|39:72,1,130,4|0,3:2|3:2,0:0:0:0:
115,24,240647,2,0,P|147:25|179:26,1,65,8|0,0:0|0:0,0:0:0:0:
254,77,240947,2,0,P|318:75|383:70,1,130,0|8,3:2|0:0,0:0:0:0:
468,35,241397,5,0,3:2:0:0:
497,214,241697,1,0,3:2:0:0:
423,267,241847,2,0,P|391:266|359:265,1,65,8|0,0:0|0:0,0:0:0:0:
299,194,242147,2,0,P|237:175|177:197,1,130,0|8,3:2|0:0,0:0:0:0:
125,271,242597,6,0,P|123:206|118:141,1,130,0|0,3:2|3:2,0:0:0:0:
98,51,243047,2,0,P|130:52|162:53,1,65,8|0,0:0|0:0,0:0:0:0:
224,119,243347,2,0,P|286:138|346:116,1,130,0|8,3:2|0:0,0:0:0:0:
386,35,243797,1,0,3:2:0:0:
457,245,244097,5,0,3:2:0:0:
374,203,244247,1,8,0:0:0:0:
345,116,244397,1,0,3:2:0:0:
386,35,244547,1,8,0:0:0:0:
334,123,244697,2,0,P|286:138|233:125,1,97.5,4|0,3:2|0:0,0:0:0:0:
205,99,244997,6,0,P|209:163|211:228,1,130,4|0,3:2|3:2,0:0:0:0:
206,320,245447,1,8,0:0:0:0:
120,351,245597,1,0,0:0:0:0:
222,334,245747,2,0,P|286:329|351:327,1,130,0|8,3:2|0:0,0:0:0:0:
436,293,246197,6,0,P|455:231|433:171,1,130,4|0,3:2|3:2,0:0:0:0:
364,113,246647,1,8,0:0:0:0:
450,82,246797,1,0,0:0:0:0:
348,99,246947,2,0,P|283:103|218:105,1,130,0|8,3:2|0:0,0:0:0:0:
154,39,247397,6,0,P|92:20|32:42,1,130,4|0,3:2|3:2,0:0:0:0:
2,127,247847,1,8,0:0:0:0:
9,217,247997,1,0,3:2:0:0:
16,307,248147,2,0,P|80:302|145:300,1,130,0|8,3:2|0:0,0:0:0:0:
213,362,248597,6,0,P|275:381|335:359,1,130,4|0,3:2|3:2,0:0:0:0:
373,276,249047,1,8,0:0:0:0:
334,192,249197,1,0,3:2:0:0:
373,108,249347,1,8,3:2:0:0:
334,24,249497,1,0,3:2:0:0:
334,24,249572,1,0,3:2:0:0:
334,24,249647,1,0,3:2:0:0:
250,63,249797,6,0,P|185:61|120:56,1,130,4|0,3:2|3:2,0:0:0:0:
35,143,250247,2,0,P|67:142|99:139,1,65,8|0,0:0|3:2,0:0:0:0:
200,225,250547,2,0,P|167:224|135:221,1,65,8|0,3:2|0:0,0:0:0:0:
225,143,250847,1,8,0:0:0:0:
304,300,250997,6,0,P|239:305|175:307,1,130,4|0,3:2|3:2,0:0:0:0:
135,221,251447,1,8,0:0:0:0:
49,261,251597,1,0,3:2:0:0:
89,347,251747,1,8,0:0:0:0:
175,307,251897,1,0,3:2:0:0:
175,307,251972,1,0,3:2:0:0:
175,307,252047,2,0,P|191:306|207:305,3,32.5,0|0|0|0,3:2|3:2|3:2|0:0,0:0:0:0:
258,285,252347,6,0,P|255:330|253:375,2,77.999997619629,4|0|0,0:0|0:0|3:2,0:0:0:0:
326,183,252797,2,0,P|341:225|359:267,2,77.999997619629,4|0|0,0:0|0:0|3:2,0:0:0:0:
346,62,253247,1,4,0:0:0:0:
256,192,253322,12,2,258647,0:0:0:0:
