osu file format v14

[General]
AudioFilename: audio.mp3
AudioLeadIn: 0
PreviewTime: 58847
Countdown: 0
SampleSet: Soft
StackLeniency: 0.7
Mode: 0
LetterboxInBreaks: 0
EpilepsyWarning: 1
WidescreenStoryboard: 1

[Editor]
DistanceSpacing: 1
BeatDivisor: 4
GridSize: 4
TimelineZoom: 1

[Metadata]
Title:Shiroi Yuki no Princess wa
TitleUnicode:白い雪のプリンセスは
Artist:Ayaponzu*
ArtistUnicode:あやぽんず*
Creator:bossandy
Version:Normal
Source:
Tags:project diva arcade ayaponz ぽんたすてぃっく! のぼる↑ 歌い手 歌ってみた カバー ボカロイド 初音ミク noboru-P utaite utattemita cover vocaloid hatsune miku a story of a girl and her the princess of white snow Net0 gary00737 MkGuh Sun Rainbow
BeatmapID:1627309
BeatmapSetID:772093

[Difficulty]
HPDrainRate:4.5
CircleSize:3
OverallDifficulty:4
ApproachRate:5
SliderMultiplier:0.9
SliderTickRate:1

[Events]
//Background and Video events
0,0,"BG.png",0,0
//Break Periods
2,79597,87947
2,189949,197747
//Storyboard Layer 0 (Background)
//Storyboard Layer 1 (Fail)
//Storyboard Layer 2 (Pass)
//Storyboard Layer 3 (Foreground)
//Storyboard Sound Samples

[TimingPoints]
197,300,4,2,1,40,1,0
197,-100,4,2,1,40,0,0
4997,-100,4,2,1,70,0,0
5147,300,4,2,1,70,1,0
5147,-100,4,2,1,70,0,0
15497,-100,4,2,2,70,0,0
15647,-100,4,2,1,70,0,0
16397,-100,4,2,2,70,0,0
16547,-100,4,2,1,70,0,0
18197,-100,4,2,2,70,0,0
21797,-100,4,2,1,70,0,0
23447,-100,4,2,2,70,0,0
23747,-100,4,2,1,70,0,0
28247,-100,4,2,2,70,0,0
28547,-100,4,2,1,70,0,0
30347,-100,4,2,2,70,0,0
31397,-100,4,2,1,70,0,0
33047,-100,4,2,2,70,0,0
33347,-100,4,2,1,70,0,0
37847,-100,4,2,2,70,0,0
38147,-100,4,2,1,70,0,0
39047,-100,4,2,2,70,0,0
39347,-100,4,2,1,70,0,0
41447,-100,4,2,2,70,0,0
41747,-100,4,2,1,70,0,0
42647,-100,4,2,2,70,0,0
42947,-100,4,2,1,70,0,0
45047,-100,4,2,2,70,0,0
45347,-100,4,2,1,70,0,0
46247,-100,4,2,2,70,0,0
46547,-100,4,2,1,70,0,0
47447,-100,4,2,2,70,0,0
47747,-100,4,2,1,70,0,0
51047,-100,4,2,2,70,0,0
51347,-100,4,2,1,70,0,0
52247,-100,4,2,2,70,0,0
52547,-100,4,2,1,70,0,0
54647,-100,4,2,2,70,0,0
54947,-100,4,2,1,70,0,0
55847,-100,4,2,2,70,0,0
56147,-100,4,2,1,70,0,0
57047,-100,4,2,2,70,0,0
57347,-100,4,2,1,70,0,0
60347,-100,4,2,1,80,0,1
64247,-100,4,2,2,80,0,1
66947,-100,4,2,1,80,0,1
68597,-100,4,2,1,80,0,0
69947,-100,4,2,1,80,0,1
73247,-100,4,2,2,80,0,1
73547,-100,4,2,1,80,0,1
75047,-100,4,2,2,80,0,1
76547,-100,4,2,1,80,0,1
79247,-100,4,2,2,80,0,1
79397,-100,4,2,1,70,0,0
89147,-100,4,2,2,70,0,0
90647,-100,4,2,2,70,0,0
91547,-100,4,2,1,70,0,0
93047,-100,4,2,2,70,0,0
93347,-100,4,2,1,70,0,0
97547,-100,4,2,1,40,0,0
98747,-100,4,2,1,70,0,0
100247,-100,4,2,2,70,0,0
101297,-100,4,2,1,70,0,0
102647,-100,4,2,2,70,0,0
102947,-100,4,2,1,70,0,0
107447,-100,4,2,2,70,0,0
107747,-100,4,2,1,70,0,0
108647,-100,4,2,2,70,0,0
108947,-100,4,2,1,70,0,0
111047,-100,4,2,2,70,0,0
111347,-100,4,2,1,70,0,0
112247,-100,4,2,2,70,0,0
112547,-100,4,2,1,70,0,0
114647,-100,4,2,2,70,0,0
114947,-100,4,2,1,70,0,0
115847,-100,4,2,2,70,0,0
116147,-100,4,2,1,70,0,0
117047,-100,4,2,2,70,0,0
117347,-100,4,2,1,70,0,0
120647,-100,4,2,2,70,0,0
120947,-100,4,2,1,70,0,0
121847,-100,4,2,2,70,0,0
122147,-100,4,2,1,70,0,0
124247,-100,4,2,2,70,0,0
124547,-100,4,2,1,70,0,0
125447,-100,4,2,2,70,0,0
125747,-100,4,2,1,70,0,0
126647,-100,4,2,2,70,0,0
126947,-100,4,2,1,70,0,0
129947,-100,4,2,1,80,0,1
133847,-100,4,2,2,80,0,1
136547,-100,4,2,1,80,0,1
138197,-100,4,2,1,80,0,0
139547,-100,4,2,1,80,0,1
142847,-100,4,2,2,80,0,1
143147,-100,4,2,1,80,0,1
144647,-100,4,2,2,80,0,1
146147,-100,4,2,1,80,0,1
148847,-100,4,2,2,80,0,1
148997,-100,4,2,2,70,0,0
153947,-100,4,2,1,70,0,0
154247,-100,4,2,2,70,0,0
156497,-100,4,2,1,70,0,0
157247,-100,4,2,2,70,0,0
157397,-100,4,2,1,70,0,0
160847,-100,4,2,2,70,0,0
166547,-100,4,2,1,70,0,0
170747,-125,4,2,1,70,0,0
180347,-100,4,2,1,70,0,0
184247,-100,4,2,2,70,0,0
184547,-100,4,2,1,70,0,0
185447,-100,4,2,2,70,0,0
185747,-100,4,2,1,70,0,0
198197,-125,4,2,1,70,0,0
209147,-111.111111111111,4,2,1,70,0,0
211547,-100,4,2,1,80,0,1
215447,-100,4,2,2,80,0,1
218147,-100,4,2,1,80,0,1
219797,-100,4,2,1,80,0,0
221147,-100,4,2,1,80,0,1
224447,-100,4,2,2,80,0,1
224747,-100,4,2,1,80,0,1
226247,-100,4,2,2,80,0,1
227747,-100,4,2,1,80,0,1
230597,-100,4,2,1,80,0,0
232847,-100,4,2,2,80,0,0
244847,-100,4,2,1,80,0,0
246047,-100,4,2,2,80,0,0
251897,-100,4,2,1,80,0,0
253547,-100,4,2,2,76,0,0
253847,-100,4,2,2,72,0,0
254147,-100,4,2,2,68,0,0
254447,-100,4,2,2,64,0,0
254747,-100,4,2,2,60,0,0
255047,-100,4,2,2,56,0,0
255347,-100,4,2,2,52,0,0
255647,-100,4,2,2,48,0,0
255947,-100,4,2,2,44,0,0
256247,-100,4,2,2,40,0,0
256547,-100,4,2,2,36,0,0
256847,-100,4,2,2,32,0,0
257147,-100,4,2,2,28,0,0
257447,-100,4,2,2,24,0,0
257747,-100,4,2,2,20,0,0
258047,-100,4,2,2,16,0,0
258347,-100,4,2,2,12,0,0
258647,-100,4,2,2,8,0,0

[Colours]
Combo1 : 176,176,255
Combo2 : 200,200,200
Combo3 : 18,124,255
Combo4 : 13,176,255

[HitObjects]
368,44,197,6,0,L|140:56,1,225,2|2,0:0|0:0,0:0:0:0:
56,156,1397,2,0,L|284:144,1,225,2|2,0:0|0:0,0:0:0:0:
384,232,2597,6,0,L|156:244,1,225,2|2,0:0|0:0,0:0:0:0:
72,344,3797,2,0,L|300:332,1,225,2|2,0:0|0:0,0:0:0:0:
424,372,4997,6,0,P|480:324|480:252,2,135,4|8|0,3:1|0:0|0:0,0:0:0:0:
396,288,6197,2,0,L|384:152,1,135,0|8,3:2|0:0,0:0:0:0:
376,64,6947,1,0,3:2:0:0:
256,128,7397,6,0,B|192:148|192:148|108:136,2,135,0|8|0,3:2|0:0|0:0,0:0:0:0:
232,40,8597,2,0,P|304:52|344:144,1,180,4|4,3:1|3:1,0:0:0:0:
364,320,9797,6,0,P|424:352|500:336,2,135,4|8|0,3:1|0:0|0:0,0:0:0:0:
288,272,10997,2,0,L|168:332,1,135,0|8,3:2|0:0,0:0:0:0:
83,372,11747,1,0,3:2:0:0:
0,264,12197,6,0,P|36:212|120:204,2,135,4|8|0,3:1|0:0|3:2,0:0:0:0:
88,288,13397,2,0,B|141:290|174:267|174:267|176:307|213:346,1,180,4|4,3:1|3:1,0:0:0:0:
296,188,14597,6,0,B|328:192|360:188|360:188|392:180|412:148|412:148|416:124|416:112|412:88|412:88|392:56|360:44|360:44|332:56|304:44|304:44|256:3|256:3|208:44|208:44|180:56|152:44|152:44|120:56|100:88|100:88|96:112|96:124|100:148|100:148|120:180|152:188|152:188|184:192|216:188,1,765,4|12,3:1|3:2,0:0:0:0:
472,372,18197,6,0,L|496:236,1,135,12|0,0:0|3:2,0:0:0:0:
420,188,18947,2,0,L|440:96,1,90,0|8,3:2|3:2,0:0:0:0:
376,36,19547,5,4,3:1:0:0:
288,44,19847,2,0,L|199:27,2,90,8|0|8,0:0|3:2|0:0,0:0:0:0:
248,124,20747,2,0,L|111:141,1,135,0|0,3:2|3:2,0:0:0:0:
72,220,21497,1,0,3:2:0:0:
24,296,21797,6,0,L|160:313,1,135,0|8,3:2|0:0,0:0:0:0:
212,240,22547,1,0,3:2:0:0:
256,320,22847,1,8,0:0:0:0:
324,260,23147,2,0,P|386:245|458:274,2,135,0|0|8,3:2|3:2|0:0,0:0:0:0:
304,220,24197,6,0,L|318:85,1,135,0|8,3:2|0:0,0:0:0:0:
256,24,24947,1,0,3:2:0:0:
208,152,25397,2,0,P|136:152|78:108,1,135,0|8,3:2|0:0,0:0:0:0:
72,28,26147,1,0,0:0:0:0:
4,144,26597,6,0,L|28:297,1,135,0|8,3:2|0:0,0:0:0:0:
100,328,27347,2,0,P|140:316|196:284,1,90,0|8,3:2|0:0,0:0:0:0:
264,256,27947,2,0,P|326:272|408:320,2,135,0|0|8,3:2|3:2|0:0,0:0:0:0:
184,296,29147,5,4,3:1:0:0:
100,328,29447,2,0,P|56:324|16:292,2,90,8|0|8,0:0|3:2|0:0,0:0:0:0:
88,240,30347,2,0,P|72:180|112:108,1,135,0|0,3:2|0:0,0:0:0:0:
192,100,31097,1,0,3:2:0:0:
244,172,31397,6,0,P|303:205|376:195,1,135,0|8,3:2|0:0,0:0:0:0:
404,116,32147,1,0,3:2:0:0:
476,168,32447,1,8,0:0:0:0:
436,248,32747,2,0,P|421:313|444:375,2,135,0|0|8,3:2|3:2|0:0,0:0:0:0:
456,208,33797,6,0,B|384:204|384:204|324:244,1,135,0|8,3:2|0:0,0:0:0:0:
252,284,34547,1,0,3:2:0:0:
212,156,34997,2,0,P|140:156|82:199,1,135,0|8,3:2|0:0,0:0:0:0:
56,272,35747,1,0,3:2:0:0:
100,352,36047,1,8,0:0:0:0:
188,364,36347,6,0,P|232:351|272:323,1,90,4|8,3:2|0:0,0:0:0:0:
300,244,36947,2,0,P|312:199|340:159,1,90,0|8,0:0|0:0,0:0:0:0:
416,120,37547,2,0,P|432:76|392:0,2,135,0|0|8,3:2|3:2|0:0,0:0:0:0:
336,164,38747,6,0,P|366:199|451:203,2,135,0|0|8,3:2|3:2|0:0,0:0:0:0:
332,76,39947,1,0,3:2:0:0:
256,124,40247,1,8,0:0:0:0:
168,120,40547,1,8,0:0:0:0:
88,76,40847,1,8,0:0:0:0:
40,152,41147,6,0,P|72:260|212:292,1,270,4|8,3:1|0:0,0:0:0:0:
302,292,42347,2,0,P|429:273|472:152,1,270,0|8,3:2|0:0,0:0:0:0:
392,112,43547,6,0,L|402:19,1,90,0|8,3:2|0:0,0:0:0:0:
312,36,44147,1,0,0:0:0:0:
224,20,44447,1,8,0:0:0:0:
136,36,44747,2,0,P|88:40|8:8,2,135,0|0|8,3:2|3:2|0:0,0:0:0:0:
200,100,45947,6,0,B|289:100|289:100|369:139|369:139|459:139,1,270,4|8,3:1|0:0,0:0:0:0:
464,232,47147,2,0,B|374:232|374:232|294:271|294:271|204:271,1,270,0|8,3:2|0:0,0:0:0:0:
152,348,48347,6,0,P|120:306|113:259,1,90,0|8,3:2|0:0,0:0:0:0:
160,192,48947,1,0,0:0:0:0:
112,116,49247,1,8,0:0:0:0:
160,40,49547,2,0,L|257:16,1,90,6|12,3:2|0:0,0:0:0:0:
288,100,50147,2,0,L|385:123,1,90,4|12,0:0|0:0,0:0:0:0:
376,212,50747,6,0,L|238:178,2,135,4|0|8,3:1|0:0|0:0,0:0:0:0:
456,168,51947,2,0,L|496:302,2,135,0|0|8,3:2|0:0|0:0,0:0:0:0:
380,120,53147,6,0,L|272:92,1,90,0|8,3:2|0:0,0:0:0:0:
204,96,53747,2,0,L|96:124,1,90,0|8,3:2|0:0,0:0:0:0:
44,172,54347,2,0,B|32:236|32:236|44:308,2,135,0|0|12,3:2|3:2|3:2,0:0:0:0:
128,204,55547,6,0,B|170:182|181:140|181:140|224:182|266:140|266:140|276:182|319:204,1,270,4|8,3:2|0:0,0:0:0:0:
320,296,56747,2,0,B|277:316|267:358|267:358|224:316|181:358|181:358|170:316|127:296,1,270,0|4,3:2|0:3,0:0:0:0:
48,248,57947,6,0,P|23:163|48:78,1,180,4|10,3:3|0:0,0:0:0:0:
224,124,59147,2,0,P|266:136|308:124,1,90,2|2,0:0|0:0,0:0:0:0:
264,44,59747,2,0,P|306:31|348:44,1,90,2|2,0:0|0:0,0:0:0:0:
416,104,60347,5,4,3:1:0:0:
484,44,60647,1,8,0:0:0:0:
508,132,60947,2,0,P|505:176|479:212,1,90,0|8,3:2|0:0,0:0:0:0:
392,188,61547,2,0,P|365:223|362:267,1,90,0|8,3:2|0:0,0:0:0:0:
380,356,62147,1,0,3:2:0:0:
296,328,62447,1,8,0:0:0:0:
212,296,62747,6,0,L|124:312,1,90,0|8,3:2|0:0,0:0:0:0:
56,248,63347,2,0,L|104:164,1,90,0|8,3:2|0:0,0:0:0:0:
36,108,63947,2,0,P|116:68|200:88,1,180,4|4,3:2|3:2,0:0:0:0:
256,160,64847,1,12,3:2:0:0:
311,88,65147,6,0,P|397:68|476:108,1,180,4|0,3:2|0:0,0:0:0:0:
412,169,66047,1,8,0:0:0:0:
424,256,66347,2,0,P|368:244|324:172,2,135,0|0|8,3:2|3:2|0:0,0:0:0:0:
504,212,67547,6,0,P|512:284|472:336,1,135,4|4,3:2|3:2,0:0:0:0:
387,340,68297,1,4,3:2:0:0:
304,308,68597,2,0,P|239:290|171:294,1,135,4|8,3:2|0:0,0:0:0:0:
112,360,69347,1,8,3:2:0:0:
28,324,69647,1,8,3:2:0:0:
56,240,69947,5,4,3:2:0:0:
12,160,70247,2,0,P|8:112|32:60,2,90,8|0|8,0:0|3:2|0:0,0:0:0:0:
96,128,71147,2,0,L|196:136,1,90,0|8,3:2|0:0,0:0:0:0:
224,216,71747,1,0,3:2:0:0:
280,144,72047,1,8,0:0:0:0:
319,225,72347,6,0,L|419:233,1,90,4|8,3:2|0:0,0:0:0:0:
424,320,72947,2,0,L|289:309,2,135,0|4|8,0:0|3:2|0:0,0:0:0:0:
496,264,74147,1,8,0:0:0:0:
484,176,74447,1,8,0:0:0:0:
472,88,74747,6,0,P|386:108|307:68,1,180,4|0,3:1|0:0,0:0:0:0:
236,16,75647,1,8,0:0:0:0:
148,24,75947,2,0,P|99:54|82:137,2,135,0|0|8,3:2|3:2|0:0,0:0:0:0:
172,112,77147,6,0,P|220:105|276:88,1,90,12|0,3:2|3:2,0:0:0:0:
300,76,77597,2,0,P|317:140|313:208,1,135,12|12,0:0|0:0,0:0:0:0:
356,288,78347,2,0,P|316:300|268:288,1,90,12|8,0:0|0:0,0:0:0:0:
220,212,78947,2,0,B|160:192|88:212,1,135,8|4,0:0|3:1,0:0:0:0:
116,336,89147,5,4,3:1:0:0:
156,256,89447,2,0,L|138:163,2,90,8|0|8,0:0|3:2|0:0,0:0:0:0:
212,324,90347,2,0,P|279:354|360:343,1,135,0|0,3:2|3:2,0:0:0:0:
416,308,91097,1,0,3:2:0:0:
464,232,91397,6,0,L|446:95,1,135,0|8,3:2|0:0,0:0:0:0:
432,8,92147,1,0,3:2:0:0:
364,64,92447,1,8,0:0:0:0:
280,28,92747,2,0,P|217:13|145:42,2,135,0|0|8,3:2|3:2|0:0,0:0:0:0:
264,68,93797,6,0,P|259:137|278:202,1,135,0|8,3:2|0:0,0:0:0:0:
364,228,94547,1,0,3:2:0:0:
488,180,94997,2,0,P|491:249|473:314,1,135,0|8,3:2|0:0,0:0:0:0:
396,356,95747,1,0,3:2:0:0:
296,268,96197,6,0,P|232:253|142:263,1,135,0|8,3:2|0:0,0:0:0:0:
116,336,96947,2,0,P|72:336|32:316,1,90,0|8,3:2|0:0,0:0:0:0:
20,228,97547,6,0,L|8:88,1,135,12|2,3:3|0:0,0:0:0:0:
228,48,98747,5,4,3:1:0:0:
176,120,99047,2,0,P|180:163|212:204,2,90,8|0|8,0:0|3:2|0:0,0:0:0:0:
264,136,99947,2,0,P|332:143|395:176,1,135,0|0,3:2|0:0,0:0:0:0:
388,264,100697,1,0,3:1:0:0:
308,308,100997,6,0,P|237:300|175:267,1,135,0|8,3:2|0:0,0:0:0:0:
152,188,101747,1,0,3:2:0:0:
68,216,102047,1,8,0:0:0:0:
16,144,102347,2,0,P|2:85|29:17,2,135,0|0|8,3:2|3:2|0:0,0:0:0:0:
59,132,103397,6,0,P|126:106|209:111,1,135,0|8,3:2|0:0,0:0:0:0:
255,168,104147,1,0,3:2:0:0:
307,292,104597,2,0,P|374:317|457:312,1,135,0|8,3:2|0:0,0:0:0:0:
499,252,105347,1,0,3:2:0:0:
495,164,105647,1,8,0:0:0:0:
419,116,105947,6,0,L|323:144,1,90,4|8,3:2|0:0,0:0:0:0:
271,208,106547,2,0,L|174:179,1,90,0|8,0:0|0:0,0:0:0:0:
111,232,107147,2,0,P|95:188|131:108,2,135,4|0|8,3:2|3:2|0:0,0:0:0:0:
191,268,108347,6,0,P|161:303|75:312,2,135,4|0|8,3:2|3:2|0:0,0:0:0:0:
207,180,109547,1,4,3:2:0:0:
291,208,109847,1,12,0:0:0:0:
379,208,110147,1,4,0:0:0:0:
463,180,110447,1,12,0:0:0:0:
463,92,110747,6,0,B|396:65|331:92|331:92|265:117|200:92,1,270,4|8,3:1|0:0,0:0:0:0:
131,32,111947,2,0,B|104:97|131:162|131:162|156:229|131:294,1,270,0|8,3:2|0:0,0:0:0:0:
59,348,113147,6,0,P|99:380|147:380,1,90,0|8,3:2|0:0,0:0:0:0:
215,340,113747,1,0,0:0:0:0:
303,340,114047,1,8,0:0:0:0:
382,382,114347,2,0,P|431:375|490:298,2,135,0|0|8,3:2|3:2|0:0,0:0:0:0:
303,340,115547,6,0,B|249:320|196:351|196:351|154:330|154:330|100:361|48:340,1,270,4|8,3:1|0:0,0:0:0:0:
92,260,116747,2,0,B|113:206|82:153|82:153|103:111|103:111|72:57|92:5,1,270,0|8,3:2|0:0,0:0:0:0:
172,48,117947,6,0,P|204:64|260:64,1,90,0|8,3:2|0:0,0:0:0:0:
344,36,118547,1,0,0:0:0:0:
428,72,118847,1,8,0:0:0:0:
464,156,119147,2,0,P|424:176|372:184,1,90,4|12,3:2|0:0,0:0:0:0:
296,148,119747,2,0,P|251:155|211:175,1,90,4|12,3:2|0:0,0:0:0:0:
172,256,120347,6,0,B|104:261|104:261|42:224,2,135,4|0|8,3:1|0:0|0:0,0:0:0:0:
264,252,121547,2,0,B|302:307|302:307|302:379,2,135,0|0|8,3:2|0:0|0:0,0:0:0:0:
211,175,122747,6,0,L|236:86,1,90,0|8,3:2|0:0,0:0:0:0:
188,12,123347,2,0,B|144:28|100:24,1,90,0|8,0:0|0:0,0:0:0:0:
52,100,123947,2,0,P|52:168|108:224,2,135,0|0|12,3:2|3:2|0:0,0:0:0:0:
136,136,125147,6,0,B|176:176|226:176|256:146|256:146|286:176|336:176|376:136,1,270,4|8,3:2|0:0,0:0:0:0:
376,44,126347,2,0,B|336:4|286:4|256:34|256:34|226:4|176:4|136:44,1,270,0|4,3:3|0:3,0:0:0:0:
171,127,127547,6,0,B|256:157|256:157|341:127,1,180,4|4,3:3|3:3,0:0:0:0:
508,64,128747,2,0,P|512:120|504:152,1,90,6|6,0:0|0:0,0:0:0:0:
416,176,129347,2,0,P|406:219|411:264,1,90,6|6,0:0|0:0,0:0:0:0:
384,352,129947,5,4,3:1:0:0:
296,328,130247,1,8,0:0:0:0:
210,358,130547,2,0,P|207:314|223:272,1,90,0|8,3:2|0:0,0:0:0:0:
308,240,131147,2,0,P|311:195|295:153,1,90,0|8,3:2|0:0,0:0:0:0:
212,124,131747,1,0,3:2:0:0:
240,40,132047,1,8,0:0:0:0:
152,32,132347,6,0,B|104:24|104:24|60:40,1,90,0|8,3:2|0:0,0:0:0:0:
32,124,132947,2,0,B|80:132|80:132|124:116,1,90,0|8,3:2|0:0,0:0:0:0:
212,124,133547,2,0,B|300:140|300:140|384:105,1,180,4|4,3:2|3:2,0:0:0:0:
428,184,134447,1,12,3:2:0:0:
384,264,134747,6,0,B|300:232|300:232|210:245,1,180,4|0,3:2|0:0,0:0:0:0:
124,264,135647,1,8,0:0:0:0:
88,348,135947,2,0,P|40:300|40:232,2,135,0|0|8,3:2|3:2|0:0,0:0:0:0:
176,336,137147,6,0,P|244:324|312:344,1,135,4|4,3:2|3:2,0:0:0:0:
332,255,137897,1,4,3:2:0:0:
256,208,138197,2,0,P|238:144|242:76,1,135,4|8,3:2|0:0,0:0:0:0:
328,48,138947,1,8,3:2:0:0:
404,96,139247,1,8,3:2:0:0:
408,184,139547,5,4,3:2:0:0:
376,268,139847,2,0,P|424:272|476:248,2,90,8|0|8,0:0|3:2|0:0,0:0:0:0:
340,352,140747,2,0,L|248:344,1,90,0|8,3:2|0:0,0:0:0:0:
160,340,141347,1,0,3:2:0:0:
99,273,141647,1,8,0:0:0:0:
152,200,141947,6,0,P|164:157|154:113,1,90,4|8,3:2|0:0,0:0:0:0:
244,91,142547,2,0,P|256:159|240:227,2,135,0|4|8,0:0|3:2|0:0,0:0:0:0:
180,27,143747,1,8,0:0:0:0:
92,43,144047,1,8,0:0:0:0:
4,64,144347,6,0,B|16:152|16:152|76:224,1,180,4|0,3:1|0:0,0:0:0:0:
136,288,145247,1,8,0:0:0:0:
204,348,145547,2,0,P|268:334|306:280,2,135,0|0|8,3:2|3:2|0:0,0:0:0:0:
220,260,146747,6,0,P|204:220|160:176,1,90,12|0,3:2|3:2,0:0:0:0:
144,152,147197,2,0,P|208:130|276:138,1,135,12|12,0:0|0:0,0:0:0:0:
336,204,147947,2,0,P|377:219|422:218,1,90,12|8,0:0|0:0,0:0:0:0:
484,148,148547,2,0,L|464:8,1,135,8|4,3:2|3:1,0:0:0:0:
340,68,149447,5,8,0:0:0:0:
260,108,149747,2,0,P|211:111|168:92,1,90,0|8,3:2|0:0,0:0:0:0:
112,32,150347,2,0,P|63:29|20:48,1,90,0|8,0:0|0:0,0:0:0:0:
76,120,150947,2,0,P|60:176|16:240,1,135,0|0,3:2|3:2,0:0:0:0:
144,288,151847,5,8,0:0:0:0:
232,312,152147,2,0,P|282:313|332:288,1,90,0|8,3:2|0:0,0:0:0:0:
340,212,152747,1,0,0:0:0:0:
320,124,153047,1,8,0:0:0:0:
344,36,153347,2,0,P|384:16|428:16,1,90,0|8,3:2|0:0,0:0:0:0:
472,28,153797,6,0,P|508:80|516:164,1,135,4|8,3:2|0:0,0:0:0:0:
512,240,154547,1,0,3:2:0:0:
384,200,154997,2,0,P|339:186|292:180,1,90,0|0,0:0|3:2,0:0:0:0:
236,248,155597,2,0,P|191:263|144:268,1,90
88,332,156197,6,0,P|63:259|93:198,1,135,0|8,3:2|0:0,0:0:0:0:
20,143,156947,2,0,P|92:118|153:148,1,135,0|4,3:2|3:2,0:0:0:0:
172,227,157697,1,0,3:2:0:0:
252,264,157997,1,0,3:2:0:0:
340,260,158297,1,0,3:2:0:0:
417,218,158597,6,0,P|444:157|444:90,1,135,4|8,3:2|0:0,0:0:0:0:
356,120,159347,2,0,P|311:130|240:116,1,90,0|8,3:2|0:0,0:0:0:0:
196,76,159947,2,0,P|151:65|80:80,1,90,0|8,0:0|0:0,0:0:0:0:
44,136,160547,2,0,L|60:280,1,135,0|0,3:2|3:2,0:0:0:0:
172,340,161447,5,8,0:0:0:0:
224,268,161747,2,0,L|214:162,2,90,0|8|0,3:2|0:0|0:0,0:0:0:0:
264,348,162647,1,8,0:0:0:0:
316,276,162947,2,0,L|303:141,1,135,0|4,3:2|3:2,0:0:0:0:
204,48,163847,5,8,0:0:0:0:
168,132,164147,2,0,P|96:144|32:108,1,135,8|4,0:0|3:2,0:0:0:0:
96,240,165047,1,8,0:0:0:0:
131,323,165347,2,0,P|180:333|219:321,1,90,8|0,0:0|3:2,0:0:0:0:
256,240,165947,5,4,3:1:0:0:
200,168,166247,2,0,P|159:92|200:16,1,180,8|8,0:0|0:0,0:0:0:0:
256,92,167147,1,0,3:2:0:0:
311,15,167447,2,0,P|352:91|311:167,1,180,8|8,0:0|0:0,0:0:0:0:
308,256,168347,6,0,L|300:356,1,90,0|8,3:2|0:0,0:0:0:0:
211,345,168947,2,0,L|204:256,1,90,8|8,0:0|0:0,0:0:0:0:
200,168,169547,1,4,3:1:0:0:
464,68,170747,6,0,P|364:26|248:72,1,216,4|0,3:1|3:2,0:0:0:0:
284,140,171947,2,0,P|184:181|68:136,1,216,8|0,0:0|3:2,0:0:0:0:
4,180,173147,6,0,P|12:100|88:64,2,144,0|0|8,3:1|3:2|0:0,0:0:0:0:
80,336,174947,1,0,0:0:0:0:
224,240,175547,6,0,B|316:296|316:296|421:267,1,216,4|0,3:2|3:2,0:0:0:0:
432,180,176747,2,0,B|340:124|340:124|234:152,1,216,8|0,0:0|3:2,0:0:0:0:
156,188,177947,6,0,P|87:193|37:140,1,144,0|8,3:2|0:0,0:0:0:0:
120,112,178847,1,0,3:2:0:0:
204,88,179147,2,0,P|241:80|304:84,1,72,12|0,0:0|3:2,0:0:0:0:
324,152,179747,2,0,P|359:159|395:159,1,72,0|12,3:2|0:0,0:0:0:0:
464,108,180347,5,4,3:2:0:0:
472,196,180647,2,0,P|452:276|360:324,1,180,8|8,0:0|0:0,0:0:0:0:
292,284,181547,1,0,3:2:0:0:
240,212,181847,2,0,L|60:236,1,180,8|8,0:0|0:0,0:0:0:0:
0,164,182747,6,0,P|4:112|38:72,1,90,0|8,3:2|0:0,0:0:0:0:
108,124,183347,2,0,P|159:118|199:85,1,90,0|8,0:0|0:0,0:0:0:0:
240,24,183947,2,0,P|301:50|367:40,2,135,0|0|12,3:2|3:2|0:0,0:0:0:0:
168,76,185147,6,0,P|294:131|434:105,1,270,4|8,3:2|0:0,0:0:0:0:
492,168,186347,2,0,L|485:275,1,90,0|8,3:2|0:0,0:0:0:0:
400,232,186947,2,0,L|313:302,1,90,8|4,3:3|3:3,0:0:0:0:
252,336,187547,6,0,P|171:331|103:255,1,180,4|8,3:2|0:0,0:0:0:0:
76,176,188447,1,0,3:2:0:0:
108,92,188747,1,4,3:1:0:0:
388,88,198947,6,0,L|300:80,1,72,2|0,0:0|0:0,0:0:0:0:
252,140,199547,2,0,L|108:126,1,144,0|2,0:0|0:0,0:0:0:0:
24,276,200747,6,0,L|167:262,1,144,0|2,0:0|0:0,0:0:0:0:
252,256,201647,1,0,0:0:0:0:
316,312,201947,6,0,L|408:308,1,72,0|0,0:0|0:0,0:0:0:0:
444,244,202547,2,0,P|452:188|424:132,2,108,2|0|0,0:0|0:0|0:0,0:0:0:0:
368,204,203747,2,0,P|328:192|296:192,1,72,2|0,0:0|0:0,0:0:0:0:
228,244,204347,6,0,P|159:265|88:259,1,144,0|2,0:0|0:0,0:0:0:0:
20,208,205247,1,0,0:0:0:0:
100,176,205547,2,0,P|104:122|96:64,2,108,0|0|0,0:0|0:0|0:0,0:0:0:0:
88,259,206747,5,4,0:0:0:0:
256,304,207347,1,4,3:3:0:0:
424,259,207947,1,4,3:3:0:0:
256,212,208547,1,4,3:3:0:0:
100,164,209147,6,0,P|56:124|48:56,2,121.499996292114,8|8|4,0:0|0:0|0:0,0:0:0:0:
132,84,210347,2,0,L|240:60,1,80.9999975280763,2|2,0:0|0:0,0:0:0:0:
284,112,210947,2,0,L|392:88,1,80.9999975280763,2|2,0:0|0:0,0:0:0:0:
452,76,211547,5,4,3:2:0:0:
428,164,211847,2,0,P|422:214|444:256,2,90,8|0|8,0:0|3:2|0:0,0:0:0:0:
452,76,212747,2,0,L|356:60,1,90,0|8,3:2|0:0,0:0:0:0:
276,40,213347,1,0,3:2:0:0:
296,128,213647,1,8,0:0:0:0:
208,100,213947,6,0,P|166:108|128:140,1,90,0|8,3:2|0:0,0:0:0:0:
140,228,214547,2,0,L|152:332,1,90,0|8,3:2|0:0,0:0:0:0:
232,276,215147,2,0,P|312:316|388:276,1,180,4|4,3:2|3:2,0:0:0:0:
312,228,216047,1,12,3:2:0:0:
388,180,216347,6,0,P|308:140|232:180,1,180,4|0,3:2|0:0,0:0:0:0:
312,228,217247,1,8,0:0:0:0:
388,280,217547,2,0,B|419:257|450:280|450:280|481:302|512:280,2,135,0|0|8,3:2|3:2|0:0,0:0:0:0:
308,324,218747,6,0,P|240:320|184:280,1,135,4|4,3:2|3:2,0:0:0:0:
179,191,219497,1,4,3:2:0:0:
264,156,219797,2,0,P|282:91|278:23,1,135,4|8,3:2|0:0,0:0:0:0:
188,12,220547,1,8,3:2:0:0:
100,28,220847,1,8,0:0:0:0:
12,20,221147,5,4,3:2:0:0:
48,104,221447,2,0,P|52:152|28:204,2,90,8|0|8,0:0|3:2|0:0,0:0:0:0:
140,108,222347,2,0,L|240:116,1,90,0|8,3:2|0:0,0:0:0:0:
188,196,222947,1,0,3:2:0:0:
268,240,223247,1,8,0:0:0:0:
192,292,223547,6,0,L|92:284,1,90,4|8,3:2|0:0,0:0:0:0:
72,368,224147,2,0,L|207:379,2,135,8|4|8,0:0|3:2|0:0,0:0:0:0:
12,300,225347,1,8,0:0:0:0:
40,216,225647,1,8,0:0:0:0:
40,128,225947,6,0,P|126:148|205:108,1,180,4|0,3:1|3:2,0:0:0:0:
240,28,226847,1,8,0:0:0:0:
296,100,227147,2,0,P|355:129|419:114,2,135,4|0|8,3:1|3:2|0:0,0:0:0:0:
240,28,228347,6,0,P|196:32|152:48,1,90,12|0,3:2|3:2,0:0:0:0:
116,76,228797,2,0,P|99:140|103:208,1,135,12|12,0:0|0:0,0:0:0:0:
152,288,229547,2,0,L|248:280,1,90,8|8,0:0|3:3,0:0:0:0:
312,336,230147,2,0,L|472:324,1,135,8|4,3:3|3:1,0:0:0:0:
492,200,231047,5,8,0:0:0:0:
412,156,231347,2,0,L|408:52,1,90,0|8,3:2|0:0,0:0:0:0:
324,96,231947,2,0,P|280:101|220:96,1,90,0|8,0:0|0:0,0:0:0:0:
156,56,232547,2,0,P|89:47|21:51,1,135,0|0,3:2|3:2,0:0:0:0:
92,168,233447,5,8,0:0:0:0:
152,236,233747,2,0,L|248:220,1,90,0|8,3:2|0:0,0:0:0:0:
288,300,234347,2,0,L|376:314,1,90,0|8,0:0|0:0,0:0:0:0:
447,372,234947,2,0,P|468:312|440:248,1,135,0|4,3:2|3:2,0:0:0:0:
324,188,235847,5,8,0:0:0:0:
248,144,236147,2,0,P|202:124|160:124,1,90,0|8,3:2|0:0,0:0:0:0:
132,208,236747,2,0,P|86:227|44:228,1,90,0|8,0:0|0:0,0:0:0:0:
0,152,237347,2,0,L|24:20,1,135,0|0,3:2|3:2,0:0:0:0:
160,36,238247,5,8,0:0:0:0:
248,60,238547,2,0,L|400:44,1,135,0|4,3:2|3:2,0:0:0:0:
492,124,239447,1,8,0:0:0:0:
420,180,239747,2,0,P|356:196|296:168,1,135,8|4,0:0|3:2,0:0:0:0:
284,304,240647,5,8,0:0:0:0:
200,340,240947,2,0,L|96:316,1,90,0|8,3:2|0:0,0:0:0:0:
36,368,241547,2,0,P|22:316|40:268,1,90,0|8,0:0|0:0,0:0:0:0:
104,228,242147,2,0,P|172:248|238:232,1,135,0|0,3:2|3:2,0:0:0:0:
340,152,243047,5,8,0:0:0:0:
272,92,243347,2,0,P|226:104|176:108,1,90,0|8,3:2|0:0,0:0:0:0:
112,52,243947,2,0,P|66:39|16:36,1,90,0|8,0:0|0:0,0:0:0:0:
4,124,244547,2,0,P|8:196|40:264,1,135,8|4,0:0|3:2,0:0:0:0:
144,328,245447,5,8,0:0:0:0:
224,284,245747,2,0,P|269:264|356:276,1,135,0|4,3:2|3:2,0:0:0:0:
452,184,246647,1,8,0:0:0:0:
372,140,246947,2,0,P|326:120|240:132,1,135,0|4,3:2|3:2,0:0:0:0:
124,68,247847,5,8,0:0:0:0:
80,148,248147,2,0,B|52:208|52:208|64:276,1,135,0|4,3:2|3:2,0:0:0:0:
172,356,249047,1,8,0:0:0:0:
216,276,249347,2,0,B|244:216|244:216|232:148,1,135,8|4,3:2|3:2,0:0:0:0:
320,44,250247,5,8,0:0:0:0:
403,75,250547,2,0,P|436:132|428:212,1,135,8|4,3:2|3:2,0:0:0:0:
380,272,251297,1,0,3:2:0:0:
308,216,251597,2,0,P|232:204|172:232,1,135,0|0,3:2|3:2,0:0:0:0:
148,308,252347,6,0,P|72:320|12:292,1,135,4|4,0:0|0:0,0:0:0:0:
96,188,253247,1,4,0:0:0:0:
256,192,253397,12,2,258647,0:0:0:0:
