osu file format v14

[General]
AudioFilename: audio.mp3
AudioLeadIn: 0
PreviewTime: 59147
Countdown: 1
SampleSet: Soft
StackLeniency: 0.7
Mode: 0
LetterboxInBreaks: 0
WidescreenStoryboard: 0

[Editor]
Bookmarks: 19547,59147,129947,162047,188747,210347
DistanceSpacing: 0.3
BeatDivisor: 4
GridSize: 4
TimelineZoom: 2

[Metadata]
Title:Shiroi Yuki no Princess wa
TitleUnicode:白い雪のプリンセスは
Artist:Ayaponzu*
ArtistUnicode:あやぽんず*
Creator:Oooodriiin
Version:BIG OWO
Source:
Tags:
BeatmapID:1887284
BeatmapSetID:904072

[Difficulty]
HPDrainRate:4.6
CircleSize:4.2
OverallDifficulty:9
ApproachRate:9.8
SliderMultiplier:1.8
SliderTickRate:1

[Events]
//Background and Video events
0,0,"BG.png",0,0
//Break Periods
//Storyboard Layer 0 (Background)
//Storyboard Layer 1 (Fail)
//Storyboard Layer 2 (Pass)
//Storyboard Layer 3 (Foreground)
//Storyboard Sound Samples

[TimingPoints]
197,300,4,2,0,40,1,0
197,-166.666666666667,4,2,0,40,0,0
4997,-90.9090909090909,4,2,0,65,0,0
5147,300,4,2,0,65,1,0
9197,-83.3333333333333,4,2,0,65,0,0
9797,-100,4,2,0,65,0,0
17297,-1000,4,2,0,65,0,0
18047,-83.3333333333333,4,2,0,65,0,0
19547,-100,4,2,0,65,0,0
23597,-83.3333333333333,4,2,0,65,0,0
24047,-100,4,2,0,65,0,0
60347,-83.3333333333333,4,2,0,65,0,0
82097,-100,4,2,0,65,0,0
86747,-100,4,2,0,65,0,0
86822,-100,4,2,0,5,0,0
87197,-100,4,2,0,65,0,0
87272,-100,4,2,0,5,0,0
87647,-100,4,2,0,65,0,0
87722,-100,4,2,0,5,0,0
88097,-100,4,2,0,65,0,0
88172,-100,4,2,0,5,0,0
88397,-100,4,2,0,65,0,0
88622,-100,4,2,0,5,0,0
88697,-125,4,2,0,65,0,0
89153,-100,4,2,0,65,0,0
97547,-500,4,2,0,65,0,0
97997,-111.111111111111,4,2,0,65,0,0
98747,-100,4,2,0,65,0,0
129947,-90.9090909090909,4,2,0,65,0,0
133547,-76.9230769230769,4,2,0,65,0,0
134747,-90.9090909090909,4,2,0,65,0,0
168347,-90.9090909090909,4,2,0,75,0,0
169247,-90.9090909090909,4,2,0,85,0,0
170747,-142.857142857143,4,2,0,65,0,0
180347,-111.111111111111,4,2,0,65,0,0
188747,-142.857142857143,4,2,0,45,0,0
189947,-200,4,2,0,45,0,0
190547,-100,4,2,0,45,0,0
191147,-125,4,2,0,45,0,0
193547,-90.9090909090909,4,2,0,45,0,0
194147,-142.857142857143,4,2,0,45,0,0
194747,-111.111111111111,4,2,0,45,0,0
195647,-142.857142857143,4,2,0,45,0,0
200147,-111.111111111111,4,2,0,45,0,0
209147,-111.111111111111,4,2,0,65,0,0
210047,-99.9999999999999,4,2,0,70,0,0
211547,-76.9230769230769,4,2,0,90,0,1
216047,-62.5,4,2,0,90,0,1
216347,-76.9230769230769,4,2,0,90,0,1
244697,-142.857142857143,4,2,0,90,0,1
244997,-76.9230769230769,4,2,0,90,0,1
253247,-250,4,2,0,90,0,1
253322,-250,4,2,0,90,0,0
258947,-250,4,2,0,5,0,0

[Colours]
Combo1 : 103,237,150
Combo2 : 128,255,255
Combo3 : 37,185,239
Combo4 : 255,108,108
Combo5 : 202,131,233

[HitObjects]
61,101,197,6,0,P|104:79|165:78,1,107.999996704102,2|2,0:0|0:0,0:0:0:0:
254,192,647,2,0,P|224:207|187:209,1,53.9999983520508,2|2,0:0|0:0,0:0:0:0:
361,290,947,2,0,P|424:304|473:279,1,107.999996704102,2|2,0:0|0:0,0:0:0:0:
264,84,1397,6,0,L|252:207,1,107.999996704102,2|2,0:0|0:0,0:0:0:0:
412,225,1847,2,0,P|413:203|400:158,1,53.9999983520508,2|2,0:0|0:0,0:0:0:0:
96,315,2147,2,0,P|149:320|197:345,1,107.999996704102,2|2,0:0|0:0,0:0:0:0:
253,191,2597,6,0,L|242:83,1,107.999996704102,2|2,0:0|0:0,0:0:0:0:
82,15,3047,2,0,P|74:47|59:77,1,53.9999983520508,2|2,0:0|0:0,0:0:0:0:
253,191,3347,2,0,P|312:166|368:167,1,107.999996704102,2|2,0:0|0:0,0:0:0:0:
488,34,3797,6,0,L|365:19,1,107.999996704102,2|2,0:0|0:0,0:0:0:0:
253,191,4247,2,0,P|291:172|320:169,1,53.9999983520508,2|2,0:0|0:0,0:0:0:0:
491,342,4547,2,0,L|387:311,1,107.999996704102,0|0,0:0|0:0,0:0:0:0:
253,191,4997,6,0,B|357:157|339:255|455:218,1,198.000006042481,10|0,0:0|0:0,0:0:0:0:
165,96,5447,1,0,0:0:0:0:
219,270,5597,1,0,0:0:0:0:
144,71,5747,5,0,0:0:0:0:
79,316,5897,1,0,0:0:0:0:
127,46,6047,5,0,0:0:0:0:
183,356,6197,2,0,B|256:343|256:343|287:352|287:352|359:341,1,180
480,214,6647,2,0,P|437:194|387:200,1,90
219,270,6947,1,0,0:0:0:0:
422,268,7097,1,0,0:0:0:0:
183,356,7247,1,0,0:0:0:0:
400,90,7397,6,0,P|420:184|420:282,1,180
196,216,7847,2,0,P|198:169|219:118,1,90
329,173,8147,1,0,0:0:0:0:
128,299,8297,1,0,0:0:0:0:
18,95,8447,1,0,0:0:0:0:
0,378,8597,6,0,B|87:324|90:411|182:359,1,180
272,130,9047,1,0,0:0:0:0:
452,325,9197,2,0,P|329:321|260:233,1,215.999993408203
405,108,9647,1,0,0:0:0:0:
125,268,9797,6,0,P|136:184|121:88,1,180
302,337,10247,2,0,P|288:285|296:235,1,90
497,170,10547,5,0,0:0:0:0:
364,277,10697,1,0,0:0:0:0:
465,78,10847,1,0,0:0:0:0:
400,355,10997,6,0,P|314:344|223:370,1,180
39,313,11447,2,0,P|91:311|140:274,1,90
218,142,11747,1,0,0:0:0:0:
66,238,11897,1,0,0:0:0:0:
191,355,12047,1,0,0:0:0:0:
83,100,12197,6,0,P|124:187|138:277,1,180
280,338,12647,1,0,0:0:0:0:
137,269,12797,1,0,0:0:0:0:
304,173,12947,1,0,0:0:0:0:
145,355,13097,1,0,0:0:0:0:
239,96,13247,1,0,0:0:0:0:
414,368,13397,6,0,P|447:298|422:191,1,180
214,81,13847,1,0,0:0:0:0:
456,103,13997,2,0,B|351:120|399:166|293:189,1,180
85,246,14447,1,0,0:0:0:0:
89,5,14597,6,0,P|134:54|170:176,1,180
81,335,15047,1,0,0:0:0:0:
190,248,15197,1,0,0:0:0:0:
58,184,15347,1,0,0:0:0:0:
143,384,15497,5,0,0:0:0:0:
295,252,15647,1,0,0:0:0:0:
307,247,15722,1,0,0:0:0:0:
319,242,15797,1,0,0:0:0:0:
317,378,15947,5,0,0:0:0:0:
141,179,16097,1,0,0:0:0:0:
128,172,16172,1,0,0:0:0:0:
115,166,16247,1,0,0:0:0:0:
143,384,16397,5,0,0:0:0:0:
318,80,16547,1,0,0:0:0:0:
376,338,16697,5,0,0:0:0:0:
237,134,16847,1,0,0:0:0:0:
245,370,16997,5,0,0:0:0:0:
351,200,17147,1,0,0:0:0:0:
461,331,17297,6,0,L|470:287,1,45
135,165,18197,6,0,B|258:182|182:259|329:279,1,215.999993408203
489,89,18647,1,0,0:0:0:0:
313,199,18797,1,0,0:0:0:0:
507,214,18947,5,0,0:0:0:0:
290,60,19097,1,0,0:0:0:0:
211,345,19247,6,0,P|276:285|339:321,1,161.999995056153
346,334,19547,5,0,0:0:0:0:
399,201,19697,1,0,0:0:0:0:
228,98,19847,1,0,0:0:0:0:
234,252,19997,5,0,0:0:0:0:
401,115,20147,1,0,0:0:0:0:
282,361,20297,1,0,0:0:0:0:
229,70,20447,5,0,0:0:0:0:
425,182,20597,1,0,0:0:0:0:
216,270,20747,5,0,0:0:0:0:
405,364,20897,1,0,0:0:0:0:
271,148,21047,1,0,0:0:0:0:
85,349,21197,6,0,P|83:285|66:224,1,90
181,383,21497,1,0,0:0:0:0:
247,145,21647,1,0,0:0:0:0:
419,264,21797,6,0,P|328:247|276:334,1,180
493,331,22247,2,0,P|504:283|500:216,1,90
277,307,22547,1,0,0:0:0:0:
414,97,22697,1,0,0:0:0:0:
380,362,22847,1,8,0:0:0:0:
374,376,23147,6,0,P|353:338|350:287,1,90
373,171,23447,1,0,0:0:0:0:
92,242,23597,2,0,P|154:239|207:317,1,161.999995056153
206,333,23897,1,0,0:0:0:0:
47,107,24047,1,0,0:0:0:0:
131,313,24197,6,0,P|160:200|142:119,1,180
27,86,24647,2,0,P|20:137|41:214,1,90
277,188,24947,1,0,0:0:0:0:
64,284,25097,1,0,0:0:0:0:
191,70,25247,1,0,0:0:0:0:
268,309,25397,6,0,P|359:302|453:324,1,180
142,384,25847,2,0,L|122:291,1,90
310,105,26147,1,0,0:0:0:0:
268,309,26297,2,0,L|242:203,1,90
479,83,26597,6,0,P|451:162|404:191,1,135
387,198,26897,1,0,0:0:0:0:
274,0,27047,1,8,0:0:0:0:
389,102,27197,1,0,0:0:0:0:
178,207,27347,5,0,0:0:0:0:
274,0,27497,1,0,0:0:0:0:
308,272,27647,1,8,0:0:0:0:
197,109,27797,1,0,0:0:0:0:
410,188,27947,6,0,P|423:224|423:306,1,90
214,359,28247,1,0,0:0:0:0:
328,121,28397,2,0,P|371:96|423:89,1,90
308,272,28697,1,0,0:0:0:0:
63,226,28847,1,0,0:0:0:0:
125,174,28997,5,0,0:0:0:0:
125,174,29072,1,0,0:0:0:0:
125,174,29147,1,0,0:0:0:0:
4,293,29297,1,0,0:0:0:0:
117,78,29447,1,0,0:0:0:0:
156,359,29597,1,0,0:0:0:0:
56,130,29747,5,0,0:0:0:0:
81,326,29897,1,0,0:0:0:0:
235,225,30047,1,0,0:0:0:0:
0,216,30197,1,0,0:0:0:0:
226,314,30347,5,0,0:0:0:0:
52,381,30497,1,0,0:0:0:0:
91,143,30647,1,0,0:0:0:0:
339,352,30797,2,0,P|343:313|315:253,1,90
112,116,31097,1,0,0:0:0:0:
126,379,31247,1,0,0:0:0:0:
356,175,31397,6,0,B|251:169|288:238|184:230,1,180
167,70,31847,2,0,P|193:100|204:165,1,90
59,278,32147,1,0,0:0:0:0:
13,45,32297,1,0,0:0:0:0:
136,326,32447,1,0,0:0:0:0:
144,343,32747,2,0,P|149:287|145:239,1,90
83,179,33047,1,0,0:0:0:0:
241,381,33197,2,0,P|244:335|323:285,1,135
391,314,33497,2,0,P|361:355|311:364,1,90
389,58,33797,6,0,L|430:218,1,135
428,205,34097,1,0,0:0:0:0:
241,381,34247,2,0,P|245:328|265:265,1,90
317,97,34547,1,0,0:0:0:0:
402,361,34697,1,0,0:0:0:0:
480,163,34847,1,0,0:0:0:0:
293,222,34997,6,0,B|196:200|214:274|111:251,1,180
51,243,35447,1,0,0:0:0:0:
202,14,35597,1,0,0:0:0:0:
153,178,35747,1,0,0:0:0:0:
126,45,35897,1,0,0:0:0:0:
290,256,36047,2,0,P|359:262|427:207,1,135
358,96,36347,6,0,P|336:152|344:208,1,90
403,368,36647,1,0,0:0:0:0:
512,114,36797,1,0,0:0:0:0:
314,329,36947,5,0,0:0:0:0:
232,138,37097,1,0,0:0:0:0:
158,367,37247,1,8,0:0:0:0:
151,384,37547,6,0,P|126:336|123:271,1,90
132,105,37847,5,0,0:0:0:0:
233,326,37997,1,0,0:0:0:0:
309,35,38147,1,8,0:0:0:0:
136,271,38297,5,0,0:0:0:0:
420,173,38447,1,0,0:0:0:0:
208,112,38597,1,0,0:0:0:0:
329,349,38747,2,0,P|416:358|462:299,1,135
455,306,39047,2,0,P|450:263|458:202,1,90
281,99,39347,1,0,0:0:0:0:
376,293,39497,1,0,0:0:0:0:
496,136,39647,2,0,P|432:128|360:181,1,135
311,269,39947,5,0,0:0:0:0:
487,261,40097,1,0,0:0:0:0:
249,97,40247,1,0,0:0:0:0:
349,368,40397,1,0,0:0:0:0:
349,368,40472,1,0,0:0:0:0:
349,368,40547,1,0,0:0:0:0:
291,28,40697,5,0,0:0:0:0:
209,298,40847,1,0,0:0:0:0:
461,243,40997,1,0,0:0:0:0:
211,173,41147,2,0,B|102:143|136:210|31:175,1,180
314,110,41597,2,0,P|354:94|425:97,1,90
311,306,41897,1,0,0:0:0:0:
194,94,42047,2,0,P|150:96|95:124,1,90
216,384,42347,6,0,L|246:229,1,135
257,165,42647,1,0,0:0:0:0:
382,322,42797,2,0,P|422:323|481:299,1,90
216,384,43097,1,0,0:0:0:0:
410,229,43247,2,0,L|430:111,1,90
232,32,43547,6,0,L|260:178,1,135
270,244,43847,1,0,0:0:0:0:
106,186,43997,2,0,P|49:174|-8:192,1,90
287,125,44297,1,0,0:0:0:0:
63,271,44447,2,0,L|85:371,1,90
353,219,44747,6,0,L|372:72,1,135
382,12,45047,1,0,0:0:0:0:
500,274,45197,2,0,L|470:158,1,90
224,366,45497,2,0,L|237:261,1,90
372,146,45797,1,0,0:0:0:0:
512,376,45947,6,0,P|428:346|329:357,1,180
144,294,46397,2,0,P|201:283|231:253,1,90
15,355,46697,1,0,0:0:0:0:
129,120,46847,2,0,L|152:212,1,90
283,0,47147,6,0,L|258:148,1,135
99,40,47447,1,0,0:0:0:0:
214,199,47597,2,0,P|260:214|311:197,1,90
247,317,47897,1,0,0:0:0:0:
432,117,48047,2,0,L|400:206,1,90
350,51,48347,6,0,P|424:17|519:55,1,180
370,280,48797,1,0,0:0:0:0:
245,175,48947,2,0,P|229:147|219:62,1,90
451,155,49247,1,0,0:0:0:0:
451,155,49397,1,0,0:0:0:0:
267,361,49547,5,0,0:0:0:0:
349,63,49697,1,0,0:0:0:0:
404,343,49847,5,0,0:0:0:0:
277,116,49997,1,0,0:0:0:0:
164,368,50147,1,0,0:0:0:0:
373,256,50297,1,0,0:0:0:0:
47,201,50447,1,8,0:0:0:0:
26,191,50747,6,0,B|94:153|95:210|166:169,1,135
14,73,51047,1,0,0:0:0:0:
194,94,51197,2,0,P|228:92|277:61,1,90
61,2,51497,1,0,0:0:0:0:
163,264,51647,2,0,L|155:166,1,90
23,371,51947,6,0,P|105:343|228:346,1,180
352,302,52397,2,0,P|312:300|248:279,1,90
226,191,52697,1,0,0:0:0:0:
435,368,52847,2,0,L|458:265,1,90
338,187,53147,6,0,L|311:37,1,135
413,0,53447,2,0,L|396:109,1,90
207,154,53747,1,0,0:0:0:0:
310,32,53897,1,0,0:0:0:0:
241,221,54047,2,0,P|202:229|136:199,1,90
191,65,54347,6,0,L|209:165,1,90
87,17,54647,1,0,0:0:0:0:
64,189,54797,2,0,L|83:288,1,90
0,138,55097,1,0,0:0:0:0:
184,331,55247,2,0,P|256:344|313:286,1,135
335,224,55547,6,0,P|367:256|383:310,1,90
227,270,55847,1,0,0:0:0:0:
338,94,55997,1,0,0:0:0:0:
314,306,56147,1,0,0:0:0:0:
166,147,56297,1,0,0:0:0:0:
416,181,56447,1,0,0:0:0:0:
314,306,56597,1,0,0:0:0:0:
143,145,56747,6,0,L|119:16,1,90
331,175,57047,1,0,0:0:0:0:
81,319,57197,1,0,0:0:0:0:
221,130,57347,1,0,0:0:0:0:
219,367,57497,1,0,0:0:0:0:
102,76,57647,1,0,0:0:0:0:
265,269,57797,1,0,0:0:0:0:
29,382,57947,6,0,P|5:339|12:282,1,90
109,323,58247,1,0,0:0:0:0:
104,334,58397,1,0,0:0:0:0:
186,266,58547,6,0,P|148:238|74:236,1,90
98,346,58847,1,0,0:0:0:0:
93,355,58997,1,0,0:0:0:0:
26,140,59147,5,0,0:0:0:0:
325,363,59447,5,0,0:0:0:0:
343,8,59747,5,0,0:0:0:0:
19,261,60047,5,0,0:0:0:0:
179,358,60347,6,0,B|290:304|281:394|392:352,1,215.999993408203
484,293,60797,1,0,0:0:0:0:
279,92,60947,1,0,0:0:0:0:
332,285,61097,1,0,0:0:0:0:
463,144,61247,2,0,L|473:26,1,107.999996704102
190,178,61547,5,0,0:0:0:0:
484,280,61697,1,0,0:0:0:0:
130,359,61847,5,0,0:0:0:0:
444,193,61997,1,0,0:0:0:0:
276,378,62147,5,0,0:0:0:0:
208,55,62297,1,0,0:0:0:0:
484,280,62447,2,0,P|496:223|470:167,1,107.999996704102
276,378,62747,6,0,L|168:383,1,107.999996704102
1,115,63047,2,0,L|117:108,1,107.999996704102
276,378,63347,1,0,0:0:0:0:
149,254,63497,1,0,0:0:0:0:
321,71,63647,2,0,L|294:238,1,161.999995056153
287,260,63947,6,0,P|240:223|183:230,1,107.999996704102
69,269,64247,1,0,0:0:0:0:
251,361,64397,1,0,0:0:0:0:
53,54,64547,2,0,L|24:174,1,107.999996704102
291,384,64847,2,0,L|314:273,1,107.999996704102
224,133,65147,6,0,P|119:110|20:167,1,215.999993408203
163,319,65597,1,0,0:0:0:0:
331,66,65747,1,0,0:0:0:0:
287,378,65897,1,0,0:0:0:0:
130,194,66047,2,0,L|125:56,1,107.999996704102
418,22,66347,6,0,L|400:158,1,107.999996704102
221,0,66647,1,0,0:0:0:0:
364,225,66797,2,0,P|426:230|485:182,1,107.999996704102
434,85,67097,1,0,0:0:0:0:
267,353,67247,1,0,0:0:0:0:
210,123,67397,1,0,0:0:0:0:
300,333,67547,6,0,P|215:309|71:358,1,215.999993408203
395,60,67997,2,0,L|424:184,1,107.999996704102
97,240,68297,1,0,0:0:0:0:
238,0,68447,1,0,0:0:0:0:
347,255,68597,6,0,B|373:293|357:339|357:339|385:367|436:360|436:360|401:293,1,215.999993408203
49,223,69047,1,0,0:0:0:0:
287,97,69197,1,0,0:0:0:0:
287,97,69272,1,0,0:0:0:0:
287,97,69347,1,0,0:0:0:0:
81,370,69497,6,0,P|59:346|52:319,1,53.9999983520508
0,154,69647,1,0,0:0:0:0:
291,252,69797,2,0,P|294:226|291:183,1,53.9999983520508
123,32,69947,6,0,L|284:-1,1,161.999995056153
404,44,70247,1,0,0:0:0:0:
291,253,70397,1,0,0:0:0:0:
512,187,70547,1,0,0:0:0:0:
253,83,70697,1,0,0:0:0:0:
389,359,70847,1,0,0:0:0:0:
399,157,70997,1,0,0:0:0:0:
91,196,71147,5,0,0:0:0:0:
374,368,71297,1,0,0:0:0:0:
189,47,71447,5,0,0:0:0:0:
278,377,71597,1,0,0:0:0:0:
305,38,71747,5,0,0:0:0:0:
166,354,71897,1,0,0:0:0:0:
434,188,72047,2,0,L|411:61,1,107.999996704102
103,0,72347,6,0,L|79:135,1,107.999996704102
322,296,72647,1,0,0:0:0:0:
205,79,72797,1,0,0:0:0:0:
205,79,72872,1,0,0:0:0:0:
205,79,72947,5,0,0:0:0:0:
119,371,73097,1,0,0:0:0:0:
29,189,73247,1,0,0:0:0:0:
354,366,73397,2,0,B|362:230|416:293|430:149,1,215.999993408203
169,207,73847,1,0,0:0:0:0:
169,207,73997,5,0,0:0:0:0:
449,86,74147,1,0,0:0:0:0:
160,64,74297,5,0,0:0:0:0:
417,212,74447,1,0,0:0:0:0:
145,323,74597,1,0,0:0:0:0:
145,323,74672,1,0,0:0:0:0:
145,323,74747,6,0,L|10:308,1,107.999996704102
224,83,75047,1,0,0:0:0:0:
250,304,75197,1,0,0:0:0:0:
184,226,75347,2,0,L|57:217,1,107.999996704102
298,373,75647,5,0,0:0:0:0:
385,138,75797,1,0,0:0:0:0:
406,315,75947,6,0,L|533:322,1,107.999996704102
245,120,76247,1,0,0:0:0:0:
365,206,76397,2,0,L|488:200,1,107.999996704102
196,250,76697,1,0,0:0:0:0:
330,53,76847,1,0,0:0:0:0:
320,301,76997,1,0,0:0:0:0:
182,74,77147,6,0,P|118:45|43:54,1,107.999996704102
170,326,77447,1,0,0:0:0:0:
348,164,77597,2,0,P|362:117|355:33,1,107.999996704102
78,167,77897,1,0,0:0:0:0:
294,368,78047,1,0,0:0:0:0:
112,322,78197,1,0,0:0:0:0:
441,192,78347,5,0,0:0:0:0:
97,232,78497,1,0,0:0:0:0:
97,232,78572,1,0,0:0:0:0:
97,232,78647,1,0,0:0:0:0:
440,295,78797,1,0,0:0:0:0:
51,148,78947,1,0,0:0:0:0:
419,42,79097,1,0,0:0:0:0:
203,378,79247,1,0,0:0:0:0:
256,192,79397,1,0,0:0:0:0:
256,192,79547,12,0,81797,0:0:0:0:
123,88,82097,5,0,0:0:0:0:
123,88,82247,2,0,P|114:126|121:182,1,90
303,182,82547,1,0,0:0:0:0:
210,110,82697,1,0,0:0:0:0:
178,274,82847,1,0,0:0:0:0:
307,158,82997,2,0,L|406:152,1,90
220,362,83297,5,0,0:0:0:0:
387,265,83447,1,0,0:0:0:0:
178,274,83597,1,0,0:0:0:0:
416,358,83747,1,0,0:0:0:0:
220,362,83897,1,0,0:0:0:0:
348,183,84047,1,0,0:0:0:0:
134,193,84197,6,0,P|185:108|268:72,1,180
429,154,84647,2,0,P|395:177|312:170,1,90
255,73,84947,1,0,0:0:0:0:
301,299,85097,1,0,0:0:0:0:
369,105,85247,1,0,0:0:0:0:
205,299,85397,6,0,P|137:289|26:338,1,180
203,95,85847,1,0,0:0:0:0:
248,216,85997,1,0,0:0:0:0:
111,155,86147,2,0,L|81:31,1,90
282,156,86447,1,0,0:0:0:0:
205,339,86597,1,0,0:0:0:0:
89,67,86747,6,0,L|104:126,1,45
185,105,87197,6,0,L|202:165,1,45
285,144,87647,6,0,L|302:204,1,45
385,177,88097,6,0,L|402:237,1,45
485,340,88397,1,0,0:0:0:0:
485,340,88472,1,0,0:0:0:0:
485,340,88547,6,0,L|466:280,1,45
301,299,88697,2,0,B|213:262|248:328|140:295,1,144
37,148,89147,2,0,P|34:188|50:243,1,72
278,86,89447,1,0,0:0:0:0:
118,8,89597,1,0,0:0:0:0:
198,304,89747,5,0,0:0:0:0:
255,120,89897,1,0,0:0:0:0:
114,173,90047,1,0,0:0:0:0:
328,259,90197,5,0,0:0:0:0:
88,364,90347,1,0,0:0:0:0:
185,197,90497,1,0,0:0:0:0:
189,384,90647,5,0,0:0:0:0:
360,216,90797,2,0,P|387:311|358:388,1,180
145,318,91247,1,0,0:0:0:0:
255,120,91397,6,0,B|332:101|332:101|366:111|366:111|442:94,1,180
271,258,91847,1,0,0:0:0:0:
120,174,91997,2,0,L|109:62,1,90
268,283,92297,1,0,0:0:0:0:
47,321,92447,1,0,0:0:0:0:
224,184,92597,1,0,0:0:0:0:
184,374,92747,5,0,0:0:0:0:
49,110,92897,1,0,0:0:0:0:
133,358,93047,1,0,0:0:0:0:
164,94,93197,2,0,P|156:49|125:-3,1,90
330,249,93497,2,0,P|338:204|369:152,1,90
470,344,93797,6,0,L|295:361,1,135
252,315,94097,1,0,0:0:0:0:
463,111,94247,1,0,0:0:0:0:
475,101,94547,5,0,0:0:0:0:
227,141,94697,1,0,0:0:0:0:
411,223,94847,1,0,0:0:0:0:
285,69,94997,2,0,P|212:53|132:79,1,135
66,17,95297,1,0,0:0:0:0:
182,286,95447,1,0,0:0:0:0:
189,313,95747,5,0,0:0:0:0:
197,133,95897,1,0,0:0:0:0:
75,366,96047,1,0,0:0:0:0:
252,223,96197,6,0,P|334:211|403:227,1,135
443,161,96497,1,0,0:0:0:0:
346,312,96647,1,0,0:0:0:0:
367,125,96797,1,0,0:0:0:0:
367,125,96872,1,0,0:0:0:0:
367,125,96947,1,0,0:0:0:0:
438,329,97097,1,0,0:0:0:0:
393,229,97247,1,0,0:0:0:0:
265,273,97397,1,0,0:0:0:0:
250,287,97472,1,0,0:0:0:0:
239,304,97547,6,0,L|231:264,1,36
69,24,97997,2,0,P|29:89|50:179,1,161.999995056153
44,170,98747,6,0,P|96:187|121:227,1,90
287,133,99047,1,0,0:0:0:0:
149,12,99197,1,0,0:0:0:0:
190,273,99347,1,0,0:0:0:0:
203,113,99497,1,0,0:0:0:0:
54,346,99647,2,0,L|156:358,1,90
364,246,99947,5,0,0:0:0:0:
126,159,100097,1,0,0:0:0:0:
243,376,100247,1,0,0:0:0:0:
337,231,100397,2,0,L|323:92,1,135
279,27,100697,1,0,0:0:0:0:
438,299,100847,1,0,0:0:0:0:
474,30,100997,6,0,P|441:93|437:170,1,135
474,232,101297,1,0,0:0:0:0:
265,359,101447,2,0,L|384:361,1,90
339,130,101747,1,0,0:0:0:0:
255,276,101897,1,0,0:0:0:0:
401,229,102047,1,0,0:0:0:0:
155,232,102197,1,0,0:0:0:0:
396,345,102347,5,0,0:0:0:0:
265,101,102497,1,0,0:0:0:0:
137,343,102647,1,0,0:0:0:0:
244,240,102797,2,0,P|220:170|147:143,1,135
72,164,103097,1,0,0:0:0:0:
137,343,103247,1,0,0:0:0:0:
325,350,103397,6,0,P|342:308|348:251,1,90
274,130,103697,1,0,0:0:0:0:
115,268,103847,2,0,L|84:148,1,90
277,91,104147,1,0,0:0:0:0:
208,318,104297,1,0,0:0:0:0:
192,129,104447,1,0,0:0:0:0:
425,263,104597,6,0,L|452:149,1,90
285,281,104897,1,0,0:0:0:0:
374,110,105047,2,0,P|369:55|344:25,1,90
127,174,105347,1,0,0:0:0:0:
272,297,105497,2,0,L|295:401,1,90
61,322,105797,1,0,0:0:0:0:
143,137,105947,6,0,L|179:291,1,135
59,192,106247,1,0,0:0:0:0:
225,15,106397,1,0,0:0:0:0:
220,186,106547,1,0,0:0:0:0:
80,70,106697,1,0,0:0:0:0:
69,296,106847,1,0,0:0:0:0:
74,320,107147,6,0,P|166:340|229:276,1,180
245,96,107597,1,0,0:0:0:0:
136,259,107747,1,0,0:0:0:0:
340,275,107897,1,0,0:0:0:0:
47,153,108047,1,0,0:0:0:0:
13,142,108347,6,0,P|80:111|151:115,1,135
242,155,108647,1,0,0:0:0:0:
94,300,108797,1,0,0:0:0:0:
374,357,108947,1,0,0:0:0:0:
156,232,109097,1,0,0:0:0:0:
406,92,109247,1,0,0:0:0:0:
347,283,109397,1,0,0:0:0:0:
319,19,109547,5,0,0:0:0:0:
378,289,109697,1,0,0:0:0:0:
206,73,109847,5,0,0:0:0:0:
115,344,109997,1,0,0:0:0:0:
81,93,110147,5,0,0:0:0:0:
219,376,110297,1,0,0:0:0:0:
316,137,110447,5,0,0:0:0:0:
1,296,110597,1,0,0:0:0:0:
247,379,110747,6,0,P|266:284|265:179,1,180
90,162,111197,2,0,P|81:120|93:42,1,90
282,22,111497,1,0,0:0:0:0:
357,204,111647,2,0,L|233:200,1,90
488,26,111947,6,0,P|507:65|510:130,1,90
367,9,112247,1,0,0:0:0:0:
357,204,112397,2,0,P|370:263|400:314,1,90
447,165,112697,1,0,0:0:0:0:
299,367,112847,2,0,L|416:373,1,90
242,257,113147,6,0,P|194:249|124:278,1,90
58,356,113447,1,0,0:0:0:0:
30,191,113597,2,0,L|21:293,1,90
54,368,113897,1,0,0:0:0:0:
188,341,114047,2,0,L|311:347,1,90
245,179,114347,6,0,L|360:159,1,90
86,226,114647,1,0,0:0:0:0:
177,27,114797,2,0,P|194:78|179:135,1,90
77,8,115097,1,0,0:0:0:0:
423,96,115247,1,0,0:0:0:0:
442,93,115547,6,0,P|380:89|334:121,1,90
211,222,115847,1,0,0:0:0:0:
423,282,115997,2,0,L|410:169,1,90
250,94,116297,1,0,0:0:0:0:
270,384,116447,2,0,L|275:283,1,90
461,112,116747,6,0,P|411:98|373:111,1,90
198,243,117047,1,0,0:0:0:0:
423,318,117197,1,0,0:0:0:0:
224,122,117347,1,0,0:0:0:0:
270,384,117497,1,0,0:0:0:0:
415,174,117647,1,0,0:0:0:0:
368,343,117797,1,0,0:0:0:0:
176,221,117947,6,0,L|285:216,1,90
314,366,118247,1,0,0:0:0:0:
65,173,118397,2,0,P|127:132|177:121,1,90
269,383,118697,1,0,0:0:0:0:
312,162,118847,1,0,0:0:0:0:
127,322,118997,1,0,0:0:0:0:
127,322,119147,5,0,0:0:0:0:
21,63,119297,1,0,0:0:0:0:
252,270,119447,5,0,0:0:0:0:
295,40,119597,1,0,0:0:0:0:
212,369,119747,5,0,0:0:0:0:
134,92,119897,1,0,0:0:0:0:
416,358,120047,2,0,P|412:305|328:302,1,135
312,315,120347,2,0,L|335:204,1,90
389,69,120647,5,0,0:0:0:0:
475,189,120797,1,0,0:0:0:0:
326,152,120947,1,0,0:0:0:0:
464,75,121097,1,0,0:0:0:0:
443,228,121247,1,0,0:0:0:0:
307,72,121397,1,0,0:0:0:0:
473,229,121547,6,0,P|481:275|462:355,1,90
200,339,121847,1,0,0:0:0:0:
387,264,121997,1,0,0:0:0:0:
169,302,122147,1,0,0:0:0:0:
333,368,122297,1,0,0:0:0:0:
269,140,122447,1,0,0:0:0:0:
239,326,122597,1,0,0:0:0:0:
359,187,122747,6,0,L|368:84,1,90
155,160,123047,1,0,0:0:0:0:
239,326,123197,2,0,L|247:223,1,90
39,117,123497,1,0,0:0:0:0:
114,378,123647,1,0,0:0:0:0:
114,378,123947,6,0,P|64:353|51:287,1,90
252,304,124247,1,0,0:0:0:0:
133,225,124397,2,0,P|125:181|138:124,1,90
255,338,124697,5,0,0:0:0:0:
455,225,124847,1,0,0:0:0:0:
296,129,124997,1,0,0:0:0:0:
383,372,125147,6,0,P|397:293|403:166,1,180
217,77,125597,1,0,0:0:0:0:
292,242,125747,1,0,0:0:0:0:
331,35,125897,1,0,0:0:0:0:
254,177,126047,1,0,0:0:0:0:
398,110,126197,1,0,0:0:0:0:
192,52,126347,6,0,L|89:72,1,90
147,338,126647,5,0,0:0:0:0:
13,151,126797,1,0,0:0:0:0:
242,320,126947,5,0,0:0:0:0:
189,24,127097,1,0,0:0:0:0:
318,343,127247,5,0,0:0:0:0:
382,45,127397,1,0,0:0:0:0:
429,384,127547,2,0,L|459:281,1,90
249,43,128147,6,0,L|267:138,1,90
342,205,128447,1,0,0:0:0:0:
356,92,128597,1,0,0:0:0:0:
32,268,128747,5,0,0:0:0:0:
380,371,129047,5,0,0:0:0:0:
268,33,129347,5,0,0:0:0:0:
124,364,129647,5,0,0:0:0:0:
402,271,129947,6,0,P|401:189|351:116,1,148.50000453186
268,33,130247,1,0,0:0:0:0:
81,282,130397,1,0,0:0:0:0:
122,25,130547,1,0,0:0:0:0:
288,384,130697,5,0,0:0:0:0:
216,96,130847,1,0,0:0:0:0:
402,271,130997,1,0,0:0:0:0:
56,332,131147,5,0,0:0:0:0:
368,184,131297,1,0,0:0:0:0:
73,170,131447,5,0,0:0:0:0:
340,274,131597,1,0,0:0:0:0:
162,48,131747,5,0,0:0:0:0:
38,354,131897,1,0,0:0:0:0:
339,127,132047,5,0,0:0:0:0:
22,246,132197,1,0,0:0:0:0:
22,246,132272,1,0,0:0:0:0:
22,246,132347,6,0,P|-1:191|0:122,1,99.0000030212403
226,114,132647,2,0,P|231:71|217:-3,1,99.0000030212403
89,2,132947,1,0,0:0:0:0:
353,130,133097,1,0,0:0:0:0:
132,250,133247,1,0,0:0:0:0:
262,0,133397,1,0,0:0:0:0:
440,99,133547,6,0,P|440:183|346:217,1,175.499991966248
353,130,133847,1,0,0:0:0:0:
468,302,133997,1,0,0:0:0:0:
270,277,134147,2,0,P|308:233|365:220,1,116.999994644165
457,360,134447,2,0,P|419:320|348:319,1,116.999994644165
91,380,134747,6,0,B|43:272|126:278|69:181,1,198.000006042481
172,50,135197,1,0,0:0:0:0:
359,314,135347,2,0,P|383:266|386:208,1,99.0000030212403
304,57,135647,1,0,0:0:0:0:
193,384,135797,6,0,P|161:337|166:271,1,99.0000030212403
487,134,136097,1,0,0:0:0:0:
378,382,136247,1,0,0:0:0:0:
260,183,136397,1,0,0:0:0:0:
507,264,136547,5,0,0:0:0:0:
234,314,136697,1,0,0:0:0:0:
512,187,136847,1,0,0:0:0:0:
162,74,136997,1,0,0:0:0:0:
486,5,137147,6,0,L|467:150,1,99.0000030212403
181,245,137447,1,0,0:0:0:0:
332,137,137597,2,0,P|338:209|370:309,1,148.50000453186
441,346,137897,1,0,0:0:0:0:
486,159,138047,1,0,0:0:0:0:
323,355,138197,6,0,P|288:337|226:336,1,99.0000030212403
81,332,138497,1,0,0:0:0:0:
364,208,138647,1,0,0:0:0:0:
29,209,138797,5,0,0:0:0:0:
29,209,138872,1,0,0:0:0:0:
29,209,138947,1,0,0:0:0:0:
323,53,139097,5,0,0:0:0:0:
323,53,139172,1,0,0:0:0:0:
323,53,139247,1,0,0:0:0:0:
0,0,139397,1,0,0:0:0:0:
0,0,139472,1,0,0:0:0:0:
0,0,139547,6,0,L|25:116,1,99.0000030212403
235,290,139847,1,0,0:0:0:0:
170,47,139997,1,0,0:0:0:0:
51,327,140147,1,0,0:0:0:0:
286,178,140297,1,0,0:0:0:0:
33,127,140447,1,0,0:0:0:0:
316,89,140597,1,0,0:0:0:0:
51,327,140747,5,0,0:0:0:0:
267,28,140897,1,0,0:0:0:0:
250,366,141047,5,0,0:0:0:0:
130,58,141197,1,0,0:0:0:0:
429,351,141347,5,0,0:0:0:0:
251,132,141497,1,0,0:0:0:0:
510,243,141647,5,0,0:0:0:0:
176,316,141797,1,0,0:0:0:0:
426,5,141947,6,0,P|436:71|427:160,1,148.50000453186
403,177,142247,1,0,0:0:0:0:
205,44,142397,1,0,0:0:0:0:
205,44,142472,1,0,0:0:0:0:
205,44,142547,1,0,0:0:0:0:
308,324,142697,1,0,0:0:0:0:
418,39,142847,1,0,0:0:0:0:
209,352,142997,6,0,B|121:342|121:342|82:358|82:358|-1:349,1,198.000006042481
378,108,143447,1,0,0:0:0:0:
321,378,143597,1,0,0:0:0:0:
208,105,143747,1,0,0:0:0:0:
453,319,143897,1,0,0:0:0:0:
144,244,144047,5,0,0:0:0:0:
202,216,144122,1,0,0:0:0:0:
268,211,144197,1,0,0:0:0:0:
330,226,144272,1,0,0:0:0:0:
386,257,144347,6,0,P|406:196|384:89,1,148.50000453186
339,47,144647,1,0,0:0:0:0:
244,325,144797,1,0,0:0:0:0:
482,242,144947,1,0,0:0:0:0:
266,115,145097,1,0,0:0:0:0:
475,201,145247,1,0,0:0:0:0:
342,370,145397,1,0,0:0:0:0:
386,138,145547,6,0,L|411:256,1,99.0000030212403
163,353,145847,1,0,0:0:0:0:
96,135,145997,2,0,L|71:253,1,99.0000030212403
237,224,146297,5,0,0:0:0:0:
7,77,146447,1,0,0:0:0:0:
157,369,146597,1,0,0:0:0:0:
348,102,146747,5,0,0:0:0:0:
22,302,146897,1,0,0:0:0:0:
252,256,147047,1,0,0:0:0:0:
111,30,147197,5,0,0:0:0:0:
298,340,147347,1,0,0:0:0:0:
274,101,147497,1,0,0:0:0:0:
121,384,147647,5,0,0:0:0:0:
475,234,147797,1,0,0:0:0:0:
133,197,147947,5,0,0:0:0:0:
428,355,148097,1,0,0:0:0:0:
428,355,148172,1,0,0:0:0:0:
428,355,148247,5,0,0:0:0:0:
348,34,148397,1,0,0:0:0:0:
262,273,148547,1,0,0:0:0:0:
452,172,148697,1,0,0:0:0:0:
265,129,148847,1,0,0:0:0:0:
348,207,148997,6,0,P|366:161|367:92,1,99.0000030212403
8,176,149297,1,0,0:0:0:0:
265,129,149447,1,0,0:0:0:0:
37,49,149597,1,0,0:0:0:0:
300,109,149747,5,0,0:0:0:0:
116,274,149897,1,0,0:0:0:0:
190,0,150047,1,0,0:0:0:0:
267,280,150197,6,0,P|342:304|454:260,1,198.000006042481
352,35,150647,1,0,0:0:0:0:
348,220,150797,1,0,0:0:0:0:
471,130,150947,1,0,0:0:0:0:
158,224,151097,5,0,0:0:0:0:
393,354,151247,1,0,0:0:0:0:
305,58,151397,2,0,P|250:46|141:91,1,148.50000453186
83,137,151697,5,0,0:0:0:0:
348,220,151847,1,0,0:0:0:0:
22,325,151997,1,0,0:0:0:0:
198,126,152147,5,0,0:0:0:0:
170,377,152297,1,0,0:0:0:0:
1,53,152447,1,0,0:0:0:0:
251,348,152597,6,0,P|332:328|429:342,1,148.50000453186
428,242,152897,1,0,0:0:0:0:
220,61,153047,1,0,0:0:0:0:
301,255,153197,1,0,0:0:0:0:
361,14,153347,5,0,0:0:0:0:
171,308,153497,1,0,0:0:0:0:
113,49,153647,1,0,0:0:0:0:
313,224,153797,6,0,P|318:281|271:370,1,148.50000453186
171,308,154097,1,0,0:0:0:0:
269,111,154247,1,0,0:0:0:0:
23,212,154397,1,0,0:0:0:0:
239,272,154547,1,0,0:0:0:0:
37,68,154697,1,0,0:0:0:0:
4,354,154847,1,0,0:0:0:0:
188,203,154997,6,0,P|197:162|162:36,1,148.50000453186
97,8,155297,1,0,0:0:0:0:
102,235,155447,1,0,0:0:0:0:
333,132,155597,1,0,0:0:0:0:
12,153,155747,1,0,0:0:0:0:
317,32,155897,1,0,0:0:0:0:
202,290,156047,1,0,0:0:0:0:
107,209,156197,6,0,L|110:88,1,99.0000030212403
338,256,156497,1,0,0:0:0:0:
94,365,156647,1,0,0:0:0:0:
382,335,156797,1,0,0:0:0:0:
158,248,156947,1,0,0:0:0:0:
442,188,157097,1,0,0:0:0:0:
210,384,157247,1,0,0:0:0:0:
328,113,157397,6,0,P|360:214|368:313,1,198.000006042481
368,305,157772,1,0,0:0:0:0:
368,305,157847,1,0,0:0:0:0:
100,259,157997,5,0,0:0:0:0:
269,167,158147,1,0,0:0:0:0:
186,331,158297,1,0,0:0:0:0:
144,145,158447,1,0,0:0:0:0:
293,302,158597,6,0,L|426:323,1,99.0000030212403
312,69,158897,1,0,0:0:0:0:
223,248,159047,1,0,0:0:0:0:
393,193,159197,5,0,0:0:0:0:
171,148,159347,1,0,0:0:0:0:
363,14,159497,1,0,0:0:0:0:
262,215,159647,5,0,0:0:0:0:
88,67,159797,2,0,P|143:36|199:41,1,99.0000030212403
262,215,160097,1,0,0:0:0:0:
39,343,160247,1,0,0:0:0:0:
183,227,160397,2,0,P|197:279|186:353,1,99.0000030212403
30,227,160697,1,0,0:0:0:0:
241,139,160847,1,0,0:0:0:0:
39,12,160997,6,0,L|29:129,1,99.0000030212403
30,227,161297,5,0,0:0:0:0:
63,276,161372,1,0,0:0:0:0:
119,294,161447,1,0,0:0:0:0:
178,290,161522,1,0,0:0:0:0:
227,257,161597,2,0,L|235:183,1,49.5000015106202
151,31,161747,5,0,0:0:0:0:
103,67,161822,1,0,0:0:0:0:
93,125,161897,2,0,L|108:189,1,49.5000015106202
338,270,162047,5,0,0:0:0:0:
386,236,162122,1,0,0:0:0:0:
395,177,162197,2,0,L|380:113,1,49.5000015106202
172,202,162347,5,0,0:0:0:0:
136,249,162422,1,0,0:0:0:0:
144,313,162497,1,0,0:0:0:0:
186,355,162572,1,0,0:0:0:0:
243,369,162647,2,0,P|277:369|325:362,1,49.5000015106202
451,287,162797,5,0,0:0:0:0:
429,274,162872,1,0,0:0:0:0:
404,273,162947,1,0,0:0:0:0:
381,282,163022,1,0,0:0:0:0:
368,303,163097,1,0,0:0:0:0:
432,97,163247,1,0,0:0:0:0:
252,107,163397,6,0,B|377:135|315:189|441:209,1,198.000006042481
347,20,163847,5,0,0:0:0:0:
165,264,163997,1,0,0:0:0:0:
218,7,164147,5,0,0:0:0:0:
140,301,164297,1,0,0:0:0:0:
58,79,164447,5,0,0:0:0:0:
132,347,164597,2,0,P|207:365|290:327,1,148.50000453186
192,108,164897,1,0,0:0:0:0:
43,298,165047,1,0,0:0:0:0:
204,253,165197,1,0,0:0:0:0:
42,191,165347,5,0,0:0:0:0:
192,108,165497,1,0,0:0:0:0:
192,108,165572,1,0,0:0:0:0:
192,108,165647,1,0,0:0:0:0:
32,79,165797,1,0,0:0:0:0:
140,17,165947,5,2,0:0:0:0:
189,14,166022,1,2,0:0:0:0:
236,28,166097,1,2,0:0:0:0:
263,69,166172,1,2,0:0:0:0:
283,114,166247,2,2,P|313:124|353:118,1,49.5000015106202
455,56,166397,2,2,P|432:54|393:65,1,49.5000015106202
337,278,166547,6,2,L|340:210,1,49.5000015106202
443,137,166697,2,2,L|442:191,1,49.5000015106202
497,343,166847,6,2,L|426:335,1,49.5000015106202
227,147,166997,2,2,P|208:183|203:229,1,49.5000015106202
215,350,167147,1,2,0:0:0:0:
270,372,167222,1,2,0:0:0:0:
327,362,167297,1,2,0:0:0:0:
376,326,167372,1,2,0:0:0:0:
387,263,167447,5,2,0:0:0:0:
362,205,167522,1,2,0:0:0:0:
308,178,167597,1,2,0:0:0:0:
248,174,167672,1,2,0:0:0:0:
205,204,167747,2,2,L|183:125,3,49.5000015106202
30,321,168047,2,2,L|41:379,3,49.5000015106202
29,218,168347,5,2,0:0:0:0:
80,189,168422,1,2,0:0:0:0:
138,197,168497,1,2,0:0:0:0:
181,237,168572,1,2,0:0:0:0:
198,293,168647,5,2,0:0:0:0:
236,338,168722,1,2,0:0:0:0:
292,355,168797,1,2,0:0:0:0:
350,357,168872,1,2,0:0:0:0:
407,337,168947,5,2,0:0:0:0:
447,289,169022,1,2,0:0:0:0:
457,224,169097,1,2,0:0:0:0:
440,160,169172,1,2,0:0:0:0:
378,119,169247,5,2,0:0:0:0:
289,112,169322,5,2,0:0:0:0:
256,196,169397,5,2,0:0:0:0:
317,260,169472,5,2,0:0:0:0:
398,223,169547,5,6,0:0:0:0:
337,190,169847,5,2,0:0:0:0:
337,190,170147,5,2,0:0:0:0:
337,190,170447,5,2,0:0:0:0:
341,194,170747,2,0,L|362:51,1,125.999996154785
199,17,171347,2,0,L|220:96,1,62.9999980773926
104,152,171647,1,0,0:0:0:0:
104,152,171947,6,0,P|141:160|183:189,1,62.9999980773926
248,246,172247,2,0,P|224:248|173:267,1,62.9999980773926
71,340,172547,2,0,L|50:273,1,62.9999980773926
216,384,172847,2,0,L|240:318,1,62.9999980773926
389,317,173147,5,0,0:0:0:0:
338,186,173447,1,0,0:0:0:0:
309,365,173747,1,0,0:0:0:0:
441,264,174047,1,0,0:0:0:0:
242,101,174347,5,0,0:0:0:0:
295,231,174647,1,0,0:0:0:0:
181,37,174947,5,0,0:0:0:0:
124,193,175247,1,0,0:0:0:0:
15,74,175547,2,0,P|15:140|34:212,1,125.999996154785
185,262,176147,1,0,0:0:0:0:
113,131,176297,2,0,P|115:162|126:198,1,62.9999980773926
233,168,176597,1,0,0:0:0:0:
303,54,176747,6,0,L|157:29,1,125.999996154785
360,186,177347,1,0,0:0:0:0:
406,64,177497,1,0,0:0:0:0:
469,258,177647,1,0,0:0:0:0:
465,156,177797,1,0,0:0:0:0:
398,310,177947,6,0,P|486:345|535:319,1,125.999996154785
265,258,178547,1,0,0:0:0:0:
265,258,178847,1,0,0:0:0:0:
55,374,179147,5,0,0:0:0:0:
98,86,179297,1,0,0:0:0:0:
202,235,179447,1,0,0:0:0:0:
20,282,179597,5,0,0:0:0:0:
251,151,179747,1,0,0:0:0:0:
4,136,179897,1,0,0:0:0:0:
178,340,180047,1,8,0:0:0:0:
178,340,180347,6,0,P|239:318|270:312,1,80.9999975280763
407,320,180647,1,0,0:0:0:0:
294,165,180797,1,0,0:0:0:0:
415,225,180947,1,0,0:0:0:0:
303,351,181097,1,0,0:0:0:0:
227,116,181247,1,0,0:0:0:0:
213,313,181397,1,0,0:0:0:0:
401,203,181547,6,0,L|401:122,1,80.9999975280763
207,39,181847,1,0,0:0:0:0:
312,254,181997,2,0,P|308:207|288:159,1,80.9999975280763
113,255,182297,1,0,0:0:0:0:
384,54,182447,1,0,0:0:0:0:
403,42,182747,6,0,L|269:29,1,121.499996292114
198,94,183047,2,0,P|180:102|102:105,1,80.9999975280763
33,31,183347,1,0,0:0:0:0:
192,205,183497,1,0,0:0:0:0:
139,35,183647,1,0,0:0:0:0:
37,257,183797,1,0,0:0:0:0:
37,257,183872,1,0,0:0:0:0:
37,257,183947,6,0,P|72:295|157:295,1,121.499996292114
192,205,184247,1,0,0:0:0:0:
245,304,184397,2,0,L|228:392,1,80.9999975280763
192,205,184697,1,0,0:0:0:0:
389,291,184847,1,0,0:0:0:0:
232,81,184997,1,0,0:0:0:0:
336,359,185147,6,0,P|426:368|493:300,1,161.999995056153
345,85,185597,1,0,0:0:0:0:
341,289,185747,1,0,0:0:0:0:
434,123,185897,1,0,0:0:0:0:
256,305,186047,1,0,0:0:0:0:
245,55,186197,1,0,0:0:0:0:
430,277,186347,5,0,0:0:0:0:
148,27,186497,1,0,0:0:0:0:
172,321,186647,1,0,0:0:0:0:
245,55,186797,1,0,0:0:0:0:
72,340,186947,6,0,P|71:305|42:249,2,53.9999983520508
43,0,187247,2,0,P|49:26|49:53,2,53.9999983520508
128,147,187547,2,0,P|198:106|296:96,1,161.999995056153
367,104,187997,1,0,0:0:0:0:
384,256,188147,1,0,0:0:0:0:
426,169,188297,5,0,0:0:0:0:
328,178,188447,1,0,0:0:0:0:
290,263,188597,1,0,0:0:0:0:
314,349,188747,2,0,B|383:318|375:372|456:342,2,125.999996154785
183,333,189647,1,2,0:0:0:0:
179,326,189722,1,2,0:0:0:0:
173,319,189797,1,2,0:0:0:0:
168,311,189872,1,2,0:0:0:0:
162,302,189947,6,0,P|161:260|149:203,1,90
60,134,190397,1,0,0:0:0:0:
152,212,190547,2,0,B|244:233|324:135|270:69|144:112|219:210|292:203,1,270
382,252,191147,6,0,B|404:187|472:198|472:198|481:226|473:255,2,144
275,373,192047,2,0,P|270:332|257:298,1,72
138,321,192347,6,0,B|47:310|92:271|8:262,2,144
212,228,193247,2,0,P|231:189|225:136,1,72
93,66,193472,1,0,0:0:0:0:
93,66,193547,6,0,B|90:95|52:115|52:115|106:146|103:230|62:257|2:229|-14:113|124:155|167:184,1,346.500010574341
212,228,194147,2,0,P|244:230|293:211,1,62.9999980773926
395,124,194447,2,0,P|360:109|314:111,1,62.9999980773926
272,319,194747,6,0,B|318:318|344:286|344:286|367:319|417:331,2,161.999995056153
172,287,195647,1,0,0:0:0:0:
246,117,195797,2,0,B|285:172|234:174|278:253,1,125.999996154785
461,212,196247,1,0,0:0:0:0:
461,212,196397,2,0,P|385:226|392:133,1,188.999994232178
462,102,196997,1,0,0:0:0:0:
388,29,197147,5,0,0:0:0:0:
202,220,197447,5,0,0:0:0:0:
90,17,197597,1,0,0:0:0:0:
179,58,197897,1,0,0:0:0:0:
180,143,198197,6,0,B|118:137|89:176|89:176|52:199|2:180,1,188.999994232178
189,223,198947,2,0,P|223:225|251:208,1,62.9999980773926
338,113,199247,2,0,P|301:100|270:104,1,62.9999980773926
313,325,199547,6,0,P|367:275|432:297,1,125.999996154785
386,355,200147,2,0,P|361:280|372:171,1,161.999995056153
446,135,200597,1,0,0:0:0:0:
235,76,200747,6,0,B|336:89|294:20|410:41,2,161.999995056153
95,60,201647,1,0,0:0:0:0:
95,60,201947,6,0,P|72:106|68:144,1,80.9999975280763
227,198,202247,2,0,P|226:154|210:114,1,80.9999975280763
15,270,202547,2,0,P|51:253|155:267,1,121.499996292114
190,309,202847,1,0,0:0:0:0:
274,355,202997,6,0,P|336:352|368:246,1,161.999995056153
293,189,203447,2,0,P|287:233|297:279,1,80.9999975280763
424,196,203747,1,0,0:0:0:0:
309,91,204047,1,0,0:0:0:0:
447,19,204347,6,0,P|429:116|431:184,1,161.999995056153
430,178,204947,2,0,P|386:171|337:183,1,80.9999975280763
233,294,205247,2,0,P|283:289|325:301,1,80.9999975280763
447,368,205547,6,0,P|409:367|355:375,1,80.9999975280763
305,209,205847,1,0,0:0:0:0:
170,360,205997,2,0,P|142:320|180:209,1,161.999995056153
235,292,206447,1,2,0:0:0:0:
1,334,206597,1,2,0:0:0:0:
99,51,206747,5,0,0:0:0:0:
190,44,207347,5,0,0:0:0:0:
289,77,207647,5,0,0:0:0:0:
371,149,207947,5,0,0:0:0:0:
413,247,208247,5,0,0:0:0:0:
414,358,208547,5,0,0:0:0:0:
467,42,208847,5,0,0:0:0:0:
467,42,209147,5,0,0:0:0:0:
242,287,209297,1,0,0:0:0:0:
481,210,209447,1,0,0:0:0:0:
226,38,209597,5,0,0:0:0:0:
379,322,209747,1,0,0:0:0:0:
364,72,209897,1,0,0:0:0:0:
250,307,210047,6,0,B|143:297|199:376|67:367,1,180
21,290,210497,1,0,0:0:0:0:
106,165,210647,1,2,0:0:0:0:
106,165,210722,1,2,0:0:0:0:
106,165,210797,1,2,0:0:0:0:
106,165,210872,1,2,0:0:0:0:
132,117,210947,5,2,0:0:0:0:
184,104,211022,1,2,0:0:0:0:
235,120,211097,1,2,0:0:0:0:
269,161,211172,1,2,0:0:0:0:
307,199,211247,5,2,0:0:0:0:
362,216,211322,1,2,0:0:0:0:
418,199,211397,1,2,0:0:0:0:
457,156,211472,1,2,0:0:0:0:
457,67,211547,6,0,P|368:47|243:123,1,233.999989288331,14|8,0:0|0:0,0:0:0:0:
500,364,211997,1,2,0:0:0:0:
365,132,212147,1,4,0:0:0:0:
258,384,212297,1,2,0:0:0:0:
504,245,212447,2,0,L|513:110,1,116.999994644165,8|2,0:0|0:0,0:0:0:0:
169,21,212747,5,4,0:0:0:0:
386,369,212897,1,2,0:0:0:0:
312,56,213047,1,8,0:0:0:0:
204,287,213197,5,2,0:0:0:0:
407,86,213347,1,4,0:0:0:0:
29,282,213497,1,2,0:0:0:0:
386,369,213647,2,0,P|384:318|356:222,1,116.999994644165,8|2,0:0|0:0,0:0:0:0:
67,25,213947,6,0,P|43:72|31:164,1,116.999994644165,6|2,0:0|0:0,0:0:0:0:
120,382,214247,2,0,P|181:349|243:338,1,116.999994644165,8|2,0:0|0:0,0:0:0:0:
512,295,214547,1,4,0:0:0:0:
233,240,214697,1,2,0:0:0:0:
512,384,214847,1,8,0:0:0:0:
349,135,214997,1,2,0:0:0:0:
349,135,215072,1,2,0:0:0:0:
349,135,215147,6,0,B|250:86|275:168|160:112,1,175.499991966248,6|0,0:0|0:0,0:0:0:0:
106,96,215447,1,8,0:0:0:0:
226,0,215597,1,2,0:0:0:0:
117,185,215747,2,0,P|51:166|34:91,1,116.999994644165,4|0,0:0|0:0,0:0:0:0:
106,96,216047,2,0,P|142:148|122:239,1,144,8|2,0:0|0:0,0:0:0:0:
0,296,216272,1,2,0:0:0:0:
0,296,216347,6,0,B|103:259|70:354|203:304,1,175.499991966248,6|0,0:0|0:0,0:0:0:0:
300,304,216647,2,0,P|320:258|315:187,1,116.999994644165,8|2,0:0|0:0,0:0:0:0:
250,65,216947,1,2,0:0:0:0:
145,243,217097,1,2,0:0:0:0:
424,364,217247,1,8,0:0:0:0:
250,65,217397,6,0,P|323:25|468:88,1,233.999989288331,2|2,0:0|0:0,0:0:0:0:
253,217,217847,1,8,0:0:0:0:
55,123,217997,2,0,P|20:77|21:2,1,116.999994644165,2|4,0:0|0:0,0:0:0:0:
354,110,218297,1,2,0:0:0:0:
200,350,218447,1,8,0:0:0:0:
150,28,218597,1,0,0:0:0:0:
150,28,218672,1,0,0:0:0:0:
150,28,218747,6,0,B|198:127|109:99|167:218,1,175.499991966248
253,217,219047,1,8,0:0:0:0:
400,118,219197,2,0,P|354:81|263:72,1,116.999994644165
282,380,219497,2,0,P|357:369|414:307,1,116.999994644165
42,91,219797,6,0,B|62:166|62:166|41:221|41:221|79:344,1,233.999989288331,6|2,0:0|0:0,0:0:0:0:
69,313,220172,1,2,0:0:0:0:
69,313,220247,1,10,0:0:0:0:
332,281,220397,1,2,0:0:0:0:
198,64,220547,1,4,0:0:0:0:
72,384,220697,1,2,0:0:0:0:
466,263,220847,5,10,0:0:0:0:
492,204,220922,1,2,0:0:0:0:
491,140,220997,1,10,0:0:0:0:
467,81,221072,1,2,0:0:0:0:
416,19,221147,6,0,B|265:-7|341:91|187:62,1,233.999989288331,14|8,0:0|0:0,0:0:0:0:
61,32,221597,1,0,0:0:0:0:
362,170,221747,1,0,0:0:0:0:
11,257,221897,1,0,0:0:0:0:
229,27,222047,1,0,0:0:0:0:
133,350,222197,1,0,0:0:0:0:
133,350,222272,1,0,0:0:0:0:
133,350,222347,5,6,0:0:0:0:
0,31,222497,1,2,0:0:0:0:
319,197,222647,1,10,0:0:0:0:
5,368,222797,1,2,0:0:0:0:
298,0,222947,5,6,0:0:0:0:
178,366,223097,1,2,0:0:0:0:
139,67,223247,1,10,0:0:0:0:
412,311,223397,1,0,0:0:0:0:
412,311,223472,1,2,0:0:0:0:
412,311,223547,6,0,P|385:355|276:370,1,116.999994644165,6|2,0:0|0:0,0:0:0:0:
69,250,223847,1,8,0:0:0:0:
344,102,223997,1,2,0:0:0:0:
344,102,224072,1,2,0:0:0:0:
344,102,224147,1,6,0:0:0:0:
217,380,224297,1,2,0:0:0:0:
117,40,224447,1,8,0:0:0:0:
455,360,224597,6,0,P|492:230|485:122,1,233.999989288331,4|2,0:0|0:0,0:0:0:0:
358,30,225047,5,10,0:0:0:0:
191,364,225197,1,2,0:0:0:0:
117,40,225347,5,6,0:0:0:0:
383,323,225497,1,2,0:0:0:0:
255,10,225647,5,10,0:0:0:0:
29,356,225797,1,10,0:0:0:0:
29,356,225872,1,2,0:0:0:0:
29,356,225947,6,2,P|-9:269|5:178,1,175.499991966248,6|2,0:0|0:0,0:0:0:0:
110,69,226247,2,0,P|131:124|125:203,1,116.999994644165,8|2,0:0|0:0,0:0:0:0:
237,25,226547,1,4,0:0:0:0:
73,255,226697,1,2,0:0:0:0:
400,356,226847,1,8,0:0:0:0:
208,210,226997,1,2,0:0:0:0:
208,210,227072,1,2,0:0:0:0:
208,210,227147,6,0,P|187:265|195:326,1,116.999994644165,6|2,0:0|0:0,0:0:0:0:
504,260,227447,1,8,0:0:0:0:
160,116,227597,1,2,0:0:0:0:
486,153,227747,1,4,0:0:0:0:
274,276,227897,1,2,0:0:0:0:
419,13,228047,1,0,0:0:0:0:
346,378,228197,1,2,0:0:0:0:
346,378,228272,1,2,0:0:0:0:
346,378,228347,5,6,0:0:0:0:
220,44,228497,1,0,0:0:0:0:
452,271,228647,1,8,0:0:0:0:
129,361,228797,37,4,0:0:0:0:
354,49,228947,1,2,0:0:0:0:
100,210,229097,1,8,0:0:0:0:
435,135,229247,5,4,0:0:0:0:
51,39,229397,1,2,0:0:0:0:
51,39,229472,1,0,0:0:0:0:
51,39,229547,5,4,0:0:0:0:
375,361,229697,1,0,0:0:0:0:
13,141,229847,5,0,0:0:0:0:
445,281,229997,1,0,0:0:0:0:
16,274,230147,5,0,0:0:0:0:
460,180,230297,1,0,0:0:0:0:
460,180,230372,1,0,0:0:0:0:
460,180,230447,1,0,0:0:0:0:
141,46,230597,6,0,B|96:67|79:122|85:175|128:205|128:205|142:189|131:120,1,233.999989288331,6|2,0:0|0:0,0:0:0:0:
385,62,231047,2,0,P|312:31|265:37,1,116.999994644165,8|2,0:0|0:0,0:0:0:0:
135,162,231347,1,4,0:0:0:0:
393,314,231497,1,2,0:0:0:0:
309,109,231647,1,8,0:0:0:0:
126,371,231797,6,0,P|166:383|259:381,1,116.999994644165,2|0,0:0|0:0,0:0:0:0:
448,190,232097,1,2,0:0:0:0:
448,190,232172,1,0,0:0:0:0:
448,190,232247,1,8,0:0:0:0:
287,270,232397,1,2,0:0:0:0:
280,82,232547,1,4,0:0:0:0:
438,256,232697,1,2,0:0:0:0:
438,31,232847,1,0,0:0:0:0:
191,290,232997,6,0,P|241:359|379:315,1,233.999989288331,10|0,0:0|0:0,0:0:0:0:
180,106,233447,1,8,0:0:0:0:
63,367,233597,1,2,0:0:0:0:
288,273,233747,1,4,0:0:0:0:
13,169,233897,1,0,0:0:0:0:
321,191,234047,1,0,0:0:0:0:
136,1,234197,6,0,B|193:130|90:94|143:237,1,233.999989288331,4|0,0:0|0:0,0:0:0:0:
160,310,234647,1,8,0:0:0:0:
392,144,234797,1,2,0:0:0:0:
57,61,234947,1,4,0:0:0:0:
389,294,235097,1,2,0:0:0:0:
207,0,235247,1,0,0:0:0:0:
57,366,235397,6,0,P|162:393|284:350,1,233.999989288331,4|2,0:0|0:0,0:0:0:0:
421,71,235847,2,2,P|381:55|304:64,1,116.999994644165,8|0,0:0|0:0,0:0:0:0:
160,310,236147,1,4,0:0:0:0:
391,192,236297,1,2,0:0:0:0:
168,29,236447,1,8,0:0:0:0:
441,384,236597,6,0,B|435:229|516:312|501:158,1,233.999989288331,4|2,0:0|0:0,0:0:0:0:
168,29,237047,1,8,0:0:0:0:
324,259,237197,1,2,0:0:0:0:
383,31,237347,1,4,0:0:0:0:
174,334,237497,1,2,0:0:0:0:
67,71,237647,1,8,0:0:0:0:
1,351,237797,6,0,P|114:341|266:380,1,233.999989288331,6|2,0:0|0:0,0:0:0:0:
456,207,238247,2,0,P|397:228|336:222,1,116.999994644165,8|2,0:0|0:0,0:0:0:0:
112,54,238547,1,4,0:0:0:0:
390,137,238697,1,2,0:0:0:0:
34,291,238847,1,8,0:0:0:0:
244,47,238997,6,0,B|337:34|337:34|391:51|391:51|488:32,1,233.999989288331,6|0,0:0|0:0,0:0:0:0:
210,249,239447,1,8,0:0:0:0:
52,28,239597,1,2,0:0:0:0:
52,28,239672,1,2,0:0:0:0:
52,28,239747,5,4,0:0:0:0:
176,364,239897,1,2,0:0:0:0:
333,98,240047,1,8,0:0:0:0:
2,333,240197,6,0,B|129:363|89:251|223:283,1,233.999989288331,6|2,2:0|2:0,2:0:0:0:
479,317,240647,1,8,0:0:0:0:
166,183,240797,1,2,0:0:0:0:
490,268,240947,1,4,0:0:0:0:
177,358,241097,5,2,0:0:0:0:
507,198,241247,1,0,0:0:0:0:
165,42,241397,6,0,L|18:14,1,116.999994644165,4|2,0:0|0:0,0:0:0:0:
278,0,241697,1,2,0:0:0:0:
380,233,241847,2,0,L|522:213,1,116.999994644165,8|2,0:0|0:0,0:0:0:0:
399,91,242147,1,4,0:0:0:0:
137,300,242297,1,2,0:0:0:0:
278,0,242447,1,8,0:0:0:0:
214,358,242597,6,0,P|160:389|35:300,1,233.999989288331,6|2,0:0|0:0,0:0:0:0:
436,150,243047,2,0,L|474:302,1,116.999994644165,8|2,0:0|0:0,0:0:0:0:
137,300,243347,1,4,0:0:0:0:
374,69,243497,1,2,0:0:0:0:
326,384,243647,1,8,0:0:0:0:
115,143,243797,6,0,P|86:84|84:9,1,116.999994644165,4|2,0:0|0:0,0:0:0:0:
334,246,244097,1,2,0:0:0:0:
52,316,244247,2,0,P|15:276|-11:192,1,116.999994644165,8|2,0:0|0:0,0:0:0:0:
211,29,244547,1,4,0:0:0:0:
280,337,244697,2,0,P|356:357|391:339,1,94.499997116089,4|0,0:0|0:0,0:0:0:0:
402,321,244997,6,0,P|386:253|392:192,1,116.999994644165,4|2,0:0|0:0,0:0:0:0:
399,65,245297,1,2,0:0:0:0:
168,332,245447,1,8,0:0:0:0:
263,81,245597,1,2,0:0:0:0:
502,361,245747,5,4,0:0:0:0:
394,144,245897,1,2,0:0:0:0:
283,373,246047,1,0,0:0:0:0:
82,238,246197,6,0,P|57:191|47:115,1,116.999994644165,4|0,0:0|0:0,0:0:0:0:
270,64,246497,1,2,0:0:0:0:
270,64,246572,1,2,0:0:0:0:
270,64,246647,1,8,0:0:0:0:
206,372,246797,1,2,0:0:0:0:
141,79,246947,5,4,0:0:0:0:
345,206,247097,1,2,0:0:0:0:
35,366,247247,1,8,0:0:0:0:
276,87,247397,6,0,P|301:160|299:331,1,233.999989288331,4|2,0:0|0:0,0:0:0:0:
36,117,247847,2,0,P|33:69|59:-30,1,116.999994644165,8|2,0:0|0:0,0:0:0:0:
424,156,248147,1,4,0:0:0:0:
115,230,248297,1,2,0:0:0:0:
319,74,248447,1,8,0:0:0:0:
217,347,248597,6,0,L|74:347,1,116.999994644165,4|2,0:0|0:0,0:0:0:0:
154,100,248897,5,2,0:0:0:0:
435,346,249047,1,8,0:0:0:0:
280,117,249197,5,2,0:0:0:0:
310,384,249347,1,4,0:0:0:0:
427,57,249497,1,2,0:0:0:0:
427,57,249572,1,2,0:0:0:0:
427,57,249647,1,8,0:0:0:0:
38,59,249797,6,0,B|155:54|94:128|223:120,1,175.499991966248,6|0,0:0|0:0,0:0:0:0:
328,113,250097,1,2,0:0:0:0:
328,113,250247,5,4,0:0:0:0:
32,280,250397,1,2,0:0:0:0:
431,298,250547,5,4,0:0:0:0:
76,142,250697,1,2,0:0:0:0:
298,372,250847,5,8,0:0:0:0:
396,56,250997,2,0,P|323:107|298:237,1,175.499991966248,4|0,0:0|0:0,0:0:0:0:
439,171,251297,1,2,0:0:0:0:
225,29,251447,5,4,0:0:0:0:
52,324,251597,1,2,0:0:0:0:
66,67,251747,5,4,0:0:0:0:
174,383,251897,1,2,0:0:0:0:
456,220,252047,1,10,0:0:0:0:
431,203,252122,1,2,0:0:0:0:
402,203,252197,1,10,0:0:0:0:
377,222,252272,1,2,0:0:0:0:
362,257,252347,6,0,B|271:231|271:231|226:246|226:246|118:216,1,233.999989288331,6|0,0:0|0:0,0:0:0:0:
25,93,252797,2,0,P|132:113|119:240,1,233.999989288331,6|0,0:0|0:0,0:0:0:0:
61,284,253247,6,0,B|21:289|-49:274|-60:139|44:93|164:139|149:264|62:349|62:349|132:361|176:309|176:309|199:361|275:379|275:379|242:310|294:226|294:226|449:234|488:351|426:409|327:400|261:336|327:241|379:228|416:277|473:235|484:177,1,1368,6|2,0:0|0:0,0:0:0:0:
