osu file format v14

[General]
AudioFilename: audio.mp3
AudioLeadIn: 0
PreviewTime: 48337
Countdown: 0
SampleSet: Soft
StackLeniency: 0.7
Mode: 2
LetterboxInBreaks: 0
WidescreenStoryboard: 1

[Editor]
DistanceSpacing: 1
BeatDivisor: 4
GridSize: 4
TimelineZoom: 1.6

[Metadata]
Title:ideal white (TV Size)
TitleUnicode:ideal white (TV Size)
Artist:Ayano Mashiro
ArtistUnicode:綾野ましろ
Creator:Nakano Ichika
Version:Salad
Source:Fate/stay night [Unlimited Blade Works]
Tags:ubw type moon ufotable zero hollow ataraxia archer tohsaka rin emiya shirou japanese anime rock jrock j-rock female vocals vocal [UBW] fsn season op opening one 1 エミヤ 衛宮士郎 遠坂凛 Carlos K. Toshi-Fj TYPE-MOON タイプムーン asuna meg アニメ Tosaka Tousaka Early Days White Place -[ Asuna ]- -[_Asuna_]-
BeatmapID:3729224
BeatmapSetID:1816676

[Difficulty]
HPDrainRate:3
CircleSize:3
OverallDifficulty:7
ApproachRate:7
SliderMultiplier:1.4
SliderTickRate:1

[Events]
//Background and Video events
0,0,"ubw.jpg",0,0
//Break Periods
//Storyboard Layer 0 (Background)
//Storyboard Layer 1 (Fail)
//Storyboard Layer 2 (Pass)
//Storyboard Layer 3 (Foreground)
//Storyboard Layer 4 (Overlay)
//Storyboard Sound Samples

[TimingPoints]
588,333.333333333333,4,2,1,50,1,0
32587,-100,4,2,2,50,0,0
43254,-100,4,2,1,50,0,0
47254,-100,4,2,1,30,0,0
47921,-100,4,2,1,20,0,0
48421,-100,4,2,1,45,0,0
48587,-100,4,2,1,75,0,1
83254,-100,4,2,1,55,0,0
88587,-100,4,2,1,25,0,0
89921,-100,4,2,0,15,0,0

[Colours]
Combo1 : 205,31,31
Combo2 : 134,54,23
Combo3 : 173,152,137

[HitObjects]
350,256,588,5,6,0:0:0:0:
350,256,921,1,0,0:0:0:0:
210,257,1254,1,2,0:0:0:0:
210,257,1587,1,0,0:0:0:0:
69,258,1921,5,2,0:0:0:0:
69,258,2254,1,0,0:0:0:0:
208,165,2587,1,2,0:0:0:0:
67,166,2921,1,0,0:0:0:0:
326,274,3254,5,6,0:0:0:0:
186,271,3587,1,0,0:0:0:0:
45,273,3921,1,2,0:0:0:0:
186,271,4254,1,0,0:0:0:0:
446,271,4587,5,6,0:0:0:0:
446,271,4921,1,0,0:0:0:0:
306,271,5254,1,2,0:0:0:0:
446,271,5587,1,2,0:0:0:0:
186,277,5921,5,6,0:0:0:0:
186,277,6254,1,0,0:0:0:0:
325,275,6587,1,2,0:0:0:0:
186,277,6921,1,0,0:0:0:0:
46,277,7254,5,2,0:0:0:0:
186,277,7587,1,0,0:0:0:0:
326,272,7921,1,2,0:0:0:0:
465,276,8254,1,0,0:0:0:0:
206,185,8587,6,0,L|206:106,1,70,6|2,0:0|0:0,0:0:0:0:
346,118,9087,1,2,0:0:0:0:
346,118,9421,1,2,0:0:0:0:
87,288,9754,5,10,0:0:0:0:
227,291,10087,1,10,0:0:0:0:
87,288,10421,2,0,L|86:72,1,210,2|8,0:0|0:0,0:0:0:0:
349,70,11254,6,0,L|501:68,2,140,6|2|2,0:0|0:0|0:0,0:0:0:0:
208,76,12254,2,0,L|203:158,1,70,2|0,0:0|0:0,0:0:0:0:
274,149,12587,6,0,P|317:199|279:251,1,140,2|2,0:0|0:0,0:0:0:0:
209,254,13087,1,0,0:0:0:0:
139,261,13254,2,0,L|0:264,1,140,2|2,0:0|0:0,0:0:0:0:
260,73,13921,6,0,L|407:73,2,140,6|2|2,0:0|0:0|0:0,0:0:0:0:
119,71,14921,2,0,L|116:144,1,70,2|0,0:0|0:0,0:0:0:0:
186,141,15254,6,0,L|328:130,1,140,2|2,0:0|0:0,0:0:0:0:
255,130,15754,1,0,0:0:0:0:
185,133,15921,2,0,L|35:124,1,140,2|2,0:0|0:0,0:0:0:0:
304,284,16587,6,0,L|452:275,2,140,6|2|2,0:0|0:0|0:0,0:0:0:0:
163,276,17587,2,0,L|238:262,1,70,2|0,0:0|0:0,0:0:0:0:
300,245,17921,6,0,L|155:239,1,140,2|2,0:0|0:0,0:0:0:0:
230,239,18421,1,0,0:0:0:0:
299,244,18587,2,0,L|439:229,1,140,2|2,0:0|0:0,0:0:0:0:
179,198,19254,6,0,L|34:181,1,140,6|2,0:0|0:0,0:0:0:0:
109,188,19754,1,0,0:0:0:0:
179,191,19921,2,0,L|318:167,1,140,2|2,0:0|0:0,0:0:0:0:
58,70,20587,6,0,L|198:55,1,140,6|2,0:0|0:0,0:0:0:0:
267,52,21087,1,0,0:0:0:0:
337,48,21254,2,0,L|192:41,1,140,2|2,0:0|0:0,0:0:0:0:
456,251,21921,6,0,L|457:178,1,70,6|2,0:0|0:0,0:0:0:0:
247,170,22587,1,8,0:0:0:0:
387,171,22921,2,0,L|387:100,1,70,6|2,0:0|0:0,0:0:0:0:
316,102,23254,6,0,L|170:104,2,140,2|2|8,0:0|0:0|0:0,0:0:0:0:
386,100,24087,1,2,0:1:0:0:
456,98,24254,1,2,0:1:0:0:
198,304,24587,6,0,L|195:230,1,70,6|2,0:0|0:0,0:0:0:0:
405,232,25254,1,8,0:0:0:0:
265,239,25587,2,0,L|261:166,1,70,6|2,0:0|0:0,0:0:0:0:
330,158,25921,6,0,L|478:162,2,140,2|2|8,0:0|0:0|0:0,0:0:0:0:
259,158,26754,1,2,0:1:0:0:
189,155,26921,1,2,0:1:0:0:
447,264,27254,6,0,L|450:192,1,70,6|2,0:0|0:0,0:0:0:0:
240,186,27921,1,8,0:0:0:0:
99,192,28254,2,0,L|95:121,1,70,6|2,0:0|0:0,0:0:0:0:
165,119,28587,6,0,L|22:129,2,140,2|2|8,0:0|0:0|0:0,0:0:0:0:
235,120,29421,1,8,0:0:0:0:
305,117,29587,1,2,0:0:0:0:
45,298,29921,6,0,P|26:234|77:191,1,140,6|2,0:0|0:0,0:0:0:0:
145,206,30421,1,8,0:0:0:0:
214,194,30587,2,0,L|70:174,1,140,2|2,0:0|0:0,0:0:0:0:
332,319,31254,6,0,P|375:270|351:208,1,140,6|2,0:0|0:0,0:0:0:0:
279,208,31754,1,8,0:0:0:0:
214,194,31921,1,2,0:0:0:0:
171,139,32087,1,2,0:0:0:0:
173,68,32254,1,10,0:0:0:0:
227,24,32421,1,10,0:0:0:0:
385,35,32587,6,0,L|456:35,2,70,6|0|0,0:0|0:0|0:0,0:0:0:0:
244,39,33254,1,8,0:0:0:0:
173,37,33421,1,0,0:0:0:0:
103,38,33587,1,0,0:0:0:0:
243,137,33921,6,0,L|314:137,1,70,0|2,0:0|0:0,0:0:0:0:
243,137,34254,2,0,L|100:134,1,140,0|8,0:0|0:0,0:0:0:0:
103,134,34754,1,0,0:0:0:0:
173,135,34921,1,2,0:0:0:0:
432,232,35254,5,6,0:0:0:0:
362,230,35421,1,0,0:0:0:0:
292,229,35587,1,0,0:0:0:0:
151,224,35921,2,0,L|79:227,2,70,8|0|0,0:0|0:0|0:0,0:0:0:0:
292,229,36587,6,0,L|297:154,1,70,0|10,0:0|0:0,0:0:0:0:
227,147,36921,2,0,L|77:146,1,140,0|8,0:0|0:0,0:0:0:0:
87,146,37421,1,2,0:0:0:0:
156,143,37587,1,0,0:0:0:0:
416,140,37921,6,0,L|489:140,2,70,6|0|0,0:0|0:0|0:0,0:0:0:0:
276,270,38587,1,8,0:0:0:0:
346,268,38754,1,0,0:0:0:0:
416,270,38921,1,0,0:0:0:0:
276,179,39254,6,0,L|201:180,1,70,0|2,0:0|0:0,0:0:0:0:
135,183,39587,2,0,L|279:177,1,140,0|8,0:0|0:0,0:0:0:0:
345,178,40087,2,0,L|350:105,1,70,0|2,0:0|0:0,0:0:0:0:
89,73,40587,6,0,P|53:123|96:183,1,140,6|0,0:0|0:0,0:0:0:0:
231,179,41254,2,0,L|312:180,1,70,8|0,0:0|0:0,0:0:0:0:
371,183,41587,6,0,L|225:179,1,140,0|0,0:0|0:0,0:0:0:0:
161,185,42087,1,2,0:0:0:0:
231,179,42254,1,0,0:0:0:0:
371,183,42587,2,0,L|441:180,2,70,8|0|8,0:0|0:0|0:0,0:0:0:0:
113,60,43254,6,0,L|42:61,2,70,6|0|8,0:0|0:0|0:0,0:0:0:0:
253,62,43921,1,2,0:0:0:0:
322,63,44087,1,2,0:0:0:0:
392,64,44254,1,8,0:0:0:0:
252,159,44587,6,0,L|173:161,2,70,2|2|8,0:0|0:0|0:0,0:0:0:0:
392,159,45254,1,2,0:0:0:0:
462,161,45421,1,2,0:0:0:0:
392,159,45587,1,8,0:0:0:0:
133,298,45921,6,0,L|60:301,1,70,2|2,0:0|0:0,0:0:0:0:
203,298,46421,2,0,L|276:298,1,70,2|2,0:0|0:0,0:0:0:0:
413,129,46921,6,0,L|337:123,1,70,2|2,0:0|0:0,0:0:0:0:
256,192,47421,12,0,48254,0:0:0:0:
204,293,48587,6,0,P|165:239|207:179,1,140,6|8,0:0|0:0,0:0:0:0:
267,172,49087,2,0,L|422:167,1,140,0|2,0:0|0:0,0:0:0:0:
336,168,49587,1,8,0:0:0:0:
266,171,49754,1,2,0:0:0:0:
126,172,50087,5,2,0:0:0:0:
196,170,50254,1,8,0:0:0:0:
266,171,50421,1,0,0:0:0:0:
405,172,50754,2,0,L|487:170,2,70,2|8|0,0:0|0:0|0:0,0:0:0:0:
248,264,51254,6,0,P|216:216|254:147,1,140,2|8,0:0|0:0,0:0:0:0:
320,147,51754,2,0,L|164:144,1,140,0|2,0:0|0:0,0:0:0:0:
249,149,52254,1,8,0:0:0:0:
319,146,52421,6,0,P|374:191|354:253,1,140,2|2,0:0|0:0,0:0:0:0:
287,254,52921,1,8,0:0:0:0:
147,257,53254,2,0,L|62:260,2,70,2|2|8,0:0|0:0|0:0,0:0:0:0:
406,251,53921,6,0,P|436:190|380:139,1,140,6|8,0:0|0:0,0:0:0:0:
323,140,54421,2,0,L|174:129,1,140,0|2,0:0|0:0,0:0:0:0:
113,124,54921,1,8,0:0:0:0:
182,129,55087,5,2,0:0:0:0:
322,120,55421,2,0,L|394:119,1,70,2|8,0:0|0:0,0:0:0:0:
462,118,55754,2,0,L|317:117,1,140,0|2,0:0|0:0,0:0:0:0:
391,119,56254,1,8,0:0:0:0:
134,282,56587,6,0,P|96:230|130:165,1,140,2|8,0:0|0:0,0:0:0:0:
194,156,57087,1,0,0:0:0:0:
264,152,57254,2,0,L|117:117,1,140,2|8,0:0|0:0,0:0:0:0:
386,223,57921,6,0,P|429:172|404:111,1,140,0|8,0:0|0:0,0:0:0:0:
335,92,58421,1,0,0:0:0:0:
265,98,58587,2,0,L|412:113,1,140,2|8,0:0|0:0,0:0:0:0:
146,281,59254,6,0,P|116:232|163:167,1,140,6|8,0:0|0:0,0:0:0:0:
226,229,59754,2,0,L|75:214,1,140,0|2,0:0|0:0,0:0:0:0:
156,208,60254,1,8,0:0:0:0:
414,156,60587,6,0,P|453:113|410:47,1,140,0|8,0:0|0:0,0:0:0:0:
347,48,61087,2,0,L|494:44,1,140,0|2,0:0|0:0,0:0:0:0:
416,45,61587,1,8,0:0:0:0:
157,114,61921,6,0,L|299:99,1,140,2|8,0:0|0:0,0:0:0:0:
366,94,62421,2,0,L|215:92,1,140,0|2,0:0|0:0,0:0:0:0:
155,86,62921,1,8,0:0:0:0:
411,264,63254,6,0,P|434:201|393:148,1,140,0|8,0:0|0:0,0:0:0:0:
253,161,63921,1,2,0:0:0:0:
323,156,64087,1,2,0:0:0:0:
323,156,64254,1,8,0:0:0:0:
66,296,64587,6,0,P|33:242|83:203,1,140,6|8,0:0|0:0,0:0:0:0:
153,180,65087,2,0,L|307:176,1,140,0|2,0:0|0:0,0:0:0:0:
360,169,65587,1,8,0:0:0:0:
291,175,65754,6,0,B|206:177|206:177|191:231,1,140,2|2,0:0|0:0,0:0:0:0:
192,230,66254,1,8,0:0:0:0:
331,220,66587,2,0,L|405:218,2,70,2|2|8,0:0|0:0|0:0,0:0:0:0:
72,181,67254,6,0,L|214:158,1,140,6|8,0:0|0:0,0:0:0:0:
279,147,67754,2,0,L|135:126,1,140,0|2,0:0|0:0,0:0:0:0:
71,111,68254,1,8,0:0:0:0:
331,67,68587,6,0,L|409:68,2,70,8|2|8,0:0|0:0|0:0,0:0:0:0:
190,71,69254,2,0,L|119:73,2,70,2|2|8,0:0|0:0|0:0,0:0:0:0:
451,250,69921,6,0,P|478:196|419:139,1,140,6|8,0:0|0:0,0:0:0:0:
292,143,70587,2,0,L|217:142,1,70,2|2,0:0|0:0,0:0:0:0:
81,143,71087,6,0,L|238:144,2,140,2|2|0,0:0|0:0|0:0,0:0:0:0:
221,145,72087,2,0,L|364:144,1,140,2|0,0:0|0:0,0:0:0:0:
203,270,72587,6,0,L|52:257,1,140,6|8,0:0|0:0,0:0:0:0:
132,243,73087,2,0,L|272:234,1,140,0|2,0:0|0:0,0:0:0:0:
341,226,73587,1,8,0:0:0:0:
410,220,73754,6,0,L|258:204,1,140,2|2,0:0|0:0,0:0:0:0:
200,200,74254,1,8,0:0:0:0:
337,172,74587,2,0,L|407:175,2,70,2|2|8,0:0|0:0|0:0,0:0:0:0:
76,194,75254,6,0,P|48:137|91:79,1,140,6|8,0:0|0:0,0:0:0:0:
228,75,75921,2,0,L|373:76,1,140,2|8,0:0|0:0,0:0:0:0:
297,74,76421,6,0,L|148:76,1,140,2|2,0:0|0:0,0:0:0:0:
86,75,76921,1,8,0:0:0:0:
225,81,77254,1,2,0:0:0:0:
86,98,77587,1,8,0:0:0:0:
345,265,77921,6,0,L|489:256,1,140,6|8,0:0|0:0,0:0:0:0:
346,233,78587,1,2,0:0:0:0:
276,226,78754,1,2,0:0:0:0:
206,216,78921,1,8,0:0:0:0:
66,205,79254,6,0,L|208:193,1,140,0|8,0:0|0:0,0:0:0:0:
275,188,79754,2,0,L|131:169,1,140,0|2,0:0|0:0,0:0:0:0:
66,159,80254,1,8,0:0:0:0:
323,85,80587,6,0,P|351:144|300:183,1,140,6|8,0:0|0:0,0:0:0:0:
232,236,81087,2,0,L|384:239,1,140,6|8,0:0|0:0,0:0:0:0:
215,294,81587,6,0,P|169:244|195:181,1,140,6|8,0:0|0:0,0:0:0:0:
264,182,82087,2,0,P|303:146|270:76,1,140,6|8,0:0|0:0,0:0:0:0:
203,42,82587,2,0,L|130:43,2,70,2|2|2,0:0|0:0|0:0,0:0:0:0:
462,224,83254,6,0,L|466:78,1,140,6|8,0:0|0:0,0:0:0:0:
325,86,83921,2,0,L|245:85,2,70,2|2|8,0:0|0:0|0:0,0:0:0:0:
395,88,84421,6,0,L|243:87,1,140,2|2,0:0|0:0,0:0:0:0:
184,86,84921,1,8,0:0:0:0:
323,92,85254,2,0,L|396:93,1,70,2|2,0:0|0:0,0:0:0:0:
463,95,85587,1,8,0:0:0:0:
209,244,85921,6,0,L|66:231,1,140,8|2,0:0|0:0,0:0:0:0:
140,225,86421,2,0,L|283:217,1,140,8|2,0:0|0:0,0:0:0:0:
350,214,86921,1,8,0:0:0:0:
91,128,87254,5,8,0:0:0:0:
21,133,87421,1,2,0:0:0:0:
91,128,87587,1,8,0:0:0:0:
347,85,87921,2,0,L|425:91,2,70,8|8|8,0:0|0:0|0:0,0:0:0:0:
190,77,88421,5,8,0:0:0:0:
256,192,88671,12,0,89921,0:0:0:0:
