osu file format v14

[General]
AudioFilename: audio.mp3
AudioLeadIn: 0
PreviewTime: 48337
Countdown: 0
SampleSet: Soft
StackLeniency: 0.7
Mode: 2
LetterboxInBreaks: 0
WidescreenStoryboard: 1

[Editor]
DistanceSpacing: 1
BeatDivisor: 4
GridSize: 4
TimelineZoom: 1.6

[Metadata]
Title:ideal white (TV Size)
TitleUnicode:ideal white (TV Size)
Artist:Ayano Mashiro
ArtistUnicode:綾野ましろ
Creator:Nakano Ichika
Version:Rain
Source:Fate/stay night [Unlimited Blade Works]
Tags:ubw type moon ufotable zero hollow ataraxia archer tohsaka rin emiya shirou japanese anime rock jrock j-rock female vocals vocal [UBW] fsn season op opening one 1 エミヤ 衛宮士郎 遠坂凛 Carlos K. Toshi-Fj TYPE-MOON タイプムーン asuna meg アニメ Tosaka Tousaka Early Days White Place -[ Asuna ]- -[_Asuna_]-
BeatmapID:3727992
BeatmapSetID:1816676

[Difficulty]
HPDrainRate:5
CircleSize:4
OverallDifficulty:9
ApproachRate:9
SliderMultiplier:1.8
SliderTickRate:2

[Events]
//Background and Video events
0,0,"ubw.jpg",0,0
//Break Periods
//Storyboard Layer 0 (Background)
//Storyboard Layer 1 (Fail)
//Storyboard Layer 2 (Pass)
//Storyboard Layer 3 (Foreground)
//Storyboard Layer 4 (Overlay)
//Storyboard Sound Samples

[TimingPoints]
588,333.333333333333,4,2,1,50,1,0
32587,-100,4,2,2,50,0,0
43254,-100,4,2,1,50,0,0
47254,-100,4,2,1,30,0,0
47921,-100,4,2,1,20,0,0
48421,-100,4,2,1,45,0,0
48587,-100,4,2,1,75,0,1
83254,-100,4,2,1,55,0,0
88587,-100,4,2,1,25,0,0
89921,-100,4,2,0,15,0,0

[Colours]
Combo1 : 205,31,31
Combo2 : 134,54,23
Combo3 : 173,152,137

[HitObjects]
158,316,588,6,0,P|122:237|174:169,1,180,6|0,0:0|0:0,0:0:0:0:
354,316,1254,2,0,P|389:237|337:169,1,180,2|0,0:0|0:0,0:0:0:0:
157,162,1921,6,0,L|341:170,1,180,2|0,0:0|0:0,0:0:0:0:
246,165,2421,1,2,0:0:0:0:
201,163,2504,1,2,0:0:0:0:
156,163,2587,2,0,P|113:209|165:299,1,180,2|0,0:0|0:0,0:0:0:0:
435,293,3254,6,0,L|443:106,1,180,6|0,0:0|0:0,0:0:0:0:
263,90,3921,2,0,L|83:94,1,180,2|0,0:0|0:0,0:0:0:0:
352,196,4587,5,6,0:0:0:0:
171,192,4921,1,0,0:0:0:0:
352,196,5254,2,0,L|354:105,1,90,2|0,0:0|0:0,0:0:0:0:
308,104,5504,1,0,0:0:0:0:
263,102,5587,2,0,L|262:193,1,90,2|0,0:0|0:0,0:0:0:0:
489,269,5921,6,0,L|399:266,1,90,6|0,0:0|0:0,0:0:0:0:
308,265,6254,2,0,L|212:262,1,90,0|0,0:0|0:0,0:0:0:0:
61,261,6587,2,0,L|155:259,1,90,2|0,0:0|0:0,0:0:0:0:
240,187,6921,2,0,L|149:186,1,90,0|0,0:0|0:0,0:0:0:0:
308,68,7254,6,0,L|218:62,1,90,2|0,0:0|0:0,0:0:0:0:
128,61,7587,2,0,L|220:63,1,90,0|0,0:0|0:0,0:0:0:0:
374,308,7921,2,0,L|282:316,1,90,2|0,0:0|0:0,0:0:0:0:
127,314,8254,2,0,L|131:222,1,90,0|0,0:0|0:0,0:0:0:0:
356,173,8587,5,6,0:0:0:0:
221,170,8754,1,2,0:0:0:0:
400,84,9087,1,2,0:0:0:0:
217,67,9421,1,2,0:0:0:0:
491,83,9754,5,10,0:0:0:0:
95,204,10087,1,10,0:0:0:0:
492,211,10421,2,0,L|307:209,1,180,2|0,0:0|0:0,0:0:0:0:
267,209,10837,1,0,0:0:0:0:
414,210,10921,2,0,L|417:120,1,90,8|0,0:0|0:0,0:0:0:0:
192,110,11254,6,0,L|95:115,2,90,6|0|2,0:0|0:0|0:0,0:0:0:0:
282,110,11754,1,0,0:0:0:0:
191,110,11921,2,0,L|101:115,1,90,2|0,0:0|0:0,0:0:0:0:
209,203,12254,1,2,0:0:0:0:
100,203,12421,1,0,0:0:0:0:
256,263,12587,6,0,L|349:255,1,90,2|0,0:0|0:0,0:0:0:0:
256,263,12921,2,0,L|164:251,1,90,2|0,0:0|0:0,0:0:0:0:
324,128,13254,2,0,L|230:136,2,90,2|0|2,0:0|0:0|0:0,0:0:0:0:
413,121,13754,1,0,0:0:0:0:
187,291,13921,6,0,L|181:200,1,90,6|0,0:0|0:0,0:0:0:0:
271,192,14254,2,0,L|362:196,1,90,2|0,0:0|0:0,0:0:0:0:
271,191,14587,2,0,L|177:185,1,90,2|0,0:0|0:0,0:0:0:0:
291,164,14921,1,2,0:0:0:0:
182,186,15087,1,0,0:0:0:0:
340,295,15254,6,0,L|248:291,1,90,2|0,0:0|0:0,0:0:0:0:
160,295,15587,2,0,L|252:291,1,90,2|0,0:0|0:0,0:0:0:0:
408,254,15921,2,0,L|414:161,1,90,2|0,0:0|0:0,0:0:0:0:
306,165,16254,1,2,0:0:0:0:
414,164,16421,1,0,0:0:0:0:
189,229,16587,6,0,L|99:221,1,90,6|0,0:0|0:0,0:0:0:0:
8,213,16921,2,0,L|101:206,1,90,2|0,0:0|0:0,0:0:0:0:
187,198,17254,2,0,L|194:103,1,90,2|0,0:0|0:0,0:0:0:0:
85,104,17587,1,2,0:0:0:0:
193,109,17754,1,0,0:0:0:0:
351,109,17921,6,0,L|257:108,1,90,2|0,0:0|0:0,0:0:0:0:
170,276,18254,2,0,L|261:275,1,90,2|0,0:0|0:0,0:0:0:0:
170,276,18587,2,0,L|166:183,1,90,2|0,0:0|0:0,0:0:0:0:
276,177,18921,1,2,0:0:0:0:
167,186,19087,1,0,0:0:0:0:
392,231,19254,6,0,L|486:227,1,90,6|0,0:0|0:0,0:0:0:0:
392,231,19587,2,0,L|386:139,1,90,2|0,0:0|0:0,0:0:0:0:
476,145,19921,2,0,L|384:141,1,90,2|0,0:0|0:0,0:0:0:0:
296,141,20254,2,0,L|389:141,1,90,2|0,0:0|0:0,0:0:0:0:
160,279,20587,6,0,L|66:272,1,90,6|0,0:0|0:0,0:0:0:0:
160,279,20921,2,0,L|253:269,1,90,2|0,0:0|0:0,0:0:0:0:
408,240,21254,2,0,L|315:232,1,90,2|0,0:0|0:0,0:0:0:0:
160,217,21587,2,0,L|113:215,1,45,2|2,0:0|0:0,0:0:0:0:
115,215,21754,2,0,L|161:218,1,45,2|2,0:0|0:0,0:0:0:0:
319,130,21921,6,0,L|412:127,1,90,6|2,0:0|0:0,0:0:0:0:
319,130,22254,2,0,L|319:316,1,180,0|8,0:0|0:0,0:0:0:0:
228,312,22754,1,0,0:0:0:0:
453,311,22921,2,0,L|363:309,1,90,6|2,0:0|0:0,0:0:0:0:
205,259,23254,6,0,L|386:261,2,180,2|2|8,0:0|0:0|0:0,0:0:0:0:
123,221,24087,1,2,0:1:0:0:
103,132,24254,1,2,0:1:0:0:
149,54,24421,1,2,0:1:0:0:
374,60,24587,6,0,L|283:60,1,90,6|2,0:0|0:0,0:0:0:0:
374,60,24921,2,0,L|374:242,1,180,2|8,0:0|0:0,0:0:0:0:
283,242,25421,1,0,0:0:0:0:
59,251,25587,2,0,L|149:249,1,90,6|2,0:0|0:0,0:0:0:0:
308,130,25921,6,0,L|110:138,2,180,2|2|8,0:0|0:0|0:0,0:0:0:0:
387,171,26754,1,2,0:1:0:0:
411,257,26921,1,2,0:1:0:0:
370,336,27087,1,2,0:1:0:0:
144,325,27254,6,0,L|239:315,1,90,6|2,0:0|0:0,0:0:0:0:
144,325,27587,2,0,L|145:145,1,180,2|8,0:0|0:0,0:0:0:0:
54,143,28087,1,0,0:0:0:0:
280,125,28254,2,0,L|185:123,1,90,6|2,0:0|0:0,0:0:0:0:
348,121,28587,6,0,P|435:117|505:172,2,180,2|2|8,0:0|0:0|0:0,0:0:0:0:
257,124,29421,1,8,0:0:0:0:
414,123,29587,2,0,L|318:121,1,90,2|0,0:0|0:0,0:0:0:0:
96,314,29921,6,0,L|82:222,1,90,6|8,0:0|0:0,0:0:0:0:
172,218,30254,2,0,L|187:126,1,90,2|8,0:0|0:0,0:0:0:0:
344,124,30587,2,0,L|364:30,1,90,2|8,0:0|0:0,0:0:0:0:
452,24,30921,2,0,L|434:118,1,90,2|8,0:0|0:0,0:0:0:0:
208,277,31254,6,0,L|113:271,1,90,6|8,0:0|0:0,0:0:0:0:
275,231,31587,2,0,L|366:227,1,90,2|8,0:0|0:0,0:0:0:0:
207,164,31921,2,0,L|159:160,1,45,2|0,0:0|0:0,0:0:0:0:
207,164,32087,2,0,L|253:164,1,45,2|0,0:0|0:0,0:0:0:0:
411,129,32254,2,0,L|463:126,1,45,10|10,0:0|0:0,0:0:0:0:
410,129,32421,2,0,L|364:125,1,45,10|10,0:0|0:0,0:0:0:0:
197,55,32587,5,6,0:0:0:0:
124,108,32754,1,0,0:0:0:0:
113,197,32921,1,0,0:0:0:0:
176,260,33087,1,2,0:0:0:0:
335,256,33254,2,0,L|340:161,1,90,8|0,0:0|0:0,0:0:0:0:
231,163,33587,1,0,0:0:0:0:
339,165,33754,1,2,0:0:0:0:
498,162,33921,6,0,L|402:157,1,90,0|2,0:0|0:0,0:0:0:0:
319,86,34254,2,0,L|415:87,1,90,0|0,0:0|0:0,0:0:0:0:
184,298,34587,2,0,L|181:206,1,90,8|0,0:0|0:0,0:0:0:0:
291,191,34921,1,2,0:0:0:0:
182,182,35087,1,0,0:0:0:0:
408,254,35254,5,6,0:0:0:0:
480,200,35421,1,0,0:0:0:0:
468,111,35587,1,0,0:0:0:0:
385,74,35754,1,2,0:0:0:0:
227,57,35921,2,0,L|321:61,1,90,8|0,0:0|0:0,0:0:0:0:
208,120,36254,1,0,0:0:0:0:
317,125,36421,1,2,0:0:0:0:
160,277,36587,5,0,0:0:0:0:
253,275,36754,2,0,L|251:179,1,90,10|0,0:0|0:0,0:0:0:0:
161,172,37087,1,0,0:0:0:0:
386,103,37254,2,0,L|296:98,1,90,8|2,0:0|0:0,0:0:0:0:
187,98,37587,1,0,0:0:0:0:
296,99,37754,1,0,0:0:0:0:
70,273,37921,5,6,0:0:0:0:
149,231,38087,1,0,0:0:0:0:
161,141,38254,1,0,0:0:0:0:
111,65,38421,1,2,0:0:0:0:
269,56,38587,2,0,L|366:66,1,90,8|0,0:0|0:0,0:0:0:0:
249,121,38921,1,0,0:0:0:0:
358,134,39087,1,2,0:0:0:0:
200,282,39254,6,0,L|107:274,1,90,0|2,0:0|0:0,0:0:0:0:
201,228,39587,2,0,L|110:223,1,90,0|0,0:0|0:0,0:0:0:0:
339,181,39921,2,0,L|430:170,1,90,8|0,0:0|0:0,0:0:0:0:
339,181,40254,2,0,L|433:170,1,90,2|0,0:0|0:0,0:0:0:0:
202,76,40587,6,0,P|154:110|204:201,1,180,6|0,0:0|0:0,0:0:0:0:
290,203,41087,1,2,0:0:0:0:
132,299,41254,2,0,L|130:206,1,90,8|0,0:0|0:0,0:0:0:0:
290,203,41587,1,0,0:0:0:0:
198,145,41754,1,2,0:0:0:0:
287,145,41920,5,0,0:0:0:0:
377,145,42087,1,2,0:0:0:0:
220,307,42254,2,0,L|222:214,1,90,0|2,0:0|0:0,0:0:0:0:
449,80,42587,2,0,L|352:79,1,90,8|0,0:0|0:0,0:0:0:0:
313,80,42837,1,0,0:0:0:0:
267,82,42921,2,0,L|361:81,1,90,8|0,0:0|0:0,0:0:0:0:
130,291,43254,6,0,L|34:298,2,90,6|0|8,0:0|0:0|0:0,0:0:0:0:
220,287,43754,1,0,0:0:0:0:
378,269,43921,2,0,L|288:261,1,90,2|2,0:0|0:0,0:0:0:0:
179,247,44254,1,8,0:0:0:0:
288,261,44421,1,0,0:0:0:0:
64,211,44587,6,0,L|154:205,2,90,2|2|8,0:0|0:0|0:0,0:0:0:0:
153,205,45087,1,0,0:0:0:0:
312,168,45254,2,0,L|404:173,2,90,2|2|8,0:0|0:0|0:0,0:0:0:0:
221,165,45754,1,0,0:0:0:0:
447,272,45921,5,2,0:0:0:0:
222,274,46087,2,0,L|224:178,1,90,2|0,0:0|0:0,0:0:0:0:
451,171,46421,1,2,0:0:0:0:
223,184,46587,2,0,L|228:88,1,90,2|0,0:0|0:0,0:0:0:0:
455,79,46921,1,2,0:0:0:0:
228,93,47087,6,0,P|131:123|276:315,1,450,2|0,0:0|0:0,0:0:0:0:
308,310,48004,1,0,0:0:0:0:
347,289,48087,1,0,0:0:0:0:
379,256,48171,1,0,0:0:0:0:
395,214,48254,1,0,0:0:0:0:
385,170,48337,1,0,0:0:0:0:
357,133,48421,2,0,L|306:137,1,45,2|0,0:0|0:0,0:0:0:0:
133,343,48587,6,0,L|40:336,2,90,6|0|8,0:0|0:0|0:0,0:0:0:0:
291,311,49087,2,0,L|295:217,1,90,0|2,0:0|0:0,0:0:0:0:
185,210,49421,1,2,0:0:0:0:
293,188,49587,1,8,0:0:0:0:
67,56,49754,6,0,L|159:60,1,90,2|0,0:0|0:0,0:0:0:0:
316,62,50087,2,0,L|319:153,1,90,2|8,0:0|0:0,0:0:0:0:
211,153,50421,2,0,L|208:246,1,90,0|2,0:0|0:0,0:0:0:0:
364,261,50754,2,0,L|456:257,2,90,2|8|0,0:0|0:0|0:0,0:0:0:0:
137,271,51254,6,0,P|134:186|213:153,1,180,2|8,0:0|0:0,0:0:0:0:
371,94,51754,2,0,L|278:91,1,90,0|2,0:0|0:0,0:0:0:0:
172,45,52087,2,0,L|264:43,1,90,2|8,0:0|0:0,0:0:0:0:
36,138,52421,6,0,P|-4:188|64:266,1,180,2|2,0:0|0:0,0:0:0:0:
212,255,52921,2,0,L|305:239,1,90,8|0,0:0|0:0,0:0:0:0:
190,171,53254,1,2,0:0:0:0:
299,154,53421,1,2,0:0:0:0:
143,105,53587,2,0,L|51:98,1,90,8|0,0:0|0:0,0:0:0:0:
282,46,53921,6,0,L|374:41,2,90,6|0|8,0:0|0:0|0:0,0:0:0:0:
124,53,54421,2,0,L|127:145,1,90,0|2,0:0|0:0,0:0:0:0:
236,142,54754,1,2,0:0:0:0:
128,175,54921,1,8,0:0:0:0:
354,245,55087,6,0,L|446:240,1,90,2|0,0:0|0:0,0:0:0:0:
334,199,55421,2,0,L|424:198,1,90,2|8,0:0|0:0,0:0:0:0:
263,74,55754,2,0,L|171:74,2,90,0|2|2,0:0|0:0|0:0,0:0:0:0:
421,79,56254,2,0,L|328:80,1,90,8|0,0:0|0:0,0:0:0:0:
106,258,56587,6,0,L|293:256,1,180,2|8,0:0|0:0,0:0:0:0:
197,238,57087,1,0,0:0:0:0:
355,243,57254,2,0,L|353:149,1,90,2|2,0:0|0:0,0:0:0:0:
244,120,57587,1,8,0:0:0:0:
353,154,57754,1,2,0:0:0:0:
126,149,57921,6,0,P|71:124|105:27,1,180,0|8,0:0|0:0,0:0:0:0:
191,66,58421,1,0,0:0:0:0:
348,138,58587,2,0,L|345:244,1,90,2|2,0:0|0:0,0:0:0:0:
185,148,58921,1,8,0:0:0:0:
140,153,59004,1,8,0:0:0:0:
140,153,59087,2,0,L|190:149,1,45,8|8,0:0|0:0,0:0:0:0:
344,236,59254,6,0,L|440:240,2,90,6|0|8,0:0|0:0|0:0,0:0:0:0:
186,222,59754,2,0,L|371:204,1,180,0|2,0:0|0:0,0:0:0:0:
258,189,60254,2,0,L|161:183,1,90,8|2,0:0|0:0,0:0:0:0:
394,87,60587,6,0,L|488:90,2,90,0|2|8,0:0|0:0|0:0,0:0:0:0:
235,128,61087,2,0,L|420:136,1,180,0|2,0:0|0:0,0:0:0:0:
309,191,61587,2,0,L|403:194,1,90,8|0,0:0|0:0,0:0:0:0:
172,262,61921,6,0,L|81:257,2,90,2|0|8,0:0|0:0|0:0,0:0:0:0:
331,224,62421,2,0,L|145:205,1,180,0|2,0:0|0:0,0:0:0:0:
259,151,62921,2,0,L|263:60,1,90,8|2,0:0|0:0,0:0:0:0:
37,84,63254,6,0,L|131:89,1,90,0|2,0:0|0:0,0:0:0:0:
285,111,63587,2,0,L|192:116,1,90,8|0,0:0|0:0,0:0:0:0:
354,231,63921,2,0,L|446:225,1,90,2|2,0:0|0:0,0:0:0:0:
285,177,64254,2,0,L|377:170,1,90,8|0,0:0|0:0,0:0:0:0:
147,266,64587,6,0,P|110:221|188:157,1,180,6|8,0:0|0:0,0:0:0:0:
276,146,65087,1,0,0:0:0:0:
167,139,65254,2,0,L|168:47,1,90,2|2,0:0|0:0,0:0:0:0:
258,48,65587,1,8,0:0:0:0:
484,48,65754,6,0,L|298:46,1,180,2|2,0:0|0:0,0:0:0:0:
412,106,66254,2,0,L|317:103,1,90,8|0,0:0|0:0,0:0:0:0:
164,228,66587,2,0,L|163:134,1,90,2|2,0:0|0:0,0:0:0:0:
322,177,66921,2,0,L|225:173,1,90,8|0,0:0|0:0,0:0:0:0:
459,281,67254,6,0,L|277:272,1,180,6|8,0:0|0:0,0:0:0:0:
189,271,67754,1,0,0:0:0:0:
296,248,67921,2,0,L|298:156,1,90,2|2,0:0|0:0,0:0:0:0:
188,153,68254,1,8,0:0:0:0:
296,131,68421,1,2,0:0:0:0:
71,110,68587,5,8,0:0:0:0:
25,110,68671,1,8,0:0:0:0:
20,156,68754,1,2,0:0:0:0:
66,156,68837,1,0,0:0:0:0:
225,235,68921,1,8,0:0:0:0:
269,233,69004,1,8,0:0:0:0:
266,190,69087,1,2,0:0:0:0:
221,192,69171,1,0,0:0:0:0:
64,315,69254,6,0,L|16:315,1,45,2|2,0:0|0:0,0:0:0:0:
64,316,69421,2,0,L|112:315,1,45,2|2,0:0|0:0,0:0:0:0:
267,251,69587,2,0,L|315:251,1,45,8|8,0:0|0:0,0:0:0:0:
154,238,69754,2,0,L|104:238,1,45,8|8,0:0|0:0,0:0:0:0:
291,190,69921,6,0,L|388:184,1,90,6|0,0:0|0:0,0:0:0:0:
222,174,70254,2,0,L|219:83,1,90,8|0,0:0|0:0,0:0:0:0:
310,82,70587,1,2,0:0:0:0:
151,43,70754,2,0,L|245:41,1,90,2|8,0:0|0:0,0:0:0:0:
467,264,71087,6,0,L|372:261,1,90,2|0,0:0|0:0,0:0:0:0:
219,256,71421,2,0,L|217:164,1,90,2|8,0:0|0:0,0:0:0:0:
324,150,71754,2,0,L|327:58,1,90,0|2,0:0|0:0,0:0:0:0:
169,54,72087,2,0,L|172:146,1,90,2|8,0:0|0:0,0:0:0:0:
279,122,72421,1,0,0:0:0:0:
54,290,72587,6,0,L|144:277,1,90,6|0,0:0|0:0,0:0:0:0:
254,256,72921,1,8,0:0:0:0:
97,242,73087,2,0,L|94:153,1,90,0|2,0:0|0:0,0:0:0:0:
200,126,73421,2,0,L|108:121,1,90,2|8,0:0|0:0,0:0:0:0:
337,52,73754,6,0,L|155:40,1,180,2|2,0:0|0:0,0:0:0:0:
316,36,74254,2,0,L|320:129,1,90,8|0,0:0|0:0,0:0:0:0:
231,148,74587,1,2,0:0:0:0:
319,180,74754,1,2,0:0:0:0:
161,227,74921,1,8,0:0:0:0:
318,253,75087,1,2,0:0:0:0:
92,309,75254,6,0,L|274:288,1,180,6|8,0:0|0:0,0:0:0:0:
360,280,75754,1,0,0:0:0:0:
203,265,75921,2,0,L|199:167,1,90,2|2,0:0|0:0,0:0:0:0:
288,161,76254,1,8,0:0:0:0:
61,88,76421,6,0,L|244:83,1,180,2|2,0:0|0:0,0:0:0:0:
398,166,76921,2,0,L|305:165,1,90,8|0,0:0|0:0,0:0:0:0:
151,255,77254,2,0,L|241:245,1,90,2|2,0:0|0:0,0:0:0:0:
399,75,77587,2,0,L|401:166,1,90,8|8,0:0|0:0,0:0:0:0:
355,168,77837,1,0,0:0:0:0:
172,87,77921,6,0,L|78:87,1,90,6|0,0:0|0:0,0:0:0:0:
188,197,78254,2,0,L|193:105,1,90,8|0,0:0|0:0,0:0:0:0:
83,86,78587,2,0,L|173:79,1,90,2|2,0:0|0:0,0:0:0:0:
332,109,78921,2,0,L|236:106,1,90,8|2,0:0|0:0,0:0:0:0:
468,249,79254,6,0,P|495:202|415:132,1,180,0|8,0:0|0:0,0:0:0:0:
258,203,79754,2,0,L|350:190,2,90,0|2|2,0:0|0:0|0:0,0:0:0:0:
99,198,80254,2,0,L|95:105,1,90,8|0,0:0|0:0,0:0:0:0:
325,46,80587,6,0,L|227:45,2,90,6|0|8,0:0|0:0|0:0,0:0:0:0:
99,260,81087,2,0,L|191:259,2,90,6|0|8,0:0|0:0|0:0,0:0:0:0:
327,179,81587,6,0,L|421:182,2,90,6|0|8,0:0|0:0|0:0,0:0:0:0:
101,101,82087,2,0,L|11:106,2,90,6|0|8,0:0|0:0|0:0,0:0:0:0:
327,180,82587,2,0,L|384:180,1,45,2|0,0:0|0:0,0:0:0:0:
224,134,82754,2,0,L|174:134,1,45,2|0,0:0|0:0,0:0:0:0:
338,254,82921,2,0,L|385:253,1,45,2|2,0:0|0:0,0:0:0:0:
338,253,83087,2,0,L|292:252,1,45,2|2,0:0|0:0,0:0:0:0:
111,168,83254,6,0,L|108:77,1,90,6|0,0:0|0:0,0:0:0:0:
266,40,83587,2,0,L|269:131,1,90,8|0,0:0|0:0,0:0:0:0:
160,168,83921,1,2,0:0:0:0:
269,185,84087,1,2,0:0:0:0:
111,276,84254,1,8,0:0:0:0:
336,283,84421,6,0,P|366:235|281:169,1,180,2|2,0:0|0:0,0:0:0:0:
131,165,84921,2,0,L|129:70,1,90,8|0,0:0|0:0,0:0:0:0:
238,56,85254,1,2,0:0:0:0:
129,40,85421,1,2,0:0:0:0:
354,156,85587,2,0,L|256:151,1,90,8|0,0:0|0:0,0:0:0:0:
34,292,85921,6,0,L|131:289,2,90,8|2|2,0:0|0:0|0:0,0:0:0:0:
262,233,86421,2,0,L|161:230,2,90,8|2|2,0:0|0:0|0:0,0:0:0:0:
489,211,86921,2,0,L|492:120,1,90,8|2,0:0|0:0,0:0:0:0:
266,45,87254,5,8,0:0:0:0:
221,49,87337,1,0,0:0:0:0:
217,94,87421,1,2,0:0:0:0:
262,90,87504,1,0,0:0:0:0:
418,161,87587,2,0,L|466:166,1,45,8|0,0:0|0:0,0:0:0:0:
418,161,87754,2,0,L|370:154,1,45,2|0,0:0|0:0,0:0:0:0:
214,284,87921,6,0,L|166:278,1,45,8|0,0:0|0:0,0:0:0:0:
326,226,88087,2,0,L|381:224,1,45,8|0,0:0|0:0,0:0:0:0:
201,168,88254,2,0,L|151:162,1,45,8|0,0:0|0:0,0:0:0:0:
338,94,88421,6,0,L|382:90,1,45,8|0,0:0|0:0,0:0:0:0:
256,192,88671,12,0,89921,0:0:0:0:
