osu file format v14

[General]
AudioFilename: audio.mp3
AudioLeadIn: 0
PreviewTime: 48337
Countdown: 0
SampleSet: Soft
StackLeniency: 0.7
Mode: 2
LetterboxInBreaks: 0
WidescreenStoryboard: 0

[Editor]
DistanceSpacing: 1
BeatDivisor: 4
GridSize: 4
TimelineZoom: 2.899999

[Metadata]
Title:ideal white (TV Size)
TitleUnicode:ideal white (TV Size)
Artist:Ayano Mashiro
ArtistUnicode:綾野ましろ
Creator:Nakano Ichika
Version:Noble Phantasm
Source:Fate/stay night [Unlimited Blade Works]
Tags:ubw type moon ufotable zero hollow ataraxia archer tohsaka rin emiya shirou japanese anime rock jrock j-rock female vocals vocal [UBW] fsn season op opening one 1 エミヤ 衛宮士郎 遠坂凛 Carlos K. Toshi-Fj TYPE-MOON タイプムーン asuna meg アニメ Tosaka Tousaka Early Days White Place -[ Asuna ]- -[_Asuna_]-
BeatmapID:3726933
BeatmapSetID:1816676

[Difficulty]
HPDrainRate:6
CircleSize:4.5
OverallDifficulty:9.4
ApproachRate:9.4
SliderMultiplier:2
SliderTickRate:2

[Events]
//Background and Video events
0,0,"ubw.jpg",0,0
//Break Periods
//Storyboard Layer 0 (Background)
//Storyboard Layer 1 (Fail)
//Storyboard Layer 2 (Pass)
//Storyboard Layer 3 (Foreground)
//Storyboard Layer 4 (Overlay)
//Storyboard Sound Samples

[TimingPoints]
588,333.333333333333,4,2,1,50,1,0
32587,-100,4,2,2,50,0,0
43254,-100,4,2,1,50,0,0
47254,-100,4,2,1,30,0,0
47921,-100,4,2,1,20,0,0
48421,-100,4,2,1,45,0,0
48587,-100,4,2,1,75,0,1
83254,-100,4,2,1,55,0,0
88587,-100,4,2,1,25,0,0
89921,-100,4,2,0,15,0,0

[Colours]
Combo1 : 205,31,31
Combo2 : 134,54,23
Combo3 : 173,152,137

[HitObjects]
137,318,588,6,0,L|133:119,1,200,6|0,0:0|0:0,0:0:0:0:
375,66,1254,2,0,L|379:265,1,200,2|0,0:0|0:0,0:0:0:0:
137,318,1921,6,0,L|343:302,1,200,2|0,0:0|0:0,0:0:0:0:
186,251,2421,1,2,0:0:0:0:
136,252,2504,1,2,0:0:0:0:
86,252,2587,2,0,L|186:250,1,100,2|0,0:0|0:0,0:0:0:0:
89,52,2921,1,0,0:0:0:0:
391,48,3254,6,0,L|191:49,1,200,6|0,0:0|0:0,0:0:0:0:
390,62,3921,1,2,0:0:0:0:
191,87,4254,1,0,0:0:0:0:
490,187,4587,6,0,L|289:183,1,200,6|0,0:0|0:0,0:0:0:0:
48,196,5254,2,0,L|46:90,1,100,2|0,0:0|0:0,0:0:0:0:
96,92,5504,1,0,0:0:0:0:
196,75,5587,2,0,L|94:76,1,100,2|0,0:0|0:0,0:0:0:0:
146,74,5837,1,0,0:0:0:0:
360,42,5921,6,0,L|365:142,1,100,6|0,0:0|0:0,0:0:0:0:
217,221,6254,2,0,L|210:118,1,100
61,144,6587,2,0,L|68:41,1,100,2|0,0:0|0:0,0:0:0:0:
218,27,6921,2,0,L|312:64,1,100
458,49,7254,6,0,L|364:86,1,100,2|0,0:0|0:0,0:0:0:0:
219,46,7587,2,0,L|125:83,1,100
272,120,7921,2,0,L|276:220,1,100,2|0,0:0|0:0,0:0:0:0:
127,274,8254,2,0,L|27:262,1,100
253,159,8587,5,6,0:0:0:0:
28,119,8754,1,2,0:0:0:0:
269,70,9087,1,2,0:0:0:0:
28,58,9421,1,2,0:0:0:0:
427,180,9754,5,10,0:0:0:0:
28,227,10087,1,10,0:0:0:0:
427,180,10421,2,0,L|225:156,1,200,2|0,0:0|0:0,0:0:0:0:
277,151,10837,1,0,0:0:0:0:
454,84,10921,2,0,L|353:72,1,100,8|0,0:0|0:0,0:0:0:0:
129,58,11254,6,0,L|24:68,1,100,6|0,0:0|0:0,0:0:0:0:
149,55,11587,2,0,L|250:45,1,100,2|0,0:0|0:0,0:0:0:0:
128,57,11921,2,0,L|124:160,1,100,2|0,0:0|0:0,0:0:0:0:
274,162,12254,1,2,0:0:0:0:
123,158,12421,1,0,0:0:0:0:
273,294,12587,6,0,L|378:292,1,100,2|0,0:0|0:0,0:0:0:0:
221,290,12921,2,0,L|224:187,1,100,2|0,0:0|0:0,0:0:0:0:
375,188,13254,2,0,L|479:187,2,100,2|0|2,0:0|0:0|0:0,0:0:0:0:
475,186,13754,1,0,0:0:0:0:
250,58,13921,6,0,L|149:60,1,100,6|0,0:0|0:0,0:0:0:0:
297,61,14254,2,0,L|302:163,1,100,2|0,0:0|0:0,0:0:0:0:
154,164,14587,2,0,L|152:265,1,100,2|0,0:0|0:0,0:0:0:0:
304,269,14921,1,2,0:0:0:0:
152,263,15087,1,0,0:0:0:0:
304,269,15254,6,0,L|404:261,1,100,2|0,0:0|0:0,0:0:0:0:
254,190,15587,2,0,L|249:90,1,100,2|0,0:0|0:0,0:0:0:0:
401,120,15921,2,0,L|295:120,2,100,2|0|2,0:0|0:0|0:0,0:0:0:0:
501,122,16421,1,0,0:0:0:0:
276,270,16587,6,0,L|167:264,1,100,6|0,0:0|0:0,0:0:0:0:
25,272,16921,2,0,L|21:168,1,100,2|0,0:0|0:0,0:0:0:0:
171,168,17254,2,0,L|175:66,1,100,2|0,0:0|0:0,0:0:0:0:
324,65,17587,1,2,0:0:0:0:
174,67,17754,1,0,0:0:0:0:
324,65,17921,6,0,L|326:167,1,100,2|0,0:0|0:0,0:0:0:0:
171,168,18254,2,0,L|275:167,1,100,2|0,0:0|0:0,0:0:0:0:
425,164,18587,2,0,L|321:165,1,100,2|0,0:0|0:0,0:0:0:0:
172,247,18921,2,0,L|274:245,1,100,2|0,0:0|0:0,0:0:0:0:
47,246,19254,6,0,L|44:145,1,100,6|0,0:0|0:0,0:0:0:0:
195,136,19587,2,0,L|295:134,1,100,2|0,0:0|0:0,0:0:0:0:
446,132,19921,2,0,L|339:132,1,100,2|0,0:0|0:0,0:0:0:0:
194,136,20254,2,0,L|195:240,1,100,2|0,0:0|0:0,0:0:0:0:
420,249,20587,6,0,L|312:249,1,100,6|0,0:0|0:0,0:0:0:0:
169,255,20921,2,0,L|164:155,1,100,2|0,0:0|0:0,0:0:0:0:
314,165,21254,2,0,L|319:65,1,100,2|0,0:0|0:0,0:0:0:0:
169,54,21587,2,0,L|114:49,1,50,2|2,0:0|0:0,0:0:0:0:
271,50,21754,2,0,L|324:54,1,50,2|2,0:0|0:0,0:0:0:0:
157,303,21921,5,6,0:0:0:0:
380,314,22087,2,0,L|382:215,1,100,2|0,0:0|0:0,0:0:0:0:
282,200,22421,1,0,0:0:0:0:
430,123,22587,2,0,L|323:117,1,100,8|0,0:0|0:0,0:0:0:0:
103,121,22921,1,6,0:0:0:0:
327,329,23087,1,2,0:0:0:0:
476,298,23254,6,0,L|479:195,1,100,2|0,0:0|0:0,0:0:0:0:
329,204,23587,2,0,L|326:101,1,100,2|0,0:0|0:0,0:0:0:0:
478,41,23921,1,8,0:0:0:0:
313,47,24087,1,2,0:1:0:0:
193,55,24254,1,2,0:1:0:0:
313,47,24421,1,2,0:1:0:0:
89,228,24587,5,6,0:0:0:0:
314,231,24754,1,2,0:0:0:0:
429,224,24921,2,0,L|431:118,1,100,2|0,0:0|0:0,0:0:0:0:
282,102,25254,2,0,L|382:98,1,100,8|0,0:0|0:0,0:0:0:0:
156,51,25587,1,6,0:0:0:0:
381,35,25754,1,2,0:0:0:0:
231,57,25921,6,0,L|228:160,1,100,2|0,0:0|0:0,0:0:0:0:
347,173,26254,2,0,L|350:276,1,100,2|0,0:0|0:0,0:0:0:0:
199,284,26587,1,8,0:0:0:0:
351,274,26754,1,2,0:1:0:0:
471,280,26921,1,2,0:1:0:0:
351,275,27087,1,2,0:1:0:0:
126,201,27254,5,6,0:0:0:0:
350,181,27421,2,0,L|346:75,1,100,2|2,0:0|0:0,0:0:0:0:
244,145,27754,1,0,0:0:0:0:
393,45,27921,2,0,L|281:44,1,100,8|0,0:0|0:0,0:0:0:0:
68,192,28254,1,6,0:0:0:0:
295,275,28421,1,2,0:0:0:0:
68,192,28587,6,0,L|170:189,1,100,2|0,0:0|0:0,0:0:0:0:
318,153,28921,2,0,L|211:154,1,100,2|0,0:0|0:0,0:0:0:0:
218,153,29171,1,0,0:0:0:0:
380,75,29254,2,0,L|379:176,1,100,8|8,0:0|0:0,0:0:0:0:
329,174,29504,1,0,0:0:0:0:
167,241,29587,2,0,L|271:234,1,100,2|0,0:0|0:0,0:0:0:0:
17,321,29921,6,0,L|15:221,1,100,6|8,0:0|0:0,0:0:0:0:
166,201,30254,1,2,0:0:0:0:
15,220,30421,1,8,0:0:0:0:
240,255,30587,2,0,L|241:154,1,100,2|8,0:0|0:0,0:0:0:0:
393,222,30921,1,2,0:0:0:0:
242,155,31087,1,8,0:0:0:0:
468,155,31254,6,0,L|367:148,1,100,6|8,0:0|0:0,0:0:0:0:
217,144,31587,1,2,0:0:0:0:
370,148,31754,1,8,0:0:0:0:
145,182,31921,2,0,L|142:133,1,50,2|0,0:0|0:0,0:0:0:0:
304,122,32087,2,0,L|307:73,1,50,2|0,0:0|0:0,0:0:0:0:
130,52,32254,2,0,L|80:46,1,50,10|10,0:0|0:0,0:0:0:0:
257,39,32421,2,0,L|314:36,1,50,10|10,0:0|0:0,0:0:0:0:
107,314,32587,5,6,0:0:0:0:
28,252,32754,1,0,0:0:0:0:
9,153,32921,1,0,0:0:0:0:
65,70,33087,1,2,0:0:0:0:
289,65,33254,2,0,L|286:166,1,100,8|0,0:0|0:0,0:0:0:0:
135,181,33587,1,0,0:0:0:0:
286,183,33754,1,2,0:0:0:0:
136,304,33921,6,0,L|30:294,1,100,0|2,0:0|0:0,0:0:0:0:
189,257,34254,2,0,L|290:247,1,100
62,167,34587,2,0,L|171:156,1,100,8|0,0:0|0:0,0:0:0:0:
313,139,34921,1,2,0:0:0:0:
164,104,35087,1,0,0:0:0:0:
389,80,35254,5,6,0:0:0:0:
293,109,35421,1,0,0:0:0:0:
258,202,35587,1,0,0:0:0:0:
301,293,35754,1,2,0:0:0:0:
75,306,35921,2,0,L|177:298,1,100,8|0,0:0|0:0,0:0:0:0:
325,230,36254,1,0,0:0:0:0:
174,207,36421,1,2,0:0:0:0:
398,128,36587,5,0,0:0:0:0:
173,143,36754,2,0,L|170:43,1,100,10|0,0:0|0:0,0:0:0:0:
289,34,37087,1,0,0:0:0:0:
65,117,37254,2,0,L|171:115,1,100,8|2,0:0|0:0,0:0:0:0:
115,115,37504,1,0,0:0:0:0:
65,117,37587,1,0,0:0:0:0:
217,117,37754,1,0,0:0:0:0:
442,317,37921,5,6,0:0:0:0:
491,230,38087,1,0,0:0:0:0:
459,134,38254,1,0,0:0:0:0:
372,84,38421,1,2,0:0:0:0:
148,268,38587,2,0,L|249:254,1,100,8|0,0:0|0:0,0:0:0:0:
95,182,38921,1,0,0:0:0:0:
245,138,39087,1,2,0:0:0:0:
20,176,39254,6,0,L|16:68,1,100,0|2,0:0|0:0,0:0:0:0:
169,29,39587,2,0,L|270:32,1,100,0|0,0:0|0:0,0:0:0:0:
496,259,39921,2,0,L|394:250,1,100,8|0,0:0|0:0,0:0:0:0:
245,188,40254,2,0,L|351:186,1,100,2|0,0:0|0:0,0:0:0:0:
120,172,40587,6,0,P|79:128|159:41,1,200,6|0,0:0|0:0,0:0:0:0:
255,49,41087,1,2,0:0:0:0:
30,97,41254,2,0,L|31:199,1,100,8|0,0:0|0:0,0:0:0:0:
255,206,41587,2,0,L|152:198,1,100,0|2,0:0|0:0,0:0:0:0:
383,156,41921,5,0,0:0:0:0:
233,153,42087,2,0,L|231:50,1,100,2|0,0:0|0:0,0:0:0:0:
331,53,42421,1,2,0:0:0:0:
107,299,42587,2,0,L|1:291,1,100,8|0,0:0|0:0,0:0:0:0:
57,293,42837,1,0,0:0:0:0:
221,258,42921,2,0,L|324:251,1,100,8|0,0:0|0:0,0:0:0:0:
71,198,43254,6,0,L|176:188,1,100,6|0,0:0|0:0,0:0:0:0:
320,175,43587,2,0,L|317:75,1,100,8|0,0:0|0:0,0:0:0:0:
165,88,43921,2,0,L|168:191,1,100,2|2,0:0|0:0,0:0:0:0:
317,290,44254,1,8,0:0:0:0:
166,289,44421,1,0,0:0:0:0:
391,194,44587,6,0,L|394:94,1,100,2|2,0:0|0:0,0:0:0:0:
243,90,44921,2,0,L|143:83,1,100,8|0,0:0|0:0,0:0:0:0:
297,259,45254,2,0,L|398:245,1,100,2|2,0:0|0:0,0:0:0:0:
244,218,45587,2,0,L|138:213,1,100,8|0,0:0|0:0,0:0:0:0:
372,162,45921,5,2,0:0:0:0:
147,191,46087,2,0,L|146:91,1,100,2|0,0:0|0:0,0:0:0:0:
372,69,46421,1,2,0:0:0:0:
147,290,46587,2,0,L|250:290,1,100,2|0,0:0|0:0,0:0:0:0:
474,284,46921,1,2,0:0:0:0:
224,316,47087,6,0,P|71:156|250:27,1,500,2|0,0:0|0:0,0:0:0:0:
309,35,48004,1,0,0:0:0:0:
348,80,48087,1,0,0:0:0:0:
344,140,48171,1,0,0:0:0:0:
311,190,48254,1,0,0:0:0:0:
251,196,48337,1,0,0:0:0:0:
49,222,48421,2,0,L|98:217,1,50,2|0,0:0|0:0,0:0:0:0:
323,319,48587,6,0,L|423:310,1,100,6|0,0:0|0:0,0:0:0:0:
199,124,48921,1,8,0:0:0:0:
423,37,49087,2,0,L|427:140,1,100,0|2,0:0|0:0,0:0:0:0:
199,124,49421,1,2,0:0:0:0:
299,121,49587,1,8,0:0:0:0:
49,288,49754,6,0,L|45:187,1,100,2|0,0:0|0:0,0:0:0:0:
270,209,50087,2,0,L|378:206,1,100,2|8,0:0|0:0,0:0:0:0:
215,141,50421,2,0,L|110:146,1,100,0|2,0:0|0:0,0:0:0:0:
340,43,50754,2,0,L|338:148,1,100,2|8,0:0|0:0,0:0:0:0:
113,77,51087,1,0,0:0:0:0:
366,211,51254,6,0,L|468:213,1,100,2|0,0:0|0:0,0:0:0:0:
240,144,51587,1,8,0:0:0:0:
465,200,51754,2,0,L|468:99,1,100,0|2,0:0|0:0,0:0:0:0:
243,66,52087,2,0,L|135:58,1,100,2|8,0:0|0:0,0:0:0:0:
396,262,52421,6,0,L|399:158,1,100,2|0,0:0|0:0,0:0:0:0:
248,217,52754,1,2,0:0:0:0:
474,158,52921,2,0,L|366:152,1,100,8|0,0:0|0:0,0:0:0:0:
149,127,53254,1,2,0:0:0:0:
373,74,53421,1,2,0:0:0:0:
122,132,53587,2,0,L|223:124,1,100,8|0,0:0|0:0,0:0:0:0:
479,206,53921,6,0,L|376:205,1,100,6|0,0:0|0:0,0:0:0:0:
153,145,54254,1,8,0:0:0:0:
377,141,54421,2,0,L|381:36,1,100,0|2,0:0|0:0,0:0:0:0:
155,180,54754,2,0,L|152:77,1,100,2|8,0:0|0:0,0:0:0:0:
404,40,55087,6,0,L|303:30,1,100,2|0,0:0|0:0,0:0:0:0:
76,330,55421,2,0,L|71:229,1,100,2|8,0:0|0:0,0:0:0:0:
298,241,55754,2,0,L|303:140,1,100,0|2,0:0|0:0,0:0:0:0:
152,130,56087,1,2,0:0:0:0:
378,101,56254,2,0,L|279:86,1,100,8|0,0:0|0:0,0:0:0:0:
29,288,56587,6,0,L|132:280,1,100,2|0,0:0|0:0,0:0:0:0:
381,281,56921,2,0,L|382:168,1,100,8|0,0:0|0:0,0:0:0:0:
132,186,57254,1,2,0:0:0:0:
283,155,57421,1,2,0:0:0:0:
132,186,57587,2,0,L|127:82,1,100,8|2,0:0|0:0,0:0:0:0:
380,52,57921,6,0,L|484:59,2,100,0|2|8,0:0|0:0|0:0,0:0:0:0:
130,261,58421,1,0,0:0:0:0:
354,195,58587,1,2,0:0:0:0:
130,144,58754,1,2,0:0:0:0:
354,195,58921,2,0,L|300:187,1,50,8|8,0:0|0:0,0:0:0:0:
118,210,59087,2,0,L|175:206,1,50,8|8,0:0|0:0,0:0:0:0:
381,345,59254,6,0,P|415:319|380:293,1,100,6|0,0:0|0:0,0:0:0:0:
229,247,59587,1,8,0:0:0:0:
379,130,59754,2,0,L|277:123,1,100,0|2,0:0|0:0,0:0:0:0:
129,122,60087,1,2,0:0:0:0:
279,123,60254,2,0,L|281:22,1,100,8|2,0:0|0:0,0:0:0:0:
56,281,60587,6,0,L|159:282,1,100,0|2,0:0|0:0,0:0:0:0:
306,283,60921,1,8,0:0:0:0:
157,282,61087,2,0,L|155:180,1,100,0|2,0:0|0:0,0:0:0:0:
306,160,61421,1,2,0:0:0:0:
157,107,61587,2,0,L|260:105,1,100,8|0,0:0|0:0,0:0:0:0:
485,237,61921,6,0,L|386:236,1,100,2|0,0:0|0:0,0:0:0:0:
235,233,62254,1,8,0:0:0:0:
85,233,62421,2,0,L|186:231,1,100,0|2,0:0|0:0,0:0:0:0:
338,127,62754,1,2,0:0:0:0:
188,128,62921,2,0,L|85:127,1,100,8|2,0:0|0:0,0:0:0:0:
314,50,63254,6,0,L|415:50,1,100,0|2,0:0|0:0,0:0:0:0:
264,292,63587,2,0,L|161:293,1,100,8|0,0:0|0:0,0:0:0:0:
391,204,63921,2,0,L|395:100,1,100,2|2,0:0|0:0,0:0:0:0:
169,183,64254,2,0,L|165:79,1,100,8|0,0:0|0:0,0:0:0:0:
415,307,64587,6,0,L|212:299,1,200,6|8,0:0|0:0,0:0:0:0:
335,302,65087,1,0,0:0:0:0:
184,297,65254,2,0,L|182:195,1,100,2|2,0:0|0:0,0:0:0:0:
332,142,65587,1,8,0:0:0:0:
107,84,65754,6,0,L|312:75,1,200,2|2,0:0|0:0,0:0:0:0:
186,69,66254,2,0,L|288:64,1,100,8|0,0:0|0:0,0:0:0:0:
435,143,66587,2,0,L|437:41,1,100,2|2,0:0|0:0,0:0:0:0:
286,181,66921,2,0,L|387:178,1,100,8|0,0:0|0:0,0:0:0:0:
131,325,67254,6,0,P|55:298|114:230,1,200,6|8,0:0|0:0,0:0:0:0:
231,182,67754,1,0,0:0:0:0:
381,163,67921,2,0,P|398:126|382:67,1,100,2|2,0:0|0:0,0:0:0:0:
232,60,68254,1,8,0:0:0:0:
457,289,68421,1,2,0:0:0:0:
232,293,68587,5,8,0:0:0:0:
182,290,68671,1,8,0:0:0:0:
232,293,68754,1,2,0:0:0:0:
281,297,68837,1,0,0:0:0:0:
460,172,68921,1,8,0:0:0:0:
509,175,69004,1,8,0:0:0:0:
460,172,69087,1,2,0:0:0:0:
410,170,69171,1,0,0:0:0:0:
222,97,69254,6,0,L|169:92,1,50,2|2,0:0|0:0,0:0:0:0:
363,308,69421,2,0,L|414:300,1,50,2|2,0:0|0:0,0:0:0:0:
213,299,69587,2,0,L|266:293,1,50,8|8,0:0|0:0,0:0:0:0:
489,206,69754,2,0,L|439:200,1,50,8|8,0:0|0:0,0:0:0:0:
187,183,69921,6,0,L|87:171,1,100,6|0,0:0|0:0,0:0:0:0:
338,154,70254,2,0,P|354:108|338:58,1,100,8|0,0:0|0:0,0:0:0:0:
114,59,70587,1,2,0:0:0:0:
339,54,70754,2,0,L|446:51,1,100,2|8,0:0|0:0,0:0:0:0:
188,287,71087,6,0,L|85:286,1,100,2|0,0:0|0:0,0:0:0:0:
315,193,71421,2,0,L|212:198,1,100,2|8,0:0|0:0,0:0:0:0:
65,140,71754,2,0,L|60:37,1,100,0|2,0:0|0:0,0:0:0:0:
287,34,72087,2,0,L|389:34,1,100,2|8,0:0|0:0,0:0:0:0:
162,166,72421,1,0,0:0:0:0:
414,294,72587,6,0,L|416:193,1,100,6|0,0:0|0:0,0:0:0:0:
188,179,72921,1,8,0:0:0:0:
416,195,73087,2,0,L|313:191,1,100,0|2,0:0|0:0,0:0:0:0:
89,87,73421,2,0,L|194:82,1,100,2|8,0:0|0:0,0:0:0:0:
441,185,73754,6,0,L|241:180,1,200,2|2,0:0|0:0,0:0:0:0:
467,71,74254,2,0,L|360:66,1,100,8|0,0:0|0:0,0:0:0:0:
214,64,74587,1,2,0:0:0:0:
368,68,74754,1,2,0:0:0:0:
142,227,74921,1,8,0:0:0:0:
366,240,75087,1,2,0:0:0:0:
110,314,75254,6,0,L|211:302,1,100,6|0,0:0|0:0,0:0:0:0:
435,200,75587,2,0,L|433:96,1,100,8|0,0:0|0:0,0:0:0:0:
205,82,75921,2,0,L|105:84,1,100,2|2,0:0|0:0,0:0:0:0:
331,167,76254,1,8,0:0:0:0:
106,197,76421,6,0,L|212:193,2,100,2|0|2,0:0|0:0|0:0,0:0:0:0:
331,190,76921,2,0,L|334:87,1,100,8|0,0:0|0:0,0:0:0:0:
84,69,77254,2,0,L|185:59,1,100,2|2,0:0|0:0,0:0:0:0:
432,252,77587,2,0,L|328:244,1,100,8|8,0:0|0:0,0:0:0:0:
281,241,77837,1,0,0:0:0:0:
55,236,77921,6,0,L|59:132,1,100,6|0,0:0|0:0,0:0:0:0:
208,125,78254,2,0,L|205:25,1,100,8|0,0:0|0:0,0:0:0:0:
355,26,78587,2,0,L|358:126,1,100,2|2,0:0|0:0,0:0:0:0:
206,127,78921,1,8,0:0:0:0:
355,126,79087,1,2,0:0:0:0:
127,233,79254,6,0,L|231:228,1,100,0|2,0:0|0:0,0:0:0:0:
377,227,79587,1,8,0:0:0:0:
226,228,79754,2,0,L|229:120,1,100,0|2,0:0|0:0,0:0:0:0:
377,107,80087,1,2,0:0:0:0:
152,127,80254,2,0,L|50:114,1,100,8|0,0:0|0:0,0:0:0:0:
304,37,80587,6,0,L|205:35,1,100,6|0,0:0|0:0,0:0:0:0:
431,137,80921,1,8,0:0:0:0:
182,213,81087,2,0,L|287:208,1,100,6|0,0:0|0:0,0:0:0:0:
55,191,81421,1,8,0:0:0:0:
305,281,81587,6,0,L|203:273,1,100,6|0,0:0|0:0,0:0:0:0:
431,210,81921,1,8,0:0:0:0:
180,196,82087,2,0,L|177:92,1,100,6|0,0:0|0:0,0:0:0:0:
432,166,82421,1,8,0:0:0:0:
181,182,82587,2,0,L|230:160,1,50,2|0,0:0|0:0,0:0:0:0:
404,295,82754,2,0,L|349:279,1,50,2|0,0:0|0:0,0:0:0:0:
167,256,82921,2,0,L|219:247,1,50,2|2,0:0|0:0,0:0:0:0:
416,114,83087,2,0,L|363:108,1,50,2|2,0:0|0:0,0:0:0:0:
140,43,83254,6,0,L|38:43,1,100,6|0,0:0|0:0,0:0:0:0:
191,137,83587,2,0,L|292:138,1,100,8|0,0:0|0:0,0:0:0:0:
139,153,83921,1,2,0:0:0:0:
288,154,84087,1,2,0:0:0:0:
139,153,84254,1,8,0:0:0:0:
387,270,84421,6,0,L|182:253,1,200,2|2,0:0|0:0,0:0:0:0:
342,216,84921,2,0,L|344:114,1,100,8|0,0:0|0:0,0:0:0:0:
192,112,85254,1,2,0:0:0:0:
343,116,85421,1,2,0:0:0:0:
119,272,85587,2,0,L|115:169,1,100,8|0,0:0|0:0,0:0:0:0:
368,167,85921,5,8,0:0:0:0:
219,170,86087,1,2,0:0:0:0:
368,167,86254,1,2,0:0:0:0:
142,167,86421,1,8,0:0:0:0:
291,170,86587,1,2,0:0:0:0:
142,167,86754,1,2,0:0:0:0:
367,314,86921,2,0,L|472:309,1,100,8|2,0:0|0:0,0:0:0:0:
240,215,87254,6,0,L|190:204,1,50,8|0,0:0|0:0,0:0:0:0:
369,174,87421,1,2,0:0:0:0:
418,171,87504,1,0,0:0:0:0:
231,107,87587,1,8,0:0:0:0:
182,106,87671,1,0,0:0:0:0:
231,107,87754,2,0,L|280:103,1,50,2|0,0:0|0:0,0:0:0:0:
482,64,87921,6,0,L|430:57,1,50,8|0,0:0|0:0,0:0:0:0:
232,38,88087,2,0,L|182:34,1,50,8|0,0:0|0:0,0:0:0:0:
397,208,88254,2,0,L|345:200,1,50,8|0,0:0|0:0,0:0:0:0:
120,220,88421,6,0,L|68:215,1,50,8|0,0:0|0:0,0:0:0:0:
256,192,88671,12,0,89921,0:0:0:0:
