osu file format v14

[General]
AudioFilename: audio.mp3
AudioLeadIn: 0
PreviewTime: 48337
Countdown: 0
SampleSet: Soft
StackLeniency: 0.7
Mode: 2
LetterboxInBreaks: 0
WidescreenStoryboard: 1

[Editor]
DistanceSpacing: 1
BeatDivisor: 4
GridSize: 4
TimelineZoom: 1.6

[Metadata]
Title:ideal white (TV Size)
TitleUnicode:ideal white (TV Size)
Artist:Ayano Mashiro
ArtistUnicode:綾野ましろ
Creator:Nakano Ichika
Version:Cup
Source:Fate/stay night [Unlimited Blade Works]
Tags:ubw type moon ufotable zero hollow ataraxia archer tohsaka rin emiya shirou japanese anime rock jrock j-rock female vocals vocal [UBW] fsn season op opening one 1 エミヤ 衛宮士郎 遠坂凛 Carlos K. Toshi-Fj TYPE-MOON タイプムーン asuna meg アニメ Tosaka Tousaka Early Days White Place -[ Asuna ]- -[_Asuna_]-
BeatmapID:3729222
BeatmapSetID:1816676

[Difficulty]
HPDrainRate:2
CircleSize:2.5
OverallDifficulty:6
ApproachRate:6
SliderMultiplier:1.2
SliderTickRate:1

[Events]
//Background and Video events
0,0,"ubw.jpg",0,0
//Break Periods
//Storyboard Layer 0 (Background)
//Storyboard Layer 1 (Fail)
//Storyboard Layer 2 (Pass)
//Storyboard Layer 3 (Foreground)
//Storyboard Layer 4 (Overlay)
//Storyboard Sound Samples

[TimingPoints]
588,333.333333333333,4,2,1,50,1,0
32587,-100,4,2,2,50,0,0
43254,-100,4,2,1,50,0,0
47254,-100,4,2,1,30,0,0
47921,-100,4,2,1,20,0,0
48421,-100,4,2,1,45,0,0
48587,-100,4,2,1,75,0,1
83254,-100,4,2,1,55,0,0
88587,-100,4,2,1,25,0,0
89921,-100,4,2,0,15,0,0

[Colours]
Combo1 : 205,31,31
Combo2 : 134,54,23
Combo3 : 173,152,137

[HitObjects]
376,262,588,5,6,0:0:0:0:
376,262,921,1,0,0:0:0:0:
376,262,1254,1,2,0:0:0:0:
376,262,1587,1,0,0:0:0:0:
376,262,1921,5,2,0:0:0:0:
376,262,2254,1,0,0:0:0:0:
256,260,2587,1,2,0:0:0:0:
376,262,2921,1,0,0:0:0:0:
232,262,3254,5,6,0:0:0:0:
232,262,3587,1,0,0:0:0:0:
232,262,3921,1,2,0:0:0:0:
232,262,4254,1,0,0:0:0:0:
88,262,4587,5,6,0:0:0:0:
88,262,4921,1,0,0:0:0:0:
207,262,5254,1,2,0:0:0:0:
88,262,5587,1,2,0:0:0:0:
234,208,5921,5,6,0:0:0:0:
234,208,6254,1,0,0:0:0:0:
115,206,6587,1,2,0:0:0:0:
113,208,6921,1,0,0:0:0:0:
234,208,7254,5,2,0:0:0:0:
234,208,7587,1,0,0:0:0:0:
354,212,7921,1,2,0:0:0:0:
354,212,8254,1,0,0:0:0:0:
208,208,8587,5,6,0:0:0:0:
208,208,8754,1,2,0:0:0:0:
327,209,9087,1,2,0:0:0:0:
208,208,9421,1,2,0:0:0:0:
88,207,9754,6,0,L|89:77,1,120,10|10,0:0|0:0,0:0:0:0:
209,83,10421,2,0,L|392:83,1,180,2|8,0:0|0:0,0:0:0:0:
245,194,11254,5,6,0:0:0:0:
245,194,11587,1,2,0:0:0:0:
126,193,11921,1,2,0:0:0:0:
245,192,12254,2,0,L|314:195,2,60,2|0|2,0:0|0:0|0:0,0:0:0:0:
126,193,12921,5,2,0:0:0:0:
245,194,13254,1,2,0:0:0:0:
245,194,13587,1,2,0:0:0:0:
101,91,13921,5,6,0:0:0:0:
101,91,14254,1,2,0:0:0:0:
221,91,14587,1,2,0:0:0:0:
341,95,14921,2,0,L|406:98,2,60,2|0|2,0:0|0:0|0:0,0:0:0:0:
221,91,15587,5,2,0:0:0:0:
341,95,15921,1,2,0:0:0:0:
221,91,16254,1,2,0:0:0:0:
365,220,16587,5,6,0:0:0:0:
365,220,16921,1,2,0:0:0:0:
245,218,17254,1,2,0:0:0:0:
365,220,17587,2,0,L|429:221,2,60,2|0|2,0:0|0:0|0:0,0:0:0:0:
245,218,18254,5,2,0:0:0:0:
125,226,18587,1,2,0:0:0:0:
245,218,18921,1,2,0:0:0:0:
391,143,19254,5,6,0:0:0:0:
391,143,19587,1,2,0:0:0:0:
270,141,19921,1,2,0:0:0:0:
391,143,20254,1,2,0:0:0:0:
246,70,20587,5,6,0:0:0:0:
246,70,20921,1,2,0:0:0:0:
126,71,21254,1,2,0:0:0:0:
245,72,21587,1,2,0:0:0:0:
98,164,21921,6,0,L|98:228,1,60,6|2,0:0|0:0,0:0:0:0:
277,228,22587,1,8,0:0:0:0:
397,228,22921,2,0,L|396:165,1,60,6|2,0:0|0:0,0:0:0:0:
336,159,23254,5,2,0:0:0:0:
216,163,23587,1,2,0:0:0:0:
336,159,23921,1,8,0:0:0:0:
216,163,24254,1,2,0:1:0:0:
72,155,24587,6,0,L|70:93,1,60,6|2,0:0|0:0,0:0:0:0:
250,95,25254,1,8,0:0:0:0:
369,94,25587,2,0,L|371:155,1,60,6|2,0:0|0:0,0:0:0:0:
310,156,25921,5,2,0:0:0:0:
190,152,26254,1,2,0:0:0:0:
70,157,26587,1,8,0:0:0:0:
190,152,26921,1,2,0:1:0:0:
334,266,27254,6,0,L|334:205,1,60,6|2,0:0|0:0,0:0:0:0:
153,199,27921,1,8,0:0:0:0:
33,204,28254,2,0,L|33:142,1,60,6|2,0:0|0:0,0:0:0:0:
92,139,28587,5,2,0:0:0:0:
213,138,28921,1,2,0:0:0:0:
93,138,29254,1,8,0:0:0:0:
213,138,29587,1,2,0:0:0:0:
357,136,29921,6,0,L|484:136,1,120,6|2,0:0|0:0,0:0:0:0:
416,138,30421,1,0,0:0:0:0:
357,138,30587,2,0,L|235:138,1,120,2|2,0:0|0:0,0:0:0:0:
93,245,31254,6,0,L|220:243,2,120,6|2|2,0:0|0:0|0:0,0:0:0:0:
213,244,32254,1,10,0:0:0:0:
357,244,32587,6,0,P|414:203|330:91,1,240,6|8,0:0|0:0,0:0:0:0:
216,86,33587,2,0,L|152:86,1,60,0|2,0:0|0:0,0:0:0:0:
95,88,33921,6,0,L|227:88,2,120,0|0|8,0:0|0:0|0:0,0:0:0:0:
215,87,34921,1,2,0:0:0:0:
359,89,35254,6,0,P|430:171|352:247,1,240,6|8,0:0|0:0,0:0:0:0:
232,249,36254,2,0,L|167:249,1,60,0|2,0:0|0:0,0:0:0:0:
232,249,36587,6,0,L|366:247,2,120,0|0|8,0:0|0:0|0:0,0:0:0:0:
111,248,37587,1,0,0:0:0:0:
255,171,37921,6,0,L|495:171,1,240,6|8,0:0|0:0,0:0:0:0:
374,171,38921,2,0,L|310:170,1,60,0|2,0:0|0:0,0:0:0:0:
253,167,39254,6,0,L|128:169,2,120,0|0|8,0:0|0:0|0:0,0:0:0:0:
373,164,40254,1,2,0:0:0:0:
229,64,40587,6,0,P|154:106|235:204,1,240,6|8,0:0|0:0,0:0:0:0:
286,206,41421,1,0,0:0:0:0:
346,205,41587,1,0,0:0:0:0:
202,295,41921,6,0,P|89:271|99:162,1,240,0|8,0:0|0:0,0:0:0:0:
214,157,42921,1,8,0:0:0:0:
358,77,43254,6,0,L|233:66,1,120,6|8,0:0|0:0,0:0:0:0:
117,306,43921,2,0,L|242:317,1,120,2|8,0:0|0:0,0:0:0:0:
296,320,44421,1,0,0:0:0:0:
355,313,44587,6,0,L|360:187,1,120,2|8,0:0|0:0,0:0:0:0:
242,166,45254,2,0,L|119:157,1,120,2|8,0:0|0:0,0:0:0:0:
266,84,45921,5,2,0:0:0:0:
266,84,46087,1,2,0:0:0:0:
146,98,46421,1,2,0:0:0:0:
146,98,46587,1,2,0:0:0:0:
264,120,46921,1,2,0:0:0:0:
323,120,47087,5,2,0:0:0:0:
256,192,47421,12,0,48254,0:0:0:0:
203,147,48587,6,0,L|328:138,1,120,6|8,0:0|0:0,0:0:0:0:
383,131,49087,2,0,L|259:130,2,120,0|2|2,0:0|0:0|0:0,0:0:0:0:
503,132,50087,5,10,0:0:0:0:
383,131,50421,1,0,0:0:0:0:
263,128,50754,2,0,L|137:127,1,120,10|0,0:0|0:0,0:0:0:0:
71,125,51254,6,0,L|195:123,1,120,2|8,0:0|0:0,0:0:0:0:
251,122,51754,2,0,L|378:125,2,120,0|2|10,0:0|0:0|0:0,0:0:0:0:
131,130,52754,6,0,L|127:193,1,60,2|8,0:0|0:0,0:0:0:0:
244,217,53254,2,0,L|319:214,2,60,2|2|8,0:0|0:0|0:0,0:0:0:0:
100,306,53921,6,0,L|95:185,1,120,6|8,0:0|0:0,0:0:0:0:
155,184,54421,2,0,L|293:186,2,120,0|2|10,0:0|0:0|0:0,0:0:0:0:
275,185,55421,5,2,0:0:0:0:
394,184,55754,1,8,0:0:0:0:
275,185,56087,2,0,L|272:121,1,60,2|8,0:0|0:0,0:0:0:0:
415,81,56587,6,0,L|294:75,1,120,2|8,0:0|0:0,0:0:0:0:
235,71,57087,1,0,0:0:0:0:
175,66,57254,1,2,0:0:0:0:
294,71,57587,1,8,0:0:0:0:
175,66,57921,6,0,L|300:72,1,120,0|8,0:0|0:0,0:0:0:0:
354,77,58421,1,0,0:0:0:0:
413,84,58587,1,2,0:0:0:0:
293,96,58921,1,8,0:0:0:0:
149,235,59254,6,0,L|28:229,1,120,6|8,0:0|0:0,0:0:0:0:
89,228,59754,2,0,L|208:230,1,120,0|2,0:0|0:0,0:0:0:0:
268,233,60254,1,8,0:0:0:0:
388,199,60587,6,0,L|265:194,1,120,0|8,0:0|0:0,0:0:0:0:
208,188,61087,2,0,L|332:190,1,120,0|2,0:0|0:0,0:0:0:0:
388,188,61587,1,8,0:0:0:0:
244,104,61921,6,0,L|117:98,1,120,2|8,0:0|0:0,0:0:0:0:
184,98,62421,2,0,L|310:99,1,120,0|2,0:0|0:0,0:0:0:0:
243,100,62921,1,8,0:0:0:0:
122,216,63254,6,0,L|1:215,2,120,0|8|2,0:0|0:0|0:0,0:0:0:0:
242,216,64254,1,8,0:0:0:0:
385,219,64587,6,0,P|433:180|337:86,1,240,6|2,0:0|0:0,0:0:0:0:
218,107,65587,2,0,L|220:169,1,60,8|2,0:0|0:0,0:0:0:0:
336,195,66087,6,0,L|398:195,1,60,2|8,0:0|0:0,0:0:0:0:
275,198,66587,2,0,L|213:197,1,60,2|2,0:0|0:0,0:0:0:0:
154,199,66921,1,8,0:0:0:0:
297,88,67254,6,0,P|409:111|450:218,1,240,6|2,0:0|0:0,0:0:0:0:
330,218,68254,1,8,0:0:0:0:
186,223,68587,6,0,L|117:224,2,60,8|2|8,0:0|0:0|0:0,0:0:0:0:
305,232,69254,2,0,L|364:233,2,60,2|2|8,0:0|0:0|0:0,0:0:0:0:
162,301,69921,6,0,L|39:291,2,120,6|8|2,0:0|0:0|0:0,0:0:0:0:
222,299,70754,2,0,L|356:286,1,120,2|2,0:0|0:0,0:0:0:0:
459,265,71421,5,10,0:0:0:0:
340,248,71754,1,0,0:0:0:0:
221,233,72087,1,10,0:0:0:0:
340,221,72421,1,0,0:0:0:0:
412,216,72587,6,0,L|417:95,1,120,6|8,0:0|0:0,0:0:0:0:
356,96,73087,2,0,L|225:96,2,120,0|2|10,0:0|0:0|0:0,0:0:0:0:
239,126,74087,6,0,L|174:122,1,60,2|8,0:0|0:0,0:0:0:0:
64,157,74587,2,0,L|3:160,2,60,2|2|8,0:0|0:0|0:0,0:0:0:0:
208,241,75254,6,0,L|332:226,1,120,6|8,0:0|0:0,0:0:0:0:
446,214,75921,2,0,L|321:207,1,120,2|8,0:0|0:0,0:0:0:0:
266,201,76421,6,0,L|396:196,1,120,2|2,0:0|0:0,0:0:0:0:
445,193,76921,1,8,0:0:0:0:
325,183,77254,1,2,0:0:0:0:
441,154,77587,1,8,0:0:0:0:
298,142,77921,6,0,L|177:136,1,120,6|8,0:0|0:0,0:0:0:0:
58,128,78587,2,0,L|187:120,1,120,2|8,0:0|0:0,0:0:0:0:
298,74,79254,6,0,L|490:74,2,180,0|0|8,0:0|0:0|0:0,0:0:0:0:
154,72,80587,6,0,L|31:81,1,120,6|8,0:0|0:0,0:0:0:0:
93,90,81087,2,0,L|219:99,1,120,6|8,0:0|0:0,0:0:0:0:
272,104,81587,1,6,0:0:0:0:
151,109,81921,5,8,0:0:0:0:
92,114,82087,2,0,P|62:154|95:216,1,120,6|8,0:0|0:0,0:0:0:0:
148,214,82587,2,0,L|280:212,1,120,2|2,0:0|0:0,0:0:0:0:
411,210,83254,6,0,L|415:88,1,120,6|8,0:0|0:0,0:0:0:0:
294,83,83921,2,0,L|225:83,2,60,2|2|8,0:0|0:0|0:0,0:0:0:0:
354,83,84421,6,0,P|384:136|348:188,1,120,2|2,0:0|0:0,0:0:0:0:
297,184,84921,1,8,0:0:0:0:
177,189,85254,2,0,L|111:195,2,60,2|2|8,0:0|0:0|0:0,0:0:0:0:
321,279,85921,6,0,L|444:270,1,120,8|2,0:0|0:0,0:0:0:0:
380,263,86421,2,0,L|255:255,1,120,8|2,0:0|0:0,0:0:0:0:
200,249,86921,1,8,0:0:0:0:
344,159,87254,6,0,L|415:157,2,60,8|2|8,0:0|0:0|0:0,0:0:0:0:
229,196,87921,2,0,L|161:199,2,60,8|8|8,0:0|0:0|0:0,0:0:0:0:
301,193,88421,5,8,0:0:0:0:
256,192,88671,12,0,89921,0:0:0:0:
