osu file format v14

[General]
AudioFilename: optc.ogg
AudioLeadIn: 0
PreviewTime: 45778
Countdown: 0
SampleSet: Soft
StackLeniency: 0.7
Mode: 0
LetterboxInBreaks: 0
WidescreenStoryboard: 0

[Editor]
Bookmarks: 2112,9223,16334,30556,37667,46556,60778,75000,83889
DistanceSpacing: 1.8
BeatDivisor: 8
GridSize: 4
TimelineZoom: 2.999999

[Metadata]
Title:Shoudou (TV Size)
TitleUnicode:衝動 (TV Size)
Artist:Ayano Mashiro
ArtistUnicode:綾野ましろ
Creator:Shad0w1and
Version:Sentaku
Source:グランクレスト戦記
Tags:Grancrest Senki Record of War pop ed Japanese Anime Ending Hazu- Left Andrea osuplayer111 pappl_e_104 papple papple104
BeatmapID:1916167
BeatmapSetID:895595

[Difficulty]
HPDrainRate:6
CircleSize:4.2
OverallDifficulty:8.4
ApproachRate:9.5
SliderMultiplier:1.8
SliderTickRate:1

[Events]
//Background and Video events
0,0,"BG.jpg",0,0
Video,0,"optc.flv"
//Break Periods
//Storyboard Layer 0 (Background)
//Storyboard Layer 1 (Fail)
//Storyboard Layer 2 (Pass)
//Storyboard Layer 3 (Foreground)
//Storyboard Layer 4 (Overlay)
//Storyboard Sound Samples

[TimingPoints]
2112,444.444444444444,4,2,1,40,1,0
7445,-100,4,2,1,50,0,0
7889,-100,4,2,1,60,0,0
8334,-100,4,2,1,70,0,0
8778,-100,4,2,1,80,0,0
8834,-100,4,2,1,50,0,0
9223,-80,4,2,1,90,0,0
16334,-100,4,2,1,50,0,0
30556,-133.333333333333,4,2,1,70,0,0
41223,-66.6666666666667,4,2,1,80,0,0
46556,-66.6666666666667,4,2,1,100,0,1
83111,-100,4,2,1,90,0,1
83445,-66.6666666666667,4,2,1,90,0,1
83889,-133.333333333333,4,2,1,90,0,0

[Colours]
Combo1 : 255,221,119
Combo2 : 220,220,220
Combo3 : 108,174,255
Combo4 : 248,133,150

[HitObjects]
63,126,2112,6,0,L|78:175,2,45,2|0|0,0:0|0:0|0:0,0:0:0:0:
140,51,2445,2,0,L|155:100,2,45,2|0|0,0:0|0:0|0:0,0:0:0:0:
180,193,2778,2,0,L|280:193,1,90,2|0,0:0|0:0,0:0:0:0:
270,193,3223,2,0,B|234:222|234:222|217:284,1,90
106,265,3556,2,0,B|94:307|94:307|58:336,1,90
297,126,3889,6,0,L|247:114,2,45,2|0|0,0:0|0:0|0:0,0:0:0:0:
323,230,4222,2,0,L|273:218,2,45,2|0|0,0:0|0:0|0:0,0:0:0:0:
180,193,4555,2,0,L|130:279,1,90,2|0,0:0|0:0,0:0:0:0:
135,271,5000,2,0,B|127:225|127:225|82:179,1,90
155,93,5333,2,0,B|124:61|124:61|117:15,1,90
181,328,5667,6,0,L|215:290,2,45,2|0|0,0:0|0:0|0:0,0:0:0:0:
77,298,6000,2,0,L|111:260,2,45,2|0|0,0:0|0:0|0:0,0:0:0:0:
180,193,6333,2,0,L|130:106,1,90,2|0,0:0|0:0,0:0:0:0:
135,115,6778,2,0,B|178:131|178:131|240:115,1,90
279,221,7111,2,0,B|321:210|321:210|364:227,1,90
180,283,7445,6,0,L|180:181,1,90,2|0,0:0|0:0,0:0:0:0:
180,193,7778,1,0,0:0:0:0:
136,367,7889,1,2,0:0:0:0:
225,366,8000,2,0,B|179:375|179:375|136:366,1,90
279,221,8334,2,0,P|314:251|320:303,1,90,2|0,0:0|0:0,0:0:0:0:
322,292,8667,1,0,0:0:0:0:
404,184,8778,6,0,L|404:153,6,22.5,2|0|0|0|0|0|0,0:0|0:0|0:0|0:0|0:0|0:0|0:0,0:0:0:0:
458,70,9223,6,0,B|400:59|400:59|347:68,1,112.5,14|4,0:3|0:1,0:0:0:0:
458,70,9556,2,0,L|458:12,1,56.25,2|8,0:0|0:1,0:0:0:0:
404,161,9778,1,4,0:1:0:0:
509,309,9889,6,0,P|523:255|504:204,3,112.5,2|8|0|0,0:0|0:0|0:0|0:0,0:0:0:0:
308,263,10778,1,8,0:1:0:0:
308,263,11000,6,0,L|453:263,1,112.5,6|4,0:3|0:1,0:0:0:0:
251,263,11334,2,0,L|326:263,1,56.25,2|8,0:0|0:1,0:0:0:0:
162,190,11556,1,4,0:1:0:0:
0,179,11667,6,0,P|16:222|93:247,3,112.5,2|8|0|0,0:0|0:0|0:0|0:0,0:0:0:0:
161,81,12556,1,8,0:1:0:0:
161,81,12778,6,0,B|146:136|146:136|166:203,1,112.5,6|4,0:3|0:1,0:0:0:0:
161,81,13111,2,0,L|84:81,1,56.25,2|8,0:0|0:1,0:0:0:0:
261,138,13334,1,4,0:1:0:0:
443,71,13445,6,0,B|391:52|391:52|332:52,3,112.5,2|8|0|0,0:0|0:0|0:0|0:0,0:0:0:0:
264,244,14334,1,8,0:1:0:0:
264,244,14556,6,0,L|289:176,1,56.25,14|0,0:3|0:0,0:0:0:0:
315,105,14778,2,0,L|340:37,1,56.25,8|0,0:0|0:0,0:0:0:0:
351,266,15000,5,8,0:1:0:0:
283,191,15111,1,4,0:1:0:0:
215,115,15223,1,8,0:1:0:0:
326,75,15445,5,4,0:1:0:0:
283,191,15556,1,4,0:1:0:0:
239,308,15667,1,8,0:1:0:0:
215,115,15889,5,8,0:0:0:0:
264,244,16000,1,8,0:1:0:0:
315,105,16111,1,8,0:0:0:0:
182,211,16223,1,8,0:0:0:0:
263,333,16334,6,0,L|264:232,1,90,14|0,0:3|0:0,0:0:0:0:
421,334,16667,2,0,P|394:369|352:384,1,90
263,243,17000,2,0,L|454:244,1,180,2|0,0:0|0:0,0:0:0:0:
263,243,17667,2,0,P|225:205|219:140,1,90,8|0,0:0|0:0,0:0:0:0:
313,154,18111,5,10,0:3:0:0:
357,132,18223,1,0,0:0:0:0:
402,111,18334,1,0,0:0:0:0:
215,171,18556,1,2,0:0:0:0:
242,129,18668,1,0,0:0:0:0:
270,89,18779,1,0,0:0:0:0:
138,234,19000,1,2,0:0:0:0:
141,184,19112,1,0,0:0:0:0:
145,136,19223,1,8,0:3:0:0:
15,331,19445,6,0,P|57:345|100:335,1,90,8|0,0:0|0:0,0:0:0:0:
215,171,19889,6,0,L|202:327,1,135,10|0,0:3|0:0,0:0:0:0:
203,305,20334,1,0,0:0:0:0:
313,154,20556,2,0,L|300:-2,1,135,2|0,0:0|0:0,0:0:0:0:
301,20,21001,1,0,0:0:0:0:
490,218,21223,2,0,P|445:228|400:218,1,90,8|0,0:0|0:0,0:0:0:0:
215,171,21667,6,0,P|168:161|103:182,2,90,10|0|0,0:3|0:0|0:0,0:0:0:0:
74,356,22334,2,0,L|60:237,1,90,10|0,0:3|0:0,0:0:0:0:
196,62,22778,1,8,0:3:0:0:
170,277,23000,1,8,0:0:0:0:
60,113,23223,1,8,0:3:0:0:
294,254,23445,6,0,L|276:363,1,90,14|0,0:3|0:0,0:0:0:0:
128,168,23778,2,0,P|172:159|217:172,1,90
63,266,24111,2,0,B|23:157|23:157|70:79,1,180,2|0,0:0|0:0,0:0:0:0:
170,277,24778,2,0,P|153:326|143:381,1,90,8|0,0:0|0:0,0:0:0:0:
403,287,25223,5,10,0:3:0:0:
372,247,25334,1,0,0:0:0:0:
342,208,25445,1,0,0:0:0:0:
170,277,25667,1,2,0:0:0:0:
220,271,25778,1,0,0:0:0:0:
269,264,25889,1,0,0:0:0:0:
294,82,26111,1,2,0:0:0:0:
275,128,26222,1,0,0:0:0:0:
256,174,26333,1,8,0:3:0:0:
193,0,26556,5,8,0:0:0:0:
193,0,26778,1,0,0:0:0:0:
165,41,26889,1,0,0:0:0:0:
122,66,27000,6,0,P|67:54|27:43,1,90,10|0,0:3|0:0,0:0:0:0:
65,248,27334,2,0,P|94:213|107:171,1,90
230,241,27667,2,0,B|176:278|176:278|26:237,1,180,2|0,0:0|0:0,0:0:0:0:
159,76,28334,2,0,P|166:133|130:188,1,90,8|0,0:0|0:0,0:0:0:0:
34,45,28778,6,0,P|119:38|215:27,1,180,10|0,0:3|0:0,0:0:0:0:
462,128,29445,2,0,L|283:118,1,180,2|0,0:0|0:0,0:0:0:0:
66,248,30111,1,8,0:0:0:0:
342,208,30334,1,8,0:3:0:0:
63,116,30556,5,14,0:3:0:0:
63,116,31000,2,0,P|38:88|23:43,1,67.5000025749208,2|0,0:0|0:0,0:0:0:0:
29,173,31334,2,0,P|48:148|65:108,1,67.5000025749208
66,248,31667,2,0,P|132:241|209:242,1,135.000005149842,2|0,0:0|0:0,0:0:0:0:
358,55,32334,5,8,0:3:0:0:
358,55,32778,1,2,0:0:0:0:
262,137,33000,2,0,P|242:110|231:79,1,67.5000025749208
463,247,33445,1,10,0:3:0:0:
200,241,33667,1,8,0:0:0:0:
461,127,33889,1,8,0:3:0:0:
403,347,34111,6,0,P|325:337|260:338,1,135.000005149842,10|0,0:3|0:0,0:0:0:0:
426,184,34778,2,0,P|449:155|462:121,1,67.5000025749208,2|0,0:0|0:0,0:0:0:0:
366,291,35223,2,0,P|376:315|409:351,2,67.5000025749208
262,137,35889,5,10,0:3:0:0:
237,124,36000,1,0,0:0:0:0:
211,120,36111,1,0,0:0:0:0:
185,121,36222,1,0,0:0:0:0:
158,129,36334,2,0,L|119:153,3,33.7500012874604
200,241,36778,5,0,0:0:0:0:
198,274,36889,1,0,0:0:0:0:
197,307,37000,1,8,0:3:0:0:
347,100,37223,1,8,0:0:0:0:
26,60,37445,1,8,0:3:0:0:
197,307,37667,6,0,P|259:303|346:315,1,135.000005149842,14|0,0:3|0:0,0:0:0:0:
312,44,38334,2,0,P|324:73|366:113,1,67.5000025749208,10|0,0:3|0:0,0:0:0:0:
129,146,38778,2,0,P|171:161|215:171,1,67.5000025749208,0|8,0:0|0:0,0:0:0:0:
331,311,39223,1,0,0:0:0:0:
66,248,39445,5,14,0:3:0:0:
347,100,39667,1,0,0:0:0:0:
26,60,39889,1,0,0:0:0:0:
331,311,40111,1,10,0:3:0:0:
331,311,40556,5,8,0:3:0:0:
193,166,40778,2,0,P|152:153|119:149,1,67.5000025749208,8|0,0:0|0:0,0:0:0:0:
66,248,41111,1,0,0:0:0:0:
323,216,41223,6,0,P|319:168|293:85,1,135.000005149842,14|0,0:3|0:0,0:0:0:0:
6,72,41667,1,8,0:0:0:0:
66,248,41889,2,0,P|131:245|236:249,1,135.000005149842,10|8,0:1|0:0,0:0:0:0:
201,246,42223,1,0,0:0:0:0:
7,140,42334,2,0,L|6:55,1,67.5000025749208,8|0,0:1|0:0,0:0:0:0:
307,317,42556,2,0,L|305:388,1,67.5000025749208,8|0,0:1|0:0,0:0:0:0:
62,383,42778,6,0,L|67:199,1,135.000005149842,14|0,0:3|0:0,0:0:0:0:
66,248,43111,1,0,0:0:0:0:
203,179,43223,2,0,L|201:253,1,67.5000025749208,8|0,0:1|0:0,0:0:0:0:
306,384,43445,2,0,L|308:295,1,67.5000025749208,8|0,0:1|0:0,0:0:0:0:
98,240,43667,5,4,0:1:0:0:
169,349,43778,1,8,0:3:0:0:
264,159,43889,1,4,0:1:0:0:
201,246,44000,1,8,0:1:0:0:
89,49,44111,5,4,0:1:0:0:
160,158,44223,1,8,0:1:0:0:
281,72,44334,1,4,0:1:0:0:
201,246,44445,1,8,0:3:0:0:
186,62,44556,5,4,0:1:0:0:
323,216,44667,1,8,0:3:0:0:
193,158,44778,6,0,L|141:158,7,33.7500012874604,14|0|0|0|0|0|0|0,0:0|0:0|0:0|0:0|0:0|0:0|0:0|0:0,0:0:0:0:
296,111,45223,6,0,L|281:96,16,16.8750006437302,2|0|0|0|0|0|0|0|0|0|0|0|0|0|0|0|0,0:0|0:0|0:0|0:0|0:0|0:0|0:0|0:0|0:0|0:0|0:0|0:0|0:0|0:0|0:0|0:0|0:0,0:0:0:0:
296,111,46556,6,0,P|219:105|144:83,1,135.000005149842,14|0,0:3|0:0,0:0:0:0:
163,90,46889,1,4,0:1:0:0:
199,254,47000,2,0,P|228:231|262:181,1,67.5000025749208,8|0,0:1|0:0,0:0:0:0:
71,167,47223,6,0,P|86:231|99:313,1,135.000005149842,10|8,0:0|0:1,0:0:0:0:
71,167,47556,1,4,0:1:0:0:
173,23,47667,2,0,P|168:50|162:108,1,67.5000025749208,8|0,0:1|0:0,0:0:0:0:
307,178,47889,6,0,P|301:135|293:92,1,67.5000025749208,10|0,0:0|0:0,0:0:0:0:
199,254,48111,1,8,0:1:0:0:
307,178,48223,1,4,0:1:0:0:
163,90,48334,6,0,P|89:119|71:167,1,135.000005149842,10|0,0:3|0:0,0:0:0:0:
307,178,48667,1,4,0:1:0:0:
292,243,48778,2,0,P|297:210|312:165,1,67.5000025749208,8|0,0:1|0:0,0:0:0:0:
364,339,49000,6,0,L|224:340,1,135.000005149842,10|8,0:0|0:1,0:0:0:0:
364,339,49334,1,4,0:1:0:0:
199,254,49445,1,8,0:1:0:0:
387,248,49556,1,0,0:0:0:0:
199,146,49667,6,0,P|132:165|55:174,1,135.000005149842,10|8,0:0|0:1,0:0:0:0:
67,173,50000,1,4,0:1:0:0:
326,44,50111,6,0,P|310:120|306:183,1,135.000005149842,10|0,0:3|0:0,0:0:0:0:
306,177,50445,1,4,0:1:0:0:
447,151,50556,2,0,P|487:140|540:128,1,67.5000025749208,8|0,0:1|0:0,0:0:0:0:
460,329,50778,6,0,P|448:265|384:248,1,135.000005149842,10|8,0:0|0:1,0:0:0:0:
229,340,51111,1,4,0:1:0:0:
67,173,51223,2,0,P|25:165|-6:162,1,67.5000025749208,8|0,0:1|0:0,0:0:0:0:
97,299,51445,6,0,P|122:282|161:252,1,67.5000025749208,10|0,0:0|0:0,0:0:0:0:
195,81,51667,1,8,0:1:0:0:
67,173,51778,1,4,0:1:0:0:
307,178,51889,6,0,L|439:147,1,135.000005149842,10|0,0:3|0:0,0:0:0:0:
199,254,52223,1,4,0:1:0:0:
67,173,52334,2,0,L|149:154,1,67.5000025749208,8|0,0:1|0:0,0:0:0:0:
31,314,52556,2,0,L|105:297,1,67.5000025749208,10|0,0:0|0:0,0:0:0:0:
307,178,52778,5,8,0:1:0:0:
229,340,52889,1,4,0:1:0:0:
132,157,53000,2,0,P|141:124|155:93,1,67.5000025749208,8|0,0:1|0:0,0:0:0:0:
344,275,53223,2,0,P|355:306|364:339,1,67.5000025749208,10|0,0:0|0:0,0:0:0:0:
97,299,53445,1,8,0:1:0:0:
307,178,53556,1,4,0:1:0:0:
229,340,53667,6,0,P|207:273|195:184,1,135.000005149842,14|0,0:3|0:0,0:0:0:0:
197,210,54000,1,4,0:1:0:0:
398,235,54111,2,0,P|361:266|319:286,1,67.5000025749208,8|0,0:1|0:0,0:0:0:0:
379,114,54334,6,0,P|434:124|518:134,1,135.000005149842,10|8,0:0|0:1,0:0:0:0:
379,114,54667,1,4,0:1:0:0:
345,275,54778,2,0,P|377:268|429:266,1,67.5000025749208,8|0,0:1|0:0,0:0:0:0:
197,210,55000,6,0,P|158:206|105:207,1,67.5000025749208,10|0,0:0|0:0,0:0:0:0:
229,340,55223,1,8,0:1:0:0:
307,178,55334,1,4,0:1:0:0:
70,104,55445,6,0,P|79:175|147:206,1,135.000005149842,10|0,0:3|0:0,0:0:0:0:
195,44,55778,1,4,0:1:0:0:
210,110,55889,2,0,P|201:74|194:27,1,67.5000025749208,8|0,0:1|0:0,0:0:0:0:
117,272,56111,2,0,P|125:235|132:189,1,67.5000025749208,10|0,0:0|0:0,0:0:0:0:
229,340,56334,1,8,0:1:0:0:
38,363,56445,6,0,P|21:297|0:234,1,135.000005149842,4|0,0:1|0:0,0:0:0:0:
229,340,56778,2,0,P|256:325|297:301,1,67.5000025749208,10|0,0:0|0:0,0:0:0:0:
130,205,57000,1,8,0:1:0:0:
139,384,57111,1,4,0:1:0:0:
307,178,57223,6,0,P|274:139|173:140,1,135.000005149842,14|0,0:3|0:0,0:0:0:0:
70,223,57556,1,4,0:1:0:0:
117,272,57667,2,0,P|90:247|63:214,1,67.5000025749208,8|0,0:1|0:0,0:0:0:0:
278,369,57889,6,0,P|202:381|135:384,1,135.000005149842,10|8,0:0|0:1,0:0:0:0:
345,275,58223,1,4,0:1:0:0:
402,370,58334,2,0,P|437:365|479:362,1,67.5000025749208,8|0,0:1|0:0,0:0:0:0:
228,272,58556,6,0,P|192:269|148:264,1,67.5000025749208,10|0,0:0|0:0,0:0:0:0:
431,201,58778,1,8,0:1:0:0:
194,129,58889,1,4,0:1:0:0:
447,67,59000,6,0,P|440:143|429:211,1,135.000005149842,14|0,0:3|0:0,0:0:0:0:
228,272,59334,1,4,0:1:0:0:
278,117,59445,2,0,P|289:139|313:190,1,67.5000025749208,8|0,0:1|0:0,0:0:0:0:
139,81,59667,2,0,P|146:49|165:6,1,67.5000025749208,10|0,0:0|0:0,0:0:0:0:
182,195,59889,5,8,0:3:0:0:
65,192,60000,1,4,0:1:0:0:
228,272,60111,1,8,0:1:0:0:
345,275,60223,1,4,0:1:0:0:
278,117,60334,5,10,0:0:0:0:
228,272,60445,1,4,0:1:0:0:
159,16,60556,1,4,0:1:0:0:
182,195,60667,1,4,0:1:0:0:
293,24,60778,6,0,P|186:13|142:19,1,135.000005149842,14|0,0:3|0:0,0:0:0:0:
159,15,61111,1,4,0:1:0:0:
359,159,61223,2,0,P|388:142|431:97,1,67.5000025749208,8|0,0:1|0:0,0:0:0:0:
212,138,61445,6,0,P|227:244|228:297,1,135.000005149842,10|8,0:0|0:1,0:0:0:0:
212,138,61778,1,4,0:1:0:0:
65,192,61889,2,0,P|41:164|24:131,1,67.5000025749208,8|0,0:1|0:0,0:0:0:0:
115,292,62111,6,0,P|81:297|47:298,1,67.5000025749208,10|0,0:0|0:0,0:0:0:0:
212,138,62334,1,8,0:1:0:0:
309,291,62445,1,4,0:1:0:0:
431,201,62556,6,0,P|442:138|446:40,1,135.000005149842,10|0,0:3|0:0,0:0:0:0:
299,224,62889,1,4,0:1:0:0:
309,291,63000,2,0,P|304:258|298:208,1,67.5000025749208,8|0,0:1|0:0,0:0:0:0:
115,292,63223,6,0,P|117:235|133:153,1,135.000005149842,10|8,0:0|0:1,0:0:0:0:
115,292,63556,1,4,0:1:0:0:
309,291,63667,1,8,0:1:0:0:
131,158,63778,1,0,0:0:0:0:
215,373,63889,6,0,P|291:366|360:359,1,135.000005149842,10|8,0:0|0:1,0:0:0:0:
349,360,64223,1,4,0:1:0:0:
131,158,64334,6,0,P|158:95|244:64,1,135.000005149842,10|0,0:3|0:0,0:0:0:0:
214,65,64667,1,4,0:1:0:0:
182,288,64778,2,0,L|94:292,1,67.5000025749208,8|0,0:1|0:0,0:0:0:0:
384,182,65000,6,0,L|236:188,1,135.000005149842,10|8,0:0|0:1,0:0:0:0:
309,291,65334,1,4,0:1:0:0:
280,73,65445,2,0,P|246:68|197:64,1,67.5000025749208,8|0,0:1|0:0,0:0:0:0:
309,291,65667,6,0,P|350:290|397:285,1,67.5000025749208,10|0,0:0|0:0,0:0:0:0:
249,187,65889,1,8,0:1:0:0:
162,338,66000,1,4,0:1:0:0:
10,213,66111,6,0,P|6:142|4:74,1,135.000005149842,10|0,0:3|0:0,0:0:0:0:
131,158,66445,1,4,0:1:0:0:
162,338,66556,2,0,P|173:297|181:249,1,67.5000025749208,8|0,0:1|0:0,0:0:0:0:
239,120,66778,2,0,P|247:160|263:224,1,67.5000025749208,10|0,0:0|0:0,0:0:0:0:
349,360,67000,5,8,0:1:0:0:
463,344,67111,1,4,0:1:0:0:
292,288,67223,1,8,0:1:0:0:
178,272,67334,1,4,0:1:0:0:
353,223,67445,6,0,P|407:189|429:97,1,135.000005149842,10|8,0:0|0:1,0:0:0:0:
432,125,67778,1,4,0:1:0:0:
253,186,67889,6,0,P|184:172|111:165,1,135.000005149842,14|0,0:3|0:0,0:0:0:0:
120,165,68223,1,4,0:1:0:0:
320,120,68334,2,0,P|336:90|331:27,1,67.5000025749208,8|0,0:1|0:0,0:0:0:0:
120,165,68556,6,0,P|140:237|157:323,1,135.000005149842,10|8,0:0|0:1,0:0:0:0:
120,165,68889,1,4,0:1:0:0:
252,254,69000,2,0,P|253:215|253:180,1,67.5000025749208,8|0,0:1|0:0,0:0:0:0:
32,269,69223,6,0,P|28:309|30:366,1,67.5000025749208,10|0,0:0|0:0,0:0:0:0:
152,295,69445,1,8,0:1:0:0:
3,161,69556,1,4,0:1:0:0:
253,186,69667,6,0,P|287:144|276:51,1,135.000005149842,14|0,0:3|0:0,0:0:0:0:
164,47,70000,1,4,0:1:0:0:
49,237,70111,2,0,P|8:237|-34:224,1,67.5000025749208,8|0,0:1|0:0,0:0:0:0:
136,161,70334,6,0,P|146:227|153:306,1,135.000005149842,10|8,0:0|0:1,0:0:0:0:
27,124,70667,1,4,0:1:0:0:
164,47,70778,2,0,P|127:32|86:22,1,67.5000025749208,8|0,0:1|0:0,0:0:0:0:
291,132,71000,6,0,P|291:98|286:62,1,67.5000025749208,10|0,0:0|0:0,0:0:0:0:
252,254,71223,1,8,0:1:0:0:
136,161,71334,1,4,0:1:0:0:
367,181,71445,6,0,L|347:323,1,135.000005149842,14|0,0:3|0:0,0:0:0:0:
348,314,71778,1,4,0:1:0:0:
493,198,71889,2,0,P|486:163|483:131,1,67.5000025749208,8|0,0:1|0:0,0:0:0:0:
348,314,72111,6,0,P|417:313|496:320,1,135.000005149842,10|8,0:0|0:1,0:0:0:0:
367,181,72445,1,4,0:1:0:0:
232,297,72556,2,0,P|236:332|242:371,1,67.5000025749208,8|0,0:1|0:0,0:0:0:0:
147,187,72778,6,0,P|137:219|126:272,1,67.5000025749208,10|0,0:0|0:0,0:0:0:0:
78,98,73000,1,8,0:1:0:0:
256,199,73111,1,4,0:1:0:0:
42,335,73223,6,0,P|25:267|16:191,1,135.000005149842,14|0,0:3|0:0,0:0:0:0:
175,348,73556,1,4,0:1:0:0:
326,291,73667,2,0,L|226:282,1,67.5000025749208,10|0,0:1|0:0,0:0:0:0:
147,187,73889,2,0,L|223:183,1,67.5000025749208,8|0,0:0|0:0,0:0:0:0:
375,106,74111,5,10,0:3:0:0:
223,110,74223,1,4,0:1:0:0:
371,144,74334,1,8,0:1:0:0:
218,147,74445,1,4,0:1:0:0:
367,181,74556,5,10,0:0:0:0:
214,183,74667,1,4,0:1:0:0:
74,73,74778,1,4,0:1:0:0:
227,71,74889,1,4,0:1:0:0:
50,267,75000,6,0,P|24:215|-2:135,1,135.000005149842,14|0,0:3|0:0,0:0:0:0:
147,187,75334,1,4,0:1:0:0:
230,307,75445,2,0,L|120:298,1,67.5000025749208,8|0,0:1|0:0,0:0:0:0:
364,318,75667,6,0,L|211:306,1,135.000005149842,10|8,0:0|0:1,0:0:0:0:
251,117,76000,1,4,0:1:0:0:
308,217,76111,1,8,0:1:0:0:
364,318,76223,1,4,0:1:0:0:
434,133,76334,6,0,L|334:125,1,67.5000025749208,10|0,0:0|0:0,0:0:0:0:
308,217,76556,1,8,0:1:0:0:
434,133,76667,1,4,0:1:0:0:
204,175,76778,6,0,P|220:251|234:340,1,135.000005149842,14|0,0:3|0:0,0:0:0:0:
377,61,77111,1,4,0:1:0:0:
367,128,77223,2,0,P|374:92|379:40,1,67.5000025749208,8|0,0:1|0:0,0:0:0:0:
427,234,77445,6,0,P|360:248|297:226,1,135.000005149842,10|8,0:0|0:1,0:0:0:0:
179,115,77778,1,4,0:1:0:0:
84,216,77889,2,0,L|85:302,1,67.5000025749208,8|0,0:1|0:0,0:0:0:0:
0,64,78111,6,0,L|4:150,1,67.5000025749208,10|0,0:0|0:0,0:0:0:0:
179,115,78334,1,8,0:1:0:0:
0,64,78445,1,4,0:1:0:0:
84,216,78556,6,0,P|141:202|229:194,1,135.000005149842,14|0,0:3|0:0,0:0:0:0:
462,72,78889,1,4,0:1:0:0:
434,133,79000,2,0,P|445:110|472:42,1,67.5000025749208,8|0,0:1|0:0,0:0:0:0:
303,49,79223,6,0,P|317:105|333:202,1,135.000005149842,10|8,0:0|0:1,0:0:0:0:
422,254,79556,1,4,0:1:0:0:
434,133,79667,1,8,0:1:0:0:
330,181,79778,1,4,0:1:0:0:
247,306,79889,6,0,P|279:303|329:294,1,67.5000025749208,10|0,0:0|0:0,0:0:0:0:
216,194,80111,1,8,0:1:0:0:
143,343,80223,1,4,0:1:0:0:
31,194,80334,6,0,P|50:112|115:74,1,135.000005149842,14|0,0:3|0:0,0:0:0:0:
330,181,80667,1,6,0:1:0:0:
143,343,80778,2,0,P|122:309|103:258,1,67.5000025749208,8|0,0:1|0:0,0:0:0:0:
216,193,81000,2,0,P|184:189|150:181,1,67.5000025749208,10|0,0:0|0:0,0:0:0:0:
247,306,81223,5,10,0:1:0:0:
316,132,81334,1,4,0:1:0:0:
216,194,81445,1,8,0:1:0:0:
333,216,81556,1,4,0:1:0:0:
216,71,81667,2,0,P|192:135|243:214,1,135.000005149842,10|8,0:0|0:1,0:0:0:0:
368,323,82000,1,4,0:1:0:0:
443,158,82111,6,0,B|404:132|404:132|297:132,1,135.000005149842,14|0,0:3|0:0,0:0:0:0:
89,168,82445,2,0,B|128:194|128:194|238:194,1,135.000005149842,6|0,0:1|0:0,0:0:0:0:
368,323,82778,2,0,B|329:297|329:297|202:297,1,135.000005149842,10|0,0:0|0:0,0:0:0:0:
216,194,83111,5,4,0:1:0:0:
316,133,83223,2,0,L|328:172,3,22.5,10|4|4|4,0:1|0:1|0:1|0:1,0:0:0:0:
396,163,83445,5,10,0:0:0:0:
439,152,83519,5,4,0:1:0:0:
473,110,83593,5,4,0:1:0:0:
469,47,83667,5,8,0:3:0:0:
411,4,83741,5,8,0:1:0:0:
335,32,83815,5,8,0:1:0:0:
397,84,83889,6,0,B|397:129|397:129|366:162|366:162|366:217,1,135.000005149842,10|0,0:3|0:0,0:0:0:0:
