osu file format v14

[General]
AudioFilename: optc.ogg
AudioLeadIn: 0
PreviewTime: 45778
Countdown: 0
SampleSet: Soft
StackLeniency: 0.7
Mode: 0
LetterboxInBreaks: 0
WidescreenStoryboard: 0

[Editor]
Bookmarks: 2112,9223,16334,30556,37667,46556,60778,75000,83889
DistanceSpacing: 1.1
BeatDivisor: 6
GridSize: 32
TimelineZoom: 2.999999

[Metadata]
Title:Shoudou (TV Size)
TitleUnicode:衝動 (TV Size)
Artist:Ayano Mashiro
ArtistUnicode:綾野ましろ
Creator:Shad0w1and
Version:Hazu's Hard
Source:グランクレスト戦記
Tags:Grancrest Senki Record of War pop ed Japanese Anime Ending Hazu- Left Andrea osuplayer111 pappl_e_104 papple papple104
BeatmapID:1891909
BeatmapSetID:895595

[Difficulty]
HPDrainRate:5
CircleSize:3.5
OverallDifficulty:6
ApproachRate:7.5
SliderMultiplier:1.4
SliderTickRate:1

[Events]
//Background and Video events
0,0,"BG.jpg",0,0
Video,0,"optc.flv"
//Break Periods
//Storyboard Layer 0 (Background)
//Storyboard Layer 1 (Fail)
//Storyboard Layer 2 (Pass)
//Storyboard Layer 3 (Foreground)
//Storyboard Layer 4 (Overlay)
//Storyboard Sound Samples

[TimingPoints]
2112,444.444444444444,4,2,1,40,1,0
2112,-111.111111111111,4,2,1,40,0,0
7445,-111.111111111111,4,2,1,50,0,0
7889,-111.111111111111,4,2,1,60,0,0
8334,-111.111111111111,4,2,1,70,0,0
8778,-111.111111111111,4,2,1,80,0,0
8834,-111.111111111111,4,2,1,50,0,0
9223,-100,4,2,1,90,0,0
16334,-111.111111111111,4,2,1,50,0,0
28778,-133.333333333333,4,2,1,50,0,0
30111,-111.111111111111,4,2,1,50,0,0
41223,-100,4,2,1,80,0,0
46556,-80,4,2,1,100,0,1
83111,-80,4,2,1,90,0,1
83445,-80,4,2,1,90,0,1
83889,-80,4,2,1,90,0,0

[Colours]
Combo1 : 255,221,119
Combo2 : 220,220,220
Combo3 : 108,174,255
Combo4 : 248,133,150

[HitObjects]
167,144,2112,6,0,P|126:154|53:166,2,94.499997116089,2|2|2,0:0|0:0|0:0,0:0:0:0:
246,195,3000,2,0,P|278:200|319:214,1,62.9999980773926
380,149,3445,1,0,0:0:0:0:
380,149,3556,2,0,P|412:144|453:130,1,62.9999980773926
487,124,3889,6,0,P|477:170|469:216,2,94.499997116089,2|2|2,0:0|0:0|0:0,0:0:0:0:
441,40,4778,1,0,0:0:0:0:
359,86,5000,1,0,0:0:0:0:
274,43,5223,1,0,0:0:0:0:
274,43,5334,2,0,P|233:49|183:58,1,62.9999980773926
174,81,5667,6,0,P|115:69|62:55,2,94.499997116089,2|2|2,0:0|0:0|0:0,0:0:0:0:
248,140,6556,2,0,P|256:177|239:211,1,62.9999980773926
160,235,7000,1,0,0:0:0:0:
160,235,7111,2,0,P|151:264|159:294,1,62.9999980773926
192,329,7445,6,0,B|241:317|273:309|273:309|330:330,1,125.999996154785,2|2,0:0|0:0,0:0:0:0:
416,165,8334,2,0,B|367:177|335:185|335:185|278:164,1,125.999996154785,2|2,0:0|0:0,0:0:0:0:
149,61,9223,6,0,P|165:124|177:190,1,105,14|2,0:3|0:0,0:0:0:0:
152,207,9667,1,8,0:1:0:0:
77,155,9889,2,0,P|66:108|57:81,2,70,2|8|0,0:0|0:0|0:0,0:0:0:0:
22,228,10556,2,0,P|11:261|4:295,1,70,0|8,0:0|0:1,0:0:0:0:
77,371,11000,6,0,P|138:356|199:342,1,105,6|2,0:3|0:0,0:0:0:0:
213,316,11445,1,8,0:1:0:0:
298,345,11667,1,2,0:0:0:0:
362,281,11889,2,0,P|405:277|446:298,1,70,8|0,0:0|0:0,0:0:0:0:
499,344,12334,2,0,P|506:304|517:256,1,70,0|8,0:0|0:1,0:0:0:0:
451,189,12778,6,0,P|441:137|433:85,1,105,6|2,0:3|0:0,0:0:0:0:
429,40,13222,1,8,0:1:0:0:
348,83,13445,2,0,P|309:92|261:73,1,70,2|8,0:0|0:0,0:0:0:0:
196,50,13889,1,0,0:0:0:0:
110,20,14111,2,0,P|75:13|42:22,1,70,0|8,0:0|0:1,0:0:0:0:
3,120,14556,6,0,P|14:168|23:219,1,70,14|8,0:3|0:0,0:0:0:0:
108,199,15000,1,8,0:1:0:0:
108,199,15111,2,0,P|97:151|88:100,1,70,4|0,0:1|0:0,0:0:0:0:
112,89,15445,1,4,0:1:0:0:
192,130,15667,1,8,0:1:0:0:
260,70,15889,2,0,P|291:73|308:77,3,35,8|8|8|8,0:0|0:1|0:0|0:0,0:0:0:0:
335,98,16334,6,0,P|386:92|443:82,2,94.499997116089,14|0|2,0:3|0:0|0:0,0:0:0:0:
259,154,17223,1,0,0:0:0:0:
178,104,17445,1,0,0:0:0:0:
98,155,17667,2,0,P|91:189|111:231,1,62.9999980773926,8|0,0:0|0:0,0:0:0:0:
154,307,18111,6,0,P|151:324|148:339,2,31.4999990386963,10|0|0,0:3|0:0|0:0,0:0:0:0:
227,247,18556,2,0,P|224:230|221:215,2,31.4999990386963,2|0|0,0:0|0:0|0:0,0:0:0:0:
301,305,19000,2,0,P|297:320|295:335,2,31.4999990386963,2|0|8,0:0|0:0|0:3,0:0:0:0:
358,229,19445,1,8,0:0:0:0:
424,296,19667,1,0,0:0:0:0:
479,204,19889,6,0,B|496:159|496:159|470:86,1,125.999996154785,10|0,0:3|0:0,0:0:0:0:
407,14,20556,1,2,0:0:0:0:
346,86,20778,2,0,P|315:89|277:77,1,62.9999980773926
205,27,21223,2,0,P|174:24|136:36,1,62.9999980773926,8|0,0:0|0:0,0:0:0:0:
72,112,21667,6,0,P|80:154|87:199,1,62.9999980773926,10|0,0:3|0:0,0:0:0:0:
147,242,22111,1,0,0:0:0:0:
223,186,22334,2,0,P|277:200|346:221,1,125.999996154785,10|8,0:3|0:3,0:0:0:0:
427,264,23000,2,0,P|432:233|439:202,1,62.9999980773926,8|8,0:0|0:3,0:0:0:0:
379,113,23445,6,0,P|370:64|360:6,2,94.499997116089,14|0|2,0:3|0:0|0:0,0:0:0:0:
322,189,24334,1,0,0:0:0:0:
247,131,24556,1,0,0:0:0:0:
177,195,24778,2,0,P|141:191|100:181,1,62.9999980773926,8|0,0:0|0:0,0:0:0:0:
20,133,25223,6,0,P|24:153|27:181,2,31.4999990386963,10|0|0,0:3|0:0|0:0,0:0:0:0:
98,80,25667,2,0,P|100:64|103:49,2,31.4999990386963,2|0|0,0:0|0:0|0:0,0:0:0:0:
179,128,26111,2,0,P|181:143|184:158,2,31.4999990386963,2|0|8,0:0|0:0|0:3,0:0:0:0:
255,72,26556,1,8,0:0:0:0:
341,152,26778,5,0,0:0:0:0:
341,152,26889,1,0,0:0:0:0:
341,152,27000,2,0,P|390:142|442:132,2,94.499997116089,10|0|2,0:3|0:0|0:0,0:0:0:0:
265,208,27889,1,0,0:0:0:0:
178,170,28111,1,0,0:0:0:0:
94,215,28334,2,0,P|85:251|94:282,1,62.9999980773926,8|0,0:0|0:0,0:0:0:0:
180,329,28778,6,0,B|261:384|370:318|277:291|386:223|464:283,1,315.000012016297,10|8,0:3|0:0,0:0:0:0:
458,278,30334,1,8,0:3:0:0:
485,174,30556,6,0,P|494:116|449:62,1,125.999996154785,14|2,0:3|0:0,0:0:0:0:
369,27,31223,1,0,0:0:0:0:
369,27,31334,2,0,P|319:39|281:47,1,62.9999980773926
274,75,31667,2,0,P|219:61|128:41,1,125.999996154785,2|0,0:0|0:0,0:0:0:0:
57,98,32334,6,0,B|40:149|40:149|66:234,1,125.999996154785,8|2,0:3|0:0,0:0:0:0:
141,267,33000,2,0,B|158:216|158:216|132:131,1,125.999996154785,0|10,0:0|0:3,0:0:0:0:
192,70,33667,2,0,P|237:77|272:82,1,62.9999980773926,8|8,0:0|0:3,0:0:0:0:
342,139,34111,6,0,P|404:124|454:112,2,94.499997116089,10|0|2,0:3|0:0|0:0,0:0:0:0:
260,187,35000,2,0,P|254:153|246:115,1,62.9999980773926
160,161,35445,2,0,P|166:191|171:222,1,62.9999980773926
243,302,35889,6,0,P|246:319|250:342,2,31.4999990386963,10|0|0,0:3|0:0|0:0,0:0:0:0:
304,229,36334,2,0,P|301:212|297:189,2,31.4999990386963
385,276,36778,2,0,P|388:293|392:316,2,31.4999990386963,0|0|8,0:0|0:0|0:3,0:0:0:0:
454,211,37223,2,0,P|448:166|443:133,1,62.9999980773926,8|8,0:0|0:3,0:0:0:0:
367,74,37667,6,0,B|283:62|333:117|228:97,1,125.999996154785,14|0,0:3|0:0,0:0:0:0:
179,165,38334,2,0,P|172:197|191:240,1,62.9999980773926,10|0,0:3|0:0,0:0:0:0:
247,291,38778,1,0,0:0:0:0:
166,340,39000,2,0,P|132:335|99:328,1,62.9999980773926,8|0,0:0|0:0,0:0:0:0:
19,262,39445,5,14,0:3:0:0:
15,167,39667,1,0,0:0:0:0:
77,100,39889,1,0,0:0:0:0:
170,100,40111,2,0,B|253:123|253:123|303:106,1,125.999996154785,10|8,0:3|0:3,0:0:0:0:
321,20,40778,1,8,0:0:0:0:
417,96,41000,5,0,0:0:0:0:
417,96,41111,1,0,0:0:0:0:
417,96,41223,2,0,P|407:160|394:254,1,140,14|8,0:3|0:0,0:0:0:0:
345,309,41889,2,0,P|310:314|277:304,1,70,10|8,0:1|0:0,0:0:0:0:
212,240,42334,2,0,P|177:235|144:244,1,70,8|8,0:1|0:1,0:0:0:0:
82,329,42778,6,0,P|103:277|60:209,1,140,14|8,0:3|0:1,0:0:0:0:
7,136,43445,1,8,0:1:0:0:
86,91,43667,2,0,P|139:105|172:113,1,70,4|4,0:1|0:1,0:0:0:0:
238,75,44111,1,4,0:1:0:0:
284,153,44334,2,0,P|277:183|273:205,3,35,4|8|4|8,0:1|0:3|0:1|0:3,0:0:0:0:
294,228,44778,6,0,P|277:142|202:244,1,280,14|0,0:0|0:0,0:0:0:0:
192,235,46556,6,0,P|270:219|328:208,1,131.25,14|4,0:3|0:1,0:0:0:0:
367,221,47000,1,8,0:1:0:0:
440,158,47223,2,0,P|449:109|417:68,1,87.5,10|8,0:0|0:1,0:0:0:0:
391,50,47556,1,4,0:1:0:0:
391,50,47667,1,8,0:1:0:0:
299,20,47889,1,10,0:0:0:0:
229,109,48111,5,8,0:1:0:0:
229,109,48223,1,4,0:1:0:0:
229,109,48334,2,0,P|168:103|83:91,1,131.25,10|4,0:3|0:1,0:0:0:0:
69,55,48778,1,8,0:1:0:0:
3,125,49000,2,0,P|13:179|19:220,1,87.5,10|8,0:0|0:1,0:0:0:0:
53,243,49334,1,4,0:1:0:0:
53,243,49445,2,0,P|63:297|69:338,1,87.5,8|10,0:1|0:0,0:0:0:0:
180,339,49889,5,8,0:1:0:0:
180,339,50000,1,4,0:1:0:0:
180,339,50111,2,0,P|171:280|158:202,1,131.25,10|4,0:3|0:1,0:0:0:0:
182,166,50556,1,8,0:1:0:0:
264,215,50778,1,10,0:0:0:0:
335,150,51000,1,8,0:1:0:0:
335,150,51111,1,4,0:1:0:0:
335,150,51223,2,0,P|386:137|428:155,1,87.5,8|10,0:1|0:0,0:0:0:0:
501,225,51667,5,8,0:1:0:0:
501,225,51778,1,4,0:1:0:0:
501,225,51889,2,0,B|517:269|517:269|494:365,1,131.25,10|4,0:3|0:1,0:0:0:0:
451,367,52334,1,8,0:1:0:0:
367,321,52556,2,0,P|318:329|273:339,1,87.5,10|8,0:0|0:1,0:0:0:0:
235,323,52889,1,4,0:1:0:0:
235,323,53000,1,8,0:1:0:0:
156,379,53223,1,10,0:0:0:0:
53,329,53445,5,8,0:1:0:0:
53,329,53556,1,4,0:1:0:0:
53,329,53667,2,0,P|35:255|75:197,1,131.25,14|4,0:3|0:1,0:0:0:0:
101,185,54111,2,0,P|145:196|194:204,1,87.5,8|10,0:1|0:0,0:0:0:0:
254,280,54556,1,8,0:1:0:0:
254,280,54667,1,4,0:1:0:0:
254,280,54778,2,0,P|298:269|347:261,1,87.5,8|10,0:1|0:0,0:0:0:0:
440,315,55223,5,8,0:1:0:0:
440,315,55334,1,4,0:1:0:0:
440,315,55445,2,0,P|454:230|465:180,1,131.25,10|4,0:3|0:1,0:0:0:0:
446,140,55889,1,8,0:1:0:0:
354,169,56111,2,0,P|303:161|265:150,1,87.5,10|8,0:0|0:1,0:0:0:0:
237,113,56445,1,4,0:1:0:0:
237,113,56556,1,0,0:0:0:0:
159,170,56778,2,0,P|108:178|70:189,1,87.5,10|8,0:0|0:1,0:0:0:0:
31,211,57111,5,4,0:1:0:0:
31,211,57223,2,0,B|23:163|14:121|14:121|36:57,1,131.25,14|4,0:3|0:1,0:0:0:0:
51,42,57667,1,8,0:1:0:0:
142,72,57889,2,0,P|193:64|231:53,1,87.5,10|8,0:0|0:1,0:0:0:0:
274,40,58223,1,4,0:1:0:0:
274,40,58334,1,8,0:1:0:0:
362,78,58556,1,10,0:0:0:0:
464,29,58778,5,8,0:1:0:0:
464,29,58889,1,4,0:1:0:0:
464,29,59000,2,0,P|479:90|440:162,1,131.25,14|4,0:3|0:1,0:0:0:0:
408,171,59445,1,8,0:1:0:0:
314,146,59667,2,0,P|260:155|221:163,1,87.5,10|8,0:0|0:3,0:0:0:0:
198,199,60000,1,4,0:1:0:0:
198,199,60111,1,8,0:1:0:0:
107,169,60334,2,0,P|101:138|96:118,3,43.75,10|4|4|4,0:0|0:1|0:1|0:1,0:0:0:0:
50,120,60778,6,0,P|67:186|80:247,1,131.25,14|4,0:3|0:1,0:0:0:0:
70,295,61223,1,8,0:1:0:0:
156,337,61445,2,0,P|213:326|249:320,1,87.5,10|8,0:0|0:1,0:0:0:0:
285,342,61778,1,4,0:1:0:0:
285,342,61889,1,8,0:1:0:0:
340,263,62111,2,0,P|397:252|433:246,1,87.5,10|8,0:0|0:1,0:0:0:0:
472,260,62445,5,4,0:1:0:0:
472,260,62556,2,0,P|433:210|454:138,1,131.25,10|4,0:3|0:1,0:0:0:0:
479,113,63000,1,8,0:1:0:0:
392,69,63223,2,0,P|349:60|303:78,1,87.5,10|8,0:0|0:1,0:0:0:0:
275,108,63556,1,4,0:1:0:0:
275,108,63667,1,8,0:1:0:0:
196,163,63889,2,0,P|153:172|107:154,1,87.5,10|8,0:0|0:1,0:0:0:0:
76,126,64223,5,4,0:1:0:0:
76,126,64334,2,0,P|86:188|99:267,1,131.25,10|4,0:3|0:1,0:0:0:0:
104,303,64778,1,8,0:1:0:0:
173,369,65000,2,0,P|222:357|267:346,1,87.5,10|8,0:0|0:1,0:0:0:0:
292,313,65334,1,4,0:1:0:0:
292,313,65445,1,8,0:1:0:0:
377,357,65667,1,10,0:0:0:0:
463,283,65889,5,8,0:1:0:0:
463,283,66000,1,4,0:1:0:0:
463,283,66111,2,0,B|455:233|455:233|464:203|464:203|452:143,1,131.25,10|4,0:3|0:1,0:0:0:0:
422,118,66556,2,0,P|364:105|333:119,1,87.5,8|10,0:1|0:0,0:0:0:0:
281,191,67000,1,8,0:1:0:0:
281,191,67111,1,4,0:1:0:0:
281,191,67223,2,0,P|239:201|198:187,1,87.5,8|10,0:1|0:0,0:0:0:0:
130,95,67667,5,8,0:1:0:0:
130,95,67778,1,4,0:1:0:0:
130,95,67889,2,0,P|118:161|105:234,1,131.25,14|4,0:3|0:1,0:0:0:0:
71,257,68334,2,0,P|78:295|85:354,1,87.5,8|10,0:1|0:0,0:0:0:0:
175,373,68778,1,8,0:1:0:0:
175,373,68889,1,4,0:1:0:0:
175,373,69000,2,0,P|168:335|161:276,1,87.5,8|10,0:1|0:0,0:0:0:0:
222,189,69445,5,8,0:1:0:0:
222,189,69556,1,4,0:1:0:0:
222,189,69667,2,0,B|271:173|271:173|357:197,1,131.25,14|4,0:3|0:1,0:0:0:0:
375,233,70111,1,8,0:1:0:0:
464,195,70334,2,0,P|473:225|458:284,1,87.5,10|8,0:0|0:1,0:0:0:0:
430,315,70667,1,4,0:1:0:0:
430,315,70778,1,8,0:1:0:0:
351,370,71000,1,10,0:0:0:0:
258,302,71223,5,8,0:1:0:0:
258,302,71334,1,4,0:1:0:0:
258,302,71445,2,0,P|198:315|114:331,1,131.25,14|4,0:3|0:1,0:0:0:0:
99,366,71889,1,8,0:1:0:0:
15,317,72111,2,0,P|6:269|30:225,1,87.5,10|8,0:0|0:1,0:0:0:0:
65,216,72445,1,4,0:1:0:0:
65,216,72556,2,0,P|74:168|50:124,1,87.5,8|10,0:1|0:0,0:0:0:0:
2,35,73000,5,8,0:1:0:0:
2,35,73111,1,4,0:1:0:0:
2,35,73223,2,0,P|69:52|162:70,1,131.25,14|4,0:3|0:1,0:0:0:0:
172,42,73667,2,0,P|233:29|275:25,1,87.5,10|8,0:1|0:0,0:0:0:0:
348,79,74111,1,10,0:3:0:0:
348,79,74223,1,4,0:1:0:0:
348,79,74334,1,8,0:1:0:0:
274,141,74556,2,0,P|250:147|212:155,3,43.75,10|4|4|4,0:0|0:1|0:1|0:1,0:0:0:0:
185,135,75000,6,0,P|197:192|212:267,1,131.25,14|4,0:3|0:1,0:0:0:0:
194,308,75445,1,8,0:1:0:0:
101,281,75667,2,0,P|93:230|84:190,1,87.5,10|8,0:0|0:1,0:0:0:0:
46,165,76000,1,4,0:1:0:0:
46,165,76111,2,0,P|54:114|63:74,1,87.5,8|10,0:1|0:0,0:0:0:0:
167,35,76556,5,8,0:1:0:0:
167,35,76667,1,4,0:1:0:0:
167,35,76778,2,0,P|228:20|284:69,1,131.25,14|4,0:3|0:1,0:0:0:0:
289,106,77223,1,8,0:1:0:0:
378,69,77445,2,0,P|429:80|480:94,1,87.5,10|8,0:0|0:1,0:0:0:0:
488,129,77778,1,4,0:1:0:0:
488,129,77889,1,8,0:1:0:0:
430,206,78111,2,0,P|379:195|328:181,1,87.5,10|8,0:0|0:1,0:0:0:0:
304,159,78445,5,4,0:1:0:0:
304,159,78556,2,0,B|313:208|319:246|319:246|302:300,1,131.25,14|4,0:3|0:1,0:0:0:0:
282,329,79000,1,8,0:1:0:0:
204,271,79223,1,10,0:0:0:0:
143,347,79445,1,8,0:1:0:0:
143,347,79556,1,4,0:1:0:0:
143,347,79667,2,0,P|97:337|51:330,1,87.5,8|10,0:1|0:0,0:0:0:0:
7,228,80111,5,8,0:1:0:0:
7,228,80223,1,4,0:1:0:0:
7,228,80334,2,0,P|21:170|39:96,1,131.25,14|6,0:3|0:1,0:0:0:0:
52,54,80778,1,8,0:1:0:0:
140,91,81000,2,0,P|195:80|240:69,1,87.5,10|10,0:0|0:1,0:0:0:0:
307,20,81445,1,8,0:1:0:0:
386,73,81667,2,0,P|376:125|368:165,1,87.5,10|8,0:0|0:1,0:0:0:0:
263,200,82111,6,0,P|275:264|285:336,1,131.25,14|6,0:3|0:1,0:0:0:0:
321,360,82556,1,0,0:0:0:0:
400,306,82778,2,0,P|391:253|385:209,1,87.5,10|0,0:0|0:0,0:0:0:0:
449,146,83223,1,10,0:1:0:0:
386,73,83445,2,0,L|316:84,2,58.3333333333333,10|4|8,0:0|0:1|0:1,0:0:0:0:
420,39,83889,5,10,0:3:0:0:
