osu file format v14

[General]
AudioFilename: 03 Rinkou.mp3
AudioLeadIn: 0
PreviewTime: 64374
Countdown: 0
SampleSet: Soft
StackLeniency: 0.7
Mode: 0
LetterboxInBreaks: 0
EpilepsyWarning: 1
WidescreenStoryboard: 0

[Editor]
Bookmarks: 192459,202579
DistanceSpacing: 1
BeatDivisor: 4
GridSize: 4
TimelineZoom: 1.3

[Metadata]
Title:Rinkou
TitleUnicode:燐光
Artist:Ayano Mashiro
ArtistUnicode:綾野ましろ
Creator:Backstep
Version:Easy
Source:
Tags:Fate/Stay Night Ultimate Blade Works OP Phosphorescence Ideal White シングル winter snow yuki KantoKun IamKwaN
BeatmapID:535608
BeatmapSetID:228207

[Difficulty]
HPDrainRate:2
CircleSize:3
OverallDifficulty:2
ApproachRate:3
SliderMultiplier:1.2
SliderTickRate:2

[Events]
//Background and Video events
0,0,"Fate-BG.jpg",0,0
//Break Periods
//Storyboard Layer 0 (Background)
//Storyboard Layer 1 (Fail)
//Storyboard Layer 2 (Pass)
//Storyboard Layer 3 (Foreground)
Sprite,Foreground,Centre,"SB/Fate-bulr.jpg",320,240 F,0,39254,39344,0,1 S,0,39254,39977,1,1.256 F,0,39344,39977,1,0
Sprite,Foreground,Centre,"SB/Fate-bulr.jpg",320,240 F,0,50820,50910,0,1 S,0,50820,51543,1,1.256 F,0,50910,51543,1,0
Sprite,Foreground,Centre,"SB/Fate-bulr.jpg",320,240 F,0,56603,56694,0,1 S,0,56603,57326,1,1.256 F,0,56694,57326,1,0
Sprite,Foreground,Centre,"SB/Fate-bulr.jpg",320,240 F,0,65278,65368,0,1 S,0,65278,66001,1,1.256 F,0,65368,66001,1,0
Sprite,Foreground,Centre,"SB/Fate-bulr.jpg",320,240 F,0,71061,71151,0,1 S,0,71061,71784,1,1.256 F,0,71151,71784,1,0
Sprite,Foreground,Centre,"SB/Fate-bulr.jpg",320,240 F,0,76844,76935,0,1 S,0,76844,77567,1,1.266667 F,0,76935,77567,1,0
Sprite,Foreground,Centre,"SB/Fate-bulr.jpg",320,240 F,0,82627,82718,0,1 S,0,82627,83350,1,1.256 F,0,82718,83350,1,0
Sprite,Foreground,Centre,"SB/Fate-bulr.jpg",320,240 F,0,88410,88501,0,1 S,0,88410,89133,1,1.256 F,0,88501,89133,1,0
Sprite,Foreground,Centre,"SB/Fate-bulr.jpg",320,240 F,0,16121,16212,0,1 S,0,16121,16844,1,1.266667 F,0,16212,16844,1,0
Sprite,Foreground,Centre,"SB/black.png",320,240 M,0,62386,,320,240 F,0,62386,63832,0,1 F,0,63832,64555,1 F,0,64555,65278,1,0
Sprite,Foreground,Centre,"SB/Light2.png",320,240 F,0,39254,39977,1 M,0,39254,63832,322,-177,339,288 F,0,39977,62386,1 F,0,62386,63832,1,0
Sprite,Foreground,Centre,"SB/Light2.png",320,240 F,0,65278,66001,0,1 M,0,65278,91302,330,-176,334,288 F,0,66001,89856,1 F,0,89856,91302,1,0
Sprite,Foreground,Centre,"SB/Light.png",320,240 M,0,16121,,514,147 F,0,16121,16844,0,1 R,0,16121,63832,0,-50 F,0,16844,62386,1 F,0,62386,63832,1,0
Sprite,Foreground,Centre,"SB/Light.png",320,240 F,0,39254,39615,0,1 R,0,39254,63832,0,-50 F,0,39615,62386,1 F,0,62386,63832,1,0
Sprite,Foreground,Centre,"SB/Light.png",320,240 M,0,50820,,457,269 F,0,50820,51543,0,1 R,0,50820,63832,0,-27.84001 F,0,51543,62386,1 F,0,62386,63832,1,0
Sprite,Foreground,Centre,"SB/Light.png",320,240 M,0,56603,,133,379 F,0,56603,57326,0,1 R,0,56603,63832,0,-9.685334 F,0,57326,62386,1 F,0,62386,63832,1,0
Sprite,Foreground,Centre,"SB/Light.png",320,240 F,0,65278,66001,0,1 R,0,65278,91302,0,-50 F,0,66001,90579,1,0.988935 F,0,90579,91302,0.988935,0
Sprite,Foreground,Centre,"SB/Light.png",320,240 M,0,65278,,131,376 F,0,65278,66001,0,1 R,0,65278,91302,0,-44.672 F,0,66001,90579,1 F,0,90579,91302,1,0
Sprite,Foreground,Centre,"SB/Light.png",320,240 M,0,65278,,513,145 F,0,65278,66001,0,1 R,0,65278,91302,0,-50 F,0,66001,90579,1 F,0,90579,91302,1,0
Sprite,Foreground,Centre,"SB/Light.png",320,240 M,0,65278,,455,270 F,0,65278,66001,0,1 R,0,65278,91302,0,-50 F,0,66001,90579,1 F,0,90579,91302,1,0
Sprite,Foreground,Centre,"SB/Light.png",320,240 M,0,65278,,209,73 F,0,65278,66001,0,1 R,0,65278,91302,0,-50 F,0,66001,90579,1,0.9944675 F,0,90579,91302,0.9944675,0
Sprite,Foreground,Centre,"SB/Snowframe.png",320,240 M,0,16121,,320,240 F,0,16121,16844,0,1 F,0,16844,62386,1 F,0,62386,63832,1,0
Sprite,Foreground,Centre,"SB/fog.png",320,240 F,0,65278,66001,0,0.6533333 M,0,65278,91302,566,279,164,278 F,0,66001,90579,0.6533333,0.664 F,0,90579,91302,0.664,0
Sprite,Foreground,Centre,"SB/Light.png",320,240 M,0,27688,,208,73 F,0,27688,28410,0,1 R,0,27688,63832,0,-34.70934 F,0,28410,62386,1,0.9946859 F,0,62386,63832,0.9946859,0.9944598
//Storyboard Sound Samples

[TimingPoints]
1664,722.89156626506,4,2,1,30,1,0
13772,-100,4,2,0,30,0,0
15398,-100,4,2,1,30,0,0
39254,-100,4,2,3,88,0,0
65278,-100,4,2,3,88,0,1
73953,-100,4,2,3,44,0,1
74133,-100,4,2,3,88,0,1
88410,-100,4,2,2,60,0,0
91302,-100,4,2,0,30,0,0

[Colours]
Combo1 : 128,255,128
Combo2 : 255,255,128
Combo3 : 255,159,113
Combo4 : 157,206,255

[HitObjects]
88,268,1664,6,0,P|72:208|88:144,1,120,0|12,0:0|0:0,0:0:0:0:
172,72,3109,2,0,L|304:48,1,120,0|12,0:0|0:0,0:0:0:0:
400,96,4555,6,0,P|416:156|400:220,1,120,0|8,0:0|0:0,0:0:0:0:
340,312,6001,2,0,L|208:336,1,120,0|12,0:0|0:0,0:0:0:0:
112,284,7447,6,0,L|80:152,1,120,0|8,0:0|0:0,0:0:0:0:
144,64,8892,2,0,P|200:32|256:32,1,120,0|12,0:0|0:0,0:0:0:0:
356,100,10338,6,0,B|380:156|380:156|436:200,1,120,0|8,0:0|0:0,0:0:0:0:
456,308,11784,2,0,P|412:352|344:364,1,120,0|12,0:0|0:0,0:0:0:0:
256,192,13230,12,2,15218,0:0:0:0:
64,256,16121,5,4,0:0:0:0:
116,148,16844,2,0,L|96:56,2,90,2|0|0,0:0|0:0|0:0,0:0:0:0:
152,196,18290,6,0,P|212:220|280:204,1,120,8|8,0:0|3:0,0:0:0:0:
372,156,19736,2,0,P|428:132|496:136,2,120,0|4|0,0:0|0:0|0:0,0:0:0:0:
304,256,21904,5,8,3:0:0:0:
204,324,22627,1,0,0:0:0:0:
92,284,23350,2,0,P|68:224|68:164,1,120,4|8,0:0|0:0,0:0:0:0:
128,64,24796,5,8,3:0:0:0:
248,48,25519,2,0,L|380:32,2,120,0|4|0,3:0|0:0|0:0,0:0:0:0:
128,64,27688,5,8,3:0:0:0:
184,168,28410,2,0,L|280:160,2,90,0|0|0,0:0|0:0|0:0,0:0:0:0:
132,196,29856,6,0,P|112:252|132:312,1,120,8|8,0:0|3:0,0:0:0:0:
236,360,31302,2,0,L|360:348,2,120,0|4|0,0:0|0:0|0:0,0:0:0:0:
129,307,33471,5,0,3:0:0:0:
84,196,34194,1,0,0:0:0:0:
136,88,34917,2,0,B|188:56|188:56|264:44,1,120,4|8,0:0|0:0,0:0:0:0:
348,112,36362,6,0,L|460:96,2,90
300,148,37808,1,4,0:0:0:0:
244,256,38531,2,0,L|248:324,1,60
300,348,39254,5,4,0:0:0:0:
396,272,39977,1,8,0:0:0:0:
412,152,40700,2,0,P|383:96|324:62,1,120,2|8,0:0|0:0,0:0:0:0:
216,56,42145,6,0,P|160:96|104:112,1,120,2|8,0:0|0:0,0:0:0:0:
4,60,43591,1,2,0:0:0:0:
24,180,44314,2,0,L|32:248,1,60,8|2,0:0|0:0,0:0:0:0:
40,300,45037,6,0,P|88:340|152:344,1,120,4|8,0:0|0:0,0:0:0:0:
200,240,46483,2,0,P|256:228|328:240,1,120,2|8,0:0|0:0,0:0:0:0:
368,345,47929,6,0,P|427:338|472:300,1,120,4|12,0:0|0:0,0:0:0:0:
432,188,49374,1,2,0:0:0:0:
348,104,50097,2,0,L|280:88,1,60,8|2,0:0|0:0,0:0:0:0:
260,40,50820,6,0,P|200:32|124:60,1,120,4|8,0:0|0:0,0:0:0:0:
60,136,52266,2,0,L|36:260,1,120,2|12,0:0|0:0,0:0:0:0:
128,332,53712,6,0,P|188:344|256:336,1,120,4|8,0:0|0:0,0:0:0:0:
352,280,55157,2,0,L|464:272,2,90,2|2|2,0:2|0:2|0:2,0:0:0:0:
308,240,56603,6,0,P|288:184|296:120,1,120,4|8,0:0|0:0,0:0:0:0:
208,40,58049,1,2,0:0:0:0:
88,28,58772,1,8,0:0:0:0:
32,136,59495,6,0,P|20:204|36:256,1,120,4|8,0:0|0:0,0:0:0:0:
116,336,60941,2,0,P|176:332|236:304,1,120,6|8,0:0|0:0,0:0:0:0:
348,292,62386,6,0,B|408:296|456:332|456:332|504:272|476:208,1,240,2|10,0:0|0:0,0:0:0:0:
284,80,65278,6,0,L|160:72,1,120,4|8,0:0|0:0,0:0:0:0:
132,188,66724,2,0,L|256:196,1,120,2|8,0:0|0:0,0:0:0:0:
368,164,68170,6,0,P|412:100|420:36,2,120,2|8|2,0:0|0:0|0:0,0:0:0:0:
292,256,70338,2,0,L|220:268,1,60,8|2,0:0|0:0,0:0:0:0:
173,274,71061,6,0,P|109:274|57:226,1,120,4|8,0:0|0:0,0:0:0:0:
121,134,72507,2,0,P|133:74|129:10,1,120,2|8,0:0|0:0,0:0:0:0:
236,68,73953,6,0,P|224:128|228:192,1,120,12|4,0:0|0:0,0:0:0:0:
264,300,75398,1,2,0:0:0:0:
384,320,76121,2,0,L|448:308,1,60,8|2,0:0|0:0,0:0:0:0:
496,276,76844,6,0,P|508:220|496:156,1,120,4|8,0:0|0:0,0:0:0:0:
392,96,78290,2,0,P|336:120|256:104,1,120,2|8,0:0|0:0,0:0:0:0:
168,64,79736,5,4,0:0:0:0:
68,128,80459,1,12,0:0:0:0:
88,248,81182,2,0,L|88:312,1,60,2|2,0:0|0:0,0:0:0:0:
148,312,81904,2,0,L|168:368,1,60,8|2,0:0|0:0,0:0:0:0:
228,360,82627,6,0,P|296:368|352:356,1,120,4|12,0:0|0:0,0:0:0:0:
444,288,84073,2,0,L|504:280,2,60,2|2|8,0:0|0:0|0:0,0:0:0:0:
336,240,85519,6,0,P|304:188|300:124,1,120,2|4,0:0|0:0,0:0:0:0:
204,60,86965,2,0,L|120:48,1,60,2|2,0:0|0:0,0:0:0:0:
96,88,87688,2,0,L|12:76,1,60,8|2,0:0|0:0,0:0:0:0:
256,192,88410,12,2,91302,0:0:0:0:
