osu file format v14

[General]
AudioFilename: audio.mp3
AudioLeadIn: 0
PreviewTime: 184698
Countdown: 0
SampleSet: Normal
StackLeniency: 0.7
Mode: 0
LetterboxInBreaks: 0
WidescreenStoryboard: 0

[Editor]
Bookmarks: 1080,48552,86794,123717,150090,179101,212068
DistanceSpacing: 0.6
BeatDivisor: 4
GridSize: 32
TimelineZoom: 1.7

[Metadata]
Title:Alive
TitleUnicode:Alive
Artist:Ayano Mashiro
ArtistUnicode:綾野ましろ
Creator:tomadoi
Version:Resilience
Source:ダーウィンズゲーム
Tags:darwin's darwins game ending ed rock kalibe shiinoha kotone japanese anime full version door weapon dog food shady -[shady]-
BeatmapID:2295145
BeatmapSetID:1098516

[Difficulty]
HPDrainRate:6
CircleSize:4.2
OverallDifficulty:8
ApproachRate:9
SliderMultiplier:1.6
SliderTickRate:1

[Events]
//Background and Video events
0,0,"cropped-1920-1080-1061123.jpg",0,0
//Break Periods
2,94897,95829
2,171381,177175
//Storyboard Layer 0 (Background)
//Storyboard Layer 1 (Fail)
//Storyboard Layer 2 (Pass)
//Storyboard Layer 3 (Foreground)
//Storyboard Layer 4 (Overlay)
//Storyboard Sound Samples

[TimingPoints]
1072,329.67032967033,4,2,1,70,1,0
8819,-125,4,2,1,70,0,0
8984,-100,4,2,1,70,0,0
11456,-71.4285714285714,4,2,1,57,0,0
11951,-125,4,2,1,57,0,0
26786,-83.3333333333333,4,2,1,57,0,0
26951,-100,4,2,1,57,0,0
27610,-125,4,2,1,57,0,0
32720,-142.857142857143,4,2,1,57,0,0
37665,-100,4,2,1,57,0,0
37995,-142.857142857143,4,2,1,57,0,0
41621,-250.000000000001,4,2,1,57,0,0
42940,-125,4,2,1,57,0,0
43269,-100,4,2,1,57,0,0
45247,-90.9090909090909,4,2,1,57,0,0
45577,-83.3333333333333,4,2,1,57,0,0
45907,-83.3333333333333,4,2,4,57,0,0
46072,-83.3333333333333,4,2,1,57,0,0
47061,-76.9230769230769,4,2,1,57,0,0
48544,-62.5,4,2,1,90,0,0
49039,-62.5,4,2,1,15,0,0
49203,-83.3333333333333,4,1,1,70,0,0
59093,-62.5,4,1,1,70,0,0
59588,-83.3333333333333,4,1,1,70,0,0
66346,-71.4285714285714,4,1,1,70,0,0
66676,-83.3333333333333,4,1,1,70,0,0
66841,-66.6666666666667,4,1,1,70,0,0
67006,-83.3333333333333,4,1,1,70,0,0
67995,-62.5,4,1,1,70,0,0
68159,-83.3333333333333,4,1,1,70,0,0
74918,-76.9230769230769,4,1,1,70,0,0
79863,-133.333333333333,4,1,1,70,0,0
80192,-76.9230769230769,4,1,1,70,0,0
85467,-166.666666666667,4,1,1,70,0,0
86786,-100,4,2,1,57,0,0
94368,-111.111111111111,4,2,1,57,0,0
96511,-76.9230769230769,4,2,1,57,0,0
97665,-100,4,2,1,57,0,0
102280,-166.666666666667,4,2,1,57,0,0
102445,-83.3333333333333,4,2,1,57,0,0
102610,-100,4,2,1,57,0,0
108214,-142.857142857143,4,2,1,57,0,0
118434,-100,4,2,1,57,0,0
118764,-200,4,2,1,57,0,0
119093,-100,4,2,1,57,0,0
121071,-100,4,2,4,57,0,0
121236,-90.9090909090909,4,2,1,57,0,0
121731,-66.6666666666667,4,2,1,57,0,0
122060,-55.5555555555556,4,2,1,57,0,0
123379,-333.333333333333,4,2,1,57,0,0
123709,-55.5555555555556,4,2,1,90,0,0
124203,-55.5555555555556,4,2,1,15,0,0
124368,-83.3333333333333,4,1,1,70,0,0
134258,-62.5,4,1,1,70,0,0
134588,-83.3333333333333,4,1,1,70,0,0
150082,-76.9230769230769,4,1,1,70,0,0
157253,-76.9230769230769,4,1,1,5,0,0
157335,-76.9230769230769,4,1,1,70,0,0
157994,-100,4,1,1,70,0,0
158654,-76.9230769230769,4,1,1,70,0,0
160467,-66.6666666666667,4,1,1,70,0,0
161291,-76.9230769230769,4,1,1,70,0,0
163104,-62.5,4,1,1,70,0,0
163269,-76.9230769230769,4,1,1,70,0,0
163516,-76.9230769230769,4,1,1,5,0,0
163599,-76.9230769230769,4,1,1,70,0,0
163846,-76.9230769230769,4,1,1,5,0,0
163928,-58.8235294117647,4,1,1,70,0,0
164423,-71.4285714285714,4,1,1,70,0,0
165906,-66.6666666666667,4,1,1,70,0,0
166566,-76.9230769230769,4,1,1,70,0,0
167884,-83.3333333333333,4,1,1,70,0,0
168709,-71.4285714285714,4,1,1,70,0,0
169533,-58.8235294117647,4,1,1,70,0,0
169698,-62.5,4,1,1,70,0,0
170522,-55.5555555555556,4,1,1,70,0,0
170687,-62.5,4,1,1,70,0,0
170851,-76.9230769230769,4,1,1,65,0,0
171016,-111.111111111111,4,1,1,60,0,0
179093,-111.111111111111,4,2,4,60,0,0
179258,-111.111111111111,4,1,1,60,0,0
183049,-999.99999999999,4,1,1,60,0,0
184368,-499.999999999997,4,1,1,10,0,0
186346,-47.6190476190476,4,1,1,100,0,1
186676,-47.6190476190476,4,1,1,70,0,0
187994,-222.222222222221,4,1,1,70,0,0
188324,-105.263157894737,4,1,1,70,0,0
188654,-100,4,1,1,70,0,0
188983,-95.2380952380951,4,1,1,70,0,0
190961,-83.3333333333333,4,1,1,70,0,0
196236,-50,4,1,1,70,0,0
196566,-83.3333333333333,4,1,1,70,0,0
212060,-90.9090909090909,4,1,1,70,0,0
219313,-62.5,4,1,1,70,0,0
219643,-62.5,4,1,1,70,0,0
219725,-62.5,4,1,1,5,0,0
219807,-50,4,1,1,70,0,0
219890,-50,4,1,1,5,0,0
219972,-50,4,1,1,70,0,0
220137,-62.5,4,1,1,70,0,0
220632,-52.6315789473684,4,1,1,70,0,0
222610,-125,4,1,1,70,0,0
223764,-90.9090909090909,4,1,1,70,0,0
224093,-62.5,4,1,1,70,0,0
224258,-76.9230769230769,4,1,1,70,0,0
224588,-50,4,1,1,70,0,0
224753,-40,4,2,3,70,0,0
224835,-100,4,1,1,5,0,0

[Colours]
Combo1 : 211,148,84
Combo2 : 170,140,119

[HitObjects]
104,103,1072,6,0,B|196:87|174:128|265:117,1,160,6|0,1:2|0:0,0:0:0:0:
302,52,1566,1,0,0:0:0:0:
408,154,1731,2,0,P|388:112|379:78,1,80,8|0,0:0|0:0,0:0:0:0:
335,210,2061,5,0,1:2:0:0:
473,268,2225,2,0,B|386:257|408:298|316:282,1,160,2|8,1:2|0:0,0:0:0:0:
196,354,2720,2,0,L|228:277,1,80,2|0,1:2|0:0,0:0:0:0:
185,202,3050,2,0,B|141:189|107:215|107:215|90:252|32:255,1,160,10|2,0:0|0:0,0:0:0:0:
185,202,3544,1,8,0:0:0:0:
26,155,3709,5,2,1:2:0:0:
226,280,4039,1,2,1:2:0:0:
26,155,4368,2,0,P|48:81|60:-2,1,160,8|0,0:0|1:2,0:0:0:0:
127,71,4863,2,0,P|168:78|212:89,1,80,0|0,1:2|0:0,0:0:0:0:
369,213,5192,5,8,0:0:0:0:
320,277,5357,2,0,P|281:286|241:293,1,80,0|0,1:2|0:0,0:0:0:0:
362,351,5687,2,0,B|394:268|325:278|360:197,1,160,10|10,0:0|0:0,0:0:0:0:
362,351,6181,1,8,0:0:0:0:
430,94,6346,6,0,P|356:116|266:138,2,160,6|0|8,1:1|1:2|0:0,0:0:0:0:
174,200,7335,5,0,1:2:0:0:
200,126,7500,2,0,P|257:150|278:244,1,160,0|8,1:2|0:0,0:0:0:0:
164,355,7995,2,0,P|191:331|207:290,1,80,0|0,1:2|0:0,0:0:0:0:
365,262,8324,5,8,0:0:0:0:
353,384,8489,2,0,P|326:360|310:319,1,80,0|0,1:2|0:0,0:0:0:0:
279,238,8819,6,0,P|289:227|297:212,1,32,10|2,0:0|0:0,0:0:0:0:
250,69,8984,6,0,B|166:40|176:97|84:78,1,160,6|0,1:1|1:2,0:0:0:0:
342,137,9643,2,0,B|426:108|416:165|508:146,1,160,10|0,0:1|1:2,0:0:0:0:
297,211,10137,2,0,L|312:289,1,80,2|0,1:2|0:0,0:0:0:0:
78,178,10467,5,8,0:0:0:0:
177,257,10632,2,0,L|192:178,1,80,0|8,1:2|0:0,0:0:0:0:
192,178,10879,1,8,0:0:0:0:
192,178,10962,1,8,0:0:0:0:
239,322,11126,1,8,3:0:0:0:
134,356,11291,5,4,3:0:0:0:
309,199,11456,2,0,B|339:189|339:189|386:199|386:199|417:192,1,111.999996582031,4|2,0:3|0:0,0:0:0:0:
417,192,11951,6,0,L|433:129,1,64,0|0,0:0|0:0,0:0:0:0:
450,56,12280,1,2,3:2:0:0:
450,56,12610,1,2,0:0:0:0:
350,90,12775,2,0,B|273:78|298:106|220:96,1,128,2|0,0:0|0:0,0:0:0:0:
141,61,13269,2,0,L|168:-7,1,64,0|0,0:0|0:0,0:0:0:0:
211,109,13599,2,0,L|245:237,1,128,2|2,3:2|0:0,0:0:0:0:
195,290,14093,2,0,B|181:284|181:284|140:293|140:293|126:285,1,64,0|2,0:0|0:0,0:0:0:0:
414,361,14588,5,2,0:0:0:0:
336,304,14753,1,0,0:0:0:0:
414,361,14918,2,0,P|419:289|430:235,1,128,2|0,3:2|0:0,0:0:0:0:
372,189,15412,2,0,B|449:177|430:212|508:194,1,128,2|0,0:0|0:0,0:0:0:0:
312,254,15907,5,2,0:0:0:0:
286,157,16072,1,8,0:0:0:0:
372,189,16236,1,10,0:0:0:0:
232,225,16401,1,0,1:2:0:0:
171,175,16566,2,0,P|182:143|188:110,1,64,4|0,3:0|0:0,0:0:0:0:
243,55,16896,5,6,3:2:0:0:
66,43,17061,2,0,B|141:35|113:7|190:3,1,128,0|0,3:2|0:0,0:0:0:0:
66,43,17555,1,8,0:0:0:0:
363,25,17885,5,2,3:2:0:0:
272,64,18050,2,0,P|286:122|297:195,1,128,0|8,3:2|0:0,0:0:0:0:
369,235,18544,2,0,L|434:247,1,64,0|0,3:2|0:0,0:0:0:0:
311,304,18874,2,0,B|269:319|269:319|249:348|249:348|198:366,1,128,0|2,1:2|3:0,0:0:0:0:
310,304,19533,5,2,3:2:0:0:
123,366,19698,2,0,L|155:239,1,128,0|0,3:2|0:0,0:0:0:0:
233,213,20192,2,0,L|214:147,1,64,8|0,0:0|0:0,0:0:0:0:
94,61,20522,5,2,3:2:0:0:
22,169,20687,2,0,B|95:159|69:134|152:130,1,128,0|8,3:2|0:0,0:0:0:0:
192,70,21181,2,0,L|176:8,1,64,2|0,3:0|0:0,0:0:0:0:
126,226,21511,5,10,0:0:0:0:
298,121,21676,1,0,3:2:0:0:
350,283,21841,5,10,0:0:0:0:
249,214,22006,1,8,0:0:0:0:
194,309,22170,5,6,3:2:0:0:
271,295,22335,2,0,P|231:313|195:386,1,128,0|0,3:2|0:0,0:0:0:0:
350,283,22830,2,0,L|332:215,1,64,8|0,0:0|0:0,0:0:0:0:
500,145,23159,5,2,3:2:0:0:
409,193,23324,2,0,L|438:63,1,128,0|8,3:2|0:0,0:0:0:0:
333,221,23819,6,0,B|256:205|278:236|201:227,1,128,0|8,1:2|0:0,0:0:0:0:
145,178,24313,1,0,0:0:0:0:
34,289,24478,1,0,0:0:0:0:
131,317,24643,6,0,L|117:270,1,32,0|0,3:2|3:2,0:0:0:0:
39,140,24808,5,2,3:2:0:0:
34,289,24973,2,0,L|60:164,1,128,0|0,3:2|0:0,0:0:0:0:
204,38,25467,2,0,P|176:53|141:64,1,64,8|0,0:0|0:0,0:0:0:0:
270,165,25797,5,2,3:2:0:0:
327,110,25962,2,0,P|357:119|385:135,1,64,0|0,3:2|0:0,0:0:0:0:
278,358,26291,5,8,0:0:0:0:
358,281,26456,2,0,L|345:209,1,64,0|0,3:2|0:0,0:0:0:0:
183,153,26786,6,0,B|154:159|162:163|132:171,1,47.9999985351563,10|0,3:2|3:2,0:0:0:0:
269,281,26951,2,0,B|368:285|332:318|431:328,1,160,0|2,3:2|3:0,0:0:0:0:
150,340,27445,5,2,3:2:0:0:
150,340,27610,2,0,B|75:337|103:365|25:369,1,128,0|0,3:2|0:0,0:0:0:0:
76,279,28104,2,0,L|44:151,1,128,8|0,0:0|3:2,0:0:0:0:
107,4,28599,1,0,3:2:0:0:
43,38,28929,5,8,0:0:0:0:
170,106,29093,2,0,B|247:98|219:73|305:72,2,128,0|8|2,1:2|0:0|3:0,0:0:0:0:
97,88,29918,1,2,0:0:0:0:
207,190,30082,5,2,3:2:0:0:
41,289,30247,2,0,P|70:258|155:256,1,128,0|0,3:2|0:0,0:0:0:0:
246,359,30742,2,0,P|267:377|307:384,1,64,8|0,0:0|0:0,0:0:0:0:
418,268,31072,5,2,3:2:0:0:
304,307,31236,2,0,P|345:274|426:271,1,128,0|8,3:2|0:0,0:0:0:0:
509,182,31731,2,0,L|491:247,1,64,0|0,1:2|1:2,0:0:0:0:
352,130,32061,5,8,0:0:0:0:
501,55,32225,1,8,3:0:0:0:
426,188,32390,5,8,3:0:0:0:
248,74,32555,1,4,3:0:0:0:
325,13,32720,6,0,P|329:66|342:129,1,111.999996582031,2|0,0:0|0:0,0:0:0:0:
276,162,33214,1,0,0:0:0:0:
131,93,33379,2,0,B|199:101|183:81|242:89,1,111.999996582031,2|0,3:2|0:0,0:0:0:0:
79,334,34039,6,0,P|38:327|-1:270,1,111.999996582031,2|0,0:0|0:0,0:0:0:0:
44,213,34533,1,0,0:0:0:0:
44,213,34698,1,2,3:2:0:0:
233,363,35028,2,0,L|290:374,1,55.9999982910157,2|0,0:0|0:0,0:0:0:0:
369,355,35357,6,0,P|351:296|342:243,1,111.999996582031,2|0,0:0|0:0,0:0:0:0:
207,161,36017,2,0,P|197:216|180:269,1,111.999996582031,2|0,3:2|0:0,0:0:0:0:
289,183,36511,1,0,0:0:0:0:
137,97,36676,6,0,P|170:69|250:78,1,111.999996582031,2|0,0:0|0:0,0:0:0:0:
285,16,37335,6,0,P|305:30|339:38,1,55.9999982910157,2|0,3:2|3:2,0:0:0:0:
415,124,37665,2,0,P|441:100|489:95,1,80,2|0,0:0|0:0,0:0:0:0:
493,168,37995,6,0,L|471:291,1,111.999996582031,2|0,0:0|0:0,0:0:0:0:
366,277,38654,6,0,L|311:297,1,55.9999982910157,2|0,3:2|0:0,0:0:0:0:
424,342,38984,2,0,L|479:362,1,55.9999982910157,2|0,0:0|0:0,0:0:0:0:
308,212,39313,6,0,P|326:146|334:97,1,111.999996582031,2|0,0:0|0:0,0:0:0:0:
276,53,39808,1,0,0:0:0:0:
139,132,39973,2,0,B|207:115|193:140|263:125,1,111.999996582031,2|0,3:2|0:0,0:0:0:0:
250,127,40632,1,2,0:0:0:0:
25,182,40962,5,2,0:0:0:0:
162,45,41291,1,2,3:2:0:0:
301,231,41621,6,0,P|242:214|170:202,1,128,2|0,0:0|0:0,0:0:0:0:
79,373,42940,2,0,P|107:360|143:351,1,64,2|2,0:0|0:0,0:0:0:0:
196,280,43269,6,0,L|175:197,1,80,6|0,3:0|0:0,0:0:0:0:
93,125,43599,2,0,L|73:202,1,80,6|0,3:0|0:0,0:0:0:0:
301,316,43929,6,0,P|336:326|373:347,1,80,6|0,3:0|0:0,0:0:0:0:
445,204,44258,2,0,P|410:224|372:235,1,80,6|0,3:0|0:0,0:0:0:0:
279,152,44588,6,0,P|313:53|327:-2,1,160,6|8,3:0|0:0,0:0:0:0:
326,0,45247,6,0,L|415:36,1,88.000002685547,10|0,0:0|0:0,0:0:0:0:
127,91,45577,6,0,L|32:132,1,95.9999970703126,10|0,0:0|0:0,0:0:0:0:
215,0,45907,5,14,0:0:0:0:
296,232,46072,1,10,0:0:0:0:
224,181,46401,5,8,3:0:0:0:
274,64,46566,1,4,3:0:0:0:
303,143,46896,5,10,0:0:0:0:
12,193,47061,2,0,P|56:132|138:124,1,155.999992858887,10|0,0:0|0:0,0:0:0:0:
216,200,47390,6,0,B|209:220|209:220|211:239|211:239|200:268,2,51.999997619629,8|8|8,0:0|0:0|0:0,0:0:0:0:
32,108,47720,1,8,0:0:0:0:
232,88,47885,5,10,0:0:0:0:
131,122,48050,1,8,0:0:0:0:
324,208,48214,5,10,0:0:0:0:
456,264,48379,1,8,0:0:0:0:
226,384,48544,6,0,L|266:-16,1,384,6|0,1:1|0:0,0:0:0:0:
492,92,49203,6,0,B|493:61|450:38|450:38|475:72|444:129,1,143.999995605469,8|0,1:0|2:0,0:0:0:0:
381,78,49533,1,0,1:0:0:0:
495,231,49698,2,0,P|422:177|362:192,1,143.999995605469,0|0,1:0|2:0,0:0:0:0:
317,236,50028,2,0,P|306:265|345:246,1,95.9999970703126,8|0,1:0|0:0,0:0:0:0:
93,14,50522,6,0,B|79:62|79:62|33:84|33:84|18:131,1,143.999995605469,8|0,0:0|2:0,0:0:0:0:
16,138,50852,1,0,0:0:0:0:
192,318,51017,2,0,P|205:298|181:252,1,47.9999985351563,8|0,0:0|0:0,0:0:0:0:
118,226,51181,6,0,B|76:233|76:233|69:236|69:236|15:246,1,95.9999970703126,2|0,0:0|0:0,0:0:0:0:
200,100,51511,2,0,B|158:93|158:93|151:90|151:90|97:80,1,95.9999970703126,2|0,0:0|0:0,0:0:0:0:
277,233,51841,2,0,B|331:217|349:293|422:264,1,143.999995605469,8|0,0:0|2:0,0:0:0:0:
420,263,52170,5,0,0:0:0:0:
215,183,52335,2,0,P|180:214|183:260,1,95.9999970703126,0|0,0:0|2:0,0:0:0:0:
183,260,52582,1,0,0:0:0:0:
183,260,52665,2,0,L|121:272,1,47.9999985351563,8|0,0:0|2:0,0:0:0:0:
16,292,52830,5,0,0:0:0:0:
40,196,52995,1,0,0:0:0:0:
208,176,53159,5,10,0:0:0:0:
320,212,53324,1,0,0:0:0:0:
484,84,53489,5,10,0:0:0:0:
336,132,53654,1,8,0:0:0:0:
192,48,53819,2,0,P|150:22|101:108,1,143.999995605469,6|0,0:2|2:0,0:0:0:0:
105,93,54148,2,0,B|69:100|69:100|51:111|51:111|4:121,1,95.9999970703126,0|0,0:0|0:0,0:0:0:0:
282,24,54478,6,0,B|344:45|344:45|355:132,1,143.999995605469,8|0,0:0|2:0,0:0:0:0:
355,140,54808,1,0,0:0:0:0:
214,232,54973,2,0,B|244:220|277:244|277:244|287:286|339:299,1,143.999995605469,0|0,0:0|2:0,0:0:0:0:
396,340,55302,2,0,B|433:336|433:336|456:339|456:339|504:334,1,95.9999970703126,8|0,0:0|0:0,0:0:0:0:
350,224,55632,1,0,0:0:0:0:
461,255,55797,5,10,0:0:0:0:
266,351,55962,2,0,B|204:368|204:368|152:336|176:288,1,143.999995605469,0|0,0:0|2:0,0:0:0:0:
214,237,56291,2,0,L|261:246,1,47.9999985351563,8|0,0:0|0:0,0:0:0:0:
400,332,56456,6,0,B|485:288|430:175|371:215,1,191.999994140625,2|0,0:0|0:0,0:0:0:0:
40,40,57115,2,0,B|89:18|132:64|132:64|127:65|127:65|139:114|193:125,1,191.999994140625,10|0,0:0|0:0,0:0:0:0:
280,76,57610,1,0,0:0:0:0:
492,80,57775,6,0,P|432:60|400:136,1,143.999995605469,0|0,0:0|2:0,0:0:0:0:
416,196,58104,5,8,0:0:0:0:
492,80,58269,1,8,0:0:0:0:
348,0,58434,1,8,0:0:0:0:
276,228,58599,5,8,0:3:0:0:
212,260,58764,1,8,0:3:0:0:
152,240,58929,1,8,0:3:0:0:
12,112,59093,6,0,L|304:148,1,256,6|0,0:2|0:0,0:0:0:0:
496,272,59588,5,0,0:0:0:0:
336,320,59753,2,0,B|264:332|264:332|256:336|256:336|168:352,1,143.999995605469,12|0,0:0|2:0,0:0:0:0:
180,348,60082,1,0,0:0:0:0:
53,277,60247,2,0,P|22:303|36:372,1,95.9999970703126,0|0,0:0|0:0,0:0:0:0:
192,192,60577,2,0,B|188:169|188:169|158:138|158:138|146:94,1,95.9999970703126,8|0,0:0|0:0,0:0:0:0:
150,109,61072,6,0,B|90:89|90:89|-2:117|50:209,1,191.999994140625,8|0,0:0|0:0,0:0:0:0:
156,272,61566,2,0,L|240:260,1,47.9999985351563,8|0,0:0|2:0,0:0:0:0:
320,184,61731,6,0,P|364:176|400:220,1,95.9999970703126,6|0,0:0|0:0,0:0:0:0:
464,352,62061,1,2,0:0:0:0:
484,276,62225,1,0,0:0:0:0:
344,336,62390,2,0,B|280:324|296:396|188:372,1,143.999995605469,8|0,0:0|2:0,0:0:0:0:
232,300,62720,5,0,0:0:0:0:
136,248,62885,1,0,0:0:0:0:
109,317,63050,5,0,0:0:0:0:
216,232,63214,5,8,0:0:0:0:
332,184,63379,1,0,0:0:0:0:
368,124,63544,5,2,0:0:0:0:
224,56,63709,2,0,B|188:60|188:60|168:56|168:56|108:64,1,95.9999970703126,12|0,0:0|0:0,0:0:0:0:
357,253,64039,6,0,P|379:263|416:263,1,47.9999985351563,10|0,0:0|2:0,0:0:0:0:
376,184,64203,2,0,P|400:184|434:198,1,47.9999985351563,8|0,0:0|2:0,0:0:0:0:
441,237,64368,6,0,B|341:218|369:274|252:240,1,191.999994140625,6|0,0:0|0:0,0:0:0:0:
192,271,64863,1,0,0:0:0:0:
126,52,65028,2,0,P|73:37|68:116,1,143.999995605469,10|0,0:0|2:0,0:0:0:0:
145,135,65357,5,0,0:0:0:0:
268,96,65522,1,0,0:0:0:0:
244,24,65687,1,0,0:0:0:0:
192,224,65852,5,8,0:0:0:0:
312,276,66017,1,0,0:0:0:0:
280,208,66181,1,0,0:0:0:0:
192,304,66346,2,0,P|150:339|40:292,1,167.999994873047,10|0,0:0|0:0,0:0:0:0:
40,232,66676,6,0,P|56:224|108:216,1,47.9999985351563,0|0,0:0|2:0,0:0:0:0:
208,156,66841,6,0,P|235:160|288:192,1,60.0000022888184,8|0,0:0|2:0,0:0:0:0:
320,224,67006,5,0,0:0:0:0:
396,324,67170,2,0,P|440:328|472:280,1,95.9999970703126,8|0,0:0|0:0,0:0:0:0:
396,324,67500,1,0,0:0:0:0:
486,157,67665,2,0,P|486:113|387:93,1,143.999995605469,12|0,0:0|0:0,0:0:0:0:
403,81,67995,6,0,B|376:86|376:86|363:91|363:91|329:98,1,64,14|0,0:0|0:0,0:0:0:0:
259,164,68159,5,0,0:0:0:0:
336,188,68324,1,0,0:0:0:0:
312,260,68489,1,0,0:0:0:0:
172,196,68654,5,8,0:0:0:0:
68,224,68819,1,8,0:3:0:0:
76,264,68901,1,8,0:3:0:0:
88,304,68984,1,8,0:0:0:0:
188,276,69148,1,8,0:0:0:0:
320,176,69313,5,10,0:0:0:0:
140,128,69478,1,10,0:0:0:0:
408,20,69643,6,0,P|428:24|472:180,1,191.999994140625,6|0,0:0|0:0,0:0:0:0:
256,384,70302,2,0,B|294:330|256:291|256:291|221:247|256:196,1,191.999994140625,10|0,0:0|0:0,0:0:0:0:
352,144,70797,1,0,0:0:0:0:
392,212,71126,1,8,0:0:0:0:
260,180,71291,1,0,0:0:0:0:
200,136,71621,1,8,0:0:0:0:
88,176,71786,2,0,P|56:152|64:80,1,95.9999970703126,2|0,0:3|0:0,0:0:0:0:
328,120,72115,5,10,0:0:0:0:
408,212,72280,2,0,P|408:276|296:288,2,191.999994140625,4|0|8,0:0|0:0|0:0,0:0:0:0:
408,212,73269,5,0,0:0:0:0:
304,60,73434,2,0,B|257:67|257:67|253:71|253:71|195:82,1,95.9999970703126,8|0,0:0|0:0,0:0:0:0:
204,156,73764,1,8,0:0:0:0:
340,124,73929,1,8,0:0:0:0:
128,40,74093,5,0,0:0:0:0:
119,37,74176,1,0,0:0:0:0:
110,34,74258,1,0,0:0:0:0:
210,79,74423,5,0,0:0:0:0:
240,152,74588,5,0,0:0:0:0:
216,216,74753,5,0,0:0:0:0:
96,352,74918,6,0,P|68:296|160:184,1,207.999990478516,6|2,0:0|1:2,0:0:0:0:
24,16,75577,6,0,P|72:4|96:64,1,103.999995239258,8|0,0:0|2:0,0:0:0:0:
20,140,75907,1,0,0:0:0:0:
20,140,76072,2,0,P|52:208|188:180,1,207.999990478516,0|8,0:0|0:0,0:0:0:0:
304,132,76566,5,2,1:2:0:0:
400,64,76731,1,0,2:2:0:0:
300,16,76896,2,0,P|284:48|292:228,1,207.999990478516,8|2,0:0|2:0,0:0:0:0:
432,336,77390,5,8,0:0:0:0:
364,232,77555,2,0,B|356:280|356:280|348:288|348:288|336:356,1,103.999995239258,2|0,0:2|2:0,0:0:0:0:
484,208,77885,2,0,B|492:256|492:256|500:264|500:264|512:332,1,103.999995239258,0|0,0:0|2:0,0:0:0:0:
432,336,78214,2,0,B|392:304|340:332|340:332|340:340|340:340|288:380|236:352,1,207.999990478516,10|0,0:2|0:0,0:0:0:0:
144,252,78709,6,0,B|125:220|125:220|52:264|52:264|88:364,1,207.999990478516,2|8,0:2|0:0,0:0:0:0:
224,280,79203,2,0,P|256:240|224:196,1,103.999995239258,2|0,0:0|2:0,0:0:0:0:
8,190,79533,6,0,P|24:226|136:194,1,155.999992858887,10|0,0:0|0:0,0:0:0:0:
135,209,79863,2,0,L|127:167,1,30.0000011444092,10|0,0:0|0:0,0:0:0:0:
171,116,80028,2,0,L|162:85,1,30.0000011444092,10|0,0:0|0:0,0:0:0:0:
280,8,80192,6,0,B|354:-25|366:72|507:32,1,207.999990478516,2|2,0:2|2:0,0:0:0:0:
208,185,80852,2,0,B|134:152|122:249|-19:209,1,207.999990478516,10|2,1:0|2:0,0:0:0:0:
100,248,81346,6,0,P|138:277|205:255,1,103.999995239258,2|0,0:0|2:0,0:0:0:0:
308,100,81676,1,8,0:0:0:0:
232,56,81841,2,0,P|316:16|396:84,1,207.999990478516,2|8,0:0|0:0,0:0:0:0:
512,248,82335,6,0,B|537:273|537:273|405:246,1,155.999992858887,2|0,0:0|2:0,0:0:0:0:
314,227,82665,1,8,0:0:0:0:
512,248,82830,6,0,P|419:211|296:237,1,207.999990478516,2|0,0:2|0:0,0:0:0:0:
61,343,83489,2,0,P|134:370|100:284,1,207.999990478516,10|0,0:0|3:0,0:0:0:0:
402,350,83984,6,0,B|390:323|366:313|366:313|250:332,1,155.999992858887,2|0,3:1|2:0,0:0:0:0:
249,334,84313,1,8,0:0:0:0:
62,169,84478,6,0,P|121:161|129:218,1,103.999995239258,2|0,0:0|0:0,0:0:0:0:
117,271,84725,1,2,0:2:0:0:
110,283,84808,1,8,0:0:0:0:
13,240,84973,1,8,3:0:0:0:
244,176,85137,5,10,0:0:0:0:
316,24,85302,1,10,0:0:0:0:
492,132,85467,5,8,0:0:0:0:
456,32,85632,2,0,L|444:-4,1,23.9999992675781,6|0,0:3|2:0,0:0:0:0:
172,44,85962,5,0,3:0:0:0:
172,44,86044,1,0,3:0:0:0:
172,44,86126,2,0,L|104:56,1,47.9999985351563,8|4,3:2|3:0,0:0:0:0:
48,68,86456,1,8,3:0:0:0:
162,170,86786,5,6,3:2:0:0:
33,44,86951,2,0,B|134:36|81:104|199:88,1,160,0|0,3:2|0:0,0:0:0:0:
341,221,87445,2,0,B|296:204|284:157|284:157|316:130|314:95,1,160,8|0,0:0|3:2,0:0:0:0:
248,55,87940,1,0,3:2:0:0:
341,221,88104,1,0,0:0:0:0:
410,119,88269,6,0,P|451:142|501:154,1,80,8|0,0:0|1:2,0:0:0:0:
438,54,88599,1,0,0:0:0:0:
512,233,88764,2,0,P|473:245|439:265,1,80,10|0,0:0|0:0,0:0:0:0:
386,335,89093,5,0,0:0:0:0:
297,241,89258,2,0,P|318:250|337:263,1,40,2|0,3:2|3:2,0:0:0:0:
282,341,89423,5,2,3:2:0:0:
282,341,89588,2,0,B|210:327|210:327|203:332|203:332|118:317,1,160,0|0,3:2|0:0,0:0:0:0:
27,193,90082,2,0,L|0:270,1,80,8|0,0:0|0:0,0:0:0:0:
184,131,90412,5,2,0:0:0:0:
125,236,90577,2,0,L|83:75,1,160,0|8,3:2|0:0,0:0:0:0:
14,31,91072,2,0,B|56:55|95:41|95:41|93:38|93:38|131:26|174:54,1,160,2|8,3:2|0:0,0:0:0:0:
285,163,91566,5,4,3:0:0:0:
265,14,91731,2,0,P|256:53|244:91,1,80,2|0,0:0|0:0,0:0:0:0:
395,249,92061,5,2,3:2:0:0:
285,163,92225,2,0,B|328:154|347:120|347:120|386:110|423:139,1,160,0|0,3:2|0:0,0:0:0:0:
510,174,92720,2,0,L|494:92,1,80,8|0,0:0|0:0,0:0:0:0:
315,253,93050,5,2,0:0:0:0:
512,320,93214,2,0,P|497:278|393:249,1,160,0|8,3:2|0:0,0:0:0:0:
285,163,93709,2,0,P|255:188|210:199,1,80,2|0,0:0|3:2,0:0:0:0:
146,158,93956,5,0,3:2:0:0:
151,143,94039,1,0,3:2:0:0:
289,269,94203,1,8,0:0:0:0:
110,378,94368,2,0,B|113:294|148:325|145:233,1,143.999995605469,2|2,0:0|0:0,0:0:0:0:
101,53,96429,5,8,0:0:0:0:
94,49,96511,1,8,0:0:0:0:
260,162,96676,1,8,0:0:0:0:
8,222,96841,5,8,3:0:0:0:
68,155,97006,2,0,B|100:162|100:162|138:153|138:153|168:160,1,103.999995239258,4|4,3:0|3:0,0:0:0:0:
325,273,97335,5,2,1:2:0:0:
177,342,97665,2,0,P|198:310|213:263,1,80,2|0,1:2|0:0,0:0:0:0:
354,147,97995,1,8,0:0:0:0:
282,184,98159,1,0,0:0:0:0:
402,265,98324,5,2,3:2:0:0:
497,332,98489,2,0,P|509:277|512:164,1,160,0|8,3:2|0:0,0:0:0:0:
326,28,98984,5,2,0:0:0:0:
504,98,99148,1,0,3:2:0:0:
504,98,99231,1,0,3:2:0:0:
504,98,99313,2,0,B|466:95|437:67|437:67|392:73|361:114,1,160,8|2,0:0|0:0,0:0:0:0:
337,266,99808,2,0,P|353:254|367:234,1,40,0|0,3:2|3:2,0:0:0:0:
365,108,99973,5,2,3:2:0:0:
433,185,100137,2,0,P|359:201|309:266,1,160,0|0,3:2|0:0,0:0:0:0:
138,344,100632,5,8,0:0:0:0:
228,274,100797,1,0,0:0:0:0:
276,374,100962,5,2,3:2:0:0:
131,261,101126,2,0,P|114:154|115:96,1,160,0|8,3:2|0:0,0:0:0:0:
77,20,101621,2,0,L|-4:0,1,80,2|0,1:2|0:0,0:0:0:0:
260,170,101951,5,8,0:0:0:0:
286,30,102115,1,2,0:0:0:0:
190,96,102280,6,0,L|224:88,1,23.9999992675781,2|0,0:0|0:0,0:0:0:0:
325,113,102445,2,0,L|371:102,1,47.9999985351563,2|0,0:0|0:0,0:0:0:0:
260,170,102610,5,2,3:2:0:0:
433,296,102775,2,0,P|400:246|305:243,1,160,0|0,3:2|0:0,0:0:0:0:
173,181,103269,2,0,L|190:263,1,80,8|0,0:0|0:0,0:0:0:0:
253,322,103599,5,2,3:2:0:0:
58,384,103764,2,0,L|102:221,1,160,0|8,3:2|0:0,0:0:0:0:
4,37,104258,2,0,P|21:66|64:91,1,80,0|0,1:2|0:0,0:0:0:0:
120,150,104588,6,0,B|217:122|187:173|276:152,1,160,10|2,0:0|3:0,0:0:0:0:
434,222,105082,1,0,3:2:0:0:
425,203,105165,1,0,3:2:0:0:
423,183,105247,1,2,3:2:0:0:
495,141,105412,6,0,P|455:93|351:95,1,160,0|0,3:2|0:0,0:0:0:0:
240,281,105907,2,0,P|270:253|315:243,1,80,8|0,0:0|0:0,0:0:0:0:
455,341,106236,5,2,0:0:0:0:
342,383,106401,2,0,B|335:343|364:316|364:316|368:317|368:317|406:284|393:234,1,160,0|8,3:2|0:0,0:0:0:0:
512,168,106896,2,0,B|492:163|492:163|444:179|444:179|422:169,1,80,0|0,1:2|1:2,0:0:0:0:
200,35,107225,5,10,0:0:0:0:
266,62,107390,1,8,3:0:0:0:
327,87,107555,1,4,3:0:0:0:
119,190,107720,5,4,3:0:0:0:
9,240,107885,1,6,3:2:0:0:
78,310,108214,6,0,B|91:258|91:258|88:254|88:254|103:200,2,111.999996582031,2|2|0,0:0|3:2|0:0,0:0:0:0:
136,359,109039,1,0,0:0:0:0:
228,299,109203,2,0,B|301:294|270:318|337:316,1,111.999996582031,2|0,0:0|0:0,0:0:0:0:
490,359,109863,6,0,P|469:340|456:309,1,55.9999982910157,2|0,3:2|0:0,0:0:0:0:
337,316,110192,2,0,P|348:290|369:272,1,55.9999982910157,2|0,0:0|0:0,0:0:0:0:
439,232,110522,2,0,L|422:117,2,111.999996582031,2|0|2,0:0|0:0|3:2,0:0:0:0:
462,32,111511,5,2,0:0:0:0:
462,32,111676,1,2,0:0:0:0:
391,1,111841,2,0,L|335:21,1,55.9999982910157,2|0,3:2|0:0,0:0:0:0:
277,94,112170,2,0,L|162:60,1,111.999996582031,0|2,0:0|3:2,0:0:0:0:
391,1,112830,2,0,L|335:21,1,55.9999982910157,2|0,0:0|0:0,0:0:0:0:
376,115,113159,6,0,P|392:161|400:227,1,111.999996582031,2|0,0:0|0:0,0:0:0:0:
264,354,113819,1,2,3:2:0:0:
408,324,114148,6,0,B|313:311|362:263|260:255,1,167.999994873047,2|0,0:0|0:0,0:0:0:0:
211,199,114808,2,0,L|152:219,1,55.9999982910157,2|0,0:0|0:0,0:0:0:0:
30,277,115137,2,0,P|42:251|50:218,1,55.9999982910157,2|0,3:2|0:0,0:0:0:0:
143,302,115467,2,0,P|150:329|160:355,1,55.9999982910157,2|0,0:0|0:0,0:0:0:0:
67,384,115797,5,2,0:0:0:0:
67,384,116126,1,2,0:0:0:0:
258,144,116456,2,0,P|226:176|160:188,1,111.999996582031,2|2,3:2|0:0,0:0:0:0:
103,127,117115,2,0,L|131:13,1,111.999996582031,2|0,0:0|3:2,0:0:0:0:
193,70,117610,1,0,3:2:0:0:
311,0,117775,2,0,P|281:12|254:17,1,55.9999982910157,2|0,3:0|0:0,0:0:0:0:
449,184,118104,5,0,1:2:0:0:
291,97,118269,1,0,1:2:0:0:
443,20,118434,6,0,P|426:53|413:96,1,80,6|0,1:2|0:0,0:0:0:0:
357,199,118764,2,0,L|345:152,1,40,2|0,1:2|0:0,0:0:0:0:
163,73,119093,6,0,L|85:52,1,80,8|0,0:0|0:0,0:0:0:0:
226,164,119423,1,0,1:2:0:0:
60,307,119588,6,0,P|102:261|206:267,1,160,2|8,1:0|0:0,0:0:0:0:
356,364,120082,2,0,L|333:288,1,80,0|0,1:2|1:2,0:0:0:0:
247,348,120412,5,8,0:0:0:0:
423,264,120577,1,4,3:0:0:0:
266,222,120742,5,0,1:2:0:0:
38,121,120907,1,0,1:2:0:0:
261,0,121072,5,14,0:0:0:0:
261,0,121236,2,0,B|243:80|281:53|266:142,1,132.00000402832,10|0,0:0|0:0,0:0:0:0:
191,220,121566,6,0,L|144:235,1,44.0000013427735,10|0,0:0|0:0,0:0:0:0:
3,328,121731,2,0,B|5:286|5:286|26:269|26:269|45:213,1,120.000004577637,10|0,0:0|0:0,0:0:0:0:
319,298,122061,6,0,B|340:311|340:311|365:313|365:313|387:329,1,71.9999978027344,10|0,0:0|0:0,0:0:0:0:
475,384,122225,1,10,0:0:0:0:
475,384,122555,5,8,0:0:0:0:
483,356,122637,1,8,0:0:0:0:
480,312,122720,1,8,0:0:0:0:
438,225,122885,5,8,0:0:0:0:
274,175,123050,5,8,0:0:0:0:
160,224,123214,5,8,0:0:0:0:
74,194,123379,6,0,L|30:186,1,35.9999989013672,8|0,3:0|2:0,0:0:0:0:
38,187,123709,6,0,B|136:107|283:184|197:254|337:342|417:265,1,431.999986816407,6|0,1:0|0:0,0:0:0:0:
496,60,124368,6,0,B|405:33|405:33|435:44|443:72,1,143.999995605469,8|0,0:0|2:0,0:0:0:0:
371,103,124698,1,0,0:0:0:0:
252,207,124863,2,0,P|190:226|125:173,1,143.999995605469,2|0,0:3|0:0,0:0:0:0:
118,176,125192,2,0,B|127:144|127:144|121:111|121:111|131:77,1,95.9999970703126,8|0,0:0|0:0,0:0:0:0:
340,221,125522,5,2,0:2:0:0:
476,152,125687,2,0,P|498:241|388:267,1,191.999994140625,8|0,0:0|2:0,0:0:0:0:
254,103,126181,2,0,L|268:42,1,47.9999985351563,8|0,0:0|2:0,0:0:0:0:
333,13,126346,6,0,P|367:50|338:115,1,95.9999970703126,6|0,0:0|2:0,0:0:0:0:
203,233,126676,2,0,P|169:196|198:131,1,95.9999970703126,2|0,0:0|2:0,0:0:0:0:
9,100,127006,2,0,B|60:89|60:89|83:61|83:61|148:49,1,143.999995605469,10|0,0:0|2:0,0:0:0:0:
154,49,127335,1,0,0:0:0:0:
126,257,127500,5,2,0:2:0:0:
226,201,127665,5,2,0:3:0:0:
137,164,127830,1,8,0:0:0:0:
295,336,127995,5,0,3:0:0:0:
375,242,128159,5,2,0:3:0:0:
236,276,128324,1,10,0:0:0:0:
407,151,128489,5,2,0:2:0:0:
288,202,128654,5,10,0:0:0:0:
385,360,128819,1,10,0:0:0:0:
177,348,128984,6,0,B|73:336|118:284|-1:272,1,191.999994140625,6|0,0:0|0:0,0:0:0:0:
71,340,129478,1,0,2:0:0:0:
186,216,129643,2,0,B|178:172|178:172|182:153|182:153|167:60,1,143.999995605469,10|0,0:0|2:0,0:0:0:0:
193,75,129973,5,0,0:0:0:0:
394,185,130137,2,0,P|424:146|394:105,1,95.9999970703126,0|0,0:0|0:0,0:0:0:0:
272,195,130467,2,0,P|263:222|259:262,2,47.9999985351563,8|8|2,0:0|1:3|0:2,0:0:0:0:
393,97,130797,1,0,0:0:0:0:
501,260,130962,5,8,0:0:0:0:
359,198,131126,1,0,0:0:0:0:
335,266,131291,5,2,0:2:0:0:
481,166,131456,1,8,0:0:0:0:
303,64,131621,2,0,B|257:57|257:57|205:73|205:73|141:65,1,143.999995605469,2|0,0:0|2:0,0:0:0:0:
149,64,131951,2,0,P|114:98|136:153,1,95.9999970703126,0|0,0:0|2:0,0:0:0:0:
276,328,132280,6,0,P|329:255|245:239,1,191.999994140625,8|0,0:0|0:0,0:0:0:0:
157,299,132775,2,0,L|231:289,1,47.9999985351563,10|0,0:3|3:0,0:0:0:0:
407,261,132940,5,10,0:3:0:0:
479,280,133269,5,8,0:0:0:0:
393,188,133434,1,8,0:0:0:0:
420,72,133599,5,8,0:0:0:0:
289,179,133764,1,8,0:0:0:0:
165,192,133929,5,4,3:0:0:0:
234,265,134093,1,4,3:0:0:0:
437,53,134258,6,0,P|392:31|228:148,1,256,6|0,0:0|0:0,0:0:0:0:
74,247,134753,5,0,0:0:0:0:
0,363,134918,2,0,P|52:363|134:307,1,143.999995605469,12|0,0:0|2:0,0:0:0:0:
140,300,135247,1,0,0:0:0:0:
284,239,135412,2,0,P|319:273|300:333,1,95.9999970703126,0|0,0:0|0:0,0:0:0:0:
88,144,135742,2,0,B|98:112|98:112|118:94|118:94|130:52,1,95.9999970703126,8|0,0:0|3:0,0:0:0:0:
127,59,136236,6,0,B|149:100|110:168|73:124|25:169|51:248,1,191.999994140625,10|0,0:0|0:0,0:0:0:0:
190,306,136731,2,0,P|214:306|249:295,1,47.9999985351563,8|0,3:2|3:0,0:0:0:0:
351,221,136896,6,0,B|394:224|394:224|401:221|401:221|454:226,1,95.9999970703126,2|0,0:0|0:0,0:0:0:0:
497,168,137143,1,0,0:0:0:0:
494,161,137225,1,2,0:0:0:0:
351,221,137390,1,2,0:3:0:0:
187,137,137555,2,0,B|153:120|119:137|119:137|106:175|61:195,1,143.999995605469,8|0,0:0|0:0,0:0:0:0:
28,119,137885,1,2,0:2:0:0:
183,220,138050,5,2,0:0:0:0:
146,314,138214,1,2,2:0:0:0:
269,185,138379,5,8,0:0:0:0:
363,246,138544,1,2,3:0:0:0:
352,176,138709,1,0,2:0:0:0:
260,364,138874,5,14,0:0:0:0:
372,340,139039,1,2,2:0:0:0:
220,284,139203,5,10,0:0:0:0:
56,232,139368,1,10,0:0:0:0:
160,364,139533,6,0,P|184:316|168:176,1,191.999994140625,6|0,0:0|0:0,0:0:0:0:
104,296,140028,1,0,2:0:0:0:
264,128,140192,6,0,P|314:108|346:189,1,143.999995605469,10|0,0:0|2:0,0:0:0:0:
332,192,140522,1,0,0:0:0:0:
280,16,140687,1,0,0:0:0:0:
384,60,140852,5,0,0:0:0:0:
256,136,141017,1,8,0:0:0:0:
108,80,141181,2,0,P|48:80|8:148,1,143.999995605469,0|0,0:0|2:0,0:0:0:0:
0,156,141511,2,0,B|7:198|7:198|4:208|4:208|12:256,1,95.9999970703126,8|0,0:0|0:0,0:0:0:0:
188,360,141841,5,0,0:0:0:0:
144,224,142006,1,8,0:0:0:0:
336,224,142170,5,6,0:0:0:0:
216,284,142335,2,0,P|260:276|312:300,1,95.9999970703126,8|0,0:0|0:0,0:0:0:0:
384,352,142665,5,0,0:0:0:0:
240,184,142830,2,0,B|232:108|280:132|260:24,1,143.999995605469,14|0,0:0|0:0,0:0:0:0:
252,28,143159,1,8,0:0:0:0:
368,144,143324,5,8,3:0:0:0:
380,68,143489,1,2,3:0:0:0:
284,120,143654,1,0,3:0:0:0:
336,276,143819,1,12,0:0:0:0:
172,336,143984,5,8,0:3:0:0:
172,336,144066,1,8,0:3:0:0:
172,336,144148,1,8,0:0:0:0:
248,288,144313,1,8,0:3:0:0:
416,244,144478,5,8,0:0:0:0:
272,168,144643,1,8,0:0:0:0:
486,105,144808,6,0,B|518:110|537:149|464:217|369:124,1,191.999994140625,6|0,0:0|3:0,0:0:0:0:
160,44,145467,2,0,B|125:38|65:9|65:9|76:61|28:103,1,191.999994140625,10|0,0:0|3:0,0:0:0:0:
160,44,145962,1,0,0:0:0:0:
260,80,146126,2,0,P|308:76|348:28,1,95.9999970703126,2|8,0:2|0:0,0:0:0:0:
336,40,146456,2,0,P|328:104|436:148,1,191.999994140625,0|8,0:0|0:0,0:0:0:0:
484,92,146951,1,0,0:0:0:0:
148,196,147280,1,8,0:0:0:0:
72,92,147445,6,0,P|52:132|56:216,1,95.9999970703126,4|0,0:0|2:0,0:0:0:0:
212,272,147775,2,0,P|232:232|228:148,1,95.9999970703126,0|0,0:0|2:0,0:0:0:0:
104,292,148104,2,0,P|200:296|216:380,1,191.999994140625,8|0,0:0|0:0,0:0:0:0:
104,292,148599,1,8,0:0:0:0:
316,216,148764,5,4,0:0:0:0:
340,288,148929,1,8,0:0:0:0:
232,200,149093,1,8,0:0:0:0:
364,156,149258,1,8,3:0:0:0:
376,160,149341,1,8,3:0:0:0:
380,168,149423,1,8,3:1:0:0:
316,216,149588,5,0,3:0:0:0:
284,144,149753,5,8,3:0:0:0:
324,56,149918,5,8,3:0:0:0:
468,0,150082,5,4,0:0:0:0:
284,144,150247,2,0,B|251:156|251:156|203:137|203:137|167:68|231:16|231:16,1,207.999990478516,2|0,3:0|0:0,0:0:0:0:
384,179,150742,6,0,B|347:219|374:275|374:275|379:278|379:278|410:329|359:384,1,207.999990478516,8|0,0:0|0:0,0:0:0:0:
284,259,151236,2,0,B|230:225|230:225|54:282|54:282|0:249,1,311.999985717774,2|0,0:0|0:0,0:0:0:0:
132,154,151896,5,0,0:0:0:0:
58,42,152061,2,0,P|46:88|17:139,1,103.999995239258,8|0,0:0|0:0,0:0:0:0:
126,302,152390,6,0,B|140:292|140:292|167:292|167:292|180:283,1,51.999997619629,8|0,3:2|3:0,0:0:0:0:
261,384,152555,2,0,B|254:379|254:379|227:378|227:378|213:369,1,51.999997619629,8|0,3:2|3:0,0:0:0:0:
343,124,152720,6,0,B|473:107|501:231|501:231,1,207.999990478516,6|0,3:2|3:0,0:0:0:0:
167,192,153379,2,0,B|185:140|185:140|154:61|154:61|177:-5,1,207.999990478516,10|0,0:0|0:0,0:0:0:0:
311,257,153874,1,0,3:0:0:0:
311,257,154203,1,8,0:0:0:0:
249,192,154368,5,0,3:0:0:0:
406,294,154533,1,0,3:0:0:0:
444,216,154698,5,8,0:0:0:0:
237,323,155028,1,0,3:0:0:0:
444,216,155192,1,0,3:0:0:0:
237,323,155357,6,0,B|120:318|184:244|53:238,1,207.999990478516,6|0,3:2|3:0,0:0:0:0:
346,86,156017,2,0,B|391:55|414:11|414:11|464:46|513:54,1,207.999990478516,10|0,0:0|3:0,0:0:0:0:
254,290,156511,2,0,P|222:256|242:194,1,103.999995239258,0|0,3:0|2:0,0:0:0:0:
338,173,156841,1,8,0:0:0:0:
132,51,157006,6,0,B|113:71|113:71|219:50|219:50|206:66,1,155.999992858887,0|0,3:0|2:0,0:0:0:0:
276,118,157335,6,0,B|221:130|188:92|188:92|193:86|193:86|155:33|88:46,1,207.999990478516,8|0,0:0|0:0,0:0:0:0:
47,0,157830,2,0,P|29:16|33:41,1,51.999997619629,8|0,0:0|3:0,0:0:0:0:
138,230,157995,6,0,B|124:200|124:200|133:154,1,80,0|0,0:0|2:0,0:0:0:0:
6,292,158324,2,0,B|20:262|20:262|11:216,1,80,0|0,0:0|2:0,0:0:0:0:
198,355,158654,6,0,B|222:372|222:372|262:356|262:356|292:282|376:281,1,207.999990478516,10|0,0:0|0:0,0:0:0:0:
198,355,159148,1,0,0:0:0:0:
385,282,159313,6,0,P|383:231|294:189,1,155.999992858887,0|0,3:0|0:0,0:0:0:0:
290,198,159643,5,8,0:3:0:0:
434,122,159808,1,8,0:3:0:0:
240,20,159973,5,8,0:0:0:0:
434,122,160137,1,8,0:0:0:0:
352,68,160302,6,8,B|338:72|338:72|315:70|315:70|302:76,1,51.999997619629,8|0,0:0|2:0,0:0:0:0:
174,186,160467,6,8,B|154:180|154:180|131:183|131:183|109:175,1,60.0000022888184,8|0,0:0|2:0,0:0:0:0:
0,39,160632,5,8,0:0:0:0:
9,35,160797,1,8,0:3:0:0:
8,46,160962,1,0,3:0:0:0:
1,31,161126,1,8,0:3:0:0:
111,194,161291,6,0,B|170:175|209:232|209:232|210:286|273:304,1,207.999990478516,14|0,0:0|0:0,0:0:0:0:
432,324,161786,1,0,3:0:0:0:
262,287,161951,2,0,P|312:295|349:262,1,103.999995239258,0|8,0:0|1:0,0:0:0:0:
512,160,162280,5,0,3:0:0:0:
378,92,162445,1,0,3:0:0:0:
490,21,162610,6,0,B|543:137|426:215|426:215,1,207.999990478516,10|0,0:0|0:0,0:0:0:0:
437,205,163104,2,0,P|451:224|449:200,1,64,8|0,0:0|3:0,0:0:0:0:
361,87,163269,6,0,B|340:79|340:79|300:92|300:92|289:137|239:156,1,155.999992858887,0|0,3:0|0:0,0:0:0:0:
161,283,163599,2,0,B|156:307|156:307|202:273|202:273|179:248|166:198,1,155.999992858887,0|0,3:0|0:0,0:0:0:0:
152,194,163929,6,0,B|231:168|277:237|277:237|272:240|272:240|322:300|402:258,1,272.000005187988,10|0,0:0|0:0,0:0:0:0:
512,121,164423,2,0,B|486:83|486:83|479:16,1,111.999996582031,0|0,3:0|0:0,0:0:0:0:
479,17,164753,1,8,0:0:0:0:
257,72,164918,6,0,B|270:46|270:46|317:32|317:32|398:71|371:156,1,223.999993164063,0|8,3:0|0:0,0:0:0:0:
393,176,165577,6,8,B|376:169|376:169|356:171|356:171|330:161,1,55.9999982910157,8|0,0:0|0:0,0:0:0:0:
169,276,165742,2,8,B|186:269|186:269|206:271|206:271|232:261,1,55.9999982910157,8|0,0:0|0:0,0:0:0:0:
312,384,165907,6,0,B|336:323|282:279|282:279|277:280|277:280|227:231|256:165,1,240.000009155274,6|0,0:0|2:0,0:0:0:0:
133,0,166401,5,0,0:0:0:0:
264,167,166566,2,0,B|206:145|206:145|155:205|61:180,1,207.999990478516,10|0,0:0|0:0,0:0:0:0:
279,29,167061,6,0,P|318:56|314:119,1,103.999995239258,0|0,3:0|0:0,0:0:0:0:
264,167,167390,1,8,0:0:0:0:
386,384,167555,6,0,P|425:357|421:294,1,103.999995239258,0|0,3:0|0:0,0:0:0:0:
361,270,167885,2,0,B|282:298|282:298|278:305|278:305|177:340,1,191.999994140625,8|0,0:0|0:0,0:0:0:0:
120,375,168379,2,0,P|106:362|112:331,1,47.9999985351563,0|0,3:0|3:0,0:0:0:0:
86,86,168544,5,0,3:0:0:0:
146,259,168709,2,0,P|173:225|169:153,1,111.999996582031,8|0,0:0|2:0,0:0:0:0:
508,67,169039,6,0,B|499:86|499:86|500:104|500:104|492:120,1,55.9999982910157,0|0,3:0|3:0,0:0:0:0:
408,299,169203,2,0,B|352:312|294:242|318:176|318:176,1,167.999994873047,12|0,0:0|0:0,0:0:0:0:
319,170,169533,2,0,P|349:169|333:187,1,68.0000012969971,8|0,0:3|2:0,0:0:0:0:
144,361,169698,5,8,0:0:0:0:
144,361,169780,2,0,B|116:382|116:382|73:359|73:359|59:303|-4:287,1,192,2|0,0:0|3:0,0:0:0:0:
251,133,170192,1,12,0:0:0:0:
49,12,170357,5,8,0:3:0:0:
34,21,170440,1,8,0:0:0:0:
46,49,170522,6,0,B|73:58|73:58|85:67|85:67|120:81,1,71.9999978027344,2|0,3:0|0:0,0:0:0:0:
184,189,170687,6,0,B|205:180|205:180|218:164|218:164|246:153,1,64,2|0,3:0|0:0,0:0:0:0:
405,326,170852,6,0,P|405:351|388:370,1,51.999997619629,4|0,3:0|2:0,0:0:0:0:
318,266,171017,6,0,P|317:248|302:229,1,35.9999989013672,4|0,3:0|2:0,0:0:0:0:
144,361,171181,5,6,0:2:0:0:
256,192,177775,12,0,178929,2:0:0:0:
72,136,179093,5,14,0:0:0:0:
393,199,179258,1,8,0:0:0:0:
360,136,179423,5,2,3:0:0:0:
288,216,179588,1,4,3:0:0:0:
368,292,179753,1,8,3:0:0:0:
393,199,180082,5,8,0:0:0:0:
72,262,180247,1,8,0:0:0:0:
105,199,180412,5,2,3:0:0:0:
177,279,180577,1,4,3:0:0:0:
97,355,180742,1,8,3:0:0:0:
260,384,180907,5,0,3:0:0:0:
260,384,180989,1,0,3:0:0:0:
260,384,181072,1,12,0:0:0:0:
272,308,181236,2,0,L|256:140,1,143.999995605469,0|0,3:0|3:0,0:0:0:0:
296,80,181731,5,10,0:0:0:0:
236,376,181896,1,12,0:0:0:0:
184,320,182225,5,0,3:0:0:0:
168,244,182390,1,0,3:0:0:0:
216,184,182555,1,2,3:0:0:0:
288,176,182720,5,10,0:0:0:0:
236,376,182885,1,8,0:0:0:0:
383,331,183050,6,0,L|448:322,1,64,2|2,2:1|2:0,0:0:0:0:
247,375,186346,6,0,B|223:409|137:395|71:292|153:147|357:216|256:144|415:70|337:-51|146:-34|91:74|241:238|389:146|389:146|394:149|394:149|358:234|463:308|541:207|465:176,1,1007.99996923828,6|2,0:0|2:0,0:0:0:0:
256,8,187665,1,6,3:3:0:0:
247,91,187995,6,0,L|255:28,1,53.9999983520508,2|0,3:0|2:0,0:0:0:0:
338,67,188324,6,0,B|387:80|387:80|353:85,1,75.9999979705811,6|0,0:0|2:0,0:0:0:0:
186,164,188654,2,0,P|162:196|190:248,1,80,2|0,1:0|2:0,0:0:0:0:
313,333,188984,2,0,B|352:343|395:315|395:315|349:350|341:405,1,167.999994873047,8|0,0:0|0:0,0:0:0:0:
395,315,189478,6,0,P|433:314|461:362,1,83.9999974365235,2|0,0:2|2:0,0:0:0:0:
241,219,189808,1,8,0:0:0:0:
341,219,189973,6,0,B|352:193|352:193|339:257,1,83.9999974365235,2|0,0:2|0:0,0:0:0:0:
168,354,190302,2,0,B|120:348|120:348|108:352|108:352|28:343,1,125.999996154785,10|0,0:0|2:0,0:0:0:0:
86,238,190632,6,0,P|96:218|98:176,1,41.9999987182618,10|0,0:0|2:0,0:0:0:0:
156,136,190797,6,0,P|154:114|129:78,1,41.9999987182618,10|0,0:0|2:0,0:0:0:0:
0,26,190962,6,0,B|-13:108|-13:108|61:86,1,143.999995605469,6|0,0:0|2:0,0:0:0:0:
60,87,191291,1,0,0:0:0:0:
244,100,191456,5,2,0:0:0:0:
401,26,191621,2,0,B|338:18|314:58|314:58|332:79|322:122,1,143.999995605469,10|0,0:0|2:0,0:0:0:0:
244,100,191951,5,2,0:0:0:0:
372,238,192115,2,0,P|373:174|444:164,1,143.999995605469,2|0,0:2|2:0,0:0:0:0:
392,238,192445,5,8,0:0:0:0:
280,288,192610,1,0,0:0:0:0:
336,384,192775,1,0,0:0:0:0:
192,248,192940,5,8,0:0:0:0:
72,192,193104,2,0,P|40:216|48:284,1,95.9999970703126,0|4,3:0|2:3,0:0:0:0:
204,164,193434,1,8,0:0:0:0:
116,20,193599,5,0,0:0:0:0:
204,164,193764,2,0,B|168:120|188:60|188:60|160:108|92:100,1,191.999994140625,2|0,0:0|2:0,0:0:0:0:
320,24,194258,6,0,B|276:48|272:104|272:104|292:72|336:64,1,143.999995605469,8|0,0:0|2:0,0:0:0:0:
324,64,194588,5,2,3:0:0:0:
204,164,194753,5,8,0:0:0:0:
200,268,194918,5,8,3:0:0:0:
232,332,195082,5,0,3:0:0:0:
244,344,195165,1,4,3:0:0:0:
264,352,195247,1,8,0:0:0:0:
352,372,195412,5,10,0:0:0:0:
312,280,195577,1,8,0:0:0:0:
96,292,195742,5,8,3:0:0:0:
148,168,195907,1,8,3:0:0:0:
392,180,196072,5,10,0:3:0:0:
176,44,196236,2,0,B|104:8|-4:16|-76:104|32:176|88:108,1,320,14|0,0:0|0:0,0:0:0:0:
176,44,196731,5,0,0:0:0:0:
380,148,196896,2,0,P|436:124|388:76,1,143.999995605469,12|0,0:0|2:0,0:0:0:0:
384,76,197225,5,0,0:0:0:0:
172,168,197390,2,0,B|140:176|140:176|260:208,1,143.999995605469,2|0,0:2|2:0,0:0:0:0:
328,224,197720,5,8,0:0:0:0:
492,324,197885,2,0,B|413:294|413:294|361:322|385:370,1,143.999995605469,0|0,0:0|0:0,0:0:0:0:
388,352,198214,2,0,P|420:312|396:264,1,95.9999970703126,10|0,0:0|2:0,0:0:0:0:
472,208,198544,5,0,0:0:0:0:
308,300,198709,1,8,0:0:0:0:
156,244,198874,2,0,P|112:224|8:232,1,143.999995605469,6|0,0:0|2:0,0:0:0:0:
16,316,199203,5,2,0:0:0:0:
164,232,199368,1,0,0:0:0:0:
72,68,199533,2,0,P|28:76|12:128,1,95.9999970703126,8|0,0:0|2:0,0:0:0:0:
52,192,199780,1,2,0:2:0:0:
52,192,199863,5,0,0:0:0:0:
196,148,200028,1,2,0:0:0:0:
120,128,200192,1,0,1:0:0:0:
304,104,200357,5,8,0:0:0:0:
340,228,200522,1,0,3:0:0:0:
456,188,200687,1,0,1:0:0:0:
268,192,200852,5,12,0:0:0:0:
228,348,201017,1,2,0:2:0:0:
312,356,201181,6,0,P|312:332|296:304,1,47.9999985351563,8|0,0:0|2:0,0:0:0:0:
216,248,201346,2,0,P|220:224|240:192,1,47.9999985351563,8|0,0:0|2:0,0:0:0:0:
336,144,201511,6,0,B|288:140|252:176|252:176|292:136|272:72,1,191.999994140625,6|0,0:0|0:0,0:0:0:0:
192,116,202006,1,0,0:0:0:0:
324,240,202170,6,0,P|244:192|144:196,1,191.999994140625,10|0,0:0|0:0,0:0:0:0:
316,252,202665,5,0,0:0:0:0:
156,208,202830,1,0,0:0:0:0:
316,252,202995,5,8,0:0:0:0:
448,188,203159,2,0,B|472:184|508:200|508:200|476:180|472:152,1,95.9999970703126,2|0,0:2|2:0,0:0:0:0:
504,328,203489,6,0,B|472:348|440:340|440:340|436:336|436:336|416:300|456:268,1,143.999995605469,8|0,0:0|2:0,0:0:0:0:
460,268,203819,1,0,0:0:0:0:
288,352,203984,2,0,B|236:360|236:360|268:324,1,95.9999970703126,8|2,0:0|3:1,0:0:0:0:
28,232,204313,5,8,0:0:0:0:
188,292,204478,2,0,P|160:256|104:276,1,95.9999970703126,2|0,0:2|3:0,0:0:0:0:
60,320,204725,1,2,0:2:0:0:
60,320,204808,1,12,0:0:0:0:
376,52,205137,5,0,0:0:0:0:
460,104,205302,2,0,B|440:80|440:80|312:108|312:108|288:68,1,191.999994140625,8|0,0:0|3:0,0:0:0:0:
240,0,205797,5,12,0:0:0:0:
92,28,205962,1,0,3:0:0:0:
88,32,206044,1,0,3:0:0:0:
84,36,206126,1,8,0:0:0:0:
96,108,206291,5,10,0:0:0:0:
224,248,206456,1,8,0:0:0:0:
408,164,206621,1,8,0:0:0:0:
504,292,206786,6,0,P|460:304|432:248,1,95.9999970703126,4|0,0:0|2:0,0:0:0:0:
233,170,207115,2,0,P|263:136|308:148,1,95.9999970703126,2|0,0:2|2:0,0:0:0:0:
307,147,207445,2,0,B|240:160|240:160|196:236|120:200,1,191.999994140625,8|0,0:0|0:0,0:0:0:0:
24,280,207940,2,0,B|80:296|124:248|124:248|104:288|140:348,1,191.999994140625,2|8,0:3|0:0,0:0:0:0:
212,280,208434,1,0,3:3:0:0:
0,28,208764,5,8,0:0:0:0:
100,68,208929,2,0,B|165:60|165:60|168:64|168:64|264:56,1,143.999995605469,0|0,0:0|2:0,0:0:0:0:
248,56,209258,1,8,0:0:0:0:
364,120,209423,6,0,B|388:96|388:96|360:172,1,95.9999970703126,6|0,0:0|0:0,0:0:0:0:
508,196,209753,2,0,B|408:164|436:264|320:224,1,191.999994140625,2|8,0:2|0:0,0:0:0:0:
436,248,210412,5,0,0:0:0:0:
224,152,210577,2,0,B|192:168|192:168|216:248,1,95.9999970703126,8|0,0:0|3:0,0:0:0:0:
216,324,210907,6,0,L|148:352,2,47.9999985351563,0|8|8,3:0|0:3|0:0,0:0:0:0:
408,176,211236,1,8,0:0:0:0:
400,156,211319,1,8,0:0:0:0:
392,136,211401,1,10,0:0:0:0:
312,168,211566,5,8,3:0:0:0:
492,256,211731,2,0,B|452:256|424:280|424:280|420:312|376:340,1,143.999995605469,2|0,0:3|2:0,0:0:0:0:
279,384,212061,6,0,B|296:367|296:367|288:317|288:317|236:296|226:237,1,176.000005371094,4|0,3:2|0:0,0:0:0:0:
70,54,212637,5,0,3:0:0:0:
70,54,212720,2,0,B|63:92|63:92|75:144,1,88.000002685547,8|0,0:0|0:0,0:0:0:0:
174,132,213050,5,0,3:0:0:0:
0,279,213214,2,0,B|47:293|79:265|79:265|78:262|78:262|109:222|161:225,1,176.000005371094,0|8,3:0|0:0,0:0:0:0:
347,101,213709,6,0,P|354:60|325:25,1,88.000002685547,0|0,3:0|0:0,0:0:0:0:
154,224,214039,2,0,P|142:153|229:94,1,176.000005371094,8|0,0:0|3:0,0:0:0:0:
364,254,214533,2,0,B|383:264|383:264|389:263|389:263|415:280,1,44.0000013427735,0|0,3:0|0:0,0:0:0:0:
484,346,214698,6,0,B|473:307|473:307|474:302|474:302|498:275|498:275|500:271|500:271|491:224,1,132.00000402832,0|0,3:0|0:0,0:0:0:0:
491,226,215028,1,0,3:0:0:0:
264,303,215192,1,0,3:0:0:0:
321,359,215357,6,0,B|365:371|391:345|391:345|361:355|326:336,1,132.00000402832,8|0,0:0|0:0,0:0:0:0:
264,303,215687,1,0,0:0:0:0:
130,384,215852,6,0,B|61:406|21:367|15:319|58:305|78:309,1,176.000005371094,0|8,3:0|0:0,0:0:0:0:
265,205,216346,2,0,B|314:183|314:183|321:186|321:186|357:242|422:229,1,176.000005371094,0|8,3:0|0:0,0:0:0:0:
401,143,217006,5,8,0:0:0:0:
393,369,217170,1,8,0:0:0:0:
401,143,217335,2,0,B|362:116|343:75|343:75|309:99|260:109,1,176.000005371094,4|0,3:2|3:0,0:0:0:0:
74,274,217995,6,0,B|108:244|109:200|109:200|105:196|105:196|86:148|127:109,1,176.000005371094,8|0,0:0|3:0,0:0:0:0:
212,0,218489,6,0,B|237:29|237:29|229:80,1,88.000002685547,0|0,3:0|0:0,0:0:0:0:
16,223,218819,5,8,0:0:0:0:
17,129,218984,2,0,B|-8:158|-8:158|0:209,1,88.000002685547,0|0,3:0|0:0,0:0:0:0:
283,373,219313,6,0,B|299:366|299:366|308:340|308:340|271:259|178:290,1,192,8|0,0:0|0:0,0:0:0:0:
80,384,219643,6,0,P|102:358|139:356,1,64,0|0,3:0|0:0,0:0:0:0:
339,320,219808,6,0,P|317:287|281:272,1,80,8|0,0:0|0:0,0:0:0:0:
176,272,219973,5,0,3:0:0:0:
450,94,220137,2,0,P|419:130|338:147,1,128,8|0,0:0|3:0,0:0:0:0:
238,117,220467,2,0,B|244:131|244:131|241:159|241:159|250:177,1,64,0|0,3:0|0:0,0:0:0:0:
484,193,220632,6,0,B|410:216|359:153|359:153|363:147|363:147|309:67|215:100,1,303.999991882324,12|8,3:2|0:0,0:0:0:0:
37,318,221126,6,0,B|9:391|9:391|82:349|82:349|25:212,1,303.999991882324,4|8,3:2|0:0,0:0:0:0:
119,11,221621,5,8,0:0:0:0:
386,143,221786,1,8,0:0:0:0:
325,194,221951,5,8,3:0:0:0:
164,273,222115,1,8,3:0:0:0:
211,342,222280,5,0,3:0:0:0:
297,384,222445,1,0,3:0:0:0:
284,302,222610,6,0,B|295:239|295:239|299:235|299:235|309:174,2,128,2|0|8,3:1|3:0|0:0,0:0:0:0:
284,302,223599,1,0,3:0:0:0:
6,272,223764,6,0,P|48:230|123:241,1,132.00000402832,0|0,3:0|0:0,0:0:0:0:
284,302,224093,6,0,B|260:289|260:289|247:290|247:290|220:280,1,64,8|0,0:0|0:0,0:0:0:0:
144,323,224258,2,0,P|174:361|232:365,1,103.999995239258,0|0,3:0|3:0,0:0:0:0:
331,236,224506,5,0,3:0:0:0:
323,223,224588,2,0,P|358:198|406:202,1,80,8|0,0:0|0:0,0:0:0:0:
512,288,224753,6,0,B|501:331|501:331|498:335|498:335|487:384,1,100,4|0,3:2|0:0,0:0:0:0:
