osu file format v14

[General]
AudioFilename: audio.mp3
AudioLeadIn: 0
PreviewTime: 184698
Countdown: 0
SampleSet: Normal
StackLeniency: 0.7
Mode: 0
LetterboxInBreaks: 0
WidescreenStoryboard: 1

[Editor]
Bookmarks: 1080,48552,86794,123717,150090,179101,212068
DistanceSpacing: 0.6
BeatDivisor: 4
GridSize: 32
TimelineZoom: 1.7

[Metadata]
Title:Alive
TitleUnicode:Alive
Artist:Ayano Mashiro
ArtistUnicode:綾野ましろ
Creator:tomadoi
Version:Hard
Source:ダーウィンズゲーム
Tags:darwin's darwins game ending ed rock kalibe shiinoha kotone japanese anime full version door weapon dog food shady -[shady]-
BeatmapID:3020734
BeatmapSetID:1098516

[Difficulty]
HPDrainRate:5
CircleSize:3.5
OverallDifficulty:6.5
ApproachRate:8
SliderMultiplier:1.4
SliderTickRate:1

[Events]
//Background and Video events
0,0,"cropped-1920-1080-1061123.jpg",0,0
//Break Periods
2,11821,15322
2,32920,40212
2,108085,112409
2,150282,159882
2,171381,175706
//Storyboard Layer 0 (Background)
//Storyboard Layer 1 (Fail)
//Storyboard Layer 2 (Pass)
//Storyboard Layer 3 (Foreground)
//Storyboard Layer 4 (Overlay)
//Storyboard Sound Samples

[TimingPoints]
1072,329.67032967033,4,2,1,70,1,0
40962,-125,4,2,1,57,0,0
43269,-100,4,2,1,57,0,0
45907,-100,4,2,4,57,0,0
46072,-100,4,2,1,57,0,0
48544,-83.3333333333333,4,2,1,100,0,0
49039,-83.3333333333333,4,2,1,15,0,0
49203,-83.3333333333333,4,1,1,70,0,0
59093,-83.3333333333333,4,1,1,90,0,0
59423,-83.3333333333333,4,1,1,70,0,0
74918,-100,4,1,1,70,0,0
86786,-100,4,2,1,57,0,0
121071,-100,4,2,4,57,0,0
121236,-100,4,2,1,57,0,0
123709,-83.3333333333333,4,2,1,100,0,0
124203,-83.3333333333333,4,2,1,15,0,0
124368,-83.3333333333333,4,1,1,70,0,0
134258,-83.3333333333333,4,1,1,90,0,0
134588,-83.3333333333333,4,1,1,70,0,0
163516,-83.3333333333333,4,1,1,5,0,0
163599,-83.3333333333333,4,1,1,70,0,0
163846,-83.3333333333333,4,1,1,5,0,0
163928,-83.3333333333333,4,1,1,70,0,0
170687,-83.3333333333333,4,1,1,70,0,0
170851,-83.3333333333333,4,1,1,65,0,0
171016,-83.3333333333333,4,1,1,60,0,0
171181,-100,4,1,1,60,0,0
179093,-100,4,2,4,60,0,0
179258,-100,4,1,1,60,0,0
184368,-100,4,1,1,10,0,0
186346,-142.857142857143,4,1,1,100,0,0
186676,-142.857142857143,4,1,1,70,0,0
188324,-83.3333333333333,4,1,1,70,0,0
196236,-83.3333333333333,4,1,1,90,0,0
196566,-83.3333333333333,4,1,1,70,0,0
212060,-90.9090909090909,4,1,1,70,0,0
219725,-90.9090909090909,4,1,1,5,0,0
219807,-90.9090909090909,4,1,1,70,0,0
219890,-90.9090909090909,4,1,1,5,0,0
219972,-90.9090909090909,4,1,1,70,0,0
222610,-100,4,1,1,70,0,0
224753,-100,4,2,3,70,0,0
224835,-100,4,1,1,5,0,0

[Colours]
Combo1 : 211,148,84
Combo2 : 170,140,119

[HitObjects]
439,227,1072,6,0,P|419:294|411:364,2,140,6|0|8,1:2|0:0|0:0,0:0:0:0:
370,37,2061,1,0,1:2:0:0:
311,98,2225,2,0,P|269:106|169:152,1,140,2|8,1:2|0:0,0:0:0:0:
90,94,2720,2,0,P|84:125|74:168,1,70,2|0,1:2|0:0,0:0:0:0:
105,241,3050,1,10,0:0:0:0:
112,251,3379,1,2,0:0:0:0:
26,319,3544,1,8,0:0:0:0:
132,364,3709,6,0,B|211:342|198:386|286:366,2,140,2|2|8,1:2|1:2|0:0,0:0:0:0:
0,215,4698,1,0,1:2:0:0:
58,145,4863,2,0,P|92:99|145:7,1,140,0|8,1:2|0:0,0:0:0:0:
206,109,5357,2,0,P|239:116|282:133,1,70,0|0,1:2|0:0,0:0:0:0:
386,53,5687,1,10,0:0:0:0:
392,45,6017,2,0,P|429:41|468:29,1,70,10|8,0:0|0:0,0:0:0:0:
405,151,6346,6,0,B|376:194|376:194|355:290,1,140,6|0,1:1|1:2,0:0:0:0:
281,368,6841,1,0,0:0:0:0:
237,273,7006,2,0,P|202:259|166:237,1,70,8|0,0:0|0:0,0:0:0:0:
62,187,7335,1,0,1:2:0:0:
142,167,7500,6,0,P|138:218|118:324,1,140,0|8,1:2|0:0,0:0:0:0:
193,382,7995,1,0,1:2:0:0:
354,216,8324,2,0,P|399:202|502:187,1,140,8|0,0:0|0:0,0:0:0:0:
415,98,8819,1,10,0:0:0:0:
415,98,8984,6,0,B|337:90|371:43|279:37,1,140,6|0,1:1|1:2,0:0:0:0:
225,205,9643,2,0,B|147:213|181:260|89:266,1,140,10|0,0:1|1:2,0:0:0:0:
1,309,10137,2,0,P|15:242|27:158,1,140,2|8,1:2|0:0,0:0:0:0:
73,82,10632,2,0,P|110:85|134:112,1,70,0|8,1:2|0:0,0:0:0:0:
228,50,10962,1,8,0:0:0:0:
228,50,11126,2,0,P|266:43|308:29,1,70,8|4,3:0|3:0,0:0:0:0:
376,83,11456,1,4,0:3:0:0:
463,6,11621,1,2,0:0:0:0:
329,189,16072,5,8,0:0:0:0:
400,215,16236,1,10,0:0:0:0:
454,160,16401,1,0,1:2:0:0:
429,86,16566,2,0,P|419:51|412:16,1,70,4|0,3:0|0:0,0:0:0:0:
328,97,16896,5,6,3:2:0:0:
328,97,17061,2,0,B|256:90|259:132|190:123,1,140,0|0,3:2|0:0,0:0:0:0:
95,38,17555,2,0,P|72:68|56:177,1,140,8|2,0:0|3:2,0:0:0:0:
127,249,18050,1,0,3:2:0:0:
66,328,18214,5,0,0:0:0:0:
66,328,18379,2,0,B|80:349|98:369|98:369|155:362|186:343,1,140,8|0,0:0|0:0,0:0:0:0:
256,262,18874,2,0,B|248:228|248:228|242:188,1,70,0|0,1:2|0:0,0:0:0:0:
342,303,19203,2,0,P|376:302|467:375,1,140,2|2,3:0|3:2,0:0:0:0:
502,276,19698,6,0,P|485:212|472:129,1,140,0|0,3:2|0:0,0:0:0:0:
425,71,20192,1,8,0:0:0:0:
327,132,20357,1,0,0:0:0:0:
280,45,20522,2,0,P|245:37|205:19,1,70,2|0,3:2|3:2,0:0:0:0:
106,71,20852,5,0,0:0:0:0:
178,152,21017,1,8,0:0:0:0:
87,188,21181,2,0,P|71:254|51:326,1,140,2|10,3:0|0:0,0:0:0:0:
142,377,21676,1,0,3:2:0:0:
207,296,21841,1,10,0:0:0:0:
207,296,22006,1,8,0:0:0:0:
290,345,22170,5,6,3:2:0:0:
290,345,22335,2,0,B|362:333|359:380|439:366,1,140,0|0,3:2|0:0,0:0:0:0:
495,287,22830,2,0,P|487:255|466:210,1,70,8|0,0:0|0:0,0:0:0:0:
367,175,23159,1,2,3:2:0:0:
367,175,23324,2,0,P|378:101|406:41,1,140,0|8,3:2|0:0,0:0:0:0:
288,88,23819,2,0,L|213:69,1,70,0|0,1:2|0:0,0:0:0:0:
185,180,24148,2,0,P|163:139|66:114,1,140,8|0,0:0|0:0,0:0:0:0:
19,187,24643,5,0,3:2:0:0:
19,187,24725,1,0,3:2:0:0:
19,187,24808,1,2,3:2:0:0:
97,242,24973,2,0,B|77:319|123:312|111:386,1,140,0|0,3:2|0:0,0:0:0:0:
198,292,25467,1,8,0:0:0:0:
209,285,25797,1,2,3:2:0:0:
282,336,25962,2,0,B|339:342|339:342|361:358|361:358|428:361,1,140,0|8,3:2|0:0,0:0:0:0:
414,260,26456,2,0,P|430:231|444:190,1,70,0|0,3:2|0:0,0:0:0:0:
336,115,26786,1,10,3:2:0:0:
336,115,26951,2,0,P|311:160|295:259,1,140,0|2,3:2|3:0,0:0:0:0:
280,359,27445,5,2,3:2:0:0:
191,306,27610,2,0,B|125:292|127:341|47:328,1,140,0|0,3:2|0:0,0:0:0:0:
0,242,28104,2,0,P|13:209|23:165,1,70,8|0,0:0|0:0,0:0:0:0:
122,140,28434,1,0,3:2:0:0:
122,140,28599,2,0,P|109:106|87:67,1,70,0|0,3:2|0:0,0:0:0:0:
211,0,28929,1,8,0:0:0:0:
266,52,29093,2,0,P|313:60|390:111,1,140,0|8,1:2|0:0,0:0:0:0:
442,324,29753,1,2,3:0:0:0:
386,247,29918,1,2,0:0:0:0:
449,182,30082,5,2,3:2:0:0:
449,182,30247,2,0,P|468:123|501:31,1,140,0|0,3:2|0:0,0:0:0:0:
382,113,30742,2,0,P|348:119|303:135,1,70,8|0,0:0|0:0,0:0:0:0:
226,207,31072,1,2,3:2:0:0:
193,140,31236,2,0,P|143:128|65:80,1,140,0|8,3:2|0:0,0:0:0:0:
0,182,31731,2,0,L|13:257,1,70,0|0,1:2|1:2,0:0:0:0:
84,315,32061,1,8,0:0:0:0:
155,288,32225,1,8,3:0:0:0:
230,303,32390,1,8,3:0:0:0:
285,356,32555,1,4,3:0:0:0:
289,368,32720,5,2,0:0:0:0:
396,384,40962,6,0,P|410:341|441:276,1,112,2|2,0:0|3:2,0:0:0:0:
394,184,41621,2,0,B|290:149|287:269|173:231,1,224,2|0,0:0|0:0,0:0:0:0:
102,159,42610,1,0,0:0:0:0:
94,153,42940,2,0,P|101:122|111:90,1,56,2|2,0:0|0:0,0:0:0:0:
201,19,43269,6,0,P|259:30|345:43,1,140,6|6,3:0|3:0,0:0:0:0:
412,120,43764,1,0,0:0:0:0:
412,120,43929,2,0,P|401:147|390:196,1,70,6|0,3:0|0:0,0:0:0:0:
308,225,44258,2,0,P|313:253|330:300,1,70,6|0,3:0|0:0,0:0:0:0:
237,369,44588,6,0,P|201:331|98:319,1,140,6|8,3:0|0:0,0:0:0:0:
35,251,45082,1,0,0:0:0:0:
109,190,45247,2,0,P|118:153|134:122,1,70,10|0,0:0|0:0,0:0:0:0:
178,9,45577,1,10,0:0:0:0:
178,9,45742,1,0,0:0:0:0:
261,125,45907,5,14,0:0:0:0:
261,125,46072,2,0,P|282:184|321:261,1,140,10|8,0:0|3:0,0:0:0:0:
255,348,46566,1,4,3:0:0:0:
242,352,46896,1,10,0:0:0:0:
163,278,47061,2,0,B|102:250|94:312|18:283,1,140,10|8,0:0|0:0,0:0:0:0:
12,276,47473,1,8,0:0:0:0:
12,276,47555,1,8,0:0:0:0:
45,198,47720,1,8,0:0:0:0:
22,113,47885,2,0,P|16:77|0:39,1,70,10|8,0:0|0:0,0:0:0:0:
122,101,48214,1,10,0:0:0:0:
152,33,48379,1,8,0:0:0:0:
251,106,48544,6,0,P|337:124|479:217,1,251.999992309571,6|0,1:1|0:0,0:0:0:0:
364,257,49203,2,0,P|347:293|333:340,1,83.9999974365235,8|0,1:0|0:0,0:0:0:0:
279,197,49533,1,0,1:0:0:0:
336,141,49698,2,0,B|422:132|399:68|483:66,1,167.999994873047,0|8,1:0|1:0,0:0:0:0:
512,139,50192,1,0,0:0:0:0:
355,363,50522,2,0,P|314:344|272:333,1,83.9999974365235,8|0,0:0|0:0,0:0:0:0:
197,255,50852,1,0,0:0:0:0:
143,318,51017,1,8,0:0:0:0:
81,219,51181,6,0,P|98:170|117:80,1,125.999996154785,2|0,0:0|0:0,0:0:0:0:
114,97,51511,2,0,L|202:74,1,83.9999974365235,2|0,0:0|0:0,0:0:0:0:
294,0,51841,2,0,P|338:44|333:160,1,167.999994873047,8|0,0:0|0:0,0:0:0:0:
207,202,52335,2,0,P|163:246|168:362,1,167.999994873047,0|8,0:0|0:0,0:0:0:0:
248,326,52830,2,0,L|342:352,1,83.9999974365235,0|0,0:0|0:0,0:0:0:0:
433,308,53159,1,10,0:0:0:0:
396,231,53324,1,0,0:0:0:0:
490,169,53489,2,0,P|496:129|511:78,1,83.9999974365235,10|8,0:0|0:0,0:0:0:0:
393,15,53819,6,0,B|326:27|326:27|297:54|297:54|228:65,1,167.999994873047,6|0,0:2|0:0,0:0:0:0:
60,170,54478,2,0,B|127:182|127:182|156:209|156:209|225:220,1,167.999994873047,8|0,0:0|0:0,0:0:0:0:
308,187,54973,2,0,P|300:275|273:357,1,167.999994873047,0|8,0:0|0:0,0:0:0:0:
384,318,55467,2,0,P|423:304|461:286,1,83.9999974365235,0|0,0:0|0:0,0:0:0:0:
496,182,55797,1,10,0:0:0:0:
446,126,55962,2,0,P|388:113|289:42,1,167.999994873047,0|8,0:0|0:0,0:0:0:0:
207,128,56456,6,0,B|130:106|133:188|36:163,2,167.999994873047,2|0|10,0:0|0:0|0:0,0:0:0:0:
397,251,57445,1,0,0:0:0:0:
315,329,57610,2,0,P|307:263|293:150,1,167.999994873047,0|0,0:0|0:0,0:0:0:0:
400,127,58104,2,0,P|407:86|414:38,1,83.9999974365235,8|8,0:0|0:0,0:0:0:0:
302,0,58434,5,8,0:0:0:0:
220,22,58599,1,8,0:3:0:0:
186,99,58764,1,8,0:3:0:0:
212,178,58929,1,8,0:3:0:0:
322,241,59093,6,0,B|411:250|394:317|485:316|485:316|448:322|419:349,1,251.999992309571,6|0,0:2|0:0,0:0:0:0:
304,384,59753,2,0,P|267:356|146:332,1,167.999994873047,12|0,0:0|0:0,0:0:0:0:
17,356,60247,2,0,P|23:314|39:275,1,83.9999974365235,0|0,0:0|0:0,0:0:0:0:
142,215,60577,1,8,0:0:0:0:
60,179,60742,2,0,P|44:140|37:98,1,83.9999974365235,0|0,0:0|0:0,0:0:0:0:
121,3,61072,1,8,0:0:0:0:
131,13,61401,1,0,0:0:0:0:
218,83,61566,1,8,0:0:0:0:
299,19,61731,6,0,P|356:32|431:41,1,125.999996154785,6|0,0:0|0:0,0:0:0:0:
441,36,62061,2,0,B|455:61|455:61|464:127,1,83.9999974365235,2|0,0:0|0:0,0:0:0:0:
342,138,62390,2,0,P|307:159|294:290,1,167.999994873047,8|0,0:0|0:0,0:0:0:0:
355,351,62885,1,0,0:0:0:0:
235,382,63050,6,0,P|194:364|153:356,1,83.9999974365235,0|8,0:0|0:0,0:0:0:0:
150,247,63379,1,0,0:0:0:0:
88,200,63544,2,0,P|45:214|9:235,1,83.9999974365235,2|12,0:0|0:0,0:0:0:0:
152,123,63874,1,0,0:0:0:0:
100,62,64039,2,0,P|149:85|269:114,1,167.999994873047,10|6,0:0|0:0,0:0:0:0:
472,41,64698,5,0,0:0:0:0:
472,41,64863,1,0,0:0:0:0:
401,88,65028,2,0,B|371:183|441:156|416:269,1,167.999994873047,10|0,0:0|0:0,0:0:0:0:
344,333,65522,1,0,0:0:0:0:
254,283,65687,2,0,P|223:304|176:327,2,83.9999974365235,0|8|0,0:0|0:0|0:0,0:0:0:0:
256,29,66346,2,0,P|237:81|187:202,1,167.999994873047,10|0,0:0|0:0,0:0:0:0:
249,261,66841,1,8,0:0:0:0:
332,207,67006,6,0,B|421:194|388:134|484:133,1,167.999994873047,0|0,0:0|0:0,0:0:0:0:
341,93,67500,1,0,0:0:0:0:
341,93,67665,2,0,B|252:80|285:20|189:19,1,167.999994873047,12|14,0:0|0:0,0:0:0:0:
105,86,68159,1,0,0:0:0:0:
22,22,68324,6,0,P|14:86|-1:162,1,125.999996154785,0|0,0:0|0:0,0:0:0:0:
21,159,68654,2,0,L|38:246,1,83.9999974365235,8|8,0:0|0:3,0:0:0:0:
100,346,68984,5,8,0:0:0:0:
141,273,69148,1,8,0:0:0:0:
219,243,69313,1,10,0:0:0:0:
299,268,69478,1,10,0:0:0:0:
385,355,69643,6,0,P|400:311|453:196,1,167.999994873047,6|0,0:0|0:0,0:0:0:0:
280,302,70302,2,0,P|265:258|212:143,1,167.999994873047,10|0,0:0|0:0,0:0:0:0:
135,114,70797,1,0,0:0:0:0:
94,220,70962,2,0,P|56:205|0:197,1,83.9999974365235,0|8,0:0|0:0,0:0:0:0:
47,310,71291,1,0,0:0:0:0:
142,103,71621,1,8,0:0:0:0:
223,155,71786,2,0,P|274:151|383:100,1,167.999994873047,2|10,0:3|0:0,0:0:0:0:
464,40,72280,6,0,P|472:80|488:127,1,83.9999974365235,4|0,0:0|0:0,0:0:0:0:
390,190,72610,2,0,P|381:231|368:270,1,83.9999974365235,0|0,0:0|0:0,0:0:0:0:
436,380,72940,2,0,P|404:333|278:335,1,167.999994873047,8|0,0:0|0:0,0:0:0:0:
229,245,73434,1,8,0:0:0:0:
178,362,73599,6,0,P|138:354|113:317,1,83.9999974365235,0|8,0:0|0:0,0:0:0:0:
26,230,73929,1,8,0:0:0:0:
107,154,74093,1,0,0:0:0:0:
107,154,74176,1,0,0:0:0:0:
107,154,74258,2,0,P|116:110|128:68,1,83.9999974365235,0|0,0:0|0:0,0:0:0:0:
227,26,74588,1,0,0:0:0:0:
302,94,74753,1,0,0:0:0:0:
389,14,74918,6,0,P|420:37|455:132,1,140,6|2,0:0|1:2,0:0:0:0:
347,202,75412,1,0,0:0:0:0:
347,202,75577,2,0,P|327:230|314:282,1,70,8|0,0:0|2:0,0:0:0:0:
319,384,75907,1,0,0:0:0:0:
247,327,76072,2,0,P|198:347|107:352,1,140,0|8,0:0|0:0,0:0:0:0:
149,253,76566,2,0,L|135:183,1,70,2|0,1:2|2:2,0:0:0:0:
56,95,76896,1,8,0:0:0:0:
49,85,77225,1,2,2:0:0:0:
136,27,77390,1,8,0:0:0:0:
226,89,77555,6,0,P|269:100|366:145,1,140,2|0,0:2|0:0,0:0:0:0:
490,246,78214,2,0,P|447:257|350:302,1,140,10|0,0:2|0:0,0:0:0:0:
265,358,78709,2,0,B|284:284|243:290|257:217,1,140,2|8,0:2|0:0,0:0:0:0:
316,146,79203,1,2,0:0:0:0:
324,136,79533,2,0,P|309:104|303:70,1,70,10|0,0:0|0:0,0:0:0:0:
204,9,79863,1,10,0:0:0:0:
167,80,80028,1,10,0:0:0:0:
64,32,80192,6,0,P|56:80|25:174,1,140,2|2,0:2|2:0,0:0:0:0:
242,180,80852,2,0,P|264:246|277:314,1,140,10|2,1:0|2:0,0:0:0:0:
381,254,81346,1,2,0:0:0:0:
392,258,81676,1,8,0:0:0:0:
455,214,81841,2,0,P|462:179|475:147,1,70,2|0,0:0|0:0,0:0:0:0:
385,23,82170,1,8,0:0:0:0:
382,124,82335,2,0,P|339:137|263:195,1,140,2|8,0:0|0:0,0:0:0:0:
207,285,82830,6,0,B|143:276|149:328|66:320,1,140,2|0,0:2|0:0,0:0:0:0:
278,338,83489,2,0,B|342:329|336:381|419:373,1,140,10|0,0:0|3:0,0:0:0:0:
489,302,83984,2,0,P|473:234|457:154,1,140,2|8,3:1|0:0,0:0:0:0:
488,79,84478,1,2,0:0:0:0:
419,32,84643,2,0,P|426:15|432:-1,2,35,0|2|8,0:0|0:2|0:0,0:0:0:0:
338,50,84973,1,8,3:0:0:0:
304,128,85137,2,0,P|273:142|246:164,1,70,10|10,0:0|0:0,0:0:0:0:
150,84,85467,5,8,0:0:0:0:
150,84,85632,1,6,0:3:0:0:
404,126,85962,1,0,3:0:0:0:
404,126,86044,1,0,3:0:0:0:
404,126,86126,1,8,3:2:0:0:
463,184,86291,1,4,3:0:0:0:
427,260,86456,1,8,3:0:0:0:
199,366,86786,5,6,3:2:0:0:
190,355,87115,2,0,P|154:349|112:342,1,70,0|0,0:0|0:0,0:0:0:0:
33,265,87445,1,8,0:0:0:0:
88,215,87610,2,0,P|81:151|55:69,1,140,0|0,0:0|3:2,0:0:0:0:
168,109,88104,5,0,0:0:0:0:
168,109,88269,2,0,B|247:99|232:131|307:125,1,140,8|0,0:0|0:0,0:0:0:0:
416,165,88764,2,0,P|422:199|433:232,1,70,10|0,0:0|0:0,0:0:0:0:
351,292,89093,1,0,0:0:0:0:
272,248,89258,5,2,3:2:0:0:
272,248,89341,1,0,3:2:0:0:
272,248,89423,2,0,P|237:261|199:268,1,70,2|0,3:2|3:2,0:0:0:0:
467,363,89918,1,0,0:0:0:0:
499,280,90082,2,0,P|484:231|442:148,1,140,8|2,0:0|0:0,0:0:0:0:
441,52,90577,1,0,3:2:0:0:
441,52,90742,6,0,L|367:76,1,70,0|8,0:0|0:0,0:0:0:0:
240,147,91072,1,2,3:2:0:0:
201,79,91236,2,0,L|120:56,1,70,0|8,0:0|0:0,0:0:0:0:
30,133,91566,1,4,3:0:0:0:
30,133,91731,1,2,0:0:0:0:
277,232,92061,5,2,3:2:0:0:
215,302,92225,2,0,B|165:313|165:313|133:306|133:306|78:318,1,140,0|0,3:2|0:0,0:0:0:0:
4,269,92720,1,8,0:0:0:0:
133,144,93050,2,0,P|143:175|160:214,1,70,2|0,0:0|3:2,0:0:0:0:
220,291,93379,5,0,0:0:0:0:
290,255,93544,2,0,L|366:276,1,70,8|2,0:0|0:0,0:0:0:0:
433,201,93874,1,0,3:2:0:0:
433,201,93956,1,0,3:2:0:0:
433,201,94039,2,0,L|414:128,1,70,0|8,3:2|0:0,0:0:0:0:
302,128,94368,1,2,0:0:0:0:
418,355,96346,5,0,0:0:0:0:
471,296,96511,2,0,P|481:261|499:221,1,70,8|8,0:0|0:0,0:0:0:0:
358,202,96841,1,8,3:0:0:0:
358,202,97006,2,0,P|348:167|330:127,1,70,4|4,3:0|3:0,0:0:0:0:
404,49,97335,6,0,P|385:26|276:21,1,140,2|2,1:2|1:2,0:0:0:0:
205,111,97830,1,0,0:0:0:0:
205,111,97995,2,0,P|196:141|188:181,1,70,8|0,0:0|0:0,0:0:0:0:
92,145,98324,2,0,P|101:175|109:215,1,70,2|0,3:2|3:2,0:0:0:0:
22,288,98654,2,0,B|92:286|83:329|158:319,1,140,0|2,0:0|0:0,0:0:0:0:
261,356,99148,1,0,3:2:0:0:
314,299,99313,2,0,B|386:308|377:265|447:267,1,140,8|2,0:0|0:0,0:0:0:0:
491,184,99808,5,0,3:2:0:0:
491,184,99890,1,0,3:2:0:0:
491,184,99973,1,2,3:2:0:0:
445,99,100137,2,0,P|400:95|330:170,1,140,0|0,3:2|0:0,0:0:0:0:
374,242,100632,1,8,0:0:0:0:
367,254,100962,1,2,3:2:0:0:
299,298,101126,6,0,P|264:283|231:278,1,70,0|0,3:2|0:0,0:0:0:0:
176,187,101456,1,8,0:0:0:0:
176,187,101621,2,0,P|141:193|109:206,1,70,2|0,1:2|0:0,0:0:0:0:
224,98,101951,1,8,0:0:0:0:
224,98,102115,2,0,P|176:70|91:51,1,140,2|2,0:0|0:0,0:0:0:0:
39,159,102610,5,2,3:2:0:0:
39,159,102775,2,0,L|7:299,1,140,0|0,3:2|0:0,0:0:0:0:
67,367,103269,2,0,P|101:372|134:384,1,70,8|0,0:0|0:0,0:0:0:0:
237,306,103599,1,2,3:2:0:0:
295,359,103764,2,0,P|338:347|418:288,1,140,0|8,3:2|0:0,0:0:0:0:
469,368,104258,1,0,1:2:0:0:
315,240,104588,2,0,P|328:195|387:113,1,140,10|2,0:0|3:0,0:0:0:0:
463,166,105082,1,0,3:2:0:0:
467,72,105247,6,0,P|440:58|405:33,1,70,2|0,3:2|3:2,0:0:0:0:
341,111,105577,1,0,0:0:0:0:
341,111,105742,2,0,P|325:84|310:44,1,70,0|8,0:0|0:0,0:0:0:0:
166,230,106236,1,2,0:0:0:0:
105,175,106401,2,0,P|113:128|159:40,1,140,0|8,3:2|0:0,0:0:0:0:
235,11,106896,1,0,1:2:0:0:
290,70,107061,1,0,1:2:0:0:
231,142,107225,5,10,0:0:0:0:
231,142,107390,1,8,3:0:0:0:
306,197,107555,2,0,P|316:229|328:263,1,70,4|4,3:0|3:0,3:0:0:0:
242,321,107885,5,6,3:2:0:0:
256,192,113159,12,2,117115,0:0:0:0:
111,39,117775,6,0,P|94:91|69:151,1,105,2|0,3:0|0:0,0:0:0:0:
93,155,118104,2,0,L|106:226,1,70,0|0,1:2|1:2,0:0:0:0:
47,329,118434,6,0,P|82:363|175:359,1,140,6|2,1:2|1:2,0:0:0:0:
227,198,119093,2,0,P|262:164|355:168,1,140,8|0,0:0|1:2,0:0:0:0:
436,213,119588,2,0,P|421:266|412:331,1,105,2|0,1:0|0:0,0:0:0:0:
427,348,119918,1,8,0:0:0:0:
341,381,120082,2,0,P|305:367|268:359,1,70,0|0,1:2|1:2,0:0:0:0:
193,303,120412,1,8,0:0:0:0:
244,238,120577,2,0,P|245:192|212:96,1,140,4|0,3:0|1:2,0:0:0:0:
141,38,121072,5,14,0:0:0:0:
141,38,121236,1,10,0:0:0:0:
216,103,121566,5,10,0:0:0:0:
216,103,121731,1,10,0:0:0:0:
303,81,122061,5,10,0:0:0:0:
303,81,122225,1,10,0:0:0:0:
341,7,122555,5,8,0:0:0:0:
341,7,122637,1,8,0:0:0:0:
341,7,122720,1,8,0:0:0:0:
406,56,122885,1,8,0:0:0:0:
424,138,123050,2,0,P|416:176|395:214,1,70,8|8,0:0|0:0,0:0:0:0:
508,127,123379,1,8,3:0:0:0:
340,277,123709,6,0,P|285:276|106:356,1,251.999992309571,6|0,1:0|0:0,0:0:0:0:
12,290,124368,2,0,B|31:204|89:242|116:158,1,167.999994873047,8|0,0:0|0:0,0:0:0:0:
69,85,124863,2,0,P|109:71|157:48,1,83.9999974365235,2|0,0:3|0:0,0:0:0:0:
227,136,125192,1,8,0:0:0:0:
227,136,125357,2,0,P|263:156|300:188,1,83.9999974365235,0|2,0:0|0:2,0:0:0:0:
394,119,125687,1,8,0:0:0:0:
407,106,126017,2,0,P|392:62|385:24,1,83.9999974365235,0|8,2:0|0:0,0:0:0:0:
292,85,126346,6,0,P|279:140|238:249,2,167.999994873047,6|2|10,0:0|0:0|0:0,0:0:0:0:
395,224,127335,1,0,0:0:0:0:
326,271,127500,2,0,B|243:248|243:314|156:294,1,167.999994873047,2|8,0:2|0:0,0:0:0:0:
60,258,127995,2,0,P|67:218|86:172,1,83.9999974365235,0|2,3:0|0:3,0:0:0:0:
77,76,128324,2,0,P|36:52|-4:33,2,83.9999974365235,10|2|10,0:0|0:2|0:0,0:0:0:0:
166,54,128819,1,10,0:0:0:0:
209,136,128984,6,0,P|220:193|258:317,1,167.999994873047,6|0,0:0|0:0,0:0:0:0:
438,374,129643,2,0,P|462:293|480:211,1,167.999994873047,10|0,0:0|0:0,0:0:0:0:
429,127,130137,2,0,P|395:144|355:175,1,83.9999974365235,0|0,0:0|0:0,0:0:0:0:
332,253,130467,1,8,0:0:0:0:
332,253,130632,1,2,0:2:0:0:
252,181,130797,1,0,0:0:0:0:
181,254,130962,2,0,P|124:263|34:343,1,167.999994873047,8|2,0:0|0:2,0:0:0:0:
0,251,131456,6,0,L|24:160,1,83.9999974365235,8|2,0:0|0:0,0:0:0:0:
325,5,132280,2,0,B|350:71|350:71|379:85|379:85|402:150,1,167.999994873047,8|0,0:0|0:0,0:0:0:0:
344,229,132775,1,10,0:3:0:0:
259,171,132940,2,0,P|217:160|140:129,1,125.999996154785,10|0,0:3|0:0,0:0:0:0:
120,149,133269,2,0,P|80:167|42:184,1,83.9999974365235,8|8,0:0|0:0,0:0:0:0:
16,276,133599,1,8,0:0:0:0:
107,260,133764,1,8,0:0:0:0:
177,318,133929,1,4,3:0:0:0:
177,318,134093,1,4,3:0:0:0:
278,383,134258,6,0,P|296:333|479:261,1,251.999992309571,6|0,0:0|0:0,0:0:0:0:
413,176,134918,2,0,P|424:136|424:35,1,125.999996154785,12|0,0:0|2:0,0:0:0:0:
410,24,135247,1,0,0:0:0:0:
332,83,135412,2,0,B|206:52|217:175|88:142,1,251.999992309571,0|0,0:0|3:0,0:0:0:0:
270,257,136236,1,10,0:0:0:0:
76,371,136566,2,0,P|63:309|47:248,1,125.999996154785,0|0,0:0|3:0,0:0:0:0:
74,230,136896,6,0,P|112:247|156:263,1,83.9999974365235,2|0,0:0|0:0,0:0:0:0:
198,328,137225,2,0,P|237:313|275:296,1,83.9999974365235,2|2,0:0|0:3,0:0:0:0:
362,341,137555,2,0,P|385:299|406:177,1,167.999994873047,8|2,0:0|0:2,0:0:0:0:
467,116,138050,1,2,0:0:0:0:
394,59,138214,6,0,L|308:29,1,83.9999974365235,2|8,2:0|0:0,0:0:0:0:
241,115,138544,1,2,3:0:0:0:
241,115,138709,2,0,L|161:142,1,83.9999974365235,0|14,2:0|0:0,0:0:0:0:
21,75,139039,1,2,2:0:0:0:
78,21,139203,2,0,L|47:199,1,167.999994873047,10|6,0:0|0:0,0:0:0:0:
140,361,139863,5,0,0:0:0:0:
212,305,140028,1,0,2:0:0:0:
142,236,140192,2,0,P|168:181|285:160,1,167.999994873047,10|0,0:0|0:0,0:0:0:0:
345,200,140687,1,0,0:0:0:0:
408,136,140852,2,0,P|421:95|440:55,1,83.9999974365235,0|8,0:0|0:0,0:0:0:0:
512,149,141181,2,0,B|518:245|453:201|454:308,1,167.999994873047,0|8,0:0|0:0,0:0:0:0:
233,384,141841,1,0,0:0:0:0:
175,316,142006,6,0,P|162:268|93:163,1,167.999994873047,8|8,0:0|0:0,0:0:0:0:
180,126,142500,2,0,P|181:83|170:32,1,83.9999974365235,0|0,0:0|0:0,0:0:0:0:
293,141,142830,1,14,0:0:0:0:
303,151,143159,2,0,P|330:121|362:78,1,83.9999974365235,8|8,0:0|3:0,0:0:0:0:
440,135,143489,6,0,L|467:220,1,83.9999974365235,2|0,3:0|3:0,0:0:0:0:
373,218,143819,2,0,L|358:305,1,83.9999974365235,12|8,0:0|0:3,0:0:0:0:
342,308,144066,1,8,0:3:0:0:
342,308,144148,2,0,L|292:382,1,83.9999974365235,8|8,0:0|0:3,0:0:0:0:
189,333,144478,1,8,0:0:0:0:
210,256,144643,1,8,0:0:0:0:
105,244,144808,6,0,P|97:198|64:81,1,167.999994873047,6|0,0:0|3:0,0:0:0:0:
259,184,145467,2,0,P|279:142|321:28,1,167.999994873047,10|0,0:0|3:0,0:0:0:0:
392,111,145962,1,0,0:0:0:0:
392,111,146126,2,0,L|475:136,1,83.9999974365235,2|8,0:2|0:0,0:0:0:0:
512,228,146456,1,0,0:0:0:0:
379,384,146786,2,0,L|352:208,1,167.999994873047,8|0,0:0|0:0,0:0:0:0:
283,153,147280,1,8,0:0:0:0:
232,247,147445,6,0,P|191:251|137:273,1,83.9999974365235,4|0,0:0|2:0,0:0:0:0:
134,356,147775,2,0,P|94:370|52:374,1,83.9999974365235,0|0,0:0|2:0,0:0:0:0:
0,289,148104,2,0,P|0:227|91:142,1,167.999994873047,8|0,0:0|0:0,0:0:0:0:
143,67,148599,1,8,0:0:0:0:
211,113,148764,2,0,P|249:127|299:140,1,83.9999974365235,4|8,0:0|0:0,0:0:0:0:
375,96,149093,1,8,0:0:0:0:
445,151,149258,2,0,L|487:143,2,41.9999987182618,8|8|8,3:0|3:0|3:1,0:0:0:0:
399,230,149588,1,0,3:0:0:0:
319,221,149753,2,0,P|298:257|288:299,1,83.9999974365235,8|8,3:0|3:0,0:0:0:0:
327,384,150082,5,4,0:0:0:0:
131,161,160632,6,0,P|93:175|47:183,1,83.9999974365235,8|8,0:0|0:3,0:0:0:0:
53,281,160962,2,0,P|91:267|137:259,1,83.9999974365235,0|8,3:0|0:3,0:0:0:0:
199,357,161291,2,0,P|220:315|209:28,1,335.999989746094,14|0,0:0|0:0,0:0:0:0:
321,83,162115,1,8,1:0:0:0:
321,83,162280,2,0,L|406:64,1,83.9999974365235,0|0,3:0|3:0,0:0:0:0:
479,134,162610,2,0,P|456:203|435:301,2,167.999994873047,10|0|0,0:0|0:0|3:0,0:0:0:0:
322,0,163599,1,0,3:0:0:0:
222,172,163929,6,0,P|124:180|18:62,1,251.999992309571,10|0,0:0|3:0,0:0:0:0:
229,45,164753,1,8,0:0:0:0:
305,106,164918,2,0,L|335:276,1,167.999994873047,0|8,3:0|0:0,0:0:0:0:
170,384,165577,1,8,0:0:0:0:
109,306,165742,1,8,0:0:0:0:
181,233,165907,6,0,B|275:248|275:248|308:304|308:304|414:325,1,251.999992309571,6|0,0:0|0:0,0:0:0:0:
488,361,166566,2,0,P|486:291|453:195,1,167.999994873047,10|0,0:0|0:0,0:0:0:0:
508,116,167061,1,0,3:0:0:0:
336,12,167390,1,8,0:0:0:0:
287,79,167555,2,0,P|249:65|195:56,1,83.9999974365235,0|0,3:0|0:0,0:0:0:0:
115,0,167885,2,0,L|138:177,1,167.999994873047,8|0,0:0|0:0,0:0:0:0:
70,241,168379,1,0,3:0:0:0:
144,299,168544,5,0,3:0:0:0:
144,299,168709,2,0,B|226:288|214:351|310:331,1,167.999994873047,8|0,0:0|3:0,0:0:0:0:
418,261,169203,2,0,P|401:214|289:203,1,167.999994873047,12|8,0:0|0:3,0:0:0:0:
213,135,169698,1,8,0:0:0:0:
401,31,170028,1,0,3:0:0:0:
462,84,170192,2,0,P|470:125|485:178,1,83.9999974365235,12|8,0:0|0:3,0:0:0:0:
473,186,170440,1,8,0:0:0:0:
473,186,170522,1,2,3:0:0:0:
401,242,170687,1,2,3:0:0:0:
307,212,170852,2,0,P|268:225|223:236,1,83.9999974365235,4|4,3:0|3:0,0:0:0:0:
158,346,171181,5,6,0:2:0:0:
256,192,176456,12,0,178434,0:0:0:0:
123,54,179093,5,14,0:0:0:0:
123,54,179258,1,8,0:0:0:0:
90,219,179588,1,4,3:0:0:0:
90,219,179753,1,8,3:0:0:0:
249,165,180082,1,8,0:0:0:0:
249,165,180247,1,8,0:0:0:0:
152,139,180577,5,4,3:0:0:0:
265,262,180907,1,0,3:0:0:0:
265,262,180989,1,0,3:0:0:0:
265,262,181072,1,12,0:0:0:0:
192,303,181236,6,0,P|295:317|397:344,1,210,0|10,3:0|0:0,0:0:0:0:
478,290,181896,1,12,0:0:0:0:
414,134,182225,1,0,3:0:0:0:
343,179,182390,1,0,3:0:0:0:
287,107,182555,2,0,P|250:93|220:79,1,70,2|10,3:0|0:0,0:0:0:0:
156,152,182885,1,8,0:0:0:0:
256,192,183050,12,2,184368,2:0:0:0:
332,97,186346,6,0,B|381:77|381:77|344:46|344:46|257:75|257:75|220:190|300:262,1,391.99998803711,6|6,0:0|3:3,0:0:0:0:
227,197,188324,6,0,P|186:209|142:233,1,83.9999974365235,6|0,0:0|2:0,0:0:0:0:
210,325,188654,2,0,P|251:313|295:289,1,83.9999974365235,2|0,1:0|2:0,0:0:0:0:
367,347,188984,2,0,P|390:303|387:183,1,167.999994873047,8|0,0:0|0:0,0:0:0:0:
457,123,189478,1,2,0:2:0:0:
315,14,189808,1,8,0:0:0:0:
251,65,189973,2,0,P|237:104|236:157,1,83.9999974365235,2|0,0:2|0:0,0:0:0:0:
145,215,190302,1,10,0:0:0:0:
135,207,190632,1,10,0:0:0:0:
72,270,190797,1,10,0:0:0:0:
133,347,190962,6,0,P|181:314|255:313,1,125.999996154785,6|0,0:0|2:0,0:0:0:0:
267,343,191291,2,0,L|349:360,1,83.9999974365235,0|2,0:0|0:0,0:0:0:0:
440,297,191621,2,0,B|429:236|429:236|400:211|400:211|385:142,1,167.999994873047,10|2,0:0|0:0,0:0:0:0:
301,195,192115,2,0,P|270:208|175:124,1,167.999994873047,2|8,0:2|0:0,0:0:0:0:
123,45,192610,2,0,P|83:35|40:21,1,83.9999974365235,0|0,0:0|0:0,0:0:0:0:
83,134,192940,1,8,0:0:0:0:
83,134,193104,2,0,P|43:146|2:157,1,83.9999974365235,0|4,3:0|2:3,0:0:0:0:
108,227,193434,5,8,0:0:0:0:
108,227,193599,2,0,P|90:274|13:366,1,167.999994873047,0|0,0:0|0:0,0:0:0:0:
207,201,194258,2,0,P|227:246|238:366,1,167.999994873047,8|2,0:0|3:0,0:0:0:0:
332,306,194753,1,8,0:0:0:0:
332,306,194918,2,0,L|423:331,1,83.9999974365235,8|0,3:0|3:0,0:0:0:0:
348,222,195247,2,0,L|440:202,1,83.9999974365235,8|10,0:0|0:0,0:0:0:0:
307,144,195577,2,0,L|383:89,1,83.9999974365235,8|8,0:0|3:0,0:0:0:0:
234,83,195907,1,8,3:0:0:0:
289,10,196072,1,10,0:3:0:0:
162,40,196236,6,0,P|120:54|54:154,1,167.999994873047,14|0,0:0|0:0,0:0:0:0:
113,247,196731,1,0,0:0:0:0:
201,170,196896,2,0,B|291:153|275:226|371:211,1,167.999994873047,12|0,0:0|0:0,0:0:0:0:
439,160,197390,2,0,P|454:216|463:295,1,125.999996154785,2|0,0:2|2:0,0:0:0:0:
487,313,197720,1,8,0:0:0:0:
398,350,197885,2,0,B|365:342|365:342|350:344|350:344|315:335,1,83.9999974365235,0|0,0:0|0:0,0:0:0:0:
234,262,198214,1,10,0:0:0:0:
221,273,198544,2,0,L|138:291,1,83.9999974365235,0|8,0:0|0:0,0:0:0:0:
49,224,198874,6,0,B|84:133|13:143|59:54,2,167.999994873047,6|2|8,0:0|0:0|0:0,0:0:0:0:
198,360,199863,1,0,0:0:0:0:
241,284,200028,1,2,0:0:0:0:
317,335,200192,2,0,P|357:348|399:368,1,83.9999974365235,0|8,1:0|0:0,0:0:0:0:
329,234,200522,1,0,3:0:0:0:
329,234,200687,2,0,P|365:215|410:202,1,83.9999974365235,0|12,1:0|0:0,0:0:0:0:
249,144,201017,1,2,0:2:0:0:
180,181,201181,2,0,P|162:147|141:18,1,167.999994873047,8|6,0:0|0:0,0:0:0:0:
356,96,201841,6,0,P|393:108|446:133,1,83.9999974365235,0|0,0:0|0:0,0:0:0:0:
505,221,202170,2,0,P|455:284|376:271,1,167.999994873047,10|0,0:0|0:0,0:0:0:0:
285,318,202665,1,0,0:0:0:0:
242,245,202830,2,0,P|206:222|162:209,1,83.9999974365235,0|8,0:0|0:0,0:0:0:0:
83,261,203159,1,2,0:2:0:0:
70,271,203489,2,0,P|60:206|28:102,1,167.999994873047,8|0,0:0|0:0,0:0:0:0:
96,42,203984,1,8,0:0:0:0:
185,93,204148,5,2,3:1:0:0:
253,18,204313,2,0,B|339:3|324:78|411:53,1,167.999994873047,8|0,0:0|3:0,0:0:0:0:
490,114,204808,2,0,P|482:156|466:203,1,83.9999974365235,12|0,0:0|0:0,0:0:0:0:
447,316,205137,1,0,0:0:0:0:
367,256,205302,2,0,P|327:266|215:343,1,167.999994873047,8|0,0:0|3:0,0:0:0:0:
144,260,205797,2,0,L|162:173,1,83.9999974365235,12|0,0:0|3:0,0:0:0:0:
151,146,206044,1,0,3:0:0:0:
151,146,206126,1,8,0:0:0:0:
249,168,206291,1,10,0:0:0:0:
313,90,206456,1,8,0:0:0:0:
258,5,206621,5,8,0:0:0:0:
258,5,206703,1,0,0:0:0:0:
258,5,206786,2,0,P|212:21|91:36,1,167.999994873047,4|2,0:0|0:2,0:0:0:0:
40,223,207445,2,0,P|123:230|203:254,1,167.999994873047,8|0,0:0|0:0,0:0:0:0:
269,333,207940,1,2,0:3:0:0:
341,285,208104,2,0,P|335:243|318:194,1,83.9999974365235,0|8,0:0|0:0,0:0:0:0:
409,155,208434,2,0,P|418:203|446:282,1,125.999996154785,0|0,3:3|0:0,0:0:0:0:
473,288,208764,1,8,0:0:0:0:
473,288,208929,1,0,0:0:0:0:
486,73,209258,5,8,0:0:0:0:
486,73,209423,2,0,P|437:68|326:27,1,167.999994873047,6|2,0:0|0:2,0:0:0:0:
184,114,210082,2,0,B|145:204|221:183|185:289,1,167.999994873047,8|0,0:0|0:0,0:0:0:0:
121,342,210577,1,8,0:0:0:0:
72,279,210742,2,0,P|37:254|-1:238,1,83.9999974365235,0|0,3:0|3:0,0:0:0:0:
86,156,211072,1,8,0:0:0:0:
86,156,211236,2,0,P|72:115|51:79,1,83.9999974365235,8|10,0:0|0:0,0:0:0:0:
197,122,211566,1,8,3:0:0:0:
269,151,211731,2,0,P|291:114|295:69,1,83.9999974365235,2|0,0:3|0:0,0:0:0:0:
383,7,212061,6,0,P|436:20|465:124,1,154.000004699707,4|0,3:2|0:0,0:0:0:0:
376,223,212720,2,0,B|298:203|301:264|224:244,1,154.000004699707,8|0,0:0|3:0,0:0:0:0:
137,280,213214,2,0,P|134:239|124:200,1,77.0000023498536,0|0,3:0|0:0,0:0:0:0:
188,132,213544,1,8,0:0:0:0:
124,79,213709,2,0,P|131:37|142:0,1,77.0000023498536,0|0,3:0|0:0,0:0:0:0:
36,25,214039,1,8,0:0:0:0:
26,39,214368,2,0,P|36:76|42:114,1,77.0000023498536,0|0,3:0|3:0,0:0:0:0:
125,204,214698,6,0,P|197:179|271:156,2,154.000004699707,0|0|8,3:0|3:0|0:0,0:0:0:0:
44,366,215687,1,0,0:0:0:0:
122,336,215852,2,0,P|157:344|203:362,1,77.0000023498536,0|0,3:0|0:0,0:0:0:0:
298,295,216181,1,8,0:0:0:0:
365,348,216346,2,0,P|400:339|446:322,1,77.0000023498536,0|0,3:0|0:0,0:0:0:0:
501,243,216676,1,8,0:0:0:0:
492,229,217006,1,8,0:0:0:0:
415,169,217170,1,8,0:0:0:0:
479,85,217335,6,0,B|455:39|455:39|405:17|357:60,1,154.000004699707,4|0,3:2|3:0,0:0:0:0:
269,154,217995,2,0,B|222:153|184:175|184:175|171:139|132:107,1,154.000004699707,8|0,0:0|3:0,0:0:0:0:
82,200,218489,2,0,P|71:235|53:274,1,77.0000023498536,0|0,3:0|0:0,0:0:0:0:
168,265,218819,1,8,0:0:0:0:
168,265,218984,2,0,P|184:299|195:336,1,77.0000023498536,0|0,3:0|0:0,0:0:0:0:
284,264,219313,2,0,P|298:213|325:154,1,115.50000352478,8|0,0:0|0:0,0:0:0:0:
360,145,219643,2,0,L|345:57,1,77.0000023498536,0|8,3:0|0:0,0:0:0:0:
487,129,219973,5,0,3:0:0:0:
441,200,220137,2,0,P|431:232|421:276,1,77.0000023498536,8|0,0:0|3:0,0:0:0:0:
322,369,220467,1,0,3:0:0:0:
293,293,220632,2,0,P|239:283|160:220,1,154.000004699707,12|8,3:2|0:0,0:0:0:0:
219,91,221126,2,0,P|273:101|352:164,1,154.000004699707,4|8,3:2|0:0,0:0:0:0:
409,231,221621,1,8,0:0:0:0:
491,188,221786,1,8,0:0:0:0:
489,96,221951,1,8,3:0:0:0:
397,79,222115,1,8,3:0:0:0:
349,160,222280,2,0,P|312:173|273:198,1,77.0000023498536,0|0,3:0|3:0,0:0:0:0:
223,296,222610,5,2,3:1:0:0:
173,229,222775,2,0,P|132:225|43:185,1,140,0|0,0:0|0:0,0:0:0:0:
107,112,223269,2,0,L|93:40,1,70,8|0,0:0|0:0,0:0:0:0:
166,4,223599,1,0,3:0:0:0:
166,4,223764,1,0,3:0:0:0:
288,96,224093,1,8,0:0:0:0:
348,47,224258,2,0,L|415:64,1,70,0|0,3:0|3:0,0:0:0:0:
507,139,224588,1,8,0:0:0:0:
439,194,224753,1,4,3:2:0:0:
