osu file format v14

[General]
AudioFilename: audio.mp3
AudioLeadIn: 0
PreviewTime: 338384
Countdown: 0
SampleSet: Soft
StackLeniency: 0.7
Mode: 0
LetterboxInBreaks: 0
WidescreenStoryboard: 0

[Editor]
Bookmarks: 710,25826,42570,59314,76058,92803,106756,129082,151407,173733,196058,223965,243500,265826,288151,313268,338384,360710,383035,410942
DistanceSpacing: 1.1
BeatDivisor: 4
GridSize: 4
TimelineZoom: 1.7

[Metadata]
Title:In bloom
TitleUnicode:In bloom
Artist:Ayane, Ruka, Rie / Karen from BEST FRIENDS!
ArtistUnicode:あやね・るか・りえ / カレン from BEST FRIENDS!
Creator:Andrea
Version:Dreams
Source:アイカツオンパレード!
Tags:osuplayer111 Sekai Sekaii Sekai-nyan midorijeon Dream Festival Aikatsu on Parade! データカードダス「アイカツオンパレード!」 ドリームストーリー Noel Noeru Otoshiro 音城ノエル Ai Kakuma 加隈亜衣 Hime Shiratori 白鳥ひめ Minami Tsuda 津田美波 Rei Kizaki 騎咲レイ Natsumi Fujiwara 藤原夏海 Karen Kamishiro 神城カレン Azusa Tadokoro 田所あずさ Ōzora Oozora Akari 大空あかり Shino Shimoji 下地紫野 Idols Japanese JPop Pop J-Pop Anime Female Vocals The Blossoming Stage Part 2 花咲くステージ 後編 Natsumi Hayashi 林奈津美 Kengo Minamida 南田健吾 onetrap Twilight Étranger トワイライトエトランゼ Start Line! スタートライン!Barefoot Renaissance Hadashi no Runesansu 裸足のルネサンス Overflowing with Love Ai de Afurete iru 愛で溢れている START DASH SENSATION
BeatmapID:3767138
BeatmapSetID:1834956

[Difficulty]
HPDrainRate:5.5
CircleSize:4
OverallDifficulty:8.8
ApproachRate:9.2
SliderMultiplier:1.6
SliderTickRate:1

[Events]
//Background and Video events
0,0,"inbloombg9.jpg",0,0
//Break Periods
2,338748,341118
2,344330,345304
//Storyboard Layer 0 (Background)
//Storyboard Layer 1 (Fail)
//Storyboard Layer 2 (Pass)
//Storyboard Layer 3 (Foreground)
//Storyboard Layer 4 (Overlay)
//Storyboard Sound Samples

[TimingPoints]
700,348.837209302326,4,2,1,70,1,0
700,-111.111111111111,4,2,1,70,0,0
3141,-111.111111111111,4,2,2,70,0,0
3403,-111.111111111111,4,2,1,5,0,0
3490,-111.111111111111,4,2,2,70,0,0
3839,-111.111111111111,4,2,1,70,0,0
5583,-111.111111111111,4,2,2,70,0,0
5932,-111.111111111111,4,2,1,70,0,0
6281,-111.111111111111,4,2,2,70,0,0
6630,-111.111111111111,4,2,1,70,0,0
8548,-111.111111111111,4,2,3,70,0,0
8723,-111.111111111111,4,2,2,70,0,0
9420,-111.111111111111,4,2,1,70,0,0
10118,-111.111111111111,4,2,2,70,0,0
10467,-111.111111111111,4,2,1,70,0,0
10990,-111.111111111111,4,2,3,70,0,0
11339,-111.111111111111,4,2,2,70,0,0
12211,-111.111111111111,4,2,1,70,0,0
12560,-111.111111111111,4,2,2,70,0,0
13258,-111.111111111111,4,2,1,70,0,0
13519,-111.111111111111,4,2,1,5,0,0
13606,-111.111111111111,4,2,2,70,0,0
13781,-111.111111111111,4,2,1,70,0,0
14304,-111.111111111111,4,2,3,70,0,0
14479,-111.111111111111,4,2,2,70,0,0
14653,-111.111111111111,4,2,3,70,0,0
15002,-111.111111111111,4,2,2,70,0,0
15351,-111.111111111111,4,2,1,70,0,0
15874,-111.111111111111,4,2,4,70,0,0
16223,-111.111111111111,4,2,12,70,0,0
16310,-111.111111111111,4,2,1,5,0,0
16397,-111.111111111111,4,2,12,70,0,0
16920,-111.111111111111,4,2,4,70,0,0
17269,-111.111111111111,4,2,3,70,0,0
17356,-111.111111111111,4,2,1,5,0,0
17444,-111.111111111111,4,2,4,70,0,0
18141,-111.111111111111,4,2,2,70,0,0
18490,-111.111111111111,4,2,1,70,0,0
18665,-111.111111111111,4,2,5,70,0,0
19013,-111.111111111111,4,2,8,70,0,0
19537,-111.111111111111,4,2,12,70,0,0
20234,-111.111111111111,4,2,4,70,0,0
20932,-111.111111111111,4,2,1,70,0,0
21804,-111.111111111111,4,2,4,70,0,0
22153,-111.111111111111,4,2,3,70,0,0
22502,-111.111111111111,4,2,2,70,0,0
24246,-111.111111111111,4,2,6,70,0,0
25816,-125,4,2,6,60,0,0
26513,-125,4,2,3,60,0,0
26862,-125,4,2,6,60,0,0
27909,-125,4,2,2,60,0,0
28083,-125,4,2,6,60,0,0
29304,-125,4,2,3,60,0,0
29653,-125,4,2,6,60,0,0
29915,-125,4,2,1,5,0,0
30002,-125,4,2,6,60,0,0
30700,-125,4,2,2,60,0,0
30874,-125,4,2,6,60,0,0
32095,-125,4,2,3,60,0,0
32444,-125,4,2,6,60,0,0
33490,-125,4,2,3,60,0,0
33665,-125,4,2,6,60,0,0
34886,-125,4,2,3,60,0,0
35234,-125,4,2,6,60,0,0
36281,-125,4,2,3,60,0,0
36455,-125,4,2,6,60,0,0
36979,-111.111111111111,4,2,2,65,0,0
37327,-111.111111111111,4,2,3,65,0,0
42473,-111.111111111111,4,2,1,5,0,0
42560,-100,4,2,1,60,0,0
43258,-100,4,2,2,60,0,0
44304,-100,4,2,1,60,0,0
44653,-100,4,2,2,60,0,0
45351,-100,4,2,1,60,0,0
46048,-100,4,2,2,60,0,0
46223,-100,4,2,1,60,0,0
46397,-100,4,2,2,60,0,0
47095,-100,4,2,1,60,0,0
47444,-100,4,2,2,60,0,0
47618,-100,4,2,1,60,0,0
47793,-100,4,2,2,60,0,0
48141,-100,4,2,1,60,0,0
48839,-100,4,2,2,60,0,0
49711,-100,4,2,1,60,0,0
50234,-100,4,2,2,60,0,0
50845,-100,4,2,1,5,0,0
50932,-100,4,2,1,60,0,0
51630,-100,4,2,2,60,0,0
52676,-100,4,2,1,60,0,0
53025,-100,4,2,2,60,0,0
53723,-111.111111111111,4,2,2,65,0,0
54072,-111.111111111111,4,2,1,65,0,0
54769,-111.111111111111,4,2,3,65,0,0
55118,-111.111111111111,4,2,4,65,0,0
55641,-111.111111111111,4,2,1,65,0,0
56165,-111.111111111111,4,2,4,65,0,0
56339,-111.111111111111,4,2,3,65,0,0
57211,-111.111111111111,4,2,1,65,0,0
57386,-111.111111111111,4,2,4,65,0,0
57560,-111.111111111111,4,2,3,65,0,0
57734,-111.111111111111,4,2,2,65,0,0
57909,-111.111111111111,4,2,1,65,0,0
58432,-111.111111111111,4,2,4,65,0,0
58955,-111.111111111111,4,2,3,65,0,0
59130,-111.111111111111,4,2,2,65,0,0
59304,-100,4,2,4,60,0,0
59479,-100,4,2,2,60,0,0
59827,-100,4,2,1,60,0,0
60002,-100,4,2,2,60,0,0
60351,-100,4,2,1,60,0,0
60525,-100,4,2,2,60,0,0
60874,-100,4,2,1,60,0,0
61048,-100,4,2,2,60,0,0
61397,-100,4,2,1,60,0,0
61572,-100,4,2,2,60,0,0
61659,-100,4,2,1,5,0,0
61746,-100,4,2,2,60,0,0
62095,-100,4,2,4,60,0,0
62269,-100,4,2,2,60,0,0
62618,-100,4,2,1,60,0,0
62793,-100,4,2,2,60,0,0
63141,-100,4,2,1,60,0,0
63316,-100,4,2,2,60,0,0
63665,-100,4,2,1,60,0,0
63839,-100,4,2,2,60,0,0
64188,-100,4,2,1,60,0,0
64362,-100,4,2,4,60,0,0
64711,-100,4,2,2,60,0,0
64886,-100,4,2,4,60,0,0
65060,-100,4,2,2,60,0,0
65409,-100,4,2,1,60,0,0
65583,-100,4,2,2,60,0,0
65932,-100,4,2,1,60,0,0
66106,-100,4,2,2,60,0,0
66455,-100,4,2,1,60,0,0
66630,-100,4,2,2,60,0,0
66891,-100,4,2,1,60,0,0
67153,-100,4,2,2,60,0,0
67240,-100,4,2,1,5,0,0
67327,-100,4,2,2,60,0,0
67676,-100,4,2,4,60,0,0
67851,-100,4,2,2,60,0,0
68200,-100,4,2,1,60,0,0
68374,-100,4,2,2,60,0,0
68723,-100,4,2,1,60,0,0
68897,-100,4,2,2,60,0,0
69246,-100,4,2,1,60,0,0
69420,-100,4,2,2,60,0,0
69769,-100,4,2,1,60,0,0
69944,-100,4,2,4,60,0,0
70293,-100,4,2,2,60,0,0
70467,-100,4,2,4,65,0,0
71513,-100,4,2,5,65,0,0
71862,-100,4,2,2,65,0,0
72909,-100,4,2,5,65,0,0
73258,-100,4,2,2,65,0,0
74304,-100,4,2,5,65,0,0
74653,-100,4,2,2,65,0,0
75700,-100,4,2,5,65,0,0
76048,-111.111111111111,4,2,7,60,0,0
76397,-111.111111111111,4,2,1,60,0,0
76572,-111.111111111111,4,2,7,60,0,0
76746,-111.111111111111,4,2,6,60,0,0
77967,-111.111111111111,4,2,7,60,0,0
78141,-111.111111111111,4,2,6,60,0,0
78839,-111.111111111111,4,2,7,60,0,0
79188,-111.111111111111,4,2,1,60,0,0
79362,-111.111111111111,4,2,7,60,0,0
79537,-111.111111111111,4,2,6,60,0,0
80758,-111.111111111111,4,2,7,60,0,0
80932,-111.111111111111,4,2,6,60,0,0
81630,-111.111111111111,4,2,7,60,0,0
82327,-111.111111111111,4,2,6,60,0,0
83548,-111.111111111111,4,2,7,60,0,0
83723,-111.111111111111,4,2,6,60,0,0
84420,-111.111111111111,4,2,7,60,0,0
85118,-111.111111111111,4,2,6,60,0,0
86339,-111.111111111111,4,2,7,60,0,0
86513,-111.111111111111,4,2,6,60,0,0
87124,-111.111111111111,4,2,1,5,0,0
87211,-100,4,2,2,70,0,0
87560,-100,4,2,7,70,0,0
88083,-100,4,2,1,70,0,0
88258,-100,4,2,7,70,0,0
88606,-100,4,2,8,70,0,0
88955,-100,4,2,7,70,0,0
89479,-100,4,2,1,70,0,0
89653,-100,4,2,7,70,0,0
89915,-100,4,2,1,5,0,0
90002,-100,4,2,8,70,0,0
90351,-100,4,2,7,70,0,0
90874,-100,4,2,1,70,0,0
91048,-100,4,2,7,70,0,0
91310,-100,4,2,1,5,0,0
91397,-100,4,2,8,70,0,0
92095,-100,4,2,4,70,0,0
92269,-100,4,2,1,70,0,0
92793,-100,4,2,3,70,0,0
93141,-100,4,2,7,70,0,0
93316,-100,4,2,5,70,0,0
93665,-100,4,2,2,70,0,0
93839,-100,4,2,9,70,0,0
94013,-100,4,2,1,70,0,0
94188,-100,4,2,9,70,0,0
94362,-100,4,2,1,70,0,0
94537,-100,4,2,7,70,0,0
95060,-100,4,2,9,70,0,0
95409,-100,4,2,1,70,0,0
95583,-100,4,2,8,70,0,0
95758,-100,4,2,1,70,0,0
95932,-100,4,2,7,70,0,0
96106,-100,4,2,5,70,0,0
96455,-100,4,2,2,70,0,0
96630,-100,4,2,9,70,0,0
96804,-100,4,2,1,70,0,0
96979,-100,4,2,9,70,0,0
97153,-100,4,2,2,70,0,0
97327,-100,4,2,7,70,0,0
97676,-100,4,2,8,70,0,0
98200,-100,4,2,4,70,0,0
98723,-100,4,2,10,70,0,0
98897,-100,4,2,1,70,0,0
99072,-100,4,2,10,70,0,0
99595,-100,4,2,3,70,0,0
100118,-100,4,2,8,70,0,0
100467,-100,4,2,2,70,0,0
100554,-100,4,2,12,70,0,0
101165,-100,4,2,1,70,0,0
101426,-100,4,2,1,5,0,0
101513,-100,4,2,6,47,0,0
101688,-100,4,2,6,49,0,0
101862,-100,4,2,6,51,0,0
102037,-100,4,2,6,53,0,0
102211,-100,4,2,6,55,0,0
102386,-100,4,2,6,57,0,0
102560,-100,4,2,6,59,0,0
102734,-100,4,2,6,61,0,0
102909,-100,4,2,6,63,0,0
103083,-100,4,2,6,65,0,0
103258,-100,4,2,6,67,0,0
103432,-100,4,2,6,69,0,0
103606,-100,4,2,6,71,0,0
103781,-100,4,2,6,73,0,0
103955,-100,4,2,4,75,0,0
104043,-100,4,2,10,75,0,0
104653,-100,4,2,2,75,0,0
104740,-100,4,2,1,75,0,0
105002,-100,4,2,3,75,0,0
105176,-100,4,2,2,75,0,0
105351,-100,4,2,11,75,0,0
105874,-100,4,2,1,75,0,0
106746,-90.9090909090909,4,2,1,80,0,1
107095,-90.9090909090909,4,2,10,80,0,1
107269,-90.9090909090909,4,2,1,80,0,1
107444,-90.9090909090909,4,2,8,80,0,1
107793,-90.9090909090909,4,2,10,80,0,1
107967,-90.9090909090909,4,2,11,80,0,1
108316,-90.9090909090909,4,2,1,80,0,1
108490,-90.9090909090909,4,2,2,80,0,1
108839,-90.9090909090909,4,2,8,80,0,1
109188,-90.9090909090909,4,2,7,80,0,1
109362,-90.9090909090909,4,2,1,80,0,1
109537,-90.9090909090909,4,2,10,80,0,1
109711,-90.9090909090909,4,2,1,80,0,1
109886,-90.9090909090909,4,2,2,80,0,1
110234,-90.9090909090909,4,2,8,80,0,1
110496,-90.9090909090909,4,2,1,5,0,1
110583,-90.9090909090909,4,2,8,80,0,1
110758,-90.9090909090909,4,2,11,80,0,1
111106,-90.9090909090909,4,2,1,80,0,1
111281,-90.9090909090909,4,2,8,80,0,1
111979,-90.9090909090909,4,2,7,80,0,1
112153,-90.9090909090909,4,2,4,80,0,1
112676,-90.9090909090909,4,2,10,80,0,1
112851,-90.9090909090909,4,2,1,80,0,1
113025,-90.9090909090909,4,2,8,80,0,1
113374,-90.9090909090909,4,2,10,80,0,1
113548,-90.9090909090909,4,2,11,80,0,1
113897,-90.9090909090909,4,2,1,80,0,1
114072,-90.9090909090909,4,2,5,80,0,1
114420,-90.9090909090909,4,2,8,80,0,1
114769,-90.9090909090909,4,2,7,80,0,1
114944,-90.9090909090909,4,2,1,80,0,1
115118,-90.9090909090909,4,2,10,80,0,1
115293,-90.9090909090909,4,2,1,80,0,1
115467,-90.9090909090909,4,2,2,80,0,1
115816,-90.9090909090909,4,2,8,80,0,1
116165,-90.9090909090909,4,2,10,80,0,1
116339,-90.9090909090909,4,2,1,80,0,1
116513,-90.9090909090909,4,2,7,80,0,1
116688,-90.9090909090909,4,2,1,80,0,1
116862,-90.9090909090909,4,2,8,80,0,1
117560,-90.9090909090909,4,2,10,80,0,1
117734,-90.9090909090909,4,2,1,80,0,1
117909,-90.9090909090909,4,2,4,80,0,1
118083,-90.9090909090909,4,2,1,80,0,1
118258,-90.9090909090909,4,2,10,80,0,1
118432,-90.9090909090909,4,2,1,80,0,1
118606,-90.9090909090909,4,2,8,80,0,1
118955,-90.9090909090909,4,2,10,80,0,1
119130,-90.9090909090909,4,2,11,80,0,1
119391,-90.9090909090909,4,2,1,5,0,1
119479,-90.9090909090909,4,2,1,80,0,1
119653,-90.9090909090909,4,2,2,80,0,1
120002,-90.9090909090909,4,2,8,80,0,1
120351,-90.9090909090909,4,2,7,80,0,1
120525,-90.9090909090909,4,2,1,80,0,1
120700,-90.9090909090909,4,2,10,80,0,1
120874,-90.9090909090909,4,2,1,80,0,1
121048,-90.9090909090909,4,2,2,80,0,1
121397,-90.9090909090909,4,2,8,80,0,1
121659,-90.9090909090909,4,2,1,5,0,1
121746,-90.9090909090909,4,2,8,80,0,1
121920,-90.9090909090909,4,2,11,80,0,1
122269,-90.9090909090909,4,2,1,80,0,1
122444,-90.9090909090909,4,2,8,80,0,1
123141,-90.9090909090909,4,2,11,80,0,1
123490,-90.9090909090909,4,2,3,80,0,1
123752,-90.9090909090909,4,2,1,5,0,1
123839,-90.9090909090909,4,2,10,80,0,1
124188,-90.9090909090909,4,2,8,80,0,1
124537,-90.9090909090909,4,2,10,80,0,1
124886,-90.9090909090909,4,2,8,80,0,1
125496,-90.9090909090909,4,2,1,5,0,1
125583,-90.9090909090909,4,2,8,80,0,1
126281,-90.9090909090909,4,2,4,80,0,1
126630,-90.9090909090909,4,2,11,80,0,1
126979,-90.9090909090909,4,2,12,80,0,1
127502,-90.9090909090909,4,2,11,80,0,1
128025,-90.9090909090909,4,2,1,80,0,1
128374,-90.9090909090909,4,2,10,80,0,1
128461,-90.9090909090909,4,2,1,80,0,1
128723,-90.9090909090909,4,2,2,80,0,1
128810,-90.9090909090909,4,2,1,80,0,1
128984,-90.9090909090909,4,2,1,80,0,0
129072,-90.9090909090909,4,2,1,80,0,1
129420,-90.9090909090909,4,2,8,80,0,1
129595,-90.9090909090909,4,2,1,80,0,1
129769,-90.9090909090909,4,2,10,80,0,1
130118,-90.9090909090909,4,2,8,80,0,1
130293,-90.9090909090909,4,2,11,80,0,1
130816,-90.9090909090909,4,2,8,80,0,1
130990,-90.9090909090909,4,2,1,80,0,1
131165,-90.9090909090909,4,2,10,80,0,1
131688,-90.9090909090909,4,2,1,80,0,1
131862,-90.9090909090909,4,2,10,80,0,1
132037,-90.9090909090909,4,2,1,80,0,1
132211,-90.9090909090909,4,2,8,80,0,1
132560,-90.9090909090909,4,2,10,80,0,1
132909,-90.9090909090909,4,2,8,80,0,1
133083,-90.9090909090909,4,2,11,80,0,1
133606,-90.9090909090909,4,2,8,80,0,1
133955,-90.9090909090909,4,2,10,80,0,1
134479,-90.9090909090909,4,2,4,80,0,1
135002,-90.9090909090909,4,2,8,80,0,1
135176,-90.9090909090909,4,2,1,80,0,1
135351,-90.9090909090909,4,2,10,80,0,1
135700,-90.9090909090909,4,2,8,80,0,1
135874,-90.9090909090909,4,2,11,80,0,1
136397,-90.9090909090909,4,2,8,80,0,1
136572,-90.9090909090909,4,2,1,80,0,1
136746,-90.9090909090909,4,2,10,80,0,1
137269,-90.9090909090909,4,2,1,80,0,1
137444,-90.9090909090909,4,2,10,80,0,1
137793,-90.9090909090909,4,2,8,80,0,1
137967,-90.9090909090909,4,2,1,80,0,1
138141,-90.9090909090909,4,2,10,80,0,1
138490,-90.9090909090909,4,2,8,80,0,1
138665,-90.9090909090909,4,2,11,80,0,1
139188,-90.9090909090909,4,2,8,80,0,1
139537,-90.9090909090909,4,2,10,80,0,1
140060,-90.9090909090909,4,2,4,80,0,1
140583,-90.9090909090909,4,2,8,80,0,1
140758,-90.9090909090909,4,2,1,80,0,1
140932,-90.9090909090909,4,2,10,80,0,1
141281,-90.9090909090909,4,2,8,80,0,1
141455,-90.9090909090909,4,2,11,80,0,1
141979,-90.9090909090909,4,2,8,80,0,1
142327,-90.9090909090909,4,2,10,80,0,1
142851,-90.9090909090909,4,2,1,80,0,1
143025,-90.9090909090909,4,2,10,80,0,1
143200,-90.9090909090909,4,2,1,80,0,1
143374,-90.9090909090909,4,2,8,80,0,1
143548,-90.9090909090909,4,2,1,80,0,1
143723,-90.9090909090909,4,2,10,80,0,1
144072,-90.9090909090909,4,2,8,80,0,1
144246,-90.9090909090909,4,2,11,80,0,1
144769,-90.9090909090909,4,2,8,80,0,1
145118,-90.9090909090909,4,2,10,80,0,1
145641,-90.9090909090909,4,2,4,80,0,1
146165,-90.9090909090909,4,2,8,80,0,1
146513,-90.9090909090909,4,2,5,80,0,1
146688,-90.9090909090909,4,2,2,80,0,1
146862,-90.9090909090909,4,2,8,80,0,1
147037,-90.9090909090909,4,2,11,80,0,1
147560,-90.9090909090909,4,2,10,80,0,1
147734,-90.9090909090909,4,2,1,80,0,1
147909,-90.9090909090909,4,2,10,80,0,1
148083,-90.9090909090909,4,2,2,80,0,1
148258,-90.9090909090909,4,2,10,80,0,1
148519,-90.9090909090909,4,2,1,5,0,1
148606,-90.9090909090909,4,2,10,80,0,1
148781,-90.9090909090909,4,2,2,80,0,1
148955,-90.9090909090909,4,2,8,80,0,1
149304,-90.9090909090909,4,2,10,80,0,1
149479,-90.9090909090909,4,2,2,80,0,1
149827,-90.9090909090909,4,2,12,80,0,1
150176,-90.9090909090909,4,2,6,59,0,1
150351,-90.9090909090909,4,2,6,62,0,1
150525,-90.9090909090909,4,2,6,65,0,1
150700,-90.9090909090909,4,2,6,68,0,1
150874,-90.9090909090909,4,2,6,71,0,1
151048,-90.9090909090909,4,2,6,74,0,1
151223,-90.9090909090909,4,2,6,77,0,1
151397,-125,4,2,1,80,0,0
151572,-125,4,2,1,70,0,0
152793,-125,4,2,2,70,0,0
153316,-125,4,2,1,70,0,0
153665,-125,4,2,4,70,0,0
153839,-125,4,2,3,70,0,0
154013,-125,4,2,2,70,0,0
155234,-125,4,2,3,70,0,0
155409,-125,4,2,12,70,0,0
156106,-125,4,2,1,70,0,0
156455,-125,4,2,4,70,0,0
156630,-125,4,2,3,70,0,0
156979,-125,4,2,1,70,0,0
157676,-125,4,2,1,5,0,0
157763,-125,4,2,1,70,0,0
159072,-125,4,2,12,70,0,0
159420,-125,4,2,4,70,0,0
159595,-125,4,2,3,70,0,0
159769,-100,4,2,4,70,0,0
160118,-100,4,2,7,47,0,0
160293,-100,4,2,7,49,0,0
160467,-100,4,2,7,51,0,0
160641,-100,4,2,7,53,0,0
160816,-100,4,2,7,55,0,0
160990,-100,4,2,7,57,0,0
161165,-100,4,2,8,59,0,0
161339,-100,4,2,6,61,0,0
161513,-100,4,2,8,63,0,0
161688,-100,4,2,6,65,0,0
161862,-100,4,2,8,67,0,0
162037,-100,4,2,6,69,0,0
162560,-111.111111111111,4,2,2,65,0,0
162909,-111.111111111111,4,2,1,65,0,0
163432,-111.111111111111,4,2,1,65,0,0
163606,-111.111111111111,4,2,8,65,0,0
163781,-111.111111111111,4,2,1,65,0,0
163955,-111.111111111111,4,2,8,65,0,0
164130,-111.111111111111,4,2,1,65,0,0
164304,-111.111111111111,4,2,9,65,0,0
164479,-111.111111111111,4,2,1,65,0,0
164653,-111.111111111111,4,2,9,65,0,0
164827,-111.111111111111,4,2,1,65,0,0
165002,-111.111111111111,4,2,8,65,0,0
165176,-111.111111111111,4,2,1,65,0,0
165351,-111.111111111111,4,2,8,65,0,0
165787,-111.111111111111,4,2,1,65,0,0
165874,-111.111111111111,4,2,1,65,0,0
166048,-111.111111111111,4,2,9,65,0,0
166223,-111.111111111111,4,2,1,65,0,0
166397,-111.111111111111,4,2,8,65,0,0
167967,-111.111111111111,4,2,5,65,0,0
168141,-111.111111111111,4,2,8,65,0,0
168577,-111.111111111111,4,2,1,65,0,0
168665,-111.111111111111,4,2,1,65,0,0
168839,-111.111111111111,4,2,9,65,0,0
169013,-111.111111111111,4,2,1,65,0,0
169188,-111.111111111111,4,2,9,65,0,0
169362,-111.111111111111,4,2,1,65,0,0
169537,-111.111111111111,4,2,9,65,0,0
169711,-111.111111111111,4,2,1,65,0,0
169886,-111.111111111111,4,2,8,65,0,0
170060,-111.111111111111,4,2,1,65,0,0
170234,-111.111111111111,4,2,9,65,0,0
170409,-111.111111111111,4,2,1,65,0,0
170583,-111.111111111111,4,2,8,65,0,0
170758,-111.111111111111,4,2,5,65,0,0
170932,-111.111111111111,4,2,8,65,0,0
171281,-111.111111111111,4,2,8,65,0,0
171368,-111.111111111111,4,2,1,65,0,0
171630,-111.111111111111,4,2,12,65,0,0
172327,-111.111111111111,4,2,10,65,0,0
173374,-111.111111111111,4,2,1,65,0,0
173723,-100,4,2,3,70,0,0
174072,-100,4,2,8,70,0,0
175118,-100,4,2,10,70,0,0
175467,-100,4,2,8,70,0,0
176426,-100,4,2,1,5,0,0
176513,-100,4,2,10,70,0,0
176862,-100,4,2,8,70,0,0
177909,-100,4,2,10,70,0,0
178258,-100,4,2,13,70,0,0
178432,-100,4,2,1,70,0,0
178781,-100,4,2,4,70,0,0
178955,-100,4,2,3,70,0,0
179130,-100,4,2,2,70,0,0
179304,-100,4,2,4,65,0,0
179479,-100,4,2,2,65,0,0
179653,-100,4,2,3,65,0,0
179827,-100,4,2,1,65,0,0
180002,-100,4,2,3,65,0,0
180176,-100,4,2,2,65,0,0
180351,-100,4,2,5,65,0,0
180525,-100,4,2,2,65,0,0
180700,-100,4,2,3,65,0,0
180874,-100,4,2,1,65,0,0
181048,-100,4,2,3,65,0,0
181223,-100,4,2,2,65,0,0
181397,-100,4,2,5,65,0,0
181572,-100,4,2,2,65,0,0
181659,-100,4,2,1,5,0,0
181746,-100,4,2,3,65,0,0
181833,-100,4,2,2,65,0,0
182095,-100,4,2,5,65,0,0
182269,-100,4,2,2,65,0,0
182444,-100,4,2,3,65,0,0
182618,-100,4,2,1,65,0,0
182793,-100,4,2,3,65,0,0
182967,-100,4,2,2,65,0,0
183141,-100,4,2,5,65,0,0
183316,-100,4,2,2,65,0,0
183490,-100,4,2,3,65,0,0
183665,-100,4,2,1,65,0,0
183839,-100,4,2,3,65,0,0
184013,-100,4,2,2,65,0,0
184188,-100,4,2,5,65,0,0
184362,-100,4,2,4,65,0,0
184537,-100,4,2,9,65,0,0
184711,-100,4,2,2,65,0,0
184886,-100,4,2,5,65,0,0
185060,-100,4,2,2,65,0,0
185234,-100,4,2,3,65,0,0
185409,-100,4,2,1,65,0,0
185583,-100,4,2,3,65,0,0
185758,-100,4,2,2,65,0,0
185932,-100,4,2,5,65,0,0
186106,-100,4,2,2,65,0,0
186281,-100,4,2,3,65,0,0
186455,-100,4,2,1,65,0,0
186630,-100,4,2,3,65,0,0
186804,-100,4,2,2,65,0,0
186979,-100,4,2,5,65,0,0
187153,-100,4,2,2,65,0,0
187327,-100,4,2,3,65,0,0
187415,-100,4,2,2,65,0,0
187676,-100,4,2,5,65,0,0
187851,-100,4,2,2,65,0,0
188025,-100,4,2,3,65,0,0
188200,-100,4,2,1,65,0,0
188374,-100,4,2,3,65,0,0
188548,-100,4,2,4,65,0,0
188897,-100,4,2,3,65,0,0
189246,-100,4,2,4,65,0,0
189595,-100,4,2,3,65,0,0
189944,-100,4,2,4,65,0,0
190118,-100,4,2,9,65,0,0
190293,-100,4,2,2,65,0,0
190467,-100,4,2,4,70,0,0
190816,-100,4,2,7,70,0,0
191339,-100,4,2,1,70,0,0
191513,-100,4,2,7,70,0,0
191862,-100,4,2,8,70,0,0
192211,-100,4,2,7,70,0,0
192734,-100,4,2,1,70,0,0
192909,-100,4,2,7,70,0,0
193170,-100,4,2,1,5,0,0
193258,-100,4,2,8,70,0,0
193606,-100,4,2,7,70,0,0
194130,-100,4,2,1,70,0,0
194304,-100,4,2,7,70,0,0
194653,-100,4,2,8,70,0,0
195002,-100,4,2,7,70,0,0
195176,-100,4,2,1,70,0,0
195351,-100,4,2,7,70,0,0
195525,-100,4,2,8,70,0,0
195874,-100,4,2,1,70,0,0
196048,-111.111111111111,4,2,7,65,0,0
196223,-111.111111111111,4,2,1,65,0,0
196397,-111.111111111111,4,2,7,65,0,0
196572,-111.111111111111,4,2,1,65,0,0
196746,-111.111111111111,4,2,7,65,0,0
196920,-111.111111111111,4,2,6,65,0,0
197444,-111.111111111111,4,2,7,65,0,0
197618,-111.111111111111,4,2,1,65,0,0
197793,-111.111111111111,4,2,7,65,0,0
197967,-111.111111111111,4,2,1,65,0,0
198141,-111.111111111111,4,2,7,65,0,0
198403,-111.111111111111,4,2,1,5,0,0
198490,-111.111111111111,4,2,6,65,0,0
198839,-111.111111111111,4,2,7,65,0,0
199362,-111.111111111111,4,2,1,65,0,0
199537,-111.111111111111,4,2,7,65,0,0
199798,-111.111111111111,4,2,1,5,0,0
199886,-111.111111111111,4,2,6,65,0,0
200234,-111.111111111111,4,2,7,65,0,0
200409,-111.111111111111,4,2,1,65,0,0
200583,-111.111111111111,4,2,7,65,0,0
200758,-111.111111111111,4,2,1,65,0,0
200932,-111.111111111111,4,2,7,65,0,0
201281,-111.111111111111,4,2,6,65,0,0
201630,-111.111111111111,4,2,7,65,0,0
202502,-111.111111111111,4,2,6,65,0,0
203025,-111.111111111111,4,2,7,65,0,0
203200,-111.111111111111,4,2,1,65,0,0
203374,-111.111111111111,4,2,7,65,0,0
204072,-111.111111111111,4,2,6,65,0,0
204420,-111.111111111111,4,2,7,65,0,0
205293,-111.111111111111,4,2,6,65,0,0
205816,-111.111111111111,4,2,7,65,0,0
206513,-111.111111111111,4,2,13,65,0,0
206688,-111.111111111111,4,2,14,65,0,0
207211,-100,4,2,3,70,0,0
207473,-100,4,2,1,5,0,0
207560,-100,4,2,8,70,0,0
208606,-100,4,2,10,70,0,0
208955,-100,4,2,8,70,0,0
210002,-100,4,2,10,70,0,0
210263,-100,4,2,1,5,0,0
210351,-100,4,2,8,70,0,0
211397,-100,4,2,10,70,0,0
211572,-100,4,2,1,70,0,0
211746,-100,4,2,4,70,0,0
211920,-100,4,2,1,70,0,0
212095,-100,4,2,5,70,0,0
212269,-100,4,2,9,70,0,0
212618,-100,4,2,2,70,0,0
212793,-100,4,2,4,65,0,0
213054,-100,4,2,1,5,0,0
213141,-100,4,2,7,65,0,0
213316,-100,4,2,5,65,0,0
213665,-100,4,2,14,65,0,0
214013,-100,4,2,1,65,0,0
214188,-100,4,2,5,65,0,0
214362,-100,4,2,2,65,0,0
214537,-100,4,2,7,65,0,0
214886,-100,4,2,8,65,0,0
215234,-100,4,2,9,65,0,0
215409,-100,4,2,1,65,0,0
215583,-100,4,2,8,65,0,0
215845,-100,4,2,1,5,0,0
215932,-100,4,2,7,65,0,0
216106,-100,4,2,1,65,0,0
216281,-100,4,2,9,65,0,0
216455,-100,4,2,14,65,0,0
216804,-100,4,2,1,65,0,0
216979,-100,4,2,5,65,0,0
217153,-100,4,2,2,65,0,0
217327,-100,4,2,7,65,0,0
217676,-100,4,2,8,65,0,0
217851,-100,4,2,1,65,0,0
218025,-100,4,2,4,65,0,0
218200,-100,4,2,2,65,0,0
218374,-100,4,2,4,65,0,0
218636,-100,4,2,1,5,0,0
218723,-100,4,2,9,65,0,0
219246,-100,4,2,2,65,0,0
219595,-100,4,2,1,65,0,0
219769,-100,4,2,7,65,0,0
219944,-100,4,2,1,65,0,0
220118,-100,4,2,7,65,0,0
220467,-100,4,2,8,65,0,0
220816,-100,4,2,7,65,0,0
221165,-100,4,2,3,65,0,0
221426,-100,4,2,1,5,0,0
221513,-100,4,2,10,65,0,0
222037,-100,4,2,2,65,0,0
222211,-100,4,2,10,65,0,0
222386,-100,4,2,13,65,0,0
222560,-100,4,2,10,65,0,0
223258,-100,4,2,1,65,0,0
223606,-100,4,2,2,65,0,0
223694,-100,4,2,1,65,0,0
223955,-100,4,2,3,70,0,0
224304,-100,4,2,8,70,0,0
224653,-100,4,2,10,70,0,0
225002,-100,4,2,8,70,0,0
225263,-100,4,2,1,5,0,0
225351,-100,4,2,10,70,0,0
225700,-100,4,2,8,70,0,0
226048,-100,4,2,10,70,0,0
226397,-100,4,2,8,70,0,0
226746,-100,4,2,10,70,0,0
227095,-100,4,2,8,70,0,0
227444,-100,4,2,10,70,0,0
227793,-100,4,2,1,70,0,0
228141,-100,4,2,3,70,0,0
228229,-100,4,2,1,70,0,0
228490,-100,4,2,2,70,0,0
228577,-100,4,2,1,70,0,0
228839,-100,4,2,4,70,0,0
229188,-100,4,2,9,70,0,0
229362,-100,4,2,2,70,0,0
229537,-100,4,2,2,65,0,0
229886,-100,4,2,7,65,0,0
230060,-100,4,2,5,65,0,0
230409,-100,4,2,2,65,0,0
230583,-100,4,2,9,65,0,0
230758,-100,4,2,1,65,0,0
230932,-100,4,2,9,65,0,0
231106,-100,4,2,2,65,0,0
231281,-100,4,2,7,65,0,0
231455,-100,4,2,1,65,0,0
231630,-100,4,2,7,65,0,0
231804,-100,4,2,9,65,0,0
232153,-100,4,2,1,65,0,0
232327,-100,4,2,8,65,0,0
232502,-100,4,2,1,65,0,0
232676,-100,4,2,7,65,0,0
232851,-100,4,2,5,65,0,0
233200,-100,4,2,2,65,0,0
233374,-100,4,2,9,65,0,0
233548,-100,4,2,1,65,0,0
233723,-100,4,2,9,65,0,0
233897,-100,4,2,2,65,0,0
234072,-100,4,2,7,65,0,0
234420,-100,4,2,8,65,0,0
234944,-100,4,2,1,65,0,0
235118,-100,4,2,2,70,0,0
235467,-100,4,2,10,70,0,0
235641,-100,4,2,1,70,0,0
235816,-100,4,2,10,70,0,0
236339,-100,4,2,1,70,0,0
236513,-100,4,2,11,70,0,0
236862,-100,4,2,8,70,0,0
237211,-100,4,2,10,70,0,0
237386,-100,4,2,4,70,0,0
237560,-100,4,2,3,70,0,0
237734,-100,4,2,2,70,0,0
237909,-100,4,2,4,75,0,0
238258,-100,4,2,6,47,0,0
238432,-100,4,2,6,49,0,0
238606,-100,4,2,6,51,0,0
238781,-100,4,2,6,53,0,0
238955,-100,4,2,6,55,0,0
239130,-100,4,2,6,57,0,0
239304,-100,4,2,5,59,0,0
239479,-100,4,2,5,61,0,0
239653,-100,4,2,5,63,0,0
239827,-100,4,2,5,65,0,0
240002,-100,4,2,6,67,0,0
240176,-100,4,2,6,69,0,0
240351,-100,4,2,6,71,0,0
240525,-100,4,2,6,73,0,0
240700,-100,4,2,4,75,0,0
240787,-100,4,2,1,75,0,0
241397,-100,4,2,2,75,0,0
241484,-100,4,2,1,75,0,0
241746,-100,4,2,3,75,0,0
241920,-100,4,2,2,75,0,0
242095,-100,4,2,11,75,0,0
242618,-100,4,2,1,75,0,0
243490,-90.9090909090909,4,2,1,80,0,1
243839,-90.9090909090909,4,2,10,80,0,1
244013,-90.9090909090909,4,2,1,80,0,1
244188,-90.9090909090909,4,2,8,80,0,1
244537,-90.9090909090909,4,2,10,80,0,1
244711,-90.9090909090909,4,2,11,80,0,1
245060,-90.9090909090909,4,2,1,80,0,1
245234,-90.9090909090909,4,2,2,80,0,1
245583,-90.9090909090909,4,2,8,80,0,1
245932,-90.9090909090909,4,2,7,80,0,1
246106,-90.9090909090909,4,2,1,80,0,1
246281,-90.9090909090909,4,2,10,80,0,1
246455,-90.9090909090909,4,2,1,80,0,1
246630,-90.9090909090909,4,2,2,80,0,1
246979,-90.9090909090909,4,2,8,80,0,1
247502,-90.9090909090909,4,2,11,80,0,1
247851,-90.9090909090909,4,2,1,80,0,1
248025,-90.9090909090909,4,2,8,80,0,1
248723,-90.9090909090909,4,2,7,80,0,1
248897,-90.9090909090909,4,2,4,80,0,1
249420,-90.9090909090909,4,2,10,80,0,1
249595,-90.9090909090909,4,2,1,80,0,1
249769,-90.9090909090909,4,2,8,80,0,1
250118,-90.9090909090909,4,2,10,80,0,1
250293,-90.9090909090909,4,2,1,80,0,1
250467,-90.9090909090909,4,2,7,80,0,1
250641,-90.9090909090909,4,2,1,80,0,1
250816,-90.9090909090909,4,2,11,80,0,1
251165,-90.9090909090909,4,2,8,80,0,1
251513,-90.9090909090909,4,2,11,80,0,1
251862,-90.9090909090909,4,2,10,80,0,1
252037,-90.9090909090909,4,2,1,80,0,1
252211,-90.9090909090909,4,2,10,80,0,1
252386,-90.9090909090909,4,2,2,80,0,1
252560,-90.9090909090909,4,2,8,80,0,1
252909,-90.9090909090909,4,2,10,80,0,1
253083,-90.9090909090909,4,2,1,80,0,1
253258,-90.9090909090909,4,2,7,80,0,1
253432,-90.9090909090909,4,2,1,80,0,1
253606,-90.9090909090909,4,2,10,80,0,1
253955,-90.9090909090909,4,2,8,80,0,1
254304,-90.9090909090909,4,2,10,80,0,1
254479,-90.9090909090909,4,2,1,80,0,1
254653,-90.9090909090909,4,2,4,80,0,1
254827,-90.9090909090909,4,2,1,80,0,1
255002,-90.9090909090909,4,2,10,80,0,1
255176,-90.9090909090909,4,2,1,80,0,1
255351,-90.9090909090909,4,2,8,80,0,1
255700,-90.9090909090909,4,2,10,80,0,1
255874,-90.9090909090909,4,2,1,80,0,1
256048,-90.9090909090909,4,2,7,80,0,1
256223,-90.9090909090909,4,2,1,80,0,1
256397,-90.9090909090909,4,2,2,80,0,1
256746,-90.9090909090909,4,2,8,80,0,1
257095,-90.9090909090909,4,2,7,80,0,1
257269,-90.9090909090909,4,2,1,80,0,1
257444,-90.9090909090909,4,2,10,80,0,1
257618,-90.9090909090909,4,2,1,80,0,1
257793,-90.9090909090909,4,2,10,80,0,1
257967,-90.9090909090909,4,2,2,80,0,1
258141,-90.9090909090909,4,2,8,80,0,1
258665,-90.9090909090909,4,2,11,80,0,1
259013,-90.9090909090909,4,2,1,80,0,1
259188,-90.9090909090909,4,2,8,80,0,1
259798,-90.9090909090909,4,2,1,5,0,1
259886,-90.9090909090909,4,2,11,80,0,1
260234,-90.9090909090909,4,2,3,80,0,1
260583,-90.9090909090909,4,2,10,80,0,1
260932,-90.9090909090909,4,2,1,80,0,1
261194,-90.9090909090909,4,2,1,5,0,1
261281,-90.9090909090909,4,2,8,80,0,1
262589,-90.9090909090909,4,2,1,5,0,1
262676,-90.9090909090909,4,2,8,80,0,1
263025,-90.9090909090909,4,2,11,80,0,1
263374,-90.9090909090909,4,2,10,80,0,1
263548,-90.9090909090909,4,2,4,80,0,1
263723,-90.9090909090909,4,2,9,80,0,1
263897,-90.9090909090909,4,2,7,80,0,1
264072,-90.9090909090909,4,2,6,80,0,1
264246,-90.9090909090909,4,2,4,80,0,1
264508,-90.9090909090909,4,2,1,5,0,1
264595,-90.9090909090909,4,2,6,80,0,1
265293,-90.9090909090909,4,2,1,80,0,1
265729,-90.9090909090909,4,2,1,80,0,0
265816,-90.9090909090909,4,2,1,80,0,1
265990,-90.9090909090909,4,2,2,80,0,1
266165,-90.9090909090909,4,2,8,80,0,1
266339,-90.9090909090909,4,2,1,80,0,1
266513,-90.9090909090909,4,2,10,80,0,1
266862,-90.9090909090909,4,2,8,80,0,1
267037,-90.9090909090909,4,2,11,80,0,1
267560,-90.9090909090909,4,2,8,80,0,1
267734,-90.9090909090909,4,2,2,80,0,1
267822,-90.9090909090909,4,2,10,80,0,1
268432,-90.9090909090909,4,2,1,80,0,1
268606,-90.9090909090909,4,2,10,80,0,1
268781,-90.9090909090909,4,2,1,80,0,1
268955,-90.9090909090909,4,2,8,80,0,1
269304,-90.9090909090909,4,2,10,80,0,1
269653,-90.9090909090909,4,2,8,80,0,1
269827,-90.9090909090909,4,2,11,80,0,1
270351,-90.9090909090909,4,2,8,80,0,1
270700,-90.9090909090909,4,2,10,80,0,1
270961,-90.9090909090909,4,2,1,5,0,1
271048,-90.9090909090909,4,2,10,80,0,1
271223,-90.9090909090909,4,2,4,80,0,1
271746,-90.9090909090909,4,2,8,80,0,1
271920,-90.9090909090909,4,2,1,80,0,1
272095,-90.9090909090909,4,2,10,80,0,1
272444,-90.9090909090909,4,2,8,80,0,1
272618,-90.9090909090909,4,2,11,80,0,1
273141,-90.9090909090909,4,2,8,80,0,1
273316,-90.9090909090909,4,2,1,80,0,1
273490,-90.9090909090909,4,2,10,80,0,1
274013,-90.9090909090909,4,2,1,80,0,1
274188,-90.9090909090909,4,2,10,80,0,1
274537,-90.9090909090909,4,2,8,80,0,1
274711,-90.9090909090909,4,2,2,80,0,1
274798,-90.9090909090909,4,2,10,80,0,1
275234,-90.9090909090909,4,2,8,80,0,1
275409,-90.9090909090909,4,2,3,80,0,1
275932,-90.9090909090909,4,2,12,80,0,1
276281,-90.9090909090909,4,2,4,80,0,1
276630,-90.9090909090909,4,2,9,80,0,1
276804,-90.9090909090909,4,2,2,80,0,1
276979,-90.9090909090909,4,2,4,80,0,1
277327,-90.9090909090909,4,2,8,80,0,1
277502,-90.9090909090909,4,2,2,80,0,1
277589,-90.9090909090909,4,2,10,80,0,1
278025,-90.9090909090909,4,2,8,80,0,1
278200,-90.9090909090909,4,2,11,80,0,1
278723,-90.9090909090909,4,2,8,80,0,1
279072,-90.9090909090909,4,2,10,80,0,1
279595,-90.9090909090909,4,2,1,80,0,1
279769,-90.9090909090909,4,2,10,80,0,1
279944,-90.9090909090909,4,2,1,80,0,1
280118,-90.9090909090909,4,2,8,80,0,1
280293,-90.9090909090909,4,2,2,80,0,1
280380,-90.9090909090909,4,2,10,80,0,1
280816,-90.9090909090909,4,2,8,80,0,1
280990,-90.9090909090909,4,2,11,80,0,1
281513,-90.9090909090909,4,2,8,80,0,1
281862,-90.9090909090909,4,2,10,80,0,1
282386,-90.9090909090909,4,2,4,80,0,1
282909,-90.9090909090909,4,2,8,80,0,1
283258,-90.9090909090909,4,2,5,80,0,1
283432,-90.9090909090909,4,2,2,80,0,1
283606,-90.9090909090909,4,2,8,80,0,1
283781,-90.9090909090909,4,2,5,80,0,1
284304,-90.9090909090909,4,2,10,80,0,1
284479,-90.9090909090909,4,2,1,80,0,1
284653,-90.9090909090909,4,2,10,80,0,1
284827,-90.9090909090909,4,2,2,80,0,1
285002,-90.9090909090909,4,2,10,80,0,1
285351,-90.9090909090909,4,2,12,80,0,1
285525,-90.9090909090909,4,2,2,80,0,1
285700,-90.9090909090909,4,2,8,80,0,1
286048,-90.9090909090909,4,2,10,80,0,1
286223,-90.9090909090909,4,2,2,80,0,1
286572,-90.9090909090909,4,2,12,80,0,1
286833,-90.9090909090909,4,2,1,5,0,1
286920,-90.9090909090909,4,2,12,80,0,1
287269,-90.9090909090909,4,2,4,80,0,1
287531,-90.9090909090909,4,2,9,80,0,1
287967,-90.9090909090909,4,2,2,80,0,1
288141,-100,4,2,1,75,0,0
288490,-100,4,2,8,75,0,0
288665,-100,4,2,1,75,0,0
288839,-100,4,2,10,75,0,0
289013,-100,4,2,2,75,0,0
289188,-100,4,2,8,75,0,0
289362,-100,4,2,1,75,0,0
289537,-100,4,2,10,75,0,0
289886,-100,4,2,8,75,0,0
290060,-100,4,2,5,75,0,0
290583,-100,4,2,10,75,0,0
290758,-100,4,2,1,75,0,0
290932,-100,4,2,10,75,0,0
291106,-100,4,2,1,75,0,0
291281,-100,4,2,8,75,0,0
291455,-100,4,2,1,75,0,0
291630,-100,4,2,10,75,0,0
291804,-100,4,2,2,75,0,0
291979,-100,4,2,8,75,0,0
292153,-100,4,2,1,75,0,0
292327,-100,4,2,10,75,0,0
292676,-100,4,2,8,75,0,0
292851,-100,4,2,2,75,0,0
292938,-100,4,2,1,75,0,0
293025,-100,4,2,5,75,0,0
293200,-100,4,2,2,75,0,0
293374,-100,4,2,8,75,0,0
293548,-100,4,2,1,75,0,0
293723,-100,4,2,10,75,0,0
294246,-100,4,2,1,75,0,0
294420,-100,4,2,10,75,0,0
294769,-100,4,2,8,75,0,0
295118,-100,4,2,10,75,0,0
295467,-100,4,2,8,75,0,0
295641,-100,4,2,5,75,0,0
295990,-100,4,2,2,75,0,0
296165,-100,4,2,10,75,0,0
296339,-100,4,2,1,75,0,0
296513,-100,4,2,10,75,0,0
296862,-100,4,2,8,75,0,0
297037,-100,4,2,5,75,0,0
297560,-100,4,2,1,75,0,0
297909,-100,4,2,3,75,0,0
298258,-100,4,2,1,75,0,0
298432,-100,4,2,4,75,0,0
298955,-100,4,2,1,75,0,0
299304,-100,4,2,2,75,0,0
299653,-100,4,2,15,75,0,0
299827,-100,4,2,2,75,0,0
299915,-100,4,2,15,75,0,0
300176,-100,4,2,2,75,0,0
300351,-100,4,2,15,75,0,0
300525,-100,4,2,1,75,0,0
300700,-100,4,2,15,75,0,0
301223,-100,4,2,2,75,0,0
301310,-100,4,2,16,75,0,0
301920,-100,4,2,1,75,0,0
302095,-100,4,2,15,75,0,0
302269,-100,4,2,1,75,0,0
302444,-100,4,2,15,75,0,0
302618,-100,4,2,2,75,0,0
302705,-100,4,2,15,75,0,0
302967,-100,4,2,2,75,0,0
303141,-100,4,2,15,75,0,0
303316,-100,4,2,2,75,0,0
303490,-100,4,2,15,75,0,0
304013,-100,4,2,2,75,0,0
304101,-100,4,2,16,75,0,0
304362,-100,4,2,2,75,0,0
304537,-100,4,2,1,75,0,0
304886,-100,4,2,3,75,0,0
305234,-100,4,2,12,75,0,0
305583,-100,4,2,15,75,0,0
305932,-100,4,2,16,75,0,0
306106,-100,4,2,1,75,0,0
306281,-100,4,2,11,75,0,0
306543,-100,4,2,1,5,0,0
306630,-100,4,2,13,75,0,0
306804,-100,4,2,1,75,0,0
307153,-100,4,2,4,75,0,0
307327,-100,4,2,3,75,0,0
307502,-100,4,2,2,75,0,0
307676,-100,4,2,4,75,0,0
308025,-100,4,2,10,75,0,0
308200,-100,4,2,2,75,0,0
308374,-100,4,2,1,75,0,0
308723,-100,4,2,8,75,0,0
309420,-100,4,2,10,75,0,0
309769,-100,4,2,8,75,0,0
310467,-100,4,2,1,75,0,0
310816,-100,4,2,10,75,0,0
311979,-100,4,2,1,75,0,0
312676,-100,4,2,4,75,0,0
313025,-100,4,2,3,75,0,0
313258,-111.111111111111,4,2,1,65,0,0
314653,-111.111111111111,4,2,2,65,0,0
315002,-111.111111111111,4,2,5,65,0,0
316048,-111.111111111111,4,2,4,65,0,0
317095,-111.111111111111,4,2,12,65,0,0
317618,-111.111111111111,4,2,1,65,0,0
318316,-111.111111111111,4,2,4,65,0,0
318490,-111.111111111111,4,2,2,65,0,0
319188,-111.111111111111,4,2,4,65,0,0
321979,-111.111111111111,4,2,2,65,0,0
322327,-111.111111111111,4,2,12,65,0,0
322676,-111.111111111111,4,2,2,65,0,0
323025,-111.111111111111,4,2,13,65,0,0
323374,-111.111111111111,4,2,1,65,0,0
324072,-111.111111111111,4,2,2,65,0,0
325118,-111.111111111111,4,2,12,65,0,0
325467,-111.111111111111,4,2,3,65,0,0
325641,-111.111111111111,4,2,2,65,0,0
325816,-111.111111111111,4,2,4,65,0,0
326339,-111.111111111111,4,2,1,65,0,0
326513,-111.111111111111,4,2,4,65,0,0
327037,-111.111111111111,4,2,2,65,0,0
327211,-111.111111111111,4,2,4,65,0,0
327734,-111.111111111111,4,2,8,65,0,0
328606,-111.111111111111,4,2,10,65,0,0
328955,-111.111111111111,4,2,2,65,0,0
329130,-111.111111111111,4,2,13,65,0,0
329479,-111.111111111111,4,2,1,65,0,0
329827,-111.111111111111,4,2,3,65,0,0
330002,-100,4,2,4,65,0,0
330525,-100,4,2,8,65,0,0
330700,-100,4,2,4,65,0,0
331223,-100,4,2,8,65,0,0
331397,-100,4,2,2,65,0,0
331572,-100,4,2,8,65,0,0
331746,-100,4,2,3,65,0,0
332269,-100,4,2,1,65,0,0
332444,-100,4,2,5,65,0,0
332531,-100,4,2,3,65,0,0
332618,-100,4,2,2,65,0,0
333141,-100,4,2,6,47,0,0
333316,-100,4,2,6,49,0,0
333490,-100,4,2,6,51,0,0
333665,-100,4,2,6,53,0,0
333839,-100,4,2,6,55,0,0
334013,-100,4,2,6,57,0,0
334188,-100,4,2,6,59,0,0
334362,-100,4,2,6,61,0,0
334537,-100,4,2,6,63,0,0
334711,-100,4,2,6,65,0,0
334886,-100,4,2,6,67,0,0
335060,-100,4,2,6,69,0,0
335234,-100,4,2,6,71,0,0
335409,-100,4,2,6,73,0,0
335583,-100,4,2,5,75,0,0
335758,-100,4,2,1,75,0,0
335932,-100,4,2,5,47,0,0
336106,-100,4,2,1,49,0,0
336281,-100,4,2,5,51,0,0
336455,-100,4,2,1,53,0,0
336630,-100,4,2,5,55,0,0
336804,-100,4,2,1,57,0,0
336979,-100,4,2,11,59,0,0
337153,-100,4,2,1,61,0,0
337327,-100,4,2,1,63,0,0
337502,-100,4,2,1,65,0,0
337676,-100,4,2,2,67,0,0
337763,-100,4,2,1,67,0,0
337851,-100,4,2,1,69,0,0
338025,-100,4,2,11,71,0,0
338200,-100,4,2,11,73,0,0
338374,-90.9090909090909,4,2,11,75,0,1
338461,-100,4,2,11,75,0,0
338548,-90.9090909090909,4,2,11,75,0,1
338636,-125,4,2,11,75,0,0
338723,-125,4,2,3,55,0,0
341862,-111.111111111111,4,2,1,60,0,0
342211,-111.111111111111,4,2,3,60,0,0
342386,-111.111111111111,4,2,12,60,0,0
342909,-111.111111111111,4,2,4,70,0,0
343258,-111.111111111111,4,2,1,70,0,0
343432,-111.111111111111,4,2,4,70,0,0
343955,-90.9090909090909,4,2,11,75,0,1
344043,-100,4,2,14,75,0,0
344130,-90.9090909090909,4,2,11,75,0,1
344217,-125,4,2,14,75,0,0
344304,-125,4,2,14,55,0,0
345874,-125,4,2,2,55,0,0
346048,-125,4,2,1,60,0,0
346572,-125,4,2,2,60,0,0
346746,-111.111111111111,4,2,2,65,0,0
346920,-111.111111111111,4,2,3,65,0,0
348141,-111.111111111111,4,2,2,65,0,0
348490,-111.111111111111,4,2,1,70,0,0
348839,-111.111111111111,4,2,13,70,0,0
349013,-111.111111111111,4,2,2,70,0,0
349537,-111.111111111111,4,2,1,70,0,0
349711,-111.111111111111,4,2,2,70,0,0
350234,-111.111111111111,4,2,4,70,0,0
351630,-111.111111111111,4,2,12,70,0,0
352153,-111.111111111111,4,2,4,70,0,0
353025,-111.111111111111,4,2,12,70,0,0
353548,-111.111111111111,4,2,2,70,0,0
353897,-111.111111111111,4,2,1,70,0,0
354653,-111.111111111111,4,2,4,70,0,0
354769,-111.111111111111,4,2,3,70,0,0
354886,-111.111111111111,4,2,5,70,0,0
355118,-100,4,2,4,70,0,0
355380,-100,4,2,4,70,0,0
355467,-100,4,2,1,70,0,0
355641,-100,4,2,3,70,0,0
355990,-100,4,2,1,70,0,0
356165,-100,4,2,4,70,0,0
356339,-100,4,2,3,70,0,0
356513,-100,4,2,4,70,0,0
357037,-100,4,2,13,70,0,0
357386,-100,4,2,1,70,0,0
357560,-100,4,2,13,70,0,0
357909,-100,4,2,11,70,0,0
358083,-100,4,2,6,70,0,0
358258,-100,4,2,6,47,0,0
358432,-100,4,2,6,49,0,0
358606,-100,4,2,6,51,0,0
358781,-100,4,2,6,53,0,0
358955,-100,4,2,6,55,0,0
359130,-100,4,2,1,57,0,0
359391,-100,4,2,1,59,0,0
359479,-100,4,2,1,61,0,0
359653,-100,4,2,4,63,0,0
359740,-100,4,2,1,63,0,0
359827,-100,4,2,1,65,0,0
360002,-100,4,2,1,67,0,0
360176,-100,4,2,4,69,0,0
360263,-100,4,2,1,69,0,0
360351,-100,4,2,1,71,0,0
360525,-100,4,2,1,73,0,0
360700,-90.9090909090909,4,2,1,80,0,1
360874,-90.9090909090909,4,2,2,80,0,1
361048,-90.9090909090909,4,2,8,80,0,1
361223,-90.9090909090909,4,2,1,80,0,1
361397,-90.9090909090909,4,2,10,80,0,1
361746,-90.9090909090909,4,2,8,80,0,1
361920,-90.9090909090909,4,2,11,80,0,1
362444,-90.9090909090909,4,2,8,80,0,1
362618,-90.9090909090909,4,2,1,80,0,1
362793,-90.9090909090909,4,2,10,80,0,1
363316,-90.9090909090909,4,2,1,80,0,1
363490,-90.9090909090909,4,2,10,80,0,1
363665,-90.9090909090909,4,2,2,80,0,1
363839,-90.9090909090909,4,2,8,80,0,1
364188,-90.9090909090909,4,2,10,80,0,1
364537,-90.9090909090909,4,2,8,80,0,1
364711,-90.9090909090909,4,2,11,80,0,1
365234,-90.9090909090909,4,2,8,80,0,1
365583,-90.9090909090909,4,2,10,80,0,1
366106,-90.9090909090909,4,2,4,80,0,1
366630,-90.9090909090909,4,2,8,80,0,1
366804,-90.9090909090909,4,2,1,80,0,1
366979,-90.9090909090909,4,2,10,80,0,1
367327,-90.9090909090909,4,2,8,80,0,1
367502,-90.9090909090909,4,2,11,80,0,1
368025,-90.9090909090909,4,2,8,80,0,1
368200,-90.9090909090909,4,2,1,80,0,1
368374,-90.9090909090909,4,2,10,80,0,1
368897,-90.9090909090909,4,2,1,80,0,1
369072,-90.9090909090909,4,2,10,80,0,1
369420,-90.9090909090909,4,2,8,80,0,1
369595,-90.9090909090909,4,2,1,80,0,1
369769,-90.9090909090909,4,2,10,80,0,1
370118,-90.9090909090909,4,2,8,80,0,1
370293,-90.9090909090909,4,2,2,80,0,1
370380,-90.9090909090909,4,2,1,80,0,1
370467,-90.9090909090909,4,2,5,80,0,1
370554,-90.9090909090909,4,2,1,80,0,1
370990,-90.9090909090909,4,2,5,80,0,1
371077,-90.9090909090909,4,2,1,80,0,1
371688,-90.9090909090909,4,2,3,80,0,1
372211,-90.9090909090909,4,2,1,80,0,1
372560,-90.9090909090909,4,2,10,80,0,1
372909,-90.9090909090909,4,2,8,80,0,1
373083,-90.9090909090909,4,2,11,80,0,1
373606,-90.9090909090909,4,2,8,80,0,1
373955,-90.9090909090909,4,2,10,80,0,1
374479,-90.9090909090909,4,2,1,80,0,1
374653,-90.9090909090909,4,2,10,80,0,1
374827,-90.9090909090909,4,2,1,80,0,1
375002,-90.9090909090909,4,2,8,80,0,1
375176,-90.9090909090909,4,2,1,80,0,1
375351,-90.9090909090909,4,2,10,80,0,1
375700,-90.9090909090909,4,2,8,80,0,1
375874,-90.9090909090909,4,2,11,80,0,1
376397,-90.9090909090909,4,2,8,80,0,1
376746,-90.9090909090909,4,2,10,80,0,1
377269,-90.9090909090909,4,2,1,80,0,1
377618,-90.9090909090909,4,2,2,80,0,1
377793,-90.9090909090909,4,2,8,80,0,1
378141,-90.9090909090909,4,2,10,80,0,1
378316,-90.9090909090909,4,2,2,80,0,1
378490,-90.9090909090909,4,2,8,80,0,1
378665,-90.9090909090909,4,2,2,80,0,1
378839,-90.9090909090909,4,2,10,80,0,1
379362,-90.9090909090909,4,2,2,80,0,1
379537,-90.9090909090909,4,2,8,80,0,1
379711,-90.9090909090909,4,2,2,80,0,1
379886,-90.9090909090909,4,2,10,80,0,1
380234,-90.9090909090909,4,2,12,80,0,1
380409,-90.9090909090909,4,2,2,80,0,1
380583,-90.9090909090909,4,2,8,80,0,1
380932,-90.9090909090909,4,2,10,80,0,1
381106,-90.9090909090909,4,2,2,80,0,1
381455,-90.9090909090909,4,2,1,80,0,1
381804,-90.9090909090909,4,2,6,80,0,1
383025,-125,4,2,17,65,0,0
383200,-125,4,2,4,65,0,0
387211,-125,4,2,1,65,0,0
387560,-125,4,2,1,5,0,0
387734,-125,4,2,4,65,0,0
388258,-125,4,2,2,65,0,0
389653,-125,4,2,11,65,0,0
390002,-125,4,2,1,65,0,0
391048,-125,4,2,2,65,0,0
392095,-125,4,2,6,65,0,0
392618,-125,4,2,1,65,0,0
392793,-125,4,2,2,65,0,0
392967,-125,4,2,1,65,0,0
393141,-125,4,2,4,65,0,0
393665,-125,4,2,3,65,0,0
393839,-125,4,2,12,65,0,0
394188,-125,4,2,1,65,0,0
395409,-125,4,2,4,65,0,0
395758,-125,4,2,3,65,0,0
396281,-125,4,2,5,65,0,0
396979,-125,4,2,4,65,0,0
397676,-125,4,2,1,65,0,0
398548,-125,4,2,4,65,0,0
398897,-125,4,2,3,65,0,0
399072,-125,4,2,12,65,0,0
399769,-125,4,2,4,65,0,0
400467,-125,4,2,1,65,0,0
401688,-125,4,2,4,65,0,0
402211,-125,4,2,3,65,0,0
402560,-111.111111111111,4,2,12,75,0,0
402909,-111.111111111111,4,2,6,47,0,0
403083,-111.111111111111,4,2,6,49,0,0
403258,-111.111111111111,4,2,6,51,0,0
403432,-111.111111111111,4,2,6,53,0,0
403606,-111.111111111111,4,2,6,55,0,0
403781,-111.111111111111,4,2,6,57,0,0
403955,-111.111111111111,4,2,6,59,0,0
404130,-111.111111111111,4,2,6,61,0,0
404304,-111.111111111111,4,2,6,63,0,0
404479,-111.111111111111,4,2,6,65,0,0
404653,-111.111111111111,4,2,5,67,0,0
404740,-111.111111111111,4,2,1,67,0,0
404827,-111.111111111111,4,2,1,69,0,0
405002,-111.111111111111,4,2,5,71,0,0
405089,-111.111111111111,4,2,1,71,0,0
405176,-111.111111111111,4,2,1,73,0,0
405351,-111.111111111111,4,2,1,75,0,0
405438,-111.111111111111,4,2,1,50,0,0
406048,-111.111111111111,4,2,1,45,0,0
406746,-111.111111111111,4,2,1,40,0,0
407444,-111.111111111111,4,2,1,35,0,0
408141,-111.111111111111,4,2,1,30,0,0
408839,-111.111111111111,4,2,1,25,0,0
409537,-111.111111111111,4,2,1,20,0,0
410234,-111.111111111111,4,2,1,15,0,0
410583,-111.111111111111,4,2,1,10,0,0
410932,-111.111111111111,4,2,1,5,0,0

[Colours]
Combo1 : 255,128,255
Combo2 : 128,128,255
Combo3 : 191,128,255

[HitObjects]
104,48,700,6,0,P|72:88|64:180,1,143.999995605469,14|2,2:1|2:2,0:0:0:0:
152,328,1397,1,2,2:2:0:0:
176,324,1746,1,2,2:2:0:0:
200,320,2095,1,2,2:2:0:0:
224,316,2444,1,2,2:2:0:0:
248,312,2793,1,2,2:2:0:0:
292,196,2967,1,4,2:3:0:0:
292,196,3141,2,0,P|344:220|404:220,1,107.999996704102,6|0,2:3|0:0,0:0:0:0:
432,216,3490,6,0,L|408:64,1,143.999995605469,14|2,2:1|2:2,0:0:0:0:
248,16,4188,1,2,2:2:0:0:
224,24,4537,1,2,2:2:0:0:
200,32,4886,1,2,2:2:0:0:
176,40,5234,1,2,2:2:0:0:
152,48,5583,1,2,2:2:0:0:
128,56,5932,1,2,2:2:0:0:
48,240,6281,6,0,B|88:220|112:244|112:244|132:284|188:280,1,143.999995605469,14|2,2:1|2:2,0:0:0:0:
268,128,6979,1,2,2:2:0:0:
292,136,7327,1,2,2:2:0:0:
316,144,7676,1,2,2:2:0:0:
340,152,8025,1,2,2:2:0:0:
444,80,8200,1,4,2:3:0:0:
444,80,8374,2,0,P|484:124|488:216,1,143.999995605469,2|6,2:2|2:3,0:0:0:0:
304,296,9072,6,0,P|233:298|178:343,1,143.999995605469,14|2,2:1|2:2,0:0:0:0:
56,216,9769,1,2,2:2:0:0:
68,340,9944,1,8,2:2:0:0:
160,256,10118,1,2,2:2:0:0:
100,80,10467,1,10,2:2:0:0:
280,120,10816,1,2,2:2:0:0:
380,60,10990,1,4,2:3:0:0:
404,168,11165,2,0,P|440:172|468:192,1,71.9999978027344,2|4,2:2|2:3,0:0:0:0:
384,324,11513,2,0,P|404:295|408:259,1,71.9999978027344,6|8,2:3|2:1,0:0:0:0:
280,120,11862,6,0,B|224:108|224:108|200:124|200:124|140:112,1,143.999995605469,14|2,2:1|2:2,0:0:0:0:
72,272,12560,1,2,2:2:0:0:
64,248,12909,1,2,2:2:0:0:
56,224,13258,2,0,P|100:200|132:144,1,107.999996704102,14|0,2:2|0:0,0:0:0:0:
148,116,13606,1,10,2:1:0:0:
172,12,13781,1,4,2:3:0:0:
256,72,13955,1,2,2:2:0:0:
148,116,14130,1,8,2:2:0:0:
296,0,14304,2,0,P|324:28|336:60,1,71.9999978027344,6|4,2:3|2:3,0:0:0:0:
240,216,14653,6,0,B|280:228|308:208|308:208|328:240|368:252,1,143.999995605469,14|2,2:1|2:2,0:0:0:0:
272,344,15176,1,8,2:1:0:0:
256,136,15351,6,0,B|216:124|188:144|188:144|168:112|128:100,1,143.999995605469,14|2,2:2|2:2,0:0:0:0:
32,36,15874,1,4,2:3:0:0:
131,100,16048,2,0,P|100:132|88:192,1,107.999996704102,2|0,2:2|0:0,0:0:0:0:
96,228,16397,1,6,2:3:0:0:
124,332,16572,1,4,2:3:0:0:
20,300,16746,1,10,2:2:0:0:
172,176,16920,1,12,2:1:0:0:
172,176,17095,2,0,P|208:200|276:204,1,107.999996704102,2|0,2:2|0:0,0:0:0:0:
308,200,17444,6,0,L|352:344,1,143.999995605469,14|2,2:1|2:2,0:0:0:0:
480,180,18141,2,0,L|436:36,1,143.999995605469,2|10,2:2|2:2,0:0:0:0:
336,108,18665,1,10,2:1:0:0:
336,108,18839,1,2,2:2:0:0:
437,42,19013,1,8,2:2:0:0:
312,0,19188,5,2,2:2:0:0:
288,8,19537,1,10,2:2:0:0:
264,16,19886,5,6,2:3:0:0:
336,108,20060,1,4,2:3:0:0:
160,88,20234,6,0,P|192:144|188:228,1,143.999995605469,14|0,2:1|0:0,0:0:0:0:
132,332,20758,1,10,2:1:0:0:
40,248,20932,2,0,P|8:192|12:108,1,143.999995605469,10|2,2:2|2:2,0:0:0:0:
104,172,21455,1,4,2:3:0:0:
190,221,21630,6,0,B|238:201|238:201|330:233,1,143.999995605469,2|6,2:2|2:3,0:0:0:0:
352,340,22153,1,4,2:3:0:0:
424,264,22327,2,0,P|416:224|408:188,1,71.9999978027344,6|4,2:3|2:3,0:0:0:0:
336,108,22676,1,6,2:3:0:0:
409,193,22851,1,4,2:3:0:0:
472,44,23025,1,14,2:1:0:0:
256,192,23112,12,2,24420,2:2:0:0:
91,60,25816,6,0,P|143:65|222:73,2,128,10|0|8,2:1|0:0|2:2,0:0:0:0:
1,122,26688,1,2,2:2:0:0:
83,198,26862,2,0,P|94:163|106:130,1,64,10|2,2:1|2:2,0:0:0:0:
187,209,27211,6,0,P|242:216|327:227,1,128,2|0,2:2|0:0,0:0:0:0:
382,309,27734,1,8,2:1:0:0:
277,361,27909,2,0,P|282:329|289:298,2,64,8|10|2,2:2|2:1|2:2,0:0:0:0:
382,309,28432,1,2,2:2:0:0:
412,211,28606,6,0,P|383:168|335:92,1,128,10|2,2:1|2:2,0:0:0:0:
315,10,29130,1,10,2:1:0:0:
265,107,29304,2,0,P|215:88|185:78,1,64,8|2,2:2|2:2,0:0:0:0:
106,52,29653,2,0,P|121:90|150:149,1,96,10|0,2:1|0:0,0:0:0:0:
113,231,30002,6,0,P|154:220|242:200,1,128,2|0,2:2|0:0,0:0:0:0:
327,258,30525,1,8,2:1:0:0:
251,340,30700,2,0,P|243:302|237:272,1,64,8|8,2:2|2:1,0:0:0:0:
327,258,31048,2,0,P|333:226|339:195,1,64,2|2,2:2|2:2,0:0:0:0:
415,108,31397,6,0,P|369:111|284:117,1,128,10|2,2:1|2:2,0:0:0:0:
331,14,31920,1,10,2:1:0:0:
428,45,32095,2,0,P|419:89|413:115,1,64,8|2,2:2|2:2,0:0:0:0:
486,168,32444,2,0,P|492:199|499:230,1,64,8|2,2:1|2:2,0:0:0:0:
490,339,32793,6,0,P|445:319|368:278,2,128,0|2|10,0:0|2:2|2:2,0:0:0:0:
365,381,33665,1,8,2:1:0:0:
375,282,33839,2,0,P|369:250|364:218,1,64,2|0,2:2|0:0,0:0:0:0:
280,279,34188,6,0,P|231:282|135:284,2,128,10|0|8,2:1|0:0|2:2,0:0:0:0:
216,186,35060,1,2,2:2:0:0:
152,284,35234,2,0,P|160:322|167:356,1,64,8|2,2:1|2:2,0:0:0:0:
51,282,35583,2,0,B|30:238|30:238|74:150,2,128,2|2|10,2:2|2:2|2:2,0:0:0:0:
72,366,36455,1,8,2:1:0:0:
152,284,36630,2,0,P|183:280|215:277,1,64,2|0,2:2|0:0,0:0:0:0:
380,188,36979,5,14,2:1:0:0:
468,22,37327,1,2,2:2:0:0:
257,99,37676,1,2,2:2:0:0:
469,151,38025,1,2,2:2:0:0:
239,188,38374,5,2,2:2:0:0:
151,27,38722,1,2,2:2:0:0:
362,99,39071,1,2,2:2:0:0:
100,122,39420,1,2,2:2:0:0:
134,193,39595,1,8,2:1:0:0:
177,259,39769,5,10,2:1:0:0:
10,156,40118,1,2,2:2:0:0:
220,113,40467,1,2,2:2:0:0:
63,277,40816,1,2,2:2:0:0:
303,311,41165,5,2,2:2:0:0:
136,208,41514,1,2,2:2:0:0:
346,165,41863,1,2,2:2:0:0:
380,94,42037,1,8,2:1:0:0:
414,23,42211,2,0,P|445:45|515:92,1,107.999996704102,10|0,2:1|0:0,0:0:0:0:
472,156,42560,6,0,P|481:212|433:300,1,160,10|2,2:3|0:0,0:0:0:0:
412,312,42996,1,2,0:0:0:0:
392,324,43083,1,2,2:2:0:0:
372,336,43170,1,2,0:0:0:0:
352,348,43258,1,10,2:3:0:0:
280,248,43432,1,0,0:0:0:0:
192,328,43606,1,10,2:3:0:0:
192,328,43694,1,8,2:3:0:0:
192,328,43781,1,8,2:3:0:0:
104,152,43955,6,0,P|140:168|168:200,1,80,10|0,2:3|0:0,0:0:0:0:
20,144,44304,2,0,P|36:108|68:80,1,80,2|0,2:2|0:0,0:0:0:0:
92,236,44653,2,0,P|76:272|44:300,1,80,10|0,2:3|0:0,0:0:0:0:
0,136,45002,2,0,P|16:100|48:72,1,80,10|8,2:3|2:3,0:0:0:0:
212,20,45351,6,0,B|272:24|272:24|300:44|300:44|368:48,1,160,10|2,2:3|2:2,0:0:0:0:
412,48,45787,1,2,0:0:0:0:
412,48,45874,1,2,2:2:0:0:
460,204,46048,2,0,P|480:168|480:124,1,80,8|2,2:3|2:2,0:0:0:0:
328,176,46397,1,10,2:3:0:0:
328,176,46484,1,8,2:3:0:0:
328,176,46572,1,8,2:3:0:0:
416,332,46746,6,0,P|356:296|272:312,2,160,10|2|10,2:3|2:2|2:3,0:0:0:0:
484,168,47618,2,0,P|480:208|460:244,1,80,2|10,2:2|2:3,0:0:0:0:
336,376,47967,1,10,2:3:0:0:
248,208,48141,6,0,B|188:176|172:224|92:176,1,160,8|2,2:3|0:0,0:0:0:0:
72,164,48577,1,2,0:0:0:0:
56,140,48665,1,2,0:0:0:0:
52,116,48752,1,2,0:0:0:0:
60,92,48839,2,0,P|100:76|128:44,1,80,10|0,2:3|0:0,0:0:0:0:
256,16,49188,1,10,2:3:0:0:
256,16,49275,1,8,2:3:0:0:
256,16,49362,1,10,2:3:0:0:
208,176,49537,6,0,P|216:132|208:96,1,80,8|2,2:3|2:2,0:0:0:0:
60,92,49886,1,2,2:2:0:0:
168,248,50060,2,0,P|212:256|248:248,1,80,2|10,0:0|2:3,0:0:0:0:
336,160,50409,1,0,0:0:0:0:
428,64,50583,2,0,B|468:96|468:96|456:176,1,120,10|8,2:3|2:3,0:0:0:0:
448,208,50932,5,10,2:3:0:0:
328,344,51281,1,2,0:0:0:0:
296,340,51368,1,2,0:0:0:0:
264,336,51455,1,2,0:0:0:0:
232,332,51543,1,2,0:0:0:0:
200,328,51630,1,10,2:3:0:0:
68,160,51979,1,10,2:3:0:0:
68,160,52066,1,8,2:3:0:0:
68,160,52153,1,10,2:3:0:0:
168,72,52327,6,0,P|224:56|316:96,1,160,10|2,2:3|2:2,0:0:0:0:
396,196,52851,1,0,0:0:0:0:
280,252,53025,2,0,P|224:268|132:228,1,160,10|10,2:3|2:3,0:0:0:0:
60,128,53548,1,10,2:3:0:0:
228,16,53723,5,14,2:1:0:0:
133,229,54072,1,2,2:2:0:0:
40,16,54420,1,2,2:2:0:0:
104,64,54595,1,4,2:3:0:0:
168,112,54769,1,6,2:3:0:0:
380,256,55118,5,14,2:1:0:0:
444,36,55467,1,2,2:2:0:0:
316,144,55641,2,0,P|352:140|392:152,1,71.9999978027344,8|2,2:2|2:2,0:0:0:0:
472,244,55990,1,4,2:3:0:0:
386,149,56165,1,6,2:3:0:0:
496,96,56339,1,4,2:3:0:0:
380,256,56513,6,0,B|324:244|324:244|296:256|296:256|232:244,1,143.999995605469,14|2,2:1|2:2,0:0:0:0:
168,312,57037,1,8,2:1:0:0:
68,244,57211,2,0,P|60:204|72:172,1,71.9999978027344,10|4,2:2|2:3,0:0:0:0:
156,80,57560,1,6,2:3:0:0:
69,175,57734,1,4,2:3:0:0:
100,20,57909,6,0,P|168:0|228:44,1,143.999995605469,14|6,2:2|2:3,0:0:0:0:
256,184,58432,1,4,2:3:0:0:
256,184,58519,1,4,2:3:0:0:
256,184,58606,1,6,2:3:0:0:
348,112,58781,1,4,2:3:0:0:
376,224,58955,1,6,2:3:0:0:
468,152,59130,1,4,2:3:0:0:
224,38,59304,6,0,P|287:52|383:75,1,160,14|10,2:2|2:3,0:0:0:0:
468,152,59827,1,10,2:2:0:0:
376,224,60002,2,0,P|364:175|357:138,1,80,10|10,2:3|2:3,0:0:0:0:
283,226,60351,2,0,P|275:265|297:303,1,80,10|10,2:2|2:3,0:0:0:0:
169,355,60700,5,10,2:3:0:0:
129,276,60874,1,8,2:2:0:0:
88,197,61048,2,0,P|47:234|22:257,1,80,10|10,2:3|2:3,0:0:0:0:
16,100,61397,2,0,P|63:82|127:115,1,120,8|0,2:2|0:0,0:0:0:0:
175,191,61746,1,8,2:3:0:0:
175,191,61833,1,8,2:3:0:0:
175,191,61920,1,10,2:3:0:0:
175,191,62008,1,8,2:3:0:0:
175,191,62095,6,0,B|216:152|216:152|258:153|258:153|307:108,1,160,10|10,2:2|2:3,0:0:0:0:
376,30,62618,1,10,2:2:0:0:
422,116,62793,2,0,P|413:153|363:180,1,80,10|10,2:3|2:3,0:0:0:0:
372,324,63141,2,0,P|381:287|414:263,1,80,10|10,2:2|2:3,0:0:0:0:
210,294,63490,5,10,2:3:0:0:
296,223,63665,1,8,2:2:0:0:
212,205,63839,1,10,2:3:0:0:
300,302,64013,1,10,2:3:0:0:
212,205,64188,2,0,P|168:218|131:229,1,80,8|4,2:2|2:3,0:0:0:0:
27,308,64537,2,0,P|71:321|108:332,1,80,4|6,2:3|2:3,0:0:0:0:
46,230,64886,6,0,B|30:191|55:155|55:155|28:115|-14:120,1,160,10|10,2:2|2:3,0:0:0:0:
0,13,65409,1,10,2:2:0:0:
101,55,65583,2,0,P|148:65|200:78,1,80,10|10,2:3|2:3,0:0:0:0:
284,9,65932,2,0,P|292:48|301:87,1,80,10|10,2:2|2:3,0:0:0:0:
228,208,66281,5,10,2:3:0:0:
339,161,66455,1,8,2:2:0:0:
241,123,66630,1,10,2:3:0:0:
318,245,66804,1,10,2:3:0:0:
241,123,66979,2,0,P|187:131|102:150,1,120,10|0,2:2|0:0,0:0:0:0:
97,222,67327,5,10,2:3:0:0:
97,222,67415,1,8,2:3:0:0:
97,222,67502,1,8,2:3:0:0:
97,222,67589,1,8,2:3:0:0:
97,222,67676,2,0,B|126:272|97:315|97:315|117:338|160:314,1,160,10|8,2:2|2:3,0:0:0:0:
212,230,68200,1,8,2:2:0:0:
284,317,68374,2,0,P|303:277|321:240,1,80,8|10,2:3|2:3,0:0:0:0:
423,223,68723,2,0,P|405:186|388:150,1,80,8|10,2:2|2:3,0:0:0:0:
369,353,69072,6,0,P|418:337|458:325,1,80,10|8,2:3|2:2,0:0:0:0:
499,247,69420,2,0,P|450:231|410:219,1,80,10|8,2:3|2:3,0:0:0:0:
284,172,69769,2,0,P|301:207|318:244,1,80,10|4,2:2|2:3,0:0:0:0:
191,189,70118,1,6,2:3:0:0:
235,88,70293,1,6,2:3:0:0:
260,313,70467,5,14,2:1:0:0:
77,237,70816,1,10,2:1:0:0:
327,150,71165,1,10,2:1:0:0:
158,360,71513,1,10,2:2:0:0:
98,130,71862,5,10,2:1:0:0:
314,279,72210,1,10,2:1:0:0:
224,51,72559,1,10,2:1:0:0:
164,280,72908,1,10,2:2:0:0:
390,20,73258,5,10,2:1:0:0:
320,236,73606,1,10,2:1:0:0:
228,49,73955,1,10,2:1:0:0:
475,131,74304,1,10,2:2:0:0:
195,313,74653,5,10,2:1:0:0:
411,243,75001,1,10,2:1:0:0:
224,151,75350,1,10,2:1:0:0:
372,354,75700,1,10,2:2:0:0:
261,360,75874,1,2,2:2:0:0:
224,151,76048,6,0,B|168:164|168:164|148:184|148:184|88:196,1,143.999995605469,10|2,2:1|2:2,0:0:0:0:
216,240,76572,1,10,2:1:0:0:
96,112,76746,1,8,2:2:0:0:
212,24,76920,2,0,P|244:8|284:4,1,71.9999978027344,2|0,2:2|0:0,0:0:0:0:
360,80,77269,6,0,P|328:96|288:100,1,71.9999978027344,2|0,2:2|0:0,0:0:0:0:
424,24,77618,2,0,P|440:56|444:96,1,71.9999978027344,2|2,2:2|2:2,0:0:0:0:
436,204,77967,1,8,2:1:0:0:
336,308,78141,2,0,P|288:320|196:284,1,143.999995605469,10|0,2:2|0:0,0:0:0:0:
124,212,78665,1,2,2:2:0:0:
276,136,78839,6,0,P|288:172|284:216,1,71.9999978027344,10|0,2:1|0:0,0:0:0:0:
180,136,79188,1,2,2:2:0:0:
286,205,79362,1,10,2:1:0:0:
296,32,79537,1,8,2:2:0:0:
432,92,79711,2,0,P|396:88|360:96,1,71.9999978027344,2|0,2:2|0:0,0:0:0:0:
408,248,80060,6,0,P|412:212|404:176,1,71.9999978027344,2|0,2:2|0:0,0:0:0:0:
304,236,80409,1,2,2:2:0:0:
376,328,80583,2,0,P|412:332|448:324,1,71.9999978027344,2|10,2:2|2:1,0:0:0:0:
304,236,80932,2,0,B|260:228|240:192|240:192|168:180,1,143.999995605469,10|2,2:2|2:2,0:0:0:0:
192,308,81455,1,0,0:0:0:0:
316,152,81630,6,0,P|344:108|348:12,1,143.999995605469,10|0,2:1|0:0,0:0:0:0:
220,28,82153,1,8,2:1:0:0:
316,152,82327,1,8,2:2:0:0:
349,18,82502,2,0,P|389:14|421:22,1,71.9999978027344,2|2,2:2|2:2,0:0:0:0:
480,120,82851,1,2,2:2:0:0:
396,192,83025,6,0,L|348:340,1,143.999995605469,2|2,2:2|2:2,0:0:0:0:
256,240,83548,1,8,2:1:0:0:
112,348,83723,2,0,P|124:296|84:216,1,143.999995605469,10|2,2:2|2:2,0:0:0:0:
4,152,84246,1,0,0:0:0:0:
116,48,84420,6,0,B|172:52|172:52|196:72|196:72|252:76,1,143.999995605469,10|0,2:1|0:0,0:0:0:0:
136,128,84944,1,8,2:1:0:0:
240,0,85118,1,8,2:2:0:0:
336,48,85293,2,0,P|340:88|328:124,1,71.9999978027344,2|2,2:2|2:2,0:0:0:0:
240,168,85641,1,2,2:2:0:0:
332,220,85816,6,0,P|404:212|472:244,1,143.999995605469
424,344,86339,1,10,2:1:0:0:
332,220,86513,1,8,2:2:0:0:
467,240,86688,1,2,2:2:0:0:
328,344,86862,2,0,P|292:312|232:312,1,107.999996704102,2|0,2:2|0:0,0:0:0:0:
200,320,87211,6,0,P|192:260|136:168,1,160,14|10,2:1|2:2,0:0:0:0:
32,80,87734,1,0,0:0:0:0:
204,24,87909,2,0,P|168:40|136:68,1,80,2|8,2:2|2:1,0:0:0:0:
44,176,88258,1,10,2:2:0:0:
80,4,88432,1,0,0:0:0:0:
232,120,88606,6,0,B|284:124|312:96|312:96|400:116,1,160,10|10,2:1|2:2,0:0:0:0:
460,240,89130,1,0,0:0:0:0:
508,108,89304,1,2,2:2:0:0:
356,200,89479,1,8,2:1:0:0:
416,368,89653,2,0,B|372:360|372:360|356:344|356:344|300:332,1,120,10|0,2:2|0:0,0:0:0:0:
264,320,90002,6,0,P|232:344|192:352,1,80,10|0,2:1|0:0,0:0:0:0:
244,160,90351,1,10,2:2:0:0:
204,264,90525,1,0,0:0:0:0:
108,204,90700,1,2,2:2:0:0:
292,236,90874,1,8,2:1:0:0:
176,104,91048,6,0,P|220:84|300:92,1,120,10|0,2:2|0:0,0:0:0:0:
332,96,91397,1,10,2:1:0:0:
456,24,91572,1,8,2:1:0:0:
496,164,91746,1,10,2:2:0:0:
380,244,91920,5,8,2:2:0:0:
380,244,92008,1,8,2:2:0:0:
380,244,92095,2,0,L|336:232,1,40,10|4,2:1|2:3,0:0:0:0:
200,324,92269,2,0,L|244:336,1,40,8|8,2:2|2:2,0:0:0:0:
160,184,92444,1,10,2:2:0:0:
132,155,92531,1,8,2:2:0:0:
96,139,92618,1,10,2:2:0:0:
56,137,92705,1,8,2:2:0:0:
19,151,92793,6,0,P|29:196|38:232,1,80,14|2,2:1|2:2,0:0:0:0:
28,348,93141,1,10,2:2:0:0:
152,307,93316,2,0,P|161:268|170:229,1,80,2|2,2:2|2:3,0:0:0:0:
270,125,93665,1,10,2:1:0:0:
332,271,93839,6,0,P|292:262|254:252,1,80,10|2,2:2|2:2,0:0:0:0:
269,344,94101,1,2,0:0:0:0:
269,344,94188,1,10,2:1:0:0:
343,188,94362,1,2,2:2:0:0:
400,349,94537,1,10,2:2:0:0:
254,252,94711,1,0,0:0:0:0:
440,187,94886,1,2,2:2:0:0:
314,341,95060,1,8,2:1:0:0:
336,164,95234,1,10,2:2:0:0:
472,348,95409,5,2,2:2:0:0:
472,348,95496,1,2,0:0:0:0:
472,348,95583,2,0,P|487:302|500:266,1,80,10|2,2:1|2:2,0:0:0:0:
332,271,95932,1,10,2:2:0:0:
414,111,96106,2,0,P|427:148|439:186,1,80,2|2,2:2|2:3,0:0:0:0:
473,30,96455,1,10,2:1:0:0:
512,168,96630,1,10,2:2:0:0:
334,111,96804,5,2,2:2:0:0:
334,111,96891,1,2,0:0:0:0:
334,111,96979,2,0,P|285:90|249:72,1,80,10|10,2:1|2:1,0:0:0:0:
152,17,97327,1,10,2:2:0:0:
149,189,97502,2,0,P|176:160|203:130,1,80,0|10,0:0|2:1,0:0:0:0:
38,187,97851,1,8,2:1:0:0:
38,187,97938,1,8,2:1:0:0:
38,187,98025,2,0,P|55:227|74:269,1,80,10|2,2:2|2:2,0:0:0:0:
244,327,98374,6,0,B|204:297|170:311|170:311|157:363|105:374,1,160,14|10,2:1|2:2,0:0:0:0:
250,204,98897,1,2,2:2:0:0:
291,384,99072,1,10,2:1:0:0:
158,227,99246,1,8,2:1:0:0:
344,274,99420,1,10,2:2:0:0:
274,70,99595,5,2,2:2:0:0:
274,70,99682,1,2,0:0:0:0:
274,70,99769,2,0,P|263:115|253:163,1,80,14|0,2:1|0:0,0:0:0:0:
418,77,100118,1,10,2:2:0:0:
422,235,100293,5,2,0:0:0:0:
422,235,100380,1,2,0:0:0:0:
422,235,100467,2,0,P|377:224|329:214,1,80,10|8,2:1|2:2,0:0:0:0:
300,286,100729,1,8,2:2:0:0:
300,286,100816,1,10,2:2:0:0:
300,286,100903,1,10,2:2:0:0:
300,286,100990,1,4,2:3:0:0:
418,77,101165,2,0,P|362:46|292:61,1,120,14|0,2:2|0:0,0:0:0:0:
268,60,101513,5,12,2:3:0:0:
113,48,101688,1,12,2:3:0:0:
212,151,101862,5,12,2:3:0:0:
70,197,102037,1,14,2:3:0:0:
192,55,102211,5,14,2:3:0:0:
205,255,102386,1,14,2:3:0:0:
34,99,102560,5,12,2:3:0:0:
100,294,102734,1,12,2:3:0:0:
212,151,102909,5,12,2:3:0:0:
237,340,103083,1,12,2:3:0:0:
70,197,103258,5,14,2:3:0:0:
339,151,103432,1,12,2:3:0:0:
139,342,103606,5,14,2:3:0:0:
432,277,103781,1,12,2:3:0:0:
121,113,103955,5,14,2:1:0:0:
414,84,104130,1,8,2:2:0:0:
414,84,104217,1,8,2:2:0:0:
414,84,104304,2,0,L|397:126,1,40,8|8,2:1|2:2,0:0:0:0:
469,261,104479,5,8,2:2:0:0:
469,261,104566,1,8,2:2:0:0:
469,261,104653,2,0,L|431:276,1,40,10|10,2:1|2:2,0:0:0:0:
308,377,104827,5,10,2:2:0:0:
308,377,104914,1,10,2:2:0:0:
308,377,105001,2,0,L|292:339,1,40,6|6,2:3|2:3,0:0:0:0:
216,223,105176,1,6,2:3:0:0:
216,223,105263,1,6,2:3:0:0:
216,223,105351,5,14,2:2:0:0:
479,159,105525,1,14,2:2:0:0:
156,58,105874,5,2,2:2:0:0:
240,82,106048,1,2,2:2:0:0:
323,111,106223,1,2,2:2:0:0:
406,137,106397,1,2,2:2:0:0:
109,341,106746,6,0,P|64:316|40:280,1,88.000002685547,14|2,2:1|2:2,0:0:0:0:
36,132,107095,1,10,2:1:0:0:
43,286,107269,1,2,2:2:0:0:
176,184,107444,2,0,P|260:168|336:224,1,176.000005371094,10|10,2:2|2:1,0:0:0:0:
420,344,107967,1,10,2:1:0:0:
476,192,108141,1,2,2:3:0:0:
328,296,108316,1,10,2:2:0:0:
508,324,108490,2,0,P|480:288|444:264,1,88.000002685547,2|10,2:2|2:1,0:0:0:0:
284,164,108839,2,0,B|300:104|300:104|332:80|332:80|352:8,1,176.000005371094,10|2,2:2|2:3,0:0:0:0:
376,168,109362,5,10,2:2:0:0:
376,168,109450,1,8,2:2:0:0:
376,168,109537,1,10,2:1:0:0:
264,24,109711,1,10,2:2:0:0:
208,200,109886,2,0,P|168:184|120:180,1,88.000002685547,2|10,2:2|2:1,0:0:0:0:
104,384,110234,6,0,P|136:340|144:248,1,132.00000402832,10|0,2:2|0:0,0:0:0:0:
123,179,110583,1,10,2:2:0:0:
236,296,110758,1,10,2:1:0:0:
44,280,110932,1,2,2:3:0:0:
208,200,111106,2,0,P|224:160|224:116,1,88.000002685547,10|2,2:2|2:2,0:0:0:0:
120,16,111455,1,8,2:1:0:0:
308,64,111630,2,0,B|348:40|388:68|388:68|404:112|468:108,1,176.000005371094,10|2,2:2|2:3,0:0:0:0:
428,296,112153,5,2,2:2:0:0:
428,296,112240,1,2,0:0:0:0:
428,296,112327,1,14,2:1:0:0:
336,140,112502,1,2,2:2:0:0:
248,288,112676,2,0,P|292:280|328:256,1,88.000002685547,10|2,2:1|2:2,0:0:0:0:
308,64,113025,6,0,P|236:72|152:136,1,176.000005371094,10|10,2:2|2:1,0:0:0:0:
132,280,113548,1,10,2:1:0:0:
64,120,113723,1,2,2:3:0:0:
220,208,113897,1,10,2:2:0:0:
12,260,114072,1,10,2:1:0:0:
154,132,114246,1,2,2:2:0:0:
220,312,114420,2,0,B|264:296|304:316|304:316|392:288,1,176.000005371094,10|2,2:2|2:3,0:0:0:0:
484,108,114944,5,10,2:2:0:0:
484,108,115031,1,2,0:0:0:0:
484,108,115118,1,10,2:1:0:0:
389,288,115293,1,10,2:2:0:0:
320,104,115467,1,2,2:2:0:0:
484,216,115641,1,10,2:1:0:0:
312,20,115816,2,0,P|268:32|236:60,1,88.000002685547,10|0,2:2|0:0,0:0:0:0:
52,156,116165,1,10,2:1:0:0:
216,280,116339,6,0,P|224:220|156:128,1,176.000005371094,10|10,2:2|2:2,0:0:0:0:
72,272,116862,1,2,2:2:0:0:
160,130,117037,1,8,2:1:0:0:
104,356,117211,2,0,B|160:352|160:352|200:368|200:368|280:360,1,176.000005371094,10|10,2:2|2:2,0:0:0:0:
380,164,117734,5,10,2:2:0:0:
380,164,117822,1,2,0:0:0:0:
380,164,117909,1,14,2:1:0:0:
480,340,118083,1,10,2:2:0:0:
264,240,118258,1,10,2:1:0:0:
472,120,118432,1,2,2:2:0:0:
364,320,118606,2,0,P|400:288|420:248,1,88.000002685547,10|0,2:2|0:0,0:0:0:0:
396,68,118955,1,10,2:1:0:0:
204,172,119130,6,0,P|148:144|68:152,1,132.00000402832,10|0,2:1|0:0,0:0:0:0:
128,228,119479,1,10,2:2:0:0:
56,68,119653,1,2,2:2:0:0:
40,268,119827,1,10,2:1:0:0:
160,48,120002,2,0,B|264:20|232:72|336:48,1,176.000005371094,10|2,2:2|2:3,0:0:0:0:
472,224,120525,5,10,2:2:0:0:
472,224,120612,1,8,2:2:0:0:
472,224,120700,1,10,2:1:0:0:
332,48,120874,1,10,2:2:0:0:
348,276,121048,1,2,2:2:0:0:
468,80,121223,1,10,2:1:0:0:
248,172,121397,6,0,P|208:192|168:268,1,132.00000402832,10|0,2:2|0:0,0:0:0:0:
156,340,121746,1,10,2:2:0:0:
32,168,121920,1,10,2:1:0:0:
32,168,122008,1,2,0:0:0:0:
32,168,122095,1,2,2:3:0:0:
72,364,122269,1,10,2:2:0:0:
132,144,122444,1,2,2:2:0:0:
8,292,122618,1,8,2:1:0:0:
236,336,122793,2,0,B|280:364|280:364|336:328|404:348,1,176.000005371094,10|2,2:2|2:3,0:0:0:0:
492,140,123316,5,10,2:1:0:0:
492,140,123403,1,2,0:0:0:0:
492,140,123490,2,0,P|448:172|368:160,1,132.00000402832,14|0,2:1|0:0,0:0:0:0:
420,92,123839,2,0,L|392:8,1,88.000002685547,10|8,2:1|2:1,0:0:0:0:
276,112,124188,1,10,2:2:0:0:
392,8,124362,1,0,0:0:0:0:
216,52,124537,2,0,P|192:96|192:136,1,88.000002685547,10|8,2:1|2:2,0:0:0:0:
264,276,124886,1,2,2:2:0:0:
276,112,125060,1,8,2:2:0:0:
112,212,125234,6,0,P|67:165|2:145,1,132.00000402832,2|0,2:2|0:0,0:0:0:0:
21,238,125583,1,10,2:2:0:0:
196,200,125758,1,8,2:1:0:0:
108,340,125932,1,2,2:2:0:0:
4,145,126106,1,8,2:2:0:0:
188,288,126281,6,0,P|252:260|272:160,1,176.000005371094,14|2,2:1|2:3,0:0:0:0:
176,28,126804,1,8,2:1:0:0:
273,163,126979,1,8,2:2:0:0:
116,112,127153,1,4,2:3:0:0:
292,20,127327,1,10,2:2:0:0:
196,200,127502,6,0,B|188:260|188:260|208:296|208:296|196:372,1,176.000005371094,14|8,2:1|2:1,0:0:0:0:
280,236,128025,1,14,2:2:0:0:
116,324,128200,1,8,2:2:0:0:
116,324,128287,1,8,2:2:0:0:
116,324,128374,1,10,2:1:0:0:
32,128,128548,1,10,2:2:0:0:
32,128,128636,1,10,2:2:0:0:
32,128,128723,2,0,L|76:108,1,44.0000013427735,10|10,2:1|2:2,0:0:0:0:
220,40,128897,5,10,2:2:0:0:
220,40,128984,1,10,2:2:0:0:
220,40,129072,1,14,2:1:0:0:
399,103,129246,1,2,2:2:0:0:
214,182,129420,1,10,2:2:0:0:
335,21,129595,1,2,2:2:0:0:
382,255,129769,2,0,P|325:271|199:305,1,176.000005371094,10|10,2:1|2:2,0:0:0:0:
488,356,130293,5,10,2:1:0:0:
488,356,130380,1,2,0:0:0:0:
488,356,130467,1,2,2:3:0:0:
483,114,130641,1,10,2:1:0:0:
382,255,130816,2,0,P|445:267|488:274,1,88.000002685547,10|2,2:2|2:2,0:0:0:0:
344,121,131165,2,0,B|322:97|263:106|263:106|181:165,1,176.000005371094,10|10,2:1|2:2,0:0:0:0:
41,339,131688,5,2,2:2:0:0:
41,339,131775,1,2,0:0:0:0:
41,339,131862,1,10,2:1:0:0:
34,127,132037,1,2,2:2:0:0:
150,297,132211,1,10,2:2:0:0:
0,208,132386,1,0,0:0:0:0:
206,72,132560,2,0,P|197:122|188:163,1,88.000002685547,10|8,2:1|2:1,0:0:0:0:
34,127,132909,1,10,2:2:0:0:
150,297,133083,6,0,P|206:321|305:226,1,176.000005371094,10|10,2:1|2:1,0:0:0:0:
361,133,133606,1,10,2:2:0:0:
221,244,133781,1,0,0:0:0:0:
380,290,133955,2,0,P|423:297|466:306,1,88.000002685547,10|8,2:1|2:1,0:0:0:0:
361,133,134304,1,10,2:2:0:0:
150,297,134479,5,2,2:2:0:0:
150,297,134566,1,2,0:0:0:0:
150,297,134653,1,14,2:1:0:0:
4,246,134827,1,2,2:2:0:0:
180,128,135002,1,10,2:2:0:0:
62,343,135176,1,2,2:2:0:0:
40,115,135351,2,0,P|84:89|206:11,1,176.000005371094,10|10,2:1|2:2,0:0:0:0:
380,33,135874,1,10,2:1:0:0:
304,211,136048,6,0,P|265:173|229:141,1,88.000002685547,2|10,2:3|2:1,0:0:0:0:
420,167,136397,1,10,2:2:0:0:
368,317,136572,1,2,2:2:0:0:
362,103,136746,2,0,P|425:82|507:158,1,176.000005371094,10|10,2:1|2:2,0:0:0:0:
285,283,137269,5,2,2:2:0:0:
285,283,137356,1,2,0:0:0:0:
285,283,137444,1,10,2:1:0:0:
95,328,137618,1,0,0:0:0:0:
240,150,137793,1,10,2:2:0:0:
206,373,137967,1,2,2:2:0:0:
98,168,138141,2,0,P|111:113|122:73,1,88.000002685547,10|8,2:1|2:1,0:0:0:0:
0,231,138490,1,10,2:2:0:0:
54,12,138665,6,0,B|92:20|121:-4|121:-4|197:10|199:85,1,176.000005371094,10|10,2:1|2:1,0:0:0:0:
302,191,139188,2,0,P|250:179|202:169,1,88.000002685547,10|0,2:2|0:0,0:0:0:0:
420,122,139537,2,0,P|401:181|363:295,1,176.000005371094,10|10,2:1|2:2,0:0:0:0:
179,337,140060,5,10,2:1:0:0:
179,337,140147,1,2,0:0:0:0:
179,337,140234,1,14,2:1:0:0:
302,191,140409,1,2,2:2:0:0:
363,377,140583,1,10,2:2:0:0:
490,213,140758,1,2,2:2:0:0:
229,266,140932,2,0,P|272:287|314:305,1,88.000002685547,10|8,2:1|2:1,0:0:0:0:
490,213,141281,1,10,2:2:0:0:
278,205,141455,6,0,P|190:203|145:278,1,176.000005371094,10|10,2:1|2:1,0:0:0:0:
0,86,141979,2,0,P|5:129|9:179,1,88.000002685547,10|0,2:2|0:0,0:0:0:0:
157,75,142327,2,0,P|231:62|338:41,1,176.000005371094,10|10,2:1|2:2,0:0:0:0:
501,191,142851,5,2,2:2:0:0:
501,191,142938,1,2,0:0:0:0:
501,191,143025,1,10,2:1:0:0:
328,349,143200,1,2,2:2:0:0:
512,342,143374,1,10,2:2:0:0:
348,172,143548,1,2,2:2:0:0:
406,376,143723,2,0,P|419:316|429:280,1,88.000002685547,10|8,2:1|2:1,0:0:0:0:
501,191,144072,1,10,2:2:0:0:
157,274,144246,6,0,B|187:294|217:285|217:285|245:314|245:314|277:299|333:314,1,176.000005371094,10|10,2:1|2:1,0:0:0:0:
78,346,144769,2,0,P|69:280|64:231,1,88.000002685547,10|0,2:2|0:0,0:0:0:0:
4,102,145118,2,0,P|63:126|185:170,1,176.000005371094,10|10,2:1|2:2,0:0:0:0:
389,65,145641,5,2,2:2:0:0:
389,65,145729,1,2,0:0:0:0:
389,65,145816,2,0,P|379:113|371:159,1,88.000002685547,12|2,2:1|2:2,0:0:0:0:
495,277,146165,2,0,B|440:237|440:237|330:277,1,176.000005371094,10|10,2:2|2:1,0:0:0:0:
240,373,146688,1,10,2:1:0:0:
256,187,146862,1,10,2:2:0:0:
421,340,147037,6,0,P|427:278|449:131,1,176.000005371094,10|8,2:1|2:1,0:0:0:0:
314,13,147560,2,0,P|307:64|331:106,1,88.000002685547,10|2,2:2|2:2,0:0:0:0:
302,274,147909,2,0,P|266:237|214:226,1,88.000002685547,10|10,2:1|2:1,0:0:0:0:
26,201,148258,2,0,P|86:183|125:104,1,132.00000402832,10|0,2:2|0:0,0:0:0:0:
38,117,148606,5,10,2:1:0:0:
54,341,148781,1,10,2:1:0:0:
122,127,148955,1,10,2:2:0:0:
0,283,149130,1,8,2:1:0:0:
219,212,149304,1,10,2:2:0:0:
38,117,149479,1,10,2:1:0:0:
179,315,149653,1,10,2:1:0:0:
190,67,149827,6,0,P|263:54|344:133,1,176.000005371094,14|12,2:2|2:3,0:0:0:0:
336,301,150351,1,12,2:3:0:0:
490,172,150525,1,14,2:3:0:0:
490,172,150612,1,14,2:3:0:0:
490,172,150700,1,14,2:3:0:0:
256,139,150874,1,14,2:3:0:0:
450,306,151048,1,14,2:3:0:0:
439,61,151223,1,14,2:3:0:0:
255,271,151397,5,14,2:1:0:0:
372,180,151572,1,2,2:2:0:0:
372,180,151746,1,2,2:2:0:0:
256,192,151833,12,2,152793,2:2:0:0:
160,296,153316,5,4,2:3:0:0:
160,296,153403,1,4,2:3:0:0:
160,296,153490,1,4,2:3:0:0:
84,176,153665,1,4,2:3:0:0:
228,208,153839,1,4,2:3:0:0:
56,280,154013,1,4,2:3:0:0:
176,124,154188,1,14,2:1:0:0:
176,124,154886,6,0,P|204:96|216:72,1,64,2|8,0:0|2:1,0:0:0:0:
336,16,155234,1,4,2:3:0:0:
304,132,155409,1,10,2:1:0:0:
448,120,155583,2,0,P|412:104|380:96,1,64,2|8,2:2|2:2,0:0:0:0:
336,16,155932,1,0,0:0:0:0:
392,188,156106,5,6,2:3:0:0:
392,188,156194,1,6,2:3:0:0:
392,188,156281,2,0,P|383:218|369:247,1,64,2|6,2:2|2:3,0:0:0:0:
276,304,156630,2,0,P|245:295|216:281,1,64,6|10,2:3|2:1,0:0:0:0:
168,152,156979,1,12,2:1:0:0:
72,224,157153,1,2,2:2:0:0:
128,328,157327,2,0,B|268:268|240:384|384:328,1,256,2|0,2:2|0:0,0:0:0:0:
336,192,158200,5,8,2:2:0:0:
336,192,158287,1,8,2:2:0:0:
336,192,158374,1,10,2:2:0:0:
464,104,158606,2,0,L|484:4,2,85.3333333333333,8|8|14,2:1|2:1|2:2,0:0:0:0:
373,331,159420,1,4,2:3:0:0:
240,188,159595,5,4,2:3:0:0:
240,188,159682,1,4,2:3:0:0:
240,188,159769,2,0,L|220:104,1,80,14|0,2:1|0:0,0:0:0:0:
116,220,160118,2,0,L|96:136,1,80,12|4,2:3|2:3,0:0:0:0:
280,8,160467,2,0,L|300:92,1,80,12|4,2:3|2:3,0:0:0:0:
0,76,160816,2,0,L|18:153,1,80,12|4,2:3|2:3,0:0:0:0:
200,288,161165,5,14,2:3:0:0:
298,85,161339,1,14,2:3:0:0:
396,316,161513,1,14,2:3:0:0:
196,140,161688,1,14,2:3:0:0:
452,80,161862,1,14,2:3:0:0:
296,328,162037,1,14,2:3:0:0:
296,328,162560,6,0,B|240:320|212:344|212:344|148:324,1,143.999995605469,14|10,2:1|2:1,0:0:0:0:
136,320,162996,1,2,0:0:0:0:
112,312,163083,1,2,0:0:0:0:
88,304,163170,1,2,0:0:0:0:
64,296,163258,1,10,0:1:0:0:
16,192,163432,1,2,2:2:0:0:
112,124,163606,2,0,P|152:132|184:124,1,71.9999978027344,10|2,2:1|2:2,0:0:0:0:
312,232,163955,6,0,P|272:224|240:232,1,71.9999978027344,10|2,2:1|2:0,0:0:0:0:
280,364,164304,1,10,2:1:0:0:
388,272,164479,2,0,P|396:232|388:200,1,71.9999978027344,2|10,2:0|2:1,0:0:0:0:
336,92,164827,1,2,2:2:0:0:
388,202,165002,1,10,2:1:0:0:
484,124,165176,1,2,2:2:0:0:
416,40,165351,6,0,P|352:12|272:20,1,143.999995605469,10|10,2:1|2:1,0:0:0:0:
252,24,165787,1,2,0:0:0:0:
224,28,165874,1,2,2:2:0:0:
196,32,165961,1,2,0:0:0:0:
168,36,166048,1,10,2:1:0:0:
120,140,166223,1,2,2:2:0:0:
44,56,166397,2,0,P|20:88|8:120,1,71.9999978027344,10|0,2:1|0:0,0:0:0:0:
64,232,166746,6,0,P|88:276|104:368,2,143.999995605469,10|10|10,2:1|2:1|2:1,0:0:0:0:
120,140,167618,1,0,0:0:0:0:
204,208,167793,2,0,P|236:188|272:184,1,71.9999978027344,10|2,2:1|2:3,0:0:0:0:
352,288,168141,6,0,B|344:235|344:235|356:203|356:203|348:147,1,143.999995605469,10|10,2:1|2:1,0:0:0:0:
340,120,168577,1,2,0:0:0:0:
336,92,168665,1,2,2:2:0:0:
332,64,168752,1,2,0:0:0:0:
328,36,168839,1,10,2:1:0:0:
444,64,169013,2,0,P|484:68|512:84,1,71.9999978027344,2|10,2:2|2:1,0:0:0:0:
511,83,169362,1,2,2:2:0:0:
436,216,169537,6,0,P|452:184|455:148,1,71.9999978027344,10|2,2:1|0:0,0:0:0:0:
336,200,169886,2,0,P|319:231|316:267,1,71.9999978027344,10|2,2:1|0:0,0:0:0:0:
244,160,170234,2,0,P|260:128|263:92,1,71.9999978027344,10|2,2:1|0:0,0:0:0:0:
144,144,170583,2,0,P|127:175|124:211,1,71.9999978027344,10|2,2:1|2:3,0:0:0:0:
108,328,170932,6,0,P|164:360|240:348,1,143.999995605469,10|10,2:1|2:1,0:0:0:0:
264,336,171368,1,2,0:0:0:0:
288,324,171455,1,2,0:0:0:0:
312,312,171543,1,2,0:0:0:0:
336,296,171630,1,10,2:1:0:0:
448,240,171804,2,0,P|472:268|480:304,1,71.9999978027344,2|10,2:2|2:1,0:0:0:0:
392,368,172153,1,2,2:2:0:0:
308,208,172327,6,0,P|280:156|280:60,1,143.999995605469,10|10,2:1|2:1,0:0:0:0:
368,24,172851,1,0,0:0:0:0:
220,16,173025,2,0,P|184:12|148:16,1,71.9999978027344,10|8,2:1|2:1,0:0:0:0:
16,96,173374,1,14,2:2:0:0:
140,240,173548,5,8,2:2:0:0:
140,240,173636,1,8,2:2:0:0:
140,240,173723,2,0,B|231:228|170:310|297:289,1,160,14|10,2:1|2:2,0:0:0:0:
404,193,174246,1,0,0:0:0:0:
441,344,174420,2,0,P|389:329|348:319,1,80,2|8,2:2|2:1,0:0:0:0:
404,193,174769,2,0,P|456:178|497:168,1,80,10|0,2:2|0:0,0:0:0:0:
280,291,175118,6,0,P|269:232|260:197,1,80,10|0,2:1|0:0,0:0:0:0:
167,118,175467,2,0,P|215:82|245:62,1,80,10|0,2:2|0:0,0:0:0:0:
373,19,175816,2,0,P|364:58|358:98,1,80,2|8,2:2|2:1,0:0:0:0:
264,212,176165,2,0,B|210:199|210:199|155:246,1,120,10|0,2:2|0:0,0:0:0:0:
147,322,176513,5,10,2:1:0:0:
35,205,176688,1,0,0:0:0:0:
219,226,176862,1,10,2:2:0:0:
43,309,177037,1,0,0:0:0:0:
106,94,177211,2,0,P|116:141|123:180,1,80,2|8,2:2|2:1,0:0:0:0:
203,304,177560,2,0,P|210:264|218:225,1,80,10|0,2:2|0:0,0:0:0:0:
331,87,177909,5,10,2:1:0:0:
486,159,178083,1,8,2:1:0:0:
327,216,178258,1,14,2:2:0:0:
428,30,178432,1,4,2:3:0:0:
428,30,178519,1,4,2:3:0:0:
428,30,178606,2,0,B|410:69|410:69|433:101,1,80,6|4,2:3|2:3,0:0:0:0:
397,255,178955,2,0,B|418:224|418:224|400:185,1,80,6|4,2:3|2:3,0:0:0:0:
405,361,179304,6,0,P|337:333|247:297,1,160,14|8,2:1|2:3,0:0:0:0:
123,366,179827,2,0,B|160:322|160:322|133:219,1,160,10|8,2:2|2:3,0:0:0:0:
81,89,180351,1,10,2:2:0:0:
278,93,180525,5,8,2:3:0:0:
278,93,180612,1,8,2:3:0:0:
278,93,180700,2,0,P|237:123|208:142,1,80,10|8,2:3|2:2,0:0:0:0:
306,0,181048,2,0,P|347:30|376:49,1,80,10|8,2:3|2:3,0:0:0:0:
512,107,181397,2,0,P|467:108|422:170,1,120,10|0,2:2|0:0,0:0:0:0:
498,184,181746,1,10,2:3:0:0:
331,188,181920,5,8,2:3:0:0:
331,188,182008,1,8,2:3:0:0:
331,188,182095,2,0,P|361:226|438:325,1,160,10|10,2:2|2:3,0:0:0:0:
322,381,182618,1,10,2:2:0:0:
281,266,182793,2,0,P|320:265|360:267,1,80,8|10,2:3|2:3,0:0:0:0:
212,332,183141,2,0,P|176:312|140:295,1,80,10|8,2:2|2:3,0:0:0:0:
146,96,183490,5,8,2:3:0:0:
42,237,183665,1,8,2:2:0:0:
15,84,183839,2,0,P|58:55|88:34,1,80,8|8,2:3|2:3,0:0:0:0:
85,169,184188,2,0,P|56:212|37:243,1,80,8|6,2:2|2:3,0:0:0:0:
180,224,184537,1,14,2:3:0:0:
146,96,184711,5,6,2:3:0:0:
146,96,184798,1,6,2:3:0:0:
146,96,184886,2,0,B|190:79|226:96|226:96|243:140|304:134,1,160,10|10,2:2|2:3,0:0:0:0:
440,43,185409,2,0,B|422:16|376:13|376:13|296:65,1,160,8|8,2:2|2:3,0:0:0:0:
258,211,185932,1,10,2:2:0:0:
425,160,186106,5,10,2:3:0:0:
425,160,186194,1,10,2:3:0:0:
425,160,186281,2,0,P|417:207|410:247,1,80,10|8,2:3|2:2,0:0:0:0:
380,371,186630,2,0,P|343:337|310:311,1,80,10|8,2:3|2:3,0:0:0:0:
200,267,186979,2,0,P|234:234|261:207,1,80,10|8,2:2|2:3,0:0:0:0:
206,372,187327,1,10,2:3:0:0:
119,243,187502,5,8,2:3:0:0:
119,243,187589,1,8,2:3:0:0:
119,243,187676,2,0,B|108:286|140:326|140:326|100:353|71:328,1,160,10|8,2:2|2:3,0:0:0:0:
3,210,188200,1,8,2:2:0:0:
90,109,188374,2,0,P|128:125|170:142,1,80,8|4,2:3|2:3,0:0:0:0:
235,51,188723,6,0,P|272:35|308:20,1,80,14|4,2:3|2:3,0:0:0:0:
376,74,188984,1,4,2:3:0:0:
376,74,189072,2,0,P|361:117|351:157,1,80,10|4,2:1|2:3,0:0:0:0:
383,277,189420,2,0,P|342:252|302:232,1,80,10|4,2:1|2:3,0:0:0:0:
240,372,189769,6,0,P|281:347|321:327,1,80,10|4,2:1|2:3,0:0:0:0:
406,383,190031,1,4,2:3:0:0:
406,383,190118,1,14,2:3:0:0:
406,383,190205,1,4,2:3:0:0:
406,383,190293,1,6,2:3:0:0:
406,383,190380,1,4,2:3:0:0:
406,383,190467,6,0,P|424:333|466:222,1,160,14|10,2:1|2:2,0:0:0:0:
492,75,190990,1,0,0:0:0:0:
342,90,191165,2,0,P|367:112|412:152,1,80,2|8,2:2|2:1,0:0:0:0:
241,85,191513,2,0,P|253:53|275:-1,1,80,10|0,2:2|0:0,0:0:0:0:
255,191,191862,5,10,2:1:0:0:
177,148,192037,1,8,2:1:0:0:
100,104,192211,1,10,2:2:0:0:
158,252,192386,1,0,0:0:0:0:
241,85,192560,1,2,2:2:0:0:
75,196,192734,1,8,2:1:0:0:
258,288,192909,2,0,P|204:316|143:348,1,120,10|0,2:2|0:0,0:0:0:0:
118,274,193258,5,10,2:1:0:0:
75,196,193433,1,0,0:0:0:0:
31,119,193607,1,10,2:2:0:0:
179,177,193782,1,0,0:0:0:0:
12,260,193956,1,2,2:2:0:0:
123,94,194130,1,8,2:1:0:0:
118,274,194304,1,10,2:2:0:0:
31,119,194479,1,0,0:0:0:0:
250,142,194653,6,0,P|205:164|165:183,1,80,10|8,2:1|2:1,0:0:0:0:
369,41,195002,2,0,B|342:62|307:62|307:62|344:102|340:149,1,160,10|2,2:2|2:2,0:0:0:0:
283,266,195525,1,8,2:1:0:0:
436,227,195700,1,10,2:2:0:0:
250,142,195874,5,2,2:2:0:0:
250,142,195961,1,2,0:0:0:0:
250,142,196048,2,0,P|212:152|180:172,1,71.9999978027344,10|2,2:1|2:2,0:0:0:0:
148,272,196397,1,10,2:1:0:0:
184,168,196572,1,2,2:2:0:0:
80,128,196746,2,0,P|56:96|48:60,1,71.9999978027344,10|2,2:1|2:2,0:0:0:0:
180,16,197095,1,10,2:2:0:0:
80,128,197269,1,2,2:2:0:0:
216,96,197444,6,0,P|252:104|288:100,1,71.9999978027344,10|2,2:1|2:2,0:0:0:0:
392,24,197793,1,10,2:1:0:0:
286,100,197967,1,2,2:2:0:0:
384,184,198141,2,0,P|396:228|380:296,1,107.999996704102,10|0,2:1|0:0,0:0:0:0:
364,320,198490,1,8,2:2:0:0:
256,364,198665,1,2,2:2:0:0:
248,220,198839,6,0,P|272:260|280:288,1,71.9999978027344,10|0,2:1|0:0,0:0:0:0:
148,264,199188,2,0,P|124:224|116:196,1,71.9999978027344,10|2,2:1|2:2,0:0:0:0:
76,100,199537,2,0,P|124:88|164:44,1,107.999996704102,10|0,2:1|0:0,0:0:0:0:
188,12,199886,1,10,2:2:0:0:
256,96,200060,1,2,2:2:0:0:
324,12,200234,6,0,B|372:36|372:36|380:56|380:56|440:88,1,143.999995605469,10|10,2:1|2:1,0:0:0:0:
488,192,200758,1,2,2:2:0:0:
440,88,200932,1,8,2:1:0:0:
336,240,201281,2,0,P|308:272|296:304,1,71.9999978027344,8|2,2:2|2:2,0:0:0:0:
176,240,201630,6,0,P|204:272|216:304,1,71.9999978027344,10|0,2:1|0:0,0:0:0:0:
112,352,201979,1,10,2:1:0:0:
84,244,202153,1,0,0:0:0:0:
0,336,202327,2,0,P|12:300|12:264,1,71.9999978027344,10|2,2:1|2:2,0:0:0:0:
8,128,202676,1,8,2:2:0:0:
84,244,202851,1,2,2:2:0:0:
152,112,203025,6,0,P|116:128|96:152,1,71.9999978027344,10|2,2:1|2:2,0:0:0:0:
208,208,203374,2,0,B|256:212|256:212|284:232|284:232|352:236,1,143.999995605469,10|10,2:1|2:1,0:0:0:0:
220,288,203897,1,0,0:0:0:0:
324,156,204072,2,0,P|348:120|348:84,1,71.9999978027344,10|0,2:2|0:0,0:0:0:0:
456,24,204420,6,0,L|488:172,2,143.999995605469,10|8|8,2:1|2:1|2:1,0:0:0:0:
456,24,205293,1,2,2:2:0:0:
392,152,205467,2,0,L|375:73,1,71.9999978027344,8|2,2:2|2:2,0:0:0:0:
252,40,205816,2,0,B|216:20|188:36|188:36|172:68|120:76,1,143.999995605469,10|10,2:1|2:1,0:0:0:0:
44,168,206339,1,0,0:0:0:0:
125,75,206513,1,10,2:1:0:0:
172,188,206688,1,8,2:1:0:0:
28,72,206862,1,10,2:2:0:0:
44,276,207037,5,2,2:2:0:0:
44,276,207124,1,2,0:0:0:0:
44,276,207211,2,0,P|96:304|168:288,1,120,14|0,2:1|0:0,0:0:0:0:
200,284,207560,1,10,2:2:0:0:
296,180,207734,1,0,0:0:0:0:
344,316,207909,2,0,P|384:332|420:328,1,80,2|8,2:2|2:1,0:0:0:0:
496,208,208258,1,10,2:2:0:0:
512,348,208432,1,0,0:0:0:0:
400,220,208606,6,0,B|408:164|408:164|392:132|392:132|400:64,1,160,10|10,2:1|2:2,0:0:0:0:
316,192,209130,1,0,0:0:0:0:
480,100,209304,2,0,P|500:64|500:20,1,80,2|8,2:2|2:1,0:0:0:0:
332,8,209653,1,10,2:2:0:0:
208,152,209827,5,2,0:0:0:0:
208,152,209915,1,2,0:0:0:0:
208,152,210002,2,0,B|148:136|148:176|84:152,1,120,10|0,2:1|0:0,0:0:0:0:
120,80,210351,1,10,2:2:0:0:
56,224,210525,1,0,0:0:0:0:
20,64,210700,2,0,P|12:108|4:148,1,80,2|8,2:2|2:1,0:0:0:0:
32,312,211048,1,10,2:2:0:0:
90,154,211223,1,0,0:0:0:0:
192,304,211397,6,0,P|152:284|112:280,1,80,10|4,2:1|2:3,0:0:0:0:
5,142,211746,1,14,2:3:0:0:
160,60,211920,1,8,2:2:0:0:
160,60,212008,1,8,2:2:0:0:
160,60,212095,1,10,2:2:0:0:
268,196,212269,1,4,2:3:0:0:
268,196,212356,1,4,2:3:0:0:
268,196,212444,2,0,L|312:204,1,40,14|8,2:3|2:3,0:0:0:0:
424,88,212618,2,0,L|416:132,1,40,6|4,2:3|2:3,0:0:0:0:
392,292,212793,6,0,P|344:300|276:340,1,120,14|0,2:1|0:0,0:0:0:0:
248,356,213141,1,10,2:2:0:0:
128,272,213316,2,0,P|136:220|84:128,1,160,2|10,2:2|2:1,0:0:0:0:
136,0,213839,1,0,0:0:0:0:
244,96,214013,6,0,B|304:80|304:80|336:96|336:96|400:80,1,160,10|10,2:2|2:1,0:0:0:0:
288,168,214537,1,10,2:2:0:0:
352,12,214711,1,0,0:0:0:0:
456,152,214886,2,0,P|480:120|488:80,1,80,10|8,2:1|2:1,0:0:0:0:
352,12,215234,1,10,2:2:0:0:
400,228,215409,5,2,2:2:0:0:
400,228,215496,1,8,2:2:0:0:
400,228,215583,2,0,B|372:272|372:272|336:268|304:292,1,120,10|0,2:1|0:0,0:0:0:0:
264,312,215932,1,10,2:2:0:0:
396,352,216106,2,0,P|384:300|300:228,1,160,2|10,2:2|2:1,0:0:0:0:
164,280,216630,1,0,0:0:0:0:
204,144,216804,6,0,B|188:80|188:80|160:60|160:60|144:0,1,160,10|10,2:2|2:1,0:0:0:0:
120,140,217327,1,10,2:2:0:0:
232,8,217502,1,0,0:0:0:0:
68,40,217676,1,10,2:1:0:0:
204,144,217851,1,4,2:3:0:0:
232,8,218025,1,14,2:3:0:0:
32,124,218200,5,4,2:3:0:0:
32,124,218287,1,4,2:3:0:0:
32,124,218374,2,0,P|8:172|16:236,1,120,14|0,2:1|0:0,0:0:0:0:
32,272,218723,1,10,2:2:0:0:
160,352,218897,1,2,0:0:0:0:
160,352,218984,1,8,2:2:0:0:
160,352,219072,1,10,2:1:0:0:
200,216,219246,6,0,P|212:176|220:132,1,80,10|0,2:1|0:0,0:0:0:0:
244,8,219595,1,10,2:2:0:0:
336,112,219769,2,0,B|396:92|408:144|512:112,1,160,2|10,2:2|2:2,0:0:0:0:
364,192,220293,1,2,0:0:0:0:
364,192,220380,1,8,2:2:0:0:
364,192,220467,2,0,P|348:232|340:268,1,80,10|8,2:1|2:1,0:0:0:0:
424,364,220816,1,10,2:2:0:0:
248,264,220990,5,2,0:0:0:0:
248,264,221077,1,2,0:0:0:0:
248,264,221165,2,0,P|188:276|124:256,1,120,14|0,2:1|0:0,0:0:0:0:
92,244,221513,1,10,2:2:0:0:
184,120,221688,1,8,2:1:0:0:
24,152,221862,1,10,2:2:0:0:
208,36,222037,2,0,P|244:60|268:96,1,80,10|10,2:1|2:1,0:0:0:0:
248,264,222386,1,14,2:2:0:0:
360,116,222560,1,8,2:1:0:0:
412,276,222734,5,4,2:3:0:0:
216,152,222909,1,12,2:3:0:0:
324,336,223083,1,14,2:3:0:0:
484,168,223258,1,12,2:2:0:0:
292,32,223432,1,10,2:2:0:0:
292,32,223519,1,8,2:2:0:0:
292,32,223606,2,0,L|244:44,1,40,10|8,2:1|2:2,0:0:0:0:
92,76,223781,5,8,2:2:0:0:
92,76,223868,1,8,2:2:0:0:
92,76,223955,2,0,P|104:118|118:161,1,80,14|8,2:1|2:1,0:0:0:0:
56,277,224304,1,10,2:2:0:0:
154,242,224479,1,0,0:0:0:0:
248,199,224653,1,10,2:1:0:0:
161,351,224827,1,8,2:1:0:0:
115,152,225002,6,0,B|140:152|160:136|160:136|188:168|184:204,1,120,10|0,2:2|0:0,0:0:0:0:
154,242,225351,1,10,2:1:0:0:
294,309,225525,1,8,2:1:0:0:
304,142,225700,1,10,2:2:0:0:
207,309,225874,1,8,2:1:0:0:
207,309,225961,1,8,2:2:0:0:
207,309,226048,1,10,2:1:0:0:
384,232,226223,1,8,2:1:0:0:
212,166,226397,1,10,2:2:0:0:
413,105,226572,5,2,0:0:0:0:
413,105,226659,1,2,0:0:0:0:
413,105,226746,2,0,P|347:84|253:57,1,160,10|10,2:1|2:2,0:0:0:0:
105,12,227269,1,8,2:1:0:0:
105,12,227356,1,8,2:2:0:0:
105,12,227444,1,10,2:1:0:0:
131,112,227618,1,8,2:1:0:0:
161,211,227793,1,14,2:2:0:0:
23,126,227967,5,8,2:2:0:0:
23,126,228054,1,8,2:2:0:0:
23,126,228141,1,14,2:1:0:0:
234,145,228316,1,8,2:2:0:0:
234,145,228403,1,8,2:2:0:0:
234,145,228490,1,10,2:1:0:0:
54,256,228665,5,4,2:3:0:0:
54,256,228752,1,4,2:3:0:0:
54,256,228839,2,0,L|94:260,1,40,10|4,2:1|2:3,0:0:0:0:
317,331,229013,5,4,2:3:0:0:
317,331,229100,1,4,2:3:0:0:
317,331,229187,2,0,L|321:291,1,40,14|4,2:3|2:3,0:0:0:0:
237,105,229362,5,6,2:3:0:0:
237,105,229449,1,4,2:3:0:0:
237,105,229537,2,0,P|227:187|215:273,1,160,14|10,2:1|2:2,0:0:0:0:
368,228,230060,1,2,2:2:0:0:
316,102,230234,2,0,P|255:104|219:105,1,80,2|10,2:3|2:1,0:0:0:0:
329,8,230583,1,10,2:2:0:0:
441,191,230758,6,0,B|412:115|412:115|424:75|464:61,1,160,2|10,2:2|2:1,0:0:0:0:
497,284,231281,1,10,2:2:0:0:
395,260,231455,1,8,2:1:0:0:
295,227,231630,1,2,2:2:0:0:
505,136,231804,1,8,2:1:0:0:
395,260,231979,1,10,2:2:0:0:
316,102,232153,5,2,2:2:0:0:
316,102,232240,1,2,0:0:0:0:
316,102,232327,2,0,P|295:58|277:18,1,80,10|2,2:1|2:2,0:0:0:0:
199,133,232676,2,0,P|182:169|166:206,1,80,10|2,2:2|2:2,0:0:0:0:
295,227,233025,2,0,P|334:219|373:213,1,80,2|10,2:3|2:1,0:0:0:0:
199,133,233374,1,10,2:2:0:0:
194,371,233548,6,0,P|238:352|344:302,1,160,2|10,2:2|2:1,0:0:0:0:
182,252,234072,1,10,2:2:0:0:
100,316,234246,1,0,0:0:0:0:
18,380,234420,1,10,2:1:0:0:
55,211,234595,1,8,2:1:0:0:
194,371,234769,1,10,2:2:0:0:
189,155,234944,5,2,2:2:0:0:
189,155,235031,1,2,0:0:0:0:
189,155,235118,2,0,B|243:130|292:161|292:161|313:115|286:89,1,160,14|10,2:1|2:2,0:0:0:0:
446,17,235641,1,2,2:2:0:0:
472,180,235816,2,0,P|420:140|395:119,1,80,10|8,2:1|2:1,0:0:0:0:
218,60,236165,1,10,2:2:0:0:
359,216,236339,5,2,2:2:0:0:
359,216,236426,1,2,0:0:0:0:
359,216,236513,2,0,P|373:155|402:44,1,160,14|10,2:1|2:2,0:0:0:0:
218,60,237037,1,0,0:0:0:0:
377,143,237211,1,10,2:1:0:0:
194,209,237386,1,4,2:3:0:0:
307,20,237560,1,6,2:3:0:0:
307,20,237647,1,4,2:3:0:0:
307,20,237734,1,4,2:3:0:0:
359,216,237909,5,14,2:1:0:0:
282,360,238083,1,0,0:0:0:0:
228,203,238258,5,12,2:3:0:0:
388,323,238432,1,12,2:3:0:0:
172,333,238606,5,12,2:3:0:0:
321,141,238781,1,14,2:3:0:0:
357,368,238955,5,14,2:3:0:0:
86,187,239130,1,14,2:3:0:0:
330,48,239304,5,12,2:2:0:0:
251,184,239479,1,12,2:3:0:0:
181,33,239653,5,12,2:3:0:0:
369,173,239827,1,12,2:3:0:0:
86,187,240002,5,14,2:3:0:0:
330,48,240176,1,12,2:3:0:0:
319,300,240351,5,14,2:3:0:0:
111,83,240525,1,12,2:3:0:0:
68,326,240700,5,14,2:1:0:0:
189,107,240874,1,8,2:2:0:0:
189,107,240961,1,8,2:2:0:0:
189,107,241048,2,0,L|183:155,1,40,8|8,2:1|2:2,0:0:0:0:
145,302,241223,5,8,2:2:0:0:
145,302,241310,1,8,2:2:0:0:
145,302,241397,2,0,L|193:308,1,40,10|10,2:1|2:2,0:0:0:0:
366,303,241572,5,10,2:2:0:0:
366,303,241659,1,10,2:2:0:0:
366,303,241746,2,0,L|372:255,1,40,10|6,2:1|2:3,0:0:0:0:
367,82,241920,1,6,2:3:0:0:
367,82,242007,1,6,2:3:0:0:
367,82,242095,5,14,2:2:0:0:
50,255,242269,1,14,2:2:0:0:
469,358,242618,5,2,2:2:0:0:
463,269,242793,1,2,2:2:0:0:
456,181,242967,1,2,2:2:0:0:
450,93,243141,1,2,2:2:0:0:
158,341,243490,6,0,P|180:304|184:256,1,88.000002685547,14|2,2:1|2:2,0:0:0:0:
96,132,243839,1,10,2:1:0:0:
24,272,244013,1,2,2:2:0:0:
188,176,244188,2,0,B|240:140|240:140|272:144|272:144|344:96,1,176.000005371094,10|10,2:2|2:1,0:0:0:0:
496,68,244711,1,10,2:1:0:0:
472,232,244886,1,2,2:3:0:0:
338,99,245060,1,10,2:2:0:0:
512,152,245234,1,2,2:2:0:0:
332,248,245409,1,10,2:1:0:0:
376,20,245583,2,0,B|328:8|284:32|284:32|204:24,1,176.000005371094,10|2,2:2|2:3,0:0:0:0:
56,184,246106,5,10,2:2:0:0:
56,184,246194,1,8,2:2:0:0:
56,184,246281,1,10,2:1:0:0:
203,23,246455,1,10,2:2:0:0:
236,204,246630,2,0,P|208:168|172:144,1,88.000002685547,2|10,2:2|2:1,0:0:0:0:
148,328,246979,1,10,2:2:0:0:
173,144,247153,1,0,0:0:0:0:
36,288,247327,5,10,2:2:0:0:
236,204,247502,2,0,P|272:180|316:180,1,88.000002685547,10|2,2:1|2:3,0:0:0:0:
448,296,247851,1,10,2:2:0:0:
315,179,248025,1,2,2:2:0:0:
476,108,248200,1,8,2:1:0:0:
320,272,248374,2,0,P|280:220|252:108,1,176.000005371094,10|2,2:2|2:3,0:0:0:0:
72,16,248897,5,2,2:2:0:0:
72,16,248984,1,2,0:0:0:0:
72,16,249072,1,14,2:1:0:0:
252,114,249246,1,2,2:2:0:0:
104,232,249420,1,10,2:1:0:0:
180,28,249595,1,2,2:2:0:0:
268,244,249769,2,0,B|328:248|328:248|360:268|360:268|440:272,1,176.000005371094,10|10,2:2|2:1,0:0:0:0:
392,96,250293,6,0,P|408:144|400:180,1,88.000002685547,10|2,2:2|2:3,0:0:0:0:
288,336,250641,1,10,2:2:0:0:
200,164,250816,1,2,2:3:0:0:
400,179,250990,1,10,2:1:0:0:
184,252,251165,2,0,B|136:236|120:200|120:200|32:180,1,176.000005371094,10|2,2:2|2:3,0:0:0:0:
196,24,251688,5,10,2:1:0:0:
196,24,251775,1,2,0:0:0:0:
196,24,251862,1,10,2:1:0:0:
280,200,252037,1,2,2:2:0:0:
100,88,252211,1,10,2:1:0:0:
304,24,252386,1,10,2:1:0:0:
444,160,252560,6,0,P|456:204|452:248,1,88.000002685547,10|0,2:2|0:0,0:0:0:0:
332,364,252909,1,10,2:1:0:0:
452,245,253083,1,10,2:2:0:0:
280,200,253258,1,2,2:3:0:0:
416,328,253432,1,10,2:2:0:0:
372,124,253606,1,10,2:1:0:0:
264,304,253781,5,8,2:2:0:0:
264,304,253868,1,8,2:2:0:0:
264,304,253955,1,10,2:2:0:0:
460,184,254130,1,8,2:2:0:0:
272,48,254304,1,10,2:2:0:0:
72,168,254479,5,10,2:2:0:0:
72,168,254566,1,10,2:2:0:0:
72,168,254653,2,0,P|64:212|72:256,1,88.000002685547,14|10,2:1|2:2,0:0:0:0:
208,376,255002,1,10,2:1:0:0:
71,254,255176,1,2,2:2:0:0:
208,120,255351,6,0,B|308:112|272:164|384:160,1,176.000005371094,10|10,2:2|2:1,0:0:0:0:
232,212,255874,1,10,2:2:0:0:
352,60,256048,1,2,2:3:0:0:
412,260,256223,1,10,2:2:0:0:
208,120,256397,1,2,2:2:0:0:
456,64,256572,1,10,2:1:0:0:
328,292,256746,2,0,P|252:328|164:304,1,176.000005371094,10|2,2:2|2:3,0:0:0:0:
64,112,257269,5,10,2:2:0:0:
64,112,257356,1,8,2:2:0:0:
64,112,257444,1,10,2:1:0:0:
166,305,257618,1,2,2:2:0:0:
248,128,257793,2,0,P|204:140|168:168,1,88.000002685547,10|10,2:1|2:1,0:0:0:0:
68,320,258141,1,10,2:2:0:0:
132,76,258316,1,0,0:0:0:0:
272,272,258490,5,10,2:2:0:0:
48,208,258665,1,10,2:1:0:0:
236,20,258839,1,2,2:3:0:0:
272,272,259013,1,10,2:2:0:0:
132,76,259188,2,0,P|88:60|48:56,1,88.000002685547,2|8,2:2|2:1,0:0:0:0:
0,281,259537,2,0,P|56:305|132:301,1,132.00000402832,10|0,2:2|0:0,0:0:0:0:
200,289,259886,1,6,2:3:0:0:
352,228,260060,5,10,2:1:0:0:
352,228,260147,1,10,2:1:0:0:
352,228,260234,2,0,P|372:268|380:312,1,88.000002685547,14|0,2:1|0:0,0:0:0:0:
484,172,260583,2,0,P|464:132|456:88,1,88.000002685547,10|8,2:1|2:1,0:0:0:0:
280,52,260932,6,0,B|224:36|216:80|148:48,1,132.00000402832,14|0,2:2|0:0,0:0:0:0:
76,32,261281,1,10,2:2:0:0:
20,148,261455,1,8,2:1:0:0:
132,248,261630,2,0,P|104:288|96:328,1,88.000002685547,2|8,2:2|2:2,0:0:0:0:
260,356,261979,2,0,P|220:328|180:320,1,88.000002685547,2|8,2:2|2:1,0:0:0:0:
220,104,262327,2,0,B|272:112|272:112|288:128|288:128|344:136,1,132.00000402832,10|0,2:2|0:0,0:0:0:0:
420,140,262676,1,10,2:2:0:0:
464,356,262851,5,8,2:2:0:0:
464,356,262938,1,8,2:2:0:0:
464,356,263025,1,14,2:1:0:0:
500,192,263200,1,8,2:1:0:0:
328,260,263374,2,0,P|372:256|416:268,1,88.000002685547,10|4,2:2|2:3,0:0:0:0:
224,352,263723,2,0,P|180:356|136:344,1,88.000002685547,12|12,2:3|2:3,0:0:0:0:
16,220,264072,1,14,2:3:0:0:
152,40,264246,6,0,P|212:24|276:52,1,132.00000402832,14|0,2:1|0:0,0:0:0:0:
208,104,264595,1,12,2:3:0:0:
268,308,264769,1,14,2:3:0:0:
408,116,264944,1,12,2:3:0:0:
456,364,265118,1,14,2:3:0:0:
256,188,265293,1,10,2:2:0:0:
256,188,265380,1,10,2:2:0:0:
256,188,265467,2,0,L|208:208,1,44.0000013427735,10|10,2:2|2:2,0:0:0:0:
40,260,265641,5,10,2:2:0:0:
40,260,265729,1,10,2:2:0:0:
40,260,265816,1,14,2:1:0:0:
152,40,265990,1,10,2:1:0:0:
215,204,266165,1,10,2:2:0:0:
40,111,266339,1,2,2:2:0:0:
274,50,266513,2,0,P|213:88|120:142,1,176.000005371094,10|10,2:1|2:2,0:0:0:0:
161,307,267037,5,10,2:1:0:0:
341,136,267211,1,2,2:3:0:0:
160,208,267386,1,10,2:1:0:0:
383,290,267560,1,10,2:2:0:0:
244,124,267734,1,10,2:1:0:0:
259,327,267909,2,0,P|287:285|318:233,1,88.000002685547,10|8,2:1|2:1,0:0:0:0:
463,191,268258,1,10,2:2:0:0:
164,197,268432,5,2,2:2:0:0:
164,197,268519,1,2,0:0:0:0:
164,197,268606,1,10,2:1:0:0:
387,107,268781,1,2,2:2:0:0:
156,40,268955,1,10,2:2:0:0:
357,223,269130,1,0,0:0:0:0:
336,0,269304,2,0,P|288:42|257:66,1,88.000002685547,10|8,2:1|2:1,0:0:0:0:
304,288,269653,1,10,2:2:0:0:
432,76,269827,5,10,2:1:0:0:
356,136,270002,1,2,2:3:0:0:
277,193,270176,1,10,2:1:0:0:
432,76,270351,1,10,2:2:0:0:
488,260,270525,1,0,0:0:0:0:
291,56,270700,2,0,B|245:49|245:49|191:117,1,132.00000402832,10|0,2:1|0:0,0:0:0:0:
177,195,271048,1,10,2:2:0:0:
0,48,271223,5,10,2:1:0:0:
0,48,271310,1,10,2:1:0:0:
0,48,271397,1,14,2:1:0:0:
58,255,271572,1,10,2:1:0:0:
160,48,271746,1,10,2:2:0:0:
220,270,271920,1,2,2:2:0:0:
0,159,272095,2,0,P|60:164|98:167,1,88.000002685547,10|8,2:1|2:1,0:0:0:0:
166,359,272444,1,10,2:2:0:0:
269,179,272618,5,10,2:1:0:0:
47,321,272793,1,2,2:3:0:0:
301,297,272967,1,10,2:1:0:0:
87,166,273141,1,10,2:2:0:0:
166,359,273316,1,2,2:2:0:0:
218,71,273490,2,0,B|196:106|151:108|151:108|112:74|53:89,1,176.000005371094,10|10,2:1|2:2,0:0:0:0:
380,144,274013,5,2,2:2:0:0:
380,144,274101,1,2,0:0:0:0:
380,144,274188,1,10,2:1:0:0:
195,263,274362,1,8,2:1:0:0:
461,288,274537,1,10,2:2:0:0:
255,112,274711,1,10,2:1:0:0:
333,336,274886,1,10,2:1:0:0:
457,108,275060,1,8,2:1:0:0:
281,255,275234,1,10,2:2:0:0:
511,178,275409,6,0,P|470:125|389:25,1,176.000005371094,14|10,2:1|2:1,0:0:0:0:
211,29,275932,1,14,2:2:0:0:
395,155,276106,1,8,2:2:0:0:
395,155,276194,1,8,2:2:0:0:
395,155,276281,1,10,2:1:0:0:
171,180,276455,1,4,2:3:0:0:
171,180,276543,1,4,2:3:0:0:
171,180,276630,1,12,2:3:0:0:
316,9,276804,5,6,2:3:0:0:
316,9,276891,1,4,2:3:0:0:
316,9,276979,1,14,2:1:0:0:
299,104,277153,1,2,2:2:0:0:
280,198,277327,1,10,2:2:0:0:
161,57,277502,1,10,2:1:0:0:
364,174,277676,2,0,P|314:188|271:200,1,88.000002685547,10|8,2:1|2:1,0:0:0:0:
166,325,278025,1,10,2:2:0:0:
388,264,278200,6,0,P|338:278|295:290,1,88.000002685547,10|2,2:1|2:3,0:0:0:0:
104,164,278548,1,10,2:1:0:0:
258,110,278723,1,10,2:2:0:0:
126,290,278897,1,8,2:1:0:0:
126,290,278984,1,8,2:2:0:0:
126,290,279072,1,10,2:1:0:0:
199,227,279246,1,8,2:1:0:0:
272,163,279420,1,10,2:2:0:0:
44,102,279595,5,2,2:2:0:0:
44,102,279682,1,2,0:0:0:0:
44,102,279769,2,0,P|80:132|104:164,1,88.000002685547,10|2,2:1|0:0,0:0:0:0:
180,16,280118,1,10,2:2:0:0:
40,232,280293,5,10,2:1:0:0:
40,232,280380,1,8,2:2:0:0:
40,232,280467,1,10,2:1:0:0:
294,133,280641,1,8,2:1:0:0:
76,34,280816,1,10,2:2:0:0:
199,227,280990,6,0,P|192:272|192:320,1,88.000002685547,10|2,2:1|2:3,0:0:0:0:
340,384,281339,1,10,2:1:0:0:
312,236,281513,2,0,P|356:237|400:244,1,88.000002685547,10|0,2:2|0:0,0:0:0:0:
437,90,281862,2,0,B|427:55|381:45|381:45|284:67,1,176.000005371094,10|10,2:1|2:2,0:0:0:0:
134,277,282386,5,2,2:2:0:0:
134,277,282473,1,2,0:0:0:0:
134,277,282560,1,12,2:1:0:0:
340,339,282734,1,2,2:2:0:0:
204,176,282909,2,0,P|220:212|236:264,1,88.000002685547,10|0,0:0|0:0,0:0:0:0:
328,208,283258,1,10,2:1:0:0:
134,277,283432,1,10,2:1:0:0:
328,208,283606,1,10,2:2:0:0:
191,63,283781,6,0,B|157:107|109:102|109:102|66:74|6:95,1,176.000005371094,2|8,2:2|2:1,0:0:0:0:
0,267,284304,1,10,2:2:0:0:
117,101,284479,1,2,2:2:0:0:
117,101,284566,1,2,0:0:0:0:
117,101,284653,1,10,2:1:0:0:
270,229,284827,1,10,2:1:0:0:
56,188,285002,1,10,2:2:0:0:
297,129,285176,1,8,2:1:0:0:
297,129,285263,1,8,2:1:0:0:
297,129,285351,5,14,2:2:0:0:
160,376,285525,1,10,2:1:0:0:
429,146,285700,5,10,2:2:0:0:
91,299,285874,1,8,2:1:0:0:
364,363,286048,5,10,2:2:0:0:
172,212,286223,1,10,2:1:0:0:
369,74,286397,1,10,2:1:0:0:
456,364,286572,6,0,P|466:312|490:214,1,132.00000402832,14|8,2:2|2:2,0:0:0:0:
403,224,286920,1,8,2:2:0:0:
403,224,287008,1,8,2:2:0:0:
403,224,287095,1,8,2:1:0:0:
157,340,287269,5,4,2:3:0:0:
157,340,287356,1,4,2:3:0:0:
157,340,287444,2,0,P|179:299|177:278,1,44.0000013427735,8|8,2:1|2:2,0:0:0:0:
148,117,287618,1,8,2:2:0:0:
148,117,287705,1,8,2:2:0:0:
148,117,287793,2,0,P|189:139|210:137,1,44.0000013427735,8|4,2:1|2:3,0:0:0:0:
343,96,287967,2,0,P|321:137|323:158,1,44.0000013427735,6|4,2:3|2:3,0:0:0:0:
104,233,288141,5,14,2:1:0:0:
280,304,288316,1,2,2:2:0:0:
280,304,288403,1,2,0:0:0:0:
280,304,288490,2,0,P|320:320|356:320,1,80,10|2,2:2|2:2,0:0:0:0:
468,192,288839,1,10,2:1:0:0:
356,319,289013,1,10,2:1:0:0:
328,144,289188,1,10,2:2:0:0:
472,288,289362,1,2,2:2:0:0:
400,72,289537,6,0,P|336:56|236:80,1,160,10|10,2:1|2:2,0:0:0:0:
112,132,290060,2,0,P|88:96|72:60,1,80,2|10,2:2|2:1,0:0:0:0:
245,74,290409,1,8,2:1:0:0:
72,62,290583,1,10,2:2:0:0:
196,224,290758,5,2,2:2:0:0:
196,224,290845,1,2,0:0:0:0:
196,224,290932,2,0,P|176:260|172:304,1,80,10|2,2:1|2:2,0:0:0:0:
280,368,291281,1,10,2:2:0:0:
88,292,291455,1,2,2:2:0:0:
272,272,291630,2,0,P|292:236|296:192,1,80,10|10,2:1|2:1,0:0:0:0:
308,40,291979,1,10,2:2:0:0:
448,156,292153,5,2,2:2:0:0:
448,156,292240,1,2,0:0:0:0:
448,156,292327,2,0,P|412:136|368:132,1,80,10|8,2:1|2:1,0:0:0:0:
212,88,292676,1,10,2:2:0:0:
136,232,292851,1,10,2:1:0:0:
136,232,292938,1,8,2:2:0:0:
136,232,293025,2,0,P|120:272|120:308,1,80,10|10,2:1|2:1,0:0:0:0:
244,228,293374,1,10,2:2:0:0:
128,60,293548,5,2,2:2:0:0:
128,60,293636,1,2,0:0:0:0:
128,60,293723,2,0,P|188:16|276:24,1,160,10|10,2:1|2:2,0:0:0:0:
356,152,294246,1,2,2:2:0:0:
472,36,294420,2,0,P|428:36|392:52,1,80,10|8,2:1|2:1,0:0:0:0:
432,192,294769,2,0,P|476:192|512:176,1,80,10|0,2:2|0:0,0:0:0:0:
324,276,295118,6,0,B|264:268|264:268|240:280|240:280|160:272,1,160,10|10,2:1|2:2,0:0:0:0:
240,116,295641,2,0,P|220:152|212:192,1,80,2|10,2:2|2:1,0:0:0:0:
284,360,295990,1,10,2:1:0:0:
300,184,296165,1,10,2:2:0:0:
128,120,296339,5,2,2:2:0:0:
128,120,296426,1,2,0:0:0:0:
128,120,296513,2,0,P|92:100|52:92,1,80,10|0,2:1|0:0,0:0:0:0:
68,244,296862,1,10,2:2:0:0:
212,189,297037,2,0,P|232:153|240:113,1,80,2|10,2:2|2:1,0:0:0:0:
352,24,297386,1,8,2:1:0:0:
476,180,297560,1,12,2:2:0:0:
264,40,297734,5,10,2:2:0:0:
264,40,297822,1,8,2:2:0:0:
264,40,297909,1,14,2:1:0:0:
496,96,298083,1,8,2:1:0:0:
324,232,298258,1,10,2:2:0:0:
352,24,298432,2,0,P|380:80|400:184,1,160,14|8,2:1|2:1,0:0:0:0:
328,344,298955,1,8,2:2:0:0:
328,344,299043,1,8,2:2:0:0:
328,344,299130,2,0,L|288:336,1,40,10|8,2:2|2:2,0:0:0:0:
156,256,299304,6,0,P|176:220|176:172,1,80,14|10,2:1|2:1,0:0:0:0:
132,16,299653,1,10,2:2:0:0:
92,200,299827,1,10,2:1:0:0:
240,84,300002,1,10,2:1:0:0:
24,84,300176,1,10,2:1:0:0:
232,4,300351,6,0,P|276:12|308:32,1,80,10|2,2:2|2:2,0:0:0:0:
368,76,300612,1,2,0:0:0:0:
368,76,300700,2,0,L|444:52,1,80,10|8,2:1|2:1,0:0:0:0:
512,184,301048,1,10,2:2:0:0:
412,296,301223,1,10,2:1:0:0:
412,296,301310,1,8,2:2:0:0:
412,296,301397,2,0,P|392:256|392:220,1,80,10|8,2:1|2:1,0:0:0:0:
444,51,301746,1,10,2:2:0:0:
280,128,301920,5,2,2:2:0:0:
280,128,302008,1,2,0:0:0:0:
280,128,302095,2,0,P|240:132|200:120,1,80,10|2,2:1|2:2,0:0:0:0:
56,36,302444,1,10,2:2:0:0:
248,52,302618,1,10,2:1:0:0:
120,196,302793,1,10,2:1:0:0:
168,4,302967,1,10,2:1:0:0:
252,216,303141,1,10,2:2:0:0:
32,132,303316,5,10,2:1:0:0:
32,132,303403,1,2,0:0:0:0:
32,132,303490,2,0,B|0:208|56:200|24:292,1,160,2|10,2:2|2:2,0:0:0:0:
196,356,304013,1,10,2:1:0:0:
196,356,304101,1,8,2:2:0:0:
196,356,304188,1,10,2:1:0:0:
120,196,304362,1,10,2:1:0:0:
64,364,304537,1,12,2:2:0:0:
232,216,304711,5,10,2:2:0:0:
232,216,304798,1,8,2:2:0:0:
232,216,304886,2,0,P|280:184|304:88,1,160,14|12,2:1|2:2,0:0:0:0:
428,8,305409,1,2,2:2:0:0:
464,168,305583,2,0,P|428:144|404:108,1,80,10|8,2:1|2:1,0:0:0:0:
280,12,305932,1,10,2:2:0:0:
152,136,306106,5,2,2:2:0:0:
152,136,306194,1,2,0:0:0:0:
152,136,306281,2,0,P|120:104|100:156,1,120,14|0,2:1|0:0,0:0:0:0:
148,216,306630,1,14,2:2:0:0:
44,52,306804,1,8,2:1:0:0:
260,104,306979,5,10,2:2:0:0:
260,104,307066,1,8,2:2:0:0:
260,104,307153,2,0,L|300:116,1,40,4|4,2:3|2:3,0:0:0:0:
440,32,307327,1,6,2:3:0:0:
440,32,307415,1,4,2:3:0:0:
440,32,307502,2,0,L|428:72,1,40,4|4,2:3|2:3,0:0:0:0:
384,224,307676,6,0,P|380:268|364:304,1,80,14|8,2:1|2:1,0:0:0:0:
116,364,308025,5,10,2:2:0:0:
304,248,308200,1,10,2:1:0:0:
96,140,308374,5,8,2:2:0:0:
212,328,308549,1,8,2:1:0:0:
348,132,308723,5,10,2:2:0:0:
160,248,308898,1,8,2:1:0:0:
396,296,309072,5,10,2:2:0:0:
256,120,309246,1,8,2:1:0:0:
476,32,309420,5,10,2:2:0:0:
508,248,309595,1,8,2:1:0:0:
292,208,309769,5,10,2:2:0:0:
496,116,309944,1,8,2:1:0:0:
296,16,310118,5,10,2:2:0:0:
184,224,310293,1,8,2:1:0:0:
184,224,310380,1,8,2:1:0:0:
184,224,310467,2,0,P|168:268|144:296,1,80,14|8,2:2|2:1,0:0:0:0:
0,92,310816,5,10,2:2:0:0:
244,128,310990,1,8,2:1:0:0:
40,284,311165,5,10,2:2:0:0:
116,32,311339,1,8,2:1:0:0:
296,232,311513,5,10,2:2:0:0:
8,176,311688,1,8,2:1:0:0:
230,20,311862,5,10,2:2:0:0:
275,25,311979,2,0,L|327:33,1,53.3333333333333,8|8,2:2|2:2,0:0:0:0:
415,131,312211,5,8,2:2:0:0:
460,136,312328,2,0,L|512:144,1,53.3333333333333,4|4,2:3|2:3,0:0:0:0:
393,245,312560,5,6,2:3:0:0:
348,240,312677,2,0,L|296:232,1,53.3333333333333,6|6,2:3|2:3,0:0:0:0:
152,212,312909,5,6,2:3:0:0:
112,208,313025,1,6,2:3:0:0:
72,204,313141,1,6,2:3:0:0:
36,200,313258,6,0,P|48:248|74:352,2,143.999995605469,14|2|2,2:1|2:2|2:2,0:0:0:0:
257,100,314304,1,2,2:2:0:0:
51,30,314653,1,2,2:2:0:0:
51,30,315002,1,2,2:2:0:0:
51,30,315351,1,2,2:2:0:0:
51,30,315700,1,2,2:2:0:0:
176,224,315874,5,4,2:3:0:0:
176,224,315961,1,4,2:3:0:0:
176,224,316048,2,0,P|217:165|258:106,2,143.999995605469,14|2|2,2:1|2:2|2:2,0:0:0:0:
449,191,317095,1,14,2:2:0:0:
399,284,317269,1,8,2:1:0:0:
336,82,317444,5,2,2:2:0:0:
392,137,317618,1,4,2:3:0:0:
449,191,317793,2,0,P|475:165|511:130,1,71.9999978027344,2|8,2:2|2:2,0:0:0:0:
510,46,318141,2,0,P|470:45|444:71,1,71.9999978027344,2|4,2:2|2:3,0:0:0:0:
336,82,318490,2,0,P|335:42|361:16,1,71.9999978027344,6|0,2:3|0:0,0:0:0:0:
371,237,318839,6,0,B|336:214|301:220|301:220|277:267|213:245,2,143.999995605469,14|2|2,2:1|2:2|2:2,0:0:0:0:
255,367,319886,1,2,2:2:0:0:
54,187,320234,1,2,2:2:0:0:
54,187,320583,1,2,2:2:0:0:
54,187,320932,1,2,2:2:0:0:
54,187,321281,1,2,2:2:0:0:
256,27,321630,6,0,B|281:38|304:33|304:33|260:123,1,143.999995605469,14|2,2:1|2:2,0:0:0:0:
403,90,322153,1,8,2:1:0:0:
403,90,322240,1,8,2:1:0:0:
403,90,322327,1,14,2:2:0:0:
262,118,322502,1,8,2:2:0:0:
404,193,322676,1,2,2:2:0:0:
303,34,322851,1,8,2:1:0:0:
453,302,323025,6,0,P|425:292|386:297,1,47.9999985351563,14|8,2:2|2:2,0:0:0:0:
257,363,323258,1,8,2:2:0:0:
257,363,323374,2,0,P|267:335|262:296,1,47.9999985351563,6|4,2:3|2:3,0:0:0:0:
230,177,323606,1,8,2:2:0:0:
230,177,323722,2,0,P|258:187|297:182,1,47.9999985351563,10|8,2:2|2:2,0:0:0:0:
414,146,323955,1,8,2:2:0:0:
414,146,324071,2,0,P|404:174|409:213,2,47.9999985351563,6|4|4,2:3|2:3|2:3,0:0:0:0:
358,28,324420,6,0,P|319:41|204:75,1,143.999995605469,14|2,2:1|2:2,0:0:0:0:
45,46,324944,1,8,2:1:0:0:
45,46,325031,1,8,2:1:0:0:
45,46,325118,2,0,P|82:91|144:165,1,143.999995605469,14|6,2:2|2:3,0:0:0:0:
15,194,325641,1,4,2:3:0:0:
216,250,325816,6,0,P|271:203|326:157,1,143.999995605469,14|10,2:1|2:1,0:0:0:0:
459,115,326339,1,8,2:2:0:0:
358,28,326513,1,10,2:1:0:0:
415,196,326688,1,4,2:3:0:0:
489,20,326862,1,14,2:3:0:0:
489,20,326950,1,4,2:3:0:0:
489,20,327037,1,4,2:3:0:0:
489,20,327124,1,4,2:3:0:0:
489,20,327211,6,0,P|439:-1|352:34,1,143.999995605469,14|10,2:1|2:1,0:0:0:0:
414,217,327734,1,8,2:2:0:0:
425,76,327909,1,2,2:2:0:0:
330,206,328083,1,8,2:1:0:0:
494,150,328258,1,10,2:2:0:0:
269,97,328432,5,8,2:2:0:0:
269,97,328519,1,8,2:2:0:0:
269,97,328606,2,0,P|226:87|116:65,1,143.999995605469,10|10,2:1|2:1,0:0:0:0:
11,180,329130,1,12,2:2:0:0:
28,34,329304,1,2,2:2:0:0:
117,186,329479,1,8,2:1:0:0:
184,5,329653,1,10,2:2:0:0:
184,5,329740,1,8,2:2:0:0:
184,5,329827,1,4,2:3:0:0:
364,197,330002,6,0,B|314:218|275:203|275:203|242:243|272:284,1,160,14|10,2:1|2:1,0:0:0:0:
399,279,330525,1,12,2:2:0:0:
347,113,330700,1,10,2:1:0:0:
512,250,330874,1,4,2:3:0:0:
364,197,331048,1,10,2:1:0:0:
512,83,331223,1,12,2:2:0:0:
319,37,331397,6,0,P|335:84|354:131,1,80,10|12,2:1|2:2,0:0:0:0:
342,356,331746,1,10,2:1:0:0:
364,197,331920,1,2,2:2:0:0:
244,268,332095,1,10,2:1:0:0:
451,285,332269,1,10,2:2:0:0:
451,285,332356,1,8,2:2:0:0:
451,285,332444,1,10,2:2:0:0:
451,285,332531,1,4,2:3:0:0:
451,285,332618,1,6,2:3:0:0:
451,285,332705,1,4,2:3:0:0:
451,285,332793,6,0,P|478:210|437:142,1,160,14|12,2:1|2:3,0:0:0:0:
293,44,333316,1,14,2:3:0:0:
392,220,333490,1,12,2:3:0:0:
441,33,333665,1,12,2:3:0:0:
253,172,333839,5,14,2:3:0:0:
451,285,334013,1,12,2:3:0:0:
293,44,334188,1,12,2:3:0:0:
308,271,334362,5,14,2:3:0:0:
440,144,334537,1,12,2:3:0:0:
191,213,334711,1,12,2:3:0:0:
411,346,334886,5,14,2:3:0:0:
252,103,335060,1,12,2:3:0:0:
222,358,335234,1,14,2:3:0:0:
339,100,335409,1,12,2:3:0:0:
93,323,335583,5,14,2:2:0:0:
43,30,335758,1,8,2:2:0:0:
43,30,335845,1,8,2:2:0:0:
43,30,335932,1,8,2:2:0:0:
256,299,336106,5,8,2:2:0:0:
256,299,336194,1,8,2:2:0:0:
256,299,336281,1,10,2:2:0:0:
0,118,336455,5,8,2:2:0:0:
0,118,336543,1,8,2:2:0:0:
0,118,336630,1,8,2:2:0:0:
338,56,336804,5,8,2:2:0:0:
338,56,336891,1,8,2:2:0:0:
338,56,336979,1,14,2:2:0:0:
139,189,337153,6,0,L|188:205,1,40,8|8,2:2|2:2,0:0:0:0:
255,371,337327,2,0,L|302:352,1,40,8|8,2:1|2:2,0:0:0:0:
472,365,337502,2,0,L|456:317,1,40,10|8,2:2|2:2,0:0:0:0:
444,152,337676,2,0,L|391:184,1,40,10|8,2:1|2:2,0:0:0:0:
263,123,337851,2,0,L|281:171,1,40,10|8,2:2|2:2,0:0:0:0:
121,309,338025,2,0,L|134:271,1,40,10|4,2:1|2:3,0:0:0:0:
77,82,338200,2,0,L|119:106,1,40,4|4,2:3|2:3,0:0:0:0:
255,297,338374,5,14,2:2:0:0:
396,37,338548,1,14,2:2:0:0:
396,37,341688,5,10,2:1:0:0:
396,37,341775,1,8,2:1:0:0:
396,37,341862,2,0,P|424:60|440:92,1,71.9999978027344,10|0,2:2|0:0,0:0:0:0:
300,152,342211,2,0,P|322:124|354:108,1,71.9999978027344,6|6,2:3|2:3,0:0:0:0:
480,164,342560,1,8,2:2:0:0:
376,184,342734,1,2,2:2:0:0:
368,332,342909,6,0,P|296:348|232:320,1,143.999995605469,14|10,2:1|2:2,0:0:0:0:
165,141,343432,2,0,P|237:125|301:153,1,143.999995605469,12|2,2:1|2:2,0:0:0:0:
144,344,343955,5,14,2:2:0:0:
44,64,344130,1,14,2:2:0:0:
44,64,345874,5,10,2:1:0:0:
44,64,345961,1,8,2:1:0:0:
44,64,346048,2,0,P|20:96|12:152,2,96,10|8|10,2:2|2:1|2:1,0:0:0:0:
168,164,346746,6,0,P|136:148|96:140,1,71.9999978027344,14|2,2:1|2:2,0:0:0:0:
256,160,347095,2,0,P|248:195|232:227,1,71.9999978027344,2|2,2:2|2:2,0:0:0:0:
304,328,347444,2,0,B|356:320|356:320|380:328|380:328|448:316,1,143.999995605469,2|2,2:2|2:2,0:0:0:0:
504,200,347967,1,10,2:1:0:0:
504,200,348054,1,8,2:1:0:0:
504,200,348141,1,4,2:3:0:0:
445,316,348316,1,10,2:1:0:0:
504,108,348490,6,0,P|456:124|412:204,1,143.999995605469,14|10,2:2|2:2,0:0:0:0:
359,10,349013,2,0,P|332:74|268:104,1,143.999995605469,12|10,2:1|2:1,0:0:0:0:
256,264,349537,1,10,2:2:0:0:
412,201,349711,1,10,2:1:0:0:
268,103,349886,1,6,2:3:0:0:
256,264,350060,1,10,2:1:0:0:
476,272,350234,6,0,P|496:224|480:132,1,143.999995605469,14|2,2:1|2:2,0:0:0:0:
405,59,350758,2,0,L|253:107,1,143.999995605469,2|2,2:2|2:2,0:0:0:0:
144,136,351281,1,2,2:2:0:0:
264,264,351455,1,10,2:1:0:0:
264,264,351543,1,8,2:1:0:0:
264,264,351630,2,0,P|264:300|252:336,1,71.9999978027344,14|8,2:2|2:1,0:0:0:0:
112,276,351979,2,0,P|148:276|184:288,1,71.9999978027344,4|10,2:3|2:1,0:0:0:0:
24,352,352327,5,14,2:1:0:0:
40,224,352502,1,2,2:2:0:0:
140,352,352676,1,2,2:2:0:0:
116,176,352851,1,10,2:1:0:0:
116,176,352938,1,8,2:1:0:0:
116,176,353025,2,0,P|128:140|128:104,1,71.9999978027344,14|8,2:2|2:2,0:0:0:0:
16,64,353374,1,2,2:2:0:0:
172,28,353548,6,0,P|136:16|100:16,1,71.9999978027344,10|0,2:1|0:0,0:0:0:0:
232,136,353897,1,10,2:2:0:0:
172,28,354072,1,2,2:2:0:0:
288,44,354246,1,8,2:1:0:0:
352,152,354420,5,10,2:2:0:0:
344,192,354537,2,0,L|336:240,1,47.9999985351563,4|4,2:3|2:3,0:0:0:0:
224,284,354769,1,4,2:3:0:0:
216,324,354886,2,0,L|208:372,1,47.9999985351563,4|4,2:3|2:3,0:0:0:0:
68,244,355118,6,0,P|104:188|100:132,1,120,14|0,2:1|0:0,0:0:0:0:
28,168,355467,1,10,2:2:0:0:
184,72,355641,1,12,2:1:0:0:
36,24,355816,1,2,2:2:0:0:
200,164,355990,1,4,2:3:0:0:
200,164,356077,1,4,2:3:0:0:
200,164,356165,1,6,2:3:0:0:
120,28,356339,1,4,2:3:0:0:
68,244,356513,6,0,P|148:236|216:288,1,160,14|10,2:1|2:1,0:0:0:0:
368,364,357037,1,12,2:2:0:0:
356,184,357211,2,0,P|332:216|320:256,1,80,2|8,2:2|2:1,0:0:0:0:
124,328,357560,1,14,2:2:0:0:
248,144,357734,5,8,2:2:0:0:
248,144,357822,1,8,2:2:0:0:
248,144,357909,1,14,2:1:0:0:
336,40,358083,1,12,2:3:0:0:
356,184,358258,1,12,2:3:0:0:
244,40,358432,1,12,2:3:0:0:
448,112,358606,1,12,2:3:0:0:
268,232,358781,1,12,2:3:0:0:
124,24,358955,1,14,2:3:0:0:
68,288,359130,5,14,2:2:0:0:
244,40,359304,1,8,0:0:0:0:
244,40,359391,1,8,2:2:0:0:
244,40,359479,1,8,2:2:0:0:
456,256,359653,1,4,2:3:0:0:
204,356,359827,5,8,2:2:0:0:
204,356,359915,1,8,2:2:0:0:
204,356,360002,2,0,L|192:316,1,40,8|8,2:2|2:2,0:0:0:0:
128,132,360176,2,0,L|140:172,1,40,4|8,2:3|2:2,0:0:0:0:
312,176,360351,1,8,2:2:0:0:
343,151,360438,1,8,2:2:0:0:
381,139,360525,1,8,2:2:0:0:
420,140,360612,1,8,2:2:0:0:
457,155,360699,5,14,2:1:0:0:
231,65,360874,1,10,2:1:0:0:
231,65,360961,1,10,2:1:0:0:
231,65,361048,1,10,2:2:0:0:
352,269,361223,1,2,2:2:0:0:
399,28,361397,2,0,P|362:64|270:159,1,176.000005371094,10|10,2:1|2:2,0:0:0:0:
201,373,361920,6,0,P|181:333|165:289,1,88.000002685547,10|2,2:1|2:3,0:0:0:0:
73,89,362269,1,10,2:1:0:0:
48,317,362444,1,10,2:2:0:0:
212,111,362618,1,2,2:2:0:0:
5,190,362793,1,10,2:1:0:0:
84,244,362967,1,8,2:1:0:0:
167,293,363141,1,10,2:2:0:0:
321,96,363316,5,2,2:2:0:0:
321,96,363403,1,2,0:0:0:0:
321,96,363490,1,10,2:1:0:0:
356,312,363665,1,10,2:1:0:0:
475,115,363839,1,10,2:2:0:0:
257,182,364013,1,0,0:0:0:0:
494,256,364188,2,0,P|453:211|423:176,1,88.000002685547,10|8,2:1|2:1,0:0:0:0:
346,344,364537,1,10,2:2:0:0:
257,182,364711,6,0,P|285:215|315:247,1,88.000002685547,10|2,2:1|2:3,0:0:0:0:
132,364,365060,1,10,2:1:0:0:
139,177,365234,1,10,2:2:0:0:
263,359,365409,1,0,0:0:0:0:
325,126,365583,1,10,2:1:0:0:
231,152,365758,1,8,2:1:0:0:
139,177,365932,1,10,2:2:0:0:
360,24,366106,5,2,2:2:0:0:
360,24,366194,1,2,0:0:0:0:
360,24,366281,1,14,2:1:0:0:
231,152,366455,1,2,2:2:0:0:
470,200,366630,1,10,2:2:0:0:
244,37,366804,1,2,2:2:0:0:
314,280,366979,2,0,P|336:226|389:101,1,176.000005371094,10|10,2:1|2:2,0:0:0:0:
163,185,367502,6,0,P|207:191|251:201,1,88.000002685547,10|2,2:1|2:3,0:0:0:0:
365,355,367851,1,10,2:1:0:0:
353,140,368025,1,10,2:2:0:0:
219,308,368200,1,2,2:2:0:0:
494,273,368374,1,10,2:1:0:0:
424,206,368548,1,8,2:1:0:0:
353,140,368723,1,10,2:2:0:0:
153,347,368897,5,2,2:2:0:0:
153,347,368984,1,2,0:0:0:0:
153,347,369072,2,0,P|176:308|192:268,1,88.000002685547,10|8,2:1|2:1,0:0:0:0:
88,176,369420,1,10,2:2:0:0:
268,328,369595,1,2,2:2:0:0:
272,118,369769,2,0,P|250:175|233:211,1,88.000002685547,10|8,2:1|2:1,0:0:0:0:
415,164,370118,1,10,2:2:0:0:
188,34,370293,5,10,2:1:0:0:
188,34,370380,1,8,2:2:0:0:
188,34,370467,2,0,L|134:39,1,44.0000013427735,10|8,2:1|2:2,0:0:0:0:
1,157,370641,2,0,L|55:162,1,44.0000013427735,10|8,2:2|2:2,0:0:0:0:
27,8,370816,2,0,L|22:51,1,44.0000013427735,10|8,2:2|2:2,0:0:0:0:
156,190,370990,5,10,2:1:0:0:
0,276,371165,1,10,2:2:0:0:
144,38,371339,1,8,2:2:0:0:
144,38,371426,1,8,2:2:0:0:
144,38,371513,1,8,2:1:0:0:
151,294,371688,5,10,2:1:0:0:
151,294,371775,1,2,0:0:0:0:
151,294,371862,1,14,2:1:0:0:
366,269,372037,1,10,2:1:0:0:
172,138,372211,1,14,2:2:0:0:
372,98,372386,1,2,2:2:0:0:
251,325,372560,2,0,P|259:264|273:118,1,176.000005371094,10|10,2:1|2:2,0:0:0:0:
143,281,373083,1,10,2:1:0:0:
362,232,373258,5,2,2:3:0:0:
233,32,373432,1,10,2:1:0:0:
423,47,373606,2,0,P|468:48|512:60,1,88.000002685547,10|0,0:0|0:0,0:0:0:0:
362,232,373955,1,10,2:1:0:0:
393,140,374130,1,8,2:1:0:0:
423,47,374304,1,10,2:2:0:0:
196,243,374479,5,2,2:2:0:0:
196,243,374566,1,2,0:0:0:0:
196,243,374653,1,10,2:1:0:0:
30,185,374827,1,2,2:2:0:0:
267,132,375002,1,10,2:2:0:0:
70,334,375176,1,2,2:2:0:0:
122,100,375351,2,0,P|134:153|148:199,1,88.000002685547,10|8,2:1|2:1,0:0:0:0:
222,339,375700,1,10,2:2:0:0:
245,46,375874,6,0,P|257:99|271:145,1,88.000002685547,10|2,2:1|2:3,0:0:0:0:
238,259,376223,1,10,2:1:0:0:
480,150,376397,1,10,2:2:0:0:
372,311,376572,1,8,2:1:0:0:
372,311,376659,1,8,2:2:0:0:
372,311,376746,1,10,2:1:0:0:
423,229,376920,1,8,2:1:0:0:
480,150,377095,1,10,2:2:0:0:
186,107,377269,5,2,2:2:0:0:
186,107,377356,1,2,0:0:0:0:
186,107,377444,2,0,P|197:149|208:192,1,88.000002685547,12|10,2:2|2:1,0:0:0:0:
326,118,377793,5,10,2:2:0:0:
83,243,377967,1,8,2:1:0:0:
378,268,378141,5,10,2:2:0:0:
115,108,378316,1,10,2:1:0:0:
336,61,378490,5,10,2:2:0:0:
126,312,378665,1,10,2:1:0:0:
413,99,378839,5,10,2:2:0:0:
460,356,379013,1,8,2:1:0:0:
191,243,379188,5,10,2:2:0:0:
512,225,379362,1,10,2:1:0:0:
272,65,379537,5,10,2:2:0:0:
326,366,379711,1,10,2:1:0:0:
164,77,379886,5,10,2:2:0:0:
122,356,380060,1,8,2:1:0:0:
122,356,380147,1,8,2:1:0:0:
122,356,380234,2,0,P|158:333|193:304,1,88.000002685547,14|10,2:2|2:1,0:0:0:0:
71,119,380583,5,10,2:2:0:0:
287,359,380758,1,8,2:1:0:0:
277,83,380932,5,10,2:2:0:0:
334,291,381106,2,0,P|344:247|347:203,1,88.000002685547,10|10,2:1|2:1,0:0:0:0:
71,119,381455,5,14,2:2:0:0:
230,266,381630,1,8,2:1:0:0:
396,99,381804,1,12,2:3:0:0:
438,333,381979,1,12,2:3:0:0:
294,143,382153,5,14,2:3:0:0:
294,143,382240,1,14,2:3:0:0:
294,143,382327,1,14,2:3:0:0:
500,247,382502,1,14,2:3:0:0:
277,340,382676,1,14,2:3:0:0:
396,99,382851,1,14,2:3:0:0:
156,228,383025,5,14,2:1:0:0:
333,250,383200,1,2,2:2:0:0:
333,250,383374,1,2,2:2:0:0:
256,192,383461,12,2,384420,2:2:0:0:
333,250,384769,6,0,P|368:200|368:128,2,128,0|2|0,0:0|0:0|0:0,0:0:0:0:
440,88,385816,2,0,P|390:53|318:53,2,128,14|0|2,2:1|0:0|0:0,0:0:0:0:
440,88,386862,1,0,0:0:0:0:
400,240,387037,1,8,2:1:0:0:
400,240,387124,1,8,2:1:0:0:
400,240,387211,2,0,P|324:200|216:236,1,192,6|6,2:3|2:3,0:0:0:0:
136,296,387909,1,0,0:0:0:0:
56,112,388258,1,6,2:3:0:0:
226,226,388606,6,0,B|200:172|244:164|228:96,2,128,14|0|2,2:1|0:0|0:0,0:0:0:0:
226,226,389653,1,2,2:3:0:0:
372,300,389827,1,10,2:1:0:0:
372,300,389915,1,10,2:1:0:0:
372,300,390002,2,0,L|428:180,2,128,14|8|8,2:2|2:1|2:2,0:0:0:0:
308,200,390874,1,8,2:1:0:0:
426,184,391048,1,6,2:3:0:0:
372,300,391223,1,10,2:1:0:0:
356,132,391397,6,0,P|364:88|332:12,1,128,14|0,2:1|0:0,0:0:0:0:
188,100,391920,1,8,2:1:0:0:
188,100,392008,1,8,2:1:0:0:
188,100,392095,1,14,2:3:0:0:
332,13,392269,1,14,2:3:0:0:
268,164,392444,1,0,0:0:0:0:
104,40,392618,5,14,2:2:0:0:
104,40,392705,1,2,2:2:0:0:
104,40,392793,2,0,L|88:104,1,64,10|4,2:1|2:3,0:0:0:0:
188,100,393141,2,0,L|172:164,1,64,10|6,2:1|2:3,0:0:0:0:
268,164,393490,2,0,L|252:228,1,64,10|6,2:1|2:3,0:0:0:0:
232,324,393839,1,14,2:3:0:0:
252,226,394013,1,2,2:2:0:0:
108,252,394188,5,12,2:1:0:0:
132,352,394362,1,2,2:2:0:0:
232,324,394537,2,0,P|264:324|293:336,1,64,2|8,2:2|2:1,0:0:0:0:
400,304,394886,2,0,B|408:256|408:256|424:244|424:244|436:180,1,128,8|2,2:2|2:2,0:0:0:0:
484,304,395409,5,6,2:3:0:0:
484,304,395496,1,2,2:2:0:0:
484,304,395583,1,2,2:2:0:0:
352,184,395758,2,0,B|360:136|360:136|376:124|376:124|388:60,1,128,4|10,2:3|2:1,0:0:0:0:
196,116,396281,2,0,P|232:76|304:68,1,128,4|2,2:3|2:2,0:0:0:0:
302,67,396804,1,8,2:1:0:0:
156,192,396979,6,0,P|116:156|108:84,1,128,14|0,2:1|0:0,0:0:0:0:
28,236,397502,1,10,2:1:0:0:
28,236,397589,1,2,2:2:0:0:
28,236,397676,2,0,P|24:280|4:328,2,96,10|2|4,2:2|0:0|2:3,0:0:0:0:
120,300,398374,2,0,P|163:318|211:323,2,96,2|2|4,2:2|0:0|2:3,0:0:0:0:
120,184,399072,2,0,B|88:144|88:144|108:64,1,128,10|4,2:2|2:3,0:0:0:0:
264,24,399595,5,4,2:3:0:0:
264,24,399682,1,4,2:3:0:0:
264,24,399769,2,0,B|320:8|320:44|396:24,1,128,14|0,2:1|0:0,0:0:0:0:
504,128,400293,1,10,2:1:0:0:
504,128,400380,1,10,2:1:0:0:
504,128,400467,1,14,2:2:0:0:
488,20,400641,1,2,2:2:0:0:
372,160,400816,6,0,P|396:140|416:112,1,64,2|6,2:2|2:3,0:0:0:0:
390,25,401165,1,2,2:2:0:0:
280,44,401339,2,0,P|300:68|328:88,1,64,8|2,2:2|2:2,0:0:0:0:
390,25,401688,1,10,2:1:0:0:
372,160,401862,1,4,2:3:0:0:
280,44,402037,1,10,2:1:0:0:
321,198,402211,2,0,P|349:182|373:158,1,64,6|8,2:3|2:1,0:0:0:0:
216,280,402560,6,0,B|160:268|160:268|132:276|132:276|72:264,1,143.999995605469,14|12,2:2|2:3,0:0:0:0:
184,360,403083,1,14,2:3:0:0:
184,360,403170,1,2,2:2:0:0:
184,360,403258,2,0,P|220:364|256:356,1,71.9999978027344,14|12,2:3|2:3,0:0:0:0:
352,296,403606,1,12,2:3:0:0:
212,209,403781,5,14,2:3:0:0:
212,209,403868,1,2,2:2:0:0:
212,209,403955,2,0,P|208:245|216:281,1,71.9999978027344,14|12,2:3|2:3,0:0:0:0:
352,296,404304,1,12,2:3:0:0:
304,120,404479,5,14,2:3:0:0:
304,120,404566,1,2,2:2:0:0:
304,120,404653,1,10,2:2:0:0:
104,216,404827,1,10,2:2:0:0:
104,216,404915,1,8,2:2:0:0:
104,216,405002,2,0,L|84:180,1,35.9999989013672,10|8,2:2|2:2,0:0:0:0:
140,36,405176,2,0,L|160:72,1,35.9999989013672,10|8,2:2|2:2,0:0:0:0:
256,192,405351,1,14,2:1:0:0:
256,192,405438,12,0,410932,0:0:0:0:
