osu file format v14

[General]
AudioFilename: Nikkori Kafe no Mahoutsukai.mp3
AudioLeadIn: 0
PreviewTime: 52733
Countdown: 0
SampleSet: None
StackLeniency: 0.7
Mode: 0
LetterboxInBreaks: 0
WidescreenStoryboard: 1

[Editor]
DistanceSpacing: 1
BeatDivisor: 2
GridSize: 4
TimelineZoom: 2.5

[Metadata]
Title:Nikkori Cafe no Mahoutsukai
TitleUnicode:にっこりカフェの魔法使い
Artist:Ayane Sakura, Inori Minase, Risa Taneda, Satomi Sato, Maaya Uchida
ArtistUnicode:Ayane Sakura, Inori Minase, Risa Taneda, Satomi Sato, Maaya Uchida
Creator:M o c h a
Version:Easy
Source:ご注文はうさぎですか??
Tags:ごちうさ gochuumon wa usagi desu ka?? is the order a rabbit?? gochiusa hoto cocoa kafuu chino tedeza rize ujimatsu chiya kirima sharo
BeatmapID:1082937
BeatmapSetID:500774

[Difficulty]
HPDrainRate:1
CircleSize:3
OverallDifficulty:1
ApproachRate:2
SliderMultiplier:1.69999990463257
SliderTickRate:1

[Events]
//Background and Video events
0,0,"cover.jpg",0,0
//Break Periods
//Storyboard Layer 0 (Background)
//Storyboard Layer 1 (Fail)
//Storyboard Layer 2 (Pass)
//Storyboard Layer 3 (Foreground)
//Storyboard Sound Samples

[TimingPoints]
1188,545.454545454546,4,1,0,40,1,0
1188,-200,4,1,0,40,0,0
11006,545.454545454546,4,1,0,50,1,0
28460,-133.333333333333,4,1,0,50,0,0
32824,-100,4,1,0,70,0,0
39369,-133.333333333333,4,1,0,65,0,0
53006,-200,4,1,0,40,0,0
54642,-100,4,1,0,80,0,1
72096,-100,4,1,0,75,0,0
80824,-100,4,1,0,80,0,1
93915,-100,4,1,0,75,0,0

[HitObjects]
194,74,1188,6,0,P|146:78|98:129,1,84.9999952316285
172,161,2278,2,0,P|151:198|81:231,1,84.9999952316285
177,280,3369,6,0,P|217:261|287:275,1,84.9999952316285
308,329,4460,2,0,P|352:311|376:243,2,84.9999952316285
256,261,6097,1,0,0:0:0:0:
204,193,6642,2,0,P|176:226|186:288,1,84.9999952316285
231,329,7733,6,0,B|267:345|267:345|295:319|346:317,1,84.9999952316285
269,246,8824,1,0,0:0:0:0:
339,198,9369,1,0,0:0:0:0:
89,131,11006,6,0,P|94:174|125:229,1,84.9999952316284
171,271,11551,1,0,0:0:0:0:
340,257,12096,1,0,0:0:0:0:
445,123,12642,6,0,P|425:82|388:55,2,84.9999952316284
428,292,13733,1,0,0:0:0:0:
345,143,14278,2,0,P|272:108|183:126,2,169.999990463257
248,283,15915,1,0,0:0:0:0:
92,214,16460,1,0,0:0:0:0:
261,195,17006,2,0,P|307:216|333:252,1,84.9999952316284
248,283,17551,6,0,P|180:238|210:129,2,169.999990463257
311,125,19187,1,0,0:0:0:0:
444,229,19733,6,0,P|483:148|446:39,1,169.999990463257
302,37,20824,1,0,0:0:0:0:
133,56,21369,1,0,0:0:0:0:
33,193,21915,6,0,P|38:274|113:325,1,169.999990463257
224,202,23006,2,0,P|306:243|389:205,1,169.999990463257
462,72,24096,5,0,0:0:0:0:
475,241,24642,1,0,0:0:0:0:
329,329,25187,2,0,P|248:351|157:293,2,169.999990463257
333,158,26824,2,0,P|361:182|373:257,1,84.9999952316284
292,234,27369,1,0,0:0:0:0:
157,129,27915,1,0,0:0:0:0:
258,52,28460,6,0,P|320:38|407:65,1,127.499997711182
428,169,29551,2,0,P|434:229|393:304,1,127.499997711182
280,300,30642,5,0,0:0:0:0:
165,243,31187,1,0,0:0:0:0:
269,170,31733,2,0,P|295:112|223:49,2,127.499997711182
108,112,33369,1,0,0:0:0:0:
63,276,33915,2,0,P|119:334|230:332,1,169.999990463257
293,197,35006,6,0,P|373:164|455:217,1,169.999990463257
323,320,36096,2,0,P|252:343|151:278,1,169.999990463257
106,146,37187,6,0,P|119:62|215:40,1,169.999990463257
337,120,38278,2,0,P|349:161|346:217,1,84.9999952316284
267,176,38824,1,0,0:0:0:0:
216,293,39369,5,0,0:0:0:0:
112,218,39915,1,0,0:0:0:0:
64,99,40460,1,0,0:0:0:0:
315,54,41551,2,0,P|387:48|459:100,2,127.499997711182
360,173,43187,1,0,0:0:0:0:
377,299,43733,5,0,0:0:0:0:
284,211,44278,1,0,0:0:0:0:
161,174,44824,1,0,0:0:0:0:
37,250,45915,6,0,P|49:312|135:330,2,127.499997711182
116,150,47551,2,0,P|170:124|265:100,1,127.499997711182
323,196,48642,1,0,0:0:0:0:
234,287,49187,1,0,0:0:0:0:
133,208,49733,1,0,0:0:0:0:
177,88,50278,6,0,P|223:47|298:31,1,127.499997711182
383,188,51369,2,0,L|384:345,1,127.499997711182
260,281,52460,2,0,L|100:218,1,127.499997711182
438,97,54642,6,0,L|435:232,1,84.9999952316284
364,227,55187,1,0,0:0:0:0:
270,84,55733,2,0,L|149:95,1,84.9999952316284
117,40,56278,1,0,0:0:0:0:
56,199,56824,6,0,P|60:281|138:329,2,169.999990463257
226,195,58460,1,0,0:0:0:0:
393,162,59006,6,0,P|400:247|318:318,1,169.999990463257
178,289,60096,2,0,P|119:229|139:125,1,169.999990463257
263,51,61187,5,0,0:0:0:0:
422,109,61733,1,0,0:0:0:0:
429,278,62278,1,0,0:0:0:0:
270,338,62824,1,0,0:0:0:0:
143,224,63369,2,0,L|65:138,3,84.9999952316284
124,84,64460,2,0,L|222:0,3,84.9999952316284
270,51,65551,5,0,0:0:0:0:
400,159,66096,1,0,0:0:0:0:
387,328,66642,2,0,P|302:355|217:326,1,169.999990463257
132,191,67733,1,0,0:0:0:0:
288,113,68278,2,0,P|245:42|146:36,2,169.999990463257
313,281,69915,6,0,B|419:277|432:155,1,169.999990463257
349,26,71006,1,0,0:0:0:0:
200,108,71551,1,0,0:0:0:0:
153,271,72096,6,0,P|77:240|48:109,1,169.999990463257
200,108,73187,1,0,0:0:0:0:
344,197,73733,1,0,0:0:0:0:
500,129,74278,6,0,P|468:53|379:34,1,169.999990463257
233,101,75369,1,0,0:0:0:0:
115,223,75915,1,0,0:0:0:0:
284,226,76460,2,0,P|368:238|450:165,1,169.999990463257
270,203,77551,2,0,P|180:186|98:244,1,169.999990463257
252,322,78642,2,0,P|345:307|399:242,1,169.999990463257
338,92,79733,2,0,P|241:100|183:166,1,169.999990463257
88,283,80824,6,0,L|18:195,1,84.9999952316284
77,142,81369,1,0,0:0:0:0:
244,172,81915,2,0,L|286:252,1,84.9999952316284
361,212,82460,1,0,0:0:0:0:
424,54,83006,6,0,P|486:106|494:232,2,169.999990463257
254,69,84642,1,0,0:0:0:0:
94,126,85187,6,0,P|45:190|80:318,1,169.999990463257
208,334,86278,2,0,P|292:347|376:286,1,169.999990463257
456,163,87369,5,0,0:0:0:0:
346,32,87915,1,0,0:0:0:0:
177,54,88460,1,0,0:0:0:0:
85,197,89006,1,0,0:0:0:0:
216,304,89551,6,0,L|401:302,1,169.999990463257
254,196,90642,2,0,L|50:197,1,169.999990463257
216,304,91733,5,0,0:0:0:0:
385,302,92278,1,0,0:0:0:0:
379,131,92824,1,0,0:0:0:0:
209,127,93369,1,0,0:0:0:0:
66,220,93915,6,0,P|63:303|164:385,1,169.999990463257
228,241,95006,2,0,P|314:221|419:265,1,169.999990463257
293,104,96096,2,0,P|207:124|102:80,1,169.999990463257
47,24,97187,2,0,P|24:94|71:200,2,169.999990463257
