osu file format v14

[General]
AudioFilename: audio.mp3
AudioLeadIn: 0
PreviewTime: 51212
Countdown: 1
SampleSet: Soft
StackLeniency: 0.3
Mode: 0
LetterboxInBreaks: 0
WidescreenStoryboard: 1

[Editor]
Bookmarks: 12969,24965,27214,39210,52706,64702,73699,79697,91693,93193
DistanceSpacing: 1.5
BeatDivisor: 4
GridSize: 32
TimelineZoom: 1

[Metadata]
Title:Senpuu no Mai [Ten]
TitleUnicode:旋風ノ舞【天】
Artist:Ayane
ArtistUnicode:彩音
Creator:Antares-
Version:Insane
Source:太鼓の達人
Tags:asonate fursum taiko no tatsujin tatsh zeami 世阿弥 original soundtrack full combo!
BeatmapID:1331820
BeatmapSetID:629057

[Difficulty]
HPDrainRate:5
CircleSize:4
OverallDifficulty:8
ApproachRate:9
SliderMultiplier:1.6
SliderTickRate:1

[Events]
//Background and Video events
0,0,"tapeta.jpg",0,0
//Break Periods
//Storyboard Layer 0 (Background)
//Storyboard Layer 1 (Fail)
//Storyboard Layer 2 (Pass)
//Storyboard Layer 3 (Foreground)
//Storyboard Sound Samples

[TimingPoints]
223,374.882849109653,4,2,1,40,1,0
11469,-200,4,2,1,40,0,0
12406,-100,4,2,1,40,0,0
12969,374.882849109653,4,2,1,65,1,0
12969,-66.6666666666667,4,2,1,65,0,0
18592,-100,4,2,1,65,0,0
18967,-66.6666666666667,4,2,1,65,0,0
24965,-100,4,2,1,65,0,0
25902,-66.6666666666667,4,2,1,65,0,0
26464,-133.333333333333,4,2,1,65,0,0
27214,374.882849109653,4,2,1,65,1,0
27214,-100,4,2,1,65,0,0
28526,-133.333333333333,4,2,1,65,0,0
29463,-100,4,2,1,65,0,0
31525,-133.333333333333,4,2,1,65,0,0
32462,-100,4,2,1,65,0,0
34524,-133.333333333333,4,2,1,65,0,0
35461,-100,4,2,1,65,0,0
37711,-200,4,2,1,65,0,0
39210,-125,4,2,1,65,0,0
41272,-100,4,2,1,65,0,0
42209,-125,4,2,1,65,0,0
45583,-100,4,2,1,65,0,0
46708,-133.333333333333,4,2,1,65,0,0
47457,-100,4,2,1,65,0,0
48207,-133.333333333333,4,2,1,65,0,0
51207,-200,4,2,1,65,0,0
52706,-80,4,2,1,65,0,0
73700,-100,4,2,1,65,0,0
76699,-133.333333333333,4,2,1,65,0,0
78198,-66.6666666666667,4,2,1,65,0,0
79698,-66.6666666666667,4,2,1,65,0,0
85321,-100,4,2,1,65,0,0
85696,-66.6666666666667,4,2,1,65,0,0
91694,-100,4,2,1,65,0,0
92631,-66.6666666666667,4,2,1,65,0,0
97973,-66.6666666666667,4,2,1,5,0,0

[Colours]
Combo1 : 128,0,64
Combo2 : 128,128,192
Combo3 : 128,0,128
Combo4 : 172,172,172

[HitObjects]
35,145,223,5,0,0:0:0:0:
50,143,410,1,0,0:0:0:0:
65,141,597,1,0,0:0:0:0:
80,139,785,1,0,0:0:0:0:
95,137,972,1,0,0:0:0:0:
95,137,1347,5,0,0:0:0:0:
202,49,1535,1,0,0:0:0:0:
136,218,1722,6,0,P|197:234|254:219,1,120
20,222,2097,2,0,P|77:206|135:217,1,120
251,220,2472,2,0,P|289:153|286:136,1,80
222,297,2847,2,0,P|266:302|310:279,1,80
445,146,3222,6,0,B|493:199|477:259|477:259|452:262|419:234,1,160
369,120,3784,1,0,0:0:0:0:
384,200,3971,1,0,0:0:0:0:
384,200,4346,1,0,0:0:0:0:
227,132,4534,1,0,0:0:0:0:
445,146,4721,5,0,0:0:0:0:
227,132,5096,1,0,0:0:0:0:
227,132,5471,1,0,0:0:0:0:
275,240,5658,1,0,0:0:0:0:
306,114,5846,1,0,0:0:0:0:
197,261,6033,1,0,0:0:0:0:
306,114,6221,5,0,0:0:0:0:
321,117,6408,1,0,0:0:0:0:
336,120,6596,1,0,0:0:0:0:
351,123,6783,1,0,0:0:0:0:
366,127,6970,1,0,0:0:0:0:
366,127,7345,5,0,0:0:0:0:
497,190,7533,1,0,0:0:0:0:
338,290,7720,6,0,P|269:310|204:293,1,120
453,301,8095,2,0,P|384:281|319:298,1,120
222,301,8470,2,0,P|183:234|186:217,1,80
289,348,8845,2,0,P|264:372|214:383,1,80
32,324,9220,5,0,0:0:0:0:
32,324,9595,1,0,0:0:0:0:
13,243,9782,1,0,0:0:0:0:
13,243,10157,1,0,0:0:0:0:
92,267,10344,1,0,0:0:0:0:
134,100,10532,1,0,0:0:0:0:
171,293,10719,5,0,0:0:0:0:
320,164,11094,1,0,0:0:0:0:
134,100,11469,6,0,P|140:129|58:113,1,160
57,117,12406,6,0,L|64:149,3,26.6666666666667
80,77,12969,5,4,0:0:0:0:
85,82,13062,1,0,0:0:0:0:
90,87,13156,2,0,L|79:24,1,60.0000022888184
180,116,13343,1,2,0:0:0:0:
175,121,13436,1,0,0:0:0:0:
170,126,13531,2,0,L|181:63,1,60.0000022888184
268,74,13718,5,8,0:0:0:0:
273,79,13811,1,0,0:0:0:0:
278,84,13906,2,0,L|267:21,1,60.0000022888184
358,111,14093,1,2,0:0:0:0:
390,101,14187,1,0,0:0:0:0:
425,108,14281,2,0,L|414:45,1,60.0000022888184
487,169,14468,5,4,0:0:0:0:
458,191,14562,1,0,0:0:0:0:
423,194,14655,1,0,0:0:0:0:
388,184,14749,1,0,0:0:0:0:
360,160,14843,2,0,P|323:151|290:162,1,60.0000022888184,2|0,0:0|0:0,0:0:0:0:
263,237,15030,2,0,P|291:245|320:241,1,60.0000022888184
211,164,15218,5,4,0:0:0:0:
188,192,15312,1,0,0:0:0:0:
179,226,15405,2,0,P|178:262|193:291,1,60.0000022888184
277,334,15593,5,2,0:0:0:0:
309,319,15686,1,0,0:0:0:0:
345,316,15780,1,0,0:0:0:0:
379,327,15874,1,0,0:0:0:0:
410,343,15968,5,8,0:0:0:0:
427,312,16061,1,0,0:0:0:0:
429,275,16155,2,0,P|421:234|432:209,1,60.0000022888184
485,140,16342,5,2,0:0:0:0:
453,122,16436,1,0,0:0:0:0:
416,119,16530,1,0,0:0:0:0:
381,131,16624,1,0,0:0:0:0:
353,153,16717,6,0,L|354:89,1,60.0000022888184,4|0,0:0|0:0,0:0:0:0:
266,219,16905,2,0,L|320:251,1,60.0000022888184
251,111,17092,2,0,L|195:142,1,60.0000022888184,2|0,0:0|0:0,0:0:0:0:
213,248,17280,2,0,L|265:218,1,60.0000022888184
353,153,17467,5,8,0:0:0:0:
365,119,17561,1,0,0:0:0:0:
363,82,17655,1,0,0:0:0:0:
344,51,17748,1,0,0:0:0:0:
313,32,17842,1,2,0:0:0:0:
280,48,17936,1,0,0:0:0:0:
244,47,18029,1,0,0:0:0:0:
209,37,18123,1,0,0:0:0:0:
182,12,18217,6,0,L|115:39,1,60.0000022888184,8|0,0:0|0:0,0:0:0:0:
71,143,18404,2,0,L|126:120,1,60.0000022888184,8|0,0:0|0:0,0:0:0:0:
244,47,18592,6,0,P|259:107|238:164,1,120,2|0,0:0|0:0,0:0:0:0:
168,249,18967,5,4,0:0:0:0:
162,253,19060,1,0,0:0:0:0:
156,257,19154,2,0,L|165:168,1,60.0000022888184
235,314,19342,1,2,0:0:0:0:
241,318,19435,1,0,0:0:0:0:
247,322,19529,2,0,L|240:262,1,60.0000022888184
340,271,19716,5,8,0:0:0:0:
334,275,19809,1,0,0:0:0:0:
328,279,19904,2,0,L|337:190,1,60.0000022888184
418,319,20091,1,2,0:0:0:0:
454,330,20184,1,0,0:0:0:0:
489,315,20279,2,0,L|498:226,1,60.0000022888184
410,147,20466,6,0,L|403:206,1,60.0000022888184,4|0,0:0|0:0,0:0:0:0:
333,151,20654,2,0,L|284:115,1,60.0000022888184
366,81,20841,2,0,L|421:57,1,60.0000022888184,2|0,0:0|0:0,0:0:0:0:
376,220,21028,1,0,0:0:0:0:
335,230,21122,1,0,0:0:0:0:
294,218,21216,6,0,P|231:224|297:267,1,180.000006866455,8|0,0:0|0:0,0:0:0:0:
376,220,21591,5,2,0:0:0:0:
390,186,21685,1,0,0:0:0:0:
383,150,21778,2,0,P|373:112|386:75,1,60.0000022888184
469,80,21966,1,8,0:0:0:0:
455,114,22060,1,0,0:0:0:0:
462,150,22153,2,0,P|472:188|459:225,1,60.0000022888184
409,284,22341,5,2,0:0:0:0:
382,308,22434,1,0,0:0:0:0:
346,316,22528,1,0,0:0:0:0:
313,301,22622,1,0,0:0:0:0:
280,285,22715,1,4,0:0:0:0:
244,288,22809,1,0,0:0:0:0:
213,308,22903,2,0,P|184:317|151:310,1,60.0000022888184
147,191,23090,2,0,P|169:211|179:243,1,60.0000022888184,2|0,0:0|0:0,0:0:0:0:
73,308,23278,2,0,P|79:278|102:253,1,60.0000022888184
213,144,23465,5,4,0:0:0:0:
252,129,23559,1,0,0:0:0:0:
291,143,23653,2,0,P|302:178|291:222,1,60.0000022888184
220,252,23840,1,2,0:0:0:0:
181,267,23934,1,0,0:0:0:0:
142,253,24028,2,0,P|131:218|142:174,1,60.0000022888184
164,92,24215,5,8,0:0:0:0:
202,74,24309,1,0,0:0:0:0:
243,70,24402,1,2,0:0:0:0:
283,81,24496,1,0,0:0:0:0:
321,97,24590,1,8,0:0:0:0:
362,103,24684,1,0,0:0:0:0:
400,87,24777,1,2,0:0:0:0:
419,49,24871,1,0,0:0:0:0:
396,13,24965,6,0,P|354:3|310:18,1,80,8|0,0:0|0:0,0:0:0:0:
313,154,25246,2,0,P|342:122|351:77,1,80,8|0,0:0|0:0,0:0:0:0:
234,20,25527,2,0,P|246:61|281:91,1,80,8|0,0:0|0:0,0:0:0:0:
296,171,25902,6,0,L|358:172,1,60.0000022888184,8|0,0:0|0:0,0:0:0:0:
235,223,26089,2,0,L|288:255,1,60.0000022888184,8|0,0:0|0:0,0:0:0:0:
156,237,26277,2,0,L|185:291,1,60.0000022888184,8|0,0:0|0:0,0:0:0:0:
34,200,26464,6,0,L|119:358,1,180.000006866455,2|0,0:0|0:0,0:0:0:0:
120,359,27214,6,0,P|170:341|218:355,1,80
312,345,27589,1,0,0:0:0:0:
263,277,27776,2,0,L|171:261,1,80
324,220,28151,2,0,P|345:275|318:338,1,120
263,277,28526,6,0,P|242:216|279:153,1,120.000004577637
324,220,29088,5,0,0:0:0:0:
324,220,29276,1,0,0:0:0:0:
194,133,29463,1,0,0:0:0:0:
379,151,29651,1,0,0:0:0:0:
194,133,29838,1,0,0:0:0:0:
346,77,30026,1,0,0:0:0:0:
212,205,30213,6,0,P|158:198|124:156,1,80
194,133,30588,1,0,0:0:0:0:
293,220,30775,2,0,P|262:271|205:288,1,120
212,205,31150,1,0,0:0:0:0:
353,166,31338,1,0,0:0:0:0:
344,295,31525,6,0,L|476:341,1,120.000004577637
476,261,32088,5,0,0:0:0:0:
476,261,32275,1,0,0:0:0:0:
433,120,32462,1,0,0:0:0:0:
476,261,32650,1,0,0:0:0:0:
354,300,32837,1,0,0:0:0:0:
481,180,33025,1,0,0:0:0:0:
354,300,33212,6,0,P|322:315|277:310,1,80
305,238,33587,1,0,0:0:0:0:
382,231,33775,2,0,P|366:287|315:314,1,120
337,162,34149,2,0,P|396:149|451:185,1,120
382,231,34524,6,0,L|254:245,1,120.000004577637
262,244,35087,1,0,0:0:0:0:
262,244,35274,1,0,0:0:0:0:
375,154,35461,6,0,P|388:202|374:245,1,80
268,320,35836,2,0,P|255:272|269:229,1,80
375,154,36211,2,0,P|332:166|285:147,1,80
335,86,36586,1,0,0:0:0:0:
390,238,36774,2,0,P|456:174|453:131,1,120
413,86,37148,1,0,0:0:0:0:
298,155,37336,1,0,0:0:0:0:
150,105,37523,1,0,0:0:0:0:
298,155,37711,6,0,P|317:224|302:273,1,120
228,198,38461,2,0,L|237:217,1,20
183,170,38648,2,0,L|192:189,1,20
138,142,38835,2,0,L|147:161,1,20
93,114,39023,2,0,L|102:133,1,20
115,270,39210,6,0,P|131:330|186:361,1,128
185,360,39773,1,0,0:0:0:0:
151,193,39960,6,0,P|134:259|174:329,1,128
156,312,40522,1,0,0:0:0:0:
321,204,40710,5,0,0:0:0:0:
321,204,41085,1,0,0:0:0:0:
383,149,41272,2,0,P|403:212|371:270,1,120
260,258,41647,2,0,P|240:193|270:140,1,120
321,204,42022,1,0,0:0:0:0:
260,258,42209,6,0,P|192:280|124:261,1,128
137,270,42772,1,0,0:0:0:0:
302,168,42959,6,0,P|254:221|185:238,1,128
201,237,43522,1,0,0:0:0:0:
87,78,43709,5,0,0:0:0:0:
87,78,44084,1,0,0:0:0:0:
196,131,44271,1,0,0:0:0:0:
192,125,44364,1,0,0:0:0:0:
188,119,44459,2,0,L|228:117,1,32
296,48,44646,2,0,L|264:49,1,32
293,137,44833,2,0,L|333:135,1,32
401,66,45020,2,0,L|369:67,1,32
175,56,45208,6,0,L|193:148,1,64
282,216,45583,2,0,L|294:127,1,80
163,193,45958,2,0,L|182:288,1,80
282,216,46333,6,0,L|291:157,1,40
323,161,46521,2,0,L|332:102,1,40
413,115,46708,6,0,L|395:215,1,90.0000034332277
391,232,47082,1,0,0:0:0:0:
323,161,47270,1,0,0:0:0:0:
244,238,47457,2,0,P|197:256|145:240,1,80
66,176,47832,2,0,L|73:227,1,40
85,124,48019,2,0,L|92:175,1,40
149,56,48207,6,0,L|168:167,1,90.0000034332277
231,211,48582,2,0,L|246:122,1,90.0000034332277
315,60,48957,1,0,0:0:0:0:
328,165,49144,1,0,0:0:0:0:
231,211,49332,1,0,0:0:0:0:
315,60,49519,1,0,0:0:0:0:
125,57,49706,6,0,L|109:161,1,90.0000034332277
162,222,50082,5,0,0:0:0:0:
313,112,50269,1,0,0:0:0:0:
255,289,50457,1,0,0:0:0:0:
198,112,50644,1,0,0:0:0:0:
349,222,50832,1,0,0:0:0:0:
396,230,50925,1,0,0:0:0:0:
441,214,51019,1,0,0:0:0:0:
471,176,51113,1,0,0:0:0:0:
473,127,51207,6,0,P|481:196|439:239,1,120
353,117,51956,2,0,L|378:50,1,60
349,222,52331,2,0,L|278:194,1,60
89,106,52706,6,0,B|65:61|65:61|122:69|132:130|102:186,1,200
66,272,53268,1,0,0:0:0:0:
166,260,53456,2,0,P|213:260|258:292,1,100
105,179,53831,1,0,0:0:0:0:
126,352,54018,1,0,0:0:0:0:
203,167,54206,6,0,L|247:53,1,100
346,250,54581,1,0,0:0:0:0:
463,213,54768,1,0,0:0:0:0:
307,177,54955,2,0,P|269:227|276:284,1,100
472,306,55330,2,8,P|479:243|445:197,1,100,0|0,0:0|0:0,0:0:0:0:
403,88,55705,6,0,P|350:99|287:66,1,100
172,31,56080,1,0,0:0:0:0:
222,134,56267,2,0,P|235:189|212:248,2,100
65,67,56830,1,0,0:0:0:0:
14,173,57017,1,0,0:0:0:0:
199,82,57205,6,0,P|290:64|361:111,1,150
261,176,57580,1,0,0:0:0:0:
168,33,57767,2,0,P|143:113|199:67,1,200
336,96,58329,2,0,L|317:49,1,50
191,230,58517,2,0,L|211:275,1,50
422,248,58704,6,0,P|443:186|411:90,1,150
406,82,59079,2,0,L|276:108,1,100
168,33,59453,2,0,L|266:13,1,100
282,180,59829,2,0,P|251:127|263:35,1,150
266,13,60204,5,0,0:0:0:0:
282,180,60391,1,0,0:0:0:0:
181,225,60579,1,0,0:0:0:0:
86,172,60766,2,0,B|60:163|36:170|36:170|94:223|76:329,1,200
214,259,61328,2,0,L|179:224,1,50
191,52,61516,2,0,L|239:102,1,50
273,320,61703,6,0,P|221:342|146:301,1,100
199,162,62078,2,0,P|217:218|205:281,1,100
121,384,62453,1,0,0:0:0:0:
273,320,62640,2,0,P|324:301|385:315,1,100
472,198,63015,6,0,P|412:140|405:70,1,150
411,46,63390,2,0,P|350:119|267:117,1,150
271,122,63765,1,0,0:0:0:0:
199,237,63953,5,0,0:0:0:0:
271,122,64139,1,0,0:0:0:0:
382,192,64327,1,0,0:0:0:0:
190,148,64515,1,0,0:0:0:0:
406,118,64702,6,0,L|431:230,1,100
451,298,65077,2,0,P|383:287|357:247,1,100
327,158,65452,1,0,0:0:0:0:
271,273,65640,2,0,L|166:239,1,100
40,186,66014,6,0,P|100:244|107:314,1,150
105,339,66389,2,0,P|166:266|249:268,1,150
248,262,66764,2,0,P|298:281|350:267,1,100
418,200,67139,1,0,0:0:0:0:
336,167,67327,1,0,0:0:0:0:
418,290,67514,1,0,0:0:0:0:
406,123,67701,6,0,P|355:88|305:96,1,100
237,180,68076,1,0,0:0:0:0:
301,255,68264,2,0,P|332:212|321:132,1,100
279,47,68639,1,0,0:0:0:0:
335,166,68826,2,0,L|452:183,1,100
168,163,69201,6,0,P|183:94|237:66,1,100
328,268,69576,2,0,P|263:290|217:272,1,100
400,100,69951,2,0,L|360:200,1,100
133,256,70326,2,0,L|178:135,1,100
417,317,70700,6,0,L|254:333,1,150
190,331,71075,2,0,P|215:274|258:256,1,100
267,331,71450,1,0,0:0:0:0:
191,222,71638,1,0,0:0:0:0:
340,285,71825,1,0,0:0:0:0:
140,287,72013,1,0,0:0:0:0:
318,203,72200,6,0,P|393:221|422:281,1,100
453,337,72575,1,0,0:0:0:0:
390,215,72762,2,0,P|374:158|392:106,2,100
476,327,73325,1,0,0:0:0:0:
298,274,73512,1,0,0:0:0:0:
473,153,73700,6,0,P|480:99|437:34,1,120
425,25,74074,1,0,0:0:0:0:
383,113,74262,2,0,P|309:132|225:109,1,160
164,53,74824,1,0,0:0:0:0:
168,175,75012,1,0,0:0:0:0:
110,118,75199,6,0,P|86:172|128:246,1,120
128,248,75574,1,0,0:0:0:0:
168,175,75761,2,0,P|226:142|291:166,1,120
280,178,76136,2,0,P|343:203|411:185,1,120
405,168,76511,1,0,0:0:0:0:
301,60,76699,6,0,L|274:206,1,120.000004577637
170,249,77448,2,0,L|148:131,1,120.000004577637
301,60,78198,6,0,L|274:206,1,120.000004577637
170,249,78573,2,0,L|148:131,1,120.000004577637
211,48,78948,5,0,0:0:0:0:
170,249,79135,1,0,0:0:0:0:
397,126,79322,1,0,0:0:0:0:
397,126,79698,5,4,0:0:0:0:
392,131,79791,1,0,0:0:0:0:
387,136,79885,2,0,L|398:73,1,60.0000022888184
301,83,80072,1,2,0:0:0:0:
306,88,80165,1,0,0:0:0:0:
311,93,80259,2,0,L|300:30,1,60.0000022888184
218,132,80447,5,8,0:0:0:0:
213,137,80540,1,0,0:0:0:0:
208,142,80634,2,0,L|219:79,1,60.0000022888184
129,117,80822,1,2,0:0:0:0:
97,107,80916,1,0,0:0:0:0:
62,114,81010,2,0,L|73:51,1,60.0000022888184
3,177,81197,5,4,0:0:0:0:
32,199,81291,1,0,0:0:0:0:
67,202,81384,1,0,0:0:0:0:
102,192,81478,1,0,0:0:0:0:
130,168,81572,2,0,P|167:159|200:170,1,60.0000022888184,2|0,0:0|0:0,0:0:0:0:
235,247,81759,2,0,P|203:259|152:252,1,60.0000022888184
292,162,81947,5,4,0:0:0:0:
314,189,82041,1,0,0:0:0:0:
323,224,82134,2,0,P|323:260|308:288,1,60.0000022888184,0|0,0:0|0:0,0:0:0:0:
250,357,82322,5,2,0:0:0:0:
218,342,82415,1,0,0:0:0:0:
182,339,82509,1,0,0:0:0:0:
148,350,82603,1,0,0:0:0:0:
120,374,82697,5,8,0:0:0:0:
103,343,82790,1,0,0:0:0:0:
101,306,82884,2,0,P|109:265|98:240,1,60.0000022888184
43,173,83071,5,2,0:0:0:0:
75,155,83165,1,0,0:0:0:0:
112,152,83259,1,0,0:0:0:0:
147,164,83353,1,0,0:0:0:0:
175,186,83446,6,0,L|174:122,1,60.0000022888184,4|0,0:0|0:0,0:0:0:0:
262,252,83634,2,0,L|208:284,1,60.0000022888184
277,144,83821,2,0,L|333:175,1,60.0000022888184,2|0,0:0|0:0,0:0:0:0:
313,281,84009,2,0,L|261:251,1,60.0000022888184
153,171,84196,5,8,0:0:0:0:
141,137,84290,1,0,0:0:0:0:
143,100,84384,1,0,0:0:0:0:
162,69,84477,1,0,0:0:0:0:
193,50,84571,1,2,0:0:0:0:
226,66,84665,1,0,0:0:0:0:
262,65,84758,1,0,0:0:0:0:
297,55,84852,1,0,0:0:0:0:
324,30,84946,6,0,L|391:57,1,60.0000022888184,8|0,0:0|0:0,0:0:0:0:
435,161,85133,2,0,L|380:138,1,60.0000022888184,8|0,0:0|0:0,0:0:0:0:
226,66,85321,6,0,P|211:126|232:183,1,120,2|0,0:0|0:0,0:0:0:0:
344,249,85696,5,4,0:0:0:0:
350,253,85789,1,0,0:0:0:0:
356,257,85883,2,0,L|347:168,1,60.0000022888184
277,314,86071,1,2,0:0:0:0:
271,318,86164,1,0,0:0:0:0:
265,322,86258,2,0,L|272:262,1,60.0000022888184
172,271,86445,5,8,0:0:0:0:
178,275,86538,1,0,0:0:0:0:
184,279,86632,2,0,L|175:190,1,60.0000022888184
94,319,86820,1,2,0:0:0:0:
58,330,86913,1,0,0:0:0:0:
23,315,87008,2,0,L|14:226,1,60.0000022888184
102,147,87195,6,0,L|109:206,1,60.0000022888184,4|0,0:0|0:0,0:0:0:0:
179,151,87383,2,0,L|228:115,1,60.0000022888184
146,81,87570,2,0,L|91:57,1,60.0000022888184,2|0,0:0|0:0,0:0:0:0:
136,220,87757,1,0,0:0:0:0:
177,230,87851,1,0,0:0:0:0:
218,218,87945,6,0,P|281:224|215:267,1,180.000006866455,8|0,0:0|0:0,0:0:0:0:
136,220,88320,5,2,0:0:0:0:
122,186,88414,1,0,0:0:0:0:
129,150,88507,2,0,P|139:112|126:75,1,60.0000022888184
43,80,88695,1,8,0:0:0:0:
57,114,88789,1,0,0:0:0:0:
50,150,88882,2,0,P|40:188|53:225,1,60.0000022888184
103,284,89070,5,2,0:0:0:0:
130,308,89163,1,0,0:0:0:0:
166,316,89257,1,0,0:0:0:0:
199,301,89351,1,0,0:0:0:0:
232,285,89444,1,4,0:0:0:0:
268,288,89538,1,0,0:0:0:0:
299,308,89632,2,0,P|328:317|361:310,1,60.0000022888184
365,191,89819,2,0,P|343:211|333:243,1,60.0000022888184,2|0,0:0|0:0,0:0:0:0:
439,308,90007,2,0,P|433:278|410:253,1,60.0000022888184
299,144,90194,5,4,0:0:0:0:
260,129,90288,1,0,0:0:0:0:
221,143,90382,2,0,P|210:178|221:222,1,60.0000022888184
292,252,90569,1,2,0:0:0:0:
331,267,90663,1,0,0:0:0:0:
370,253,90757,2,0,P|381:218|370:174,1,60.0000022888184
348,92,90944,5,8,0:0:0:0:
310,74,91038,1,0,0:0:0:0:
269,70,91131,1,2,0:0:0:0:
229,81,91225,1,0,0:0:0:0:
191,97,91319,1,8,0:0:0:0:
150,103,91413,1,0,0:0:0:0:
112,87,91506,1,2,0:0:0:0:
93,49,91600,1,0,0:0:0:0:
116,13,91694,6,0,P|158:3|202:18,1,80,8|0,0:0|0:0,0:0:0:0:
252,66,91975,2,0,P|242:104|253:142,1,80,8|0,0:0|0:0,0:0:0:0:
317,186,92256,2,0,P|359:176|403:191,1,80,8|0,0:0|0:0,0:0:0:0:
418,327,92631,6,0,L|356:328,1,60.0000022888184,8|0,0:0|0:0,0:0:0:0:
394,185,92818,2,0,L|426:238,1,60.0000022888184,8|0,0:0|0:0,0:0:0:0:
289,278,93006,2,0,L|320:223,1,60.0000022888184,8|0,0:0|0:0,0:0:0:0:
404,99,93193,5,14,0:0:0:0:
256,192,93287,12,0,97973,0:0:0:0:
