osu file format v14

[General]
AudioFilename: audio.mp3
AudioLeadIn: 0
PreviewTime: 51212
Countdown: 1
SampleSet: Soft
StackLeniency: 0.3
Mode: 0
LetterboxInBreaks: 0
WidescreenStoryboard: 1

[Editor]
Bookmarks: 12969,24965,27214,39210,52706,64702,73699,79697,91693,93193
DistanceSpacing: 1
BeatDivisor: 4
GridSize: 4
TimelineZoom: 1

[Metadata]
Title:Senpuu no Mai [Ten]
TitleUnicode:旋風ノ舞【天】
Artist:Ayane
ArtistUnicode:彩音
Creator:Antares-
Version:Aso's Extra
Source:太鼓の達人
Tags:asonate fursum taiko no tatsujin tatsh zeami 世阿弥 original soundtrack full combo!
BeatmapID:1343173
BeatmapSetID:629057

[Difficulty]
HPDrainRate:4
CircleSize:4
OverallDifficulty:8
ApproachRate:9
SliderMultiplier:1.8
SliderTickRate:1

[Events]
//Background and Video events
0,0,"tapeta.jpg",0,0
//Break Periods
//Storyboard Layer 0 (Background)
//Storyboard Layer 1 (Fail)
//Storyboard Layer 2 (Pass)
//Storyboard Layer 3 (Foreground)
//Storyboard Sound Samples

[TimingPoints]
223,374.882849109653,4,2,1,40,1,0
223,-200,4,2,1,40,0,0
12969,374.882849109653,4,2,1,40,1,0
14093,-66.6666666666667,4,2,1,40,0,0
15968,-100,4,2,1,40,0,0
16717,-66.6666666666667,4,2,1,40,0,0
18592,-50,4,2,1,40,0,0
18779,-200,4,2,1,40,0,0
18967,-100,4,2,1,40,0,0
20091,-66.6666666666667,4,2,1,40,0,0
20466,-100,4,2,1,40,0,0
21591,-66.6666666666667,4,2,1,40,0,0
24965,-50,4,2,1,40,0,0
25058,-50,4,2,1,5,0,0
25246,-50,4,2,1,40,0,0
25340,-50,4,2,1,5,0,0
25527,-100,4,2,1,40,0,0
25808,-100,4,2,1,5,0,0
25902,-50,4,2,1,40,0,0
25996,-50,4,2,1,5,0,0
26089,-50,4,2,1,40,0,0
26183,-50,4,2,1,5,0,0
26277,-50,4,2,1,40,0,0
26371,-50,4,2,1,5,0,0
27214,374.882849109653,4,2,1,40,1,0
39210,-200,4,2,1,40,0,0
39678,-200,4,2,1,5,0,0
39772,-200,4,2,1,40,0,0
40616,-200,4,2,1,5,0,0
40709,-200,4,2,1,40,0,0
41178,-200,4,2,1,5,0,0
41272,-200,4,2,1,40,0,0
41553,-200,4,2,1,5,0,0
41646,-200,4,2,1,40,0,0
42677,-200,4,2,1,5,0,0
42771,-200,4,2,1,40,0,0
43615,-200,4,2,1,5,0,0
43708,-200,4,2,1,40,0,0
44177,-200,4,2,1,5,0,0
44271,-200,4,2,1,40,0,0
51206,-133.333333333333,4,2,1,40,0,0
51862,-133.333333333333,4,2,1,5,0,0
51956,-100,4,2,1,40,0,0
53924,-100,4,2,1,5,0,0
54018,-100,4,2,1,40,0,0
54111,-100,4,2,1,5,0,0
54205,-100,4,2,1,40,0,0
56923,-100,4,2,1,5,0,0
57017,-100,4,2,1,40,0,0
57110,-100,4,2,1,5,0,0
57204,-100,4,2,1,40,0,0
58329,-66.6666666666667,4,2,1,40,0,0
58422,-66.6666666666667,4,2,1,5,0,0
58516,-66.6666666666667,4,2,1,40,0,0
58704,-100,4,2,1,40,0,0
58985,-100,4,2,1,5,0,0
59079,-100,4,2,1,40,0,0
59922,-100,4,2,1,5,0,0
60016,-100,4,2,1,40,0,0
60109,-100,4,2,1,5,0,0
60203,-100,4,2,1,40,0,0
61328,-66.6666666666667,4,2,1,40,0,0
61422,-66.6666666666667,4,2,1,5,0,0
61515,-66.6666666666667,4,2,1,40,0,0
61703,-100,4,2,1,40,0,0
61984,-100,4,2,1,5,0,0
62078,-100,4,2,1,40,0,0
62921,-100,4,2,1,5,0,0
63015,-100,4,2,1,40,0,0
63109,-100,4,2,1,5,0,0
63202,-100,4,2,1,40,0,0
64421,-100,4,2,1,5,0,0
64514,-100,4,2,1,40,0,0
64608,-100,4,2,1,5,0,0
64702,-100,4,2,1,40,0,0
64983,-100,4,2,1,5,0,0
65077,-100,4,2,1,40,0,0
67420,-100,4,2,1,5,0,0
67514,-100,4,2,1,40,0,0
67607,-100,4,2,1,5,0,0
67701,-100,4,2,1,40,0,0
68919,-100,4,2,1,5,0,0
69013,-100,4,2,1,40,0,0
69107,-100,4,2,1,5,0,0
69201,-100,4,2,1,40,0,0
69482,-100,4,2,1,5,0,0
69576,-100,4,2,1,40,0,0
69856,-100,4,2,1,5,0,0
69950,-100,4,2,1,40,0,0
70231,-100,4,2,1,5,0,0
70325,-100,4,2,1,40,0,0
70419,-100,4,2,1,5,0,0
70513,-100,4,2,1,40,0,0
70606,-100,4,2,1,5,0,0
70700,-100,4,2,1,40,0,0
70981,-100,4,2,1,5,0,0
71075,-100,4,2,1,40,0,0
71918,-100,4,2,1,5,0,0
72012,-100,4,2,1,40,0,0
72106,-100,4,2,1,5,0,0
72200,-100,4,2,1,40,0,0
73418,-100,4,2,1,5,0,0
73512,-100,4,2,1,40,0,0
73605,-100,4,2,1,5,0,0
73699,-100,4,2,1,40,0,0
80822,-66.6666666666667,4,2,1,40,0,0
82693,-100,4,2,1,40,0,0
83443,-66.6666666666667,4,2,1,40,0,0
85318,-50,4,2,1,40,0,0
85505,-200,4,2,1,40,0,0
85693,-100,4,2,1,40,0,0
86817,-66.6666666666667,4,2,1,40,0,0
87192,-100,4,2,1,40,0,0
88317,-66.6666666666667,4,2,1,40,0,0
91691,-50,4,2,1,40,0,0
91784,-50,4,2,1,5,0,0
91972,-50,4,2,1,40,0,0
92066,-50,4,2,1,5,0,0
92253,-100,4,2,1,40,0,0
92534,-100,4,2,1,5,0,0
92628,-50,4,2,1,40,0,0
92722,-50,4,2,1,5,0,0
92815,-50,4,2,1,40,0,0
92909,-50,4,2,1,5,0,0
93003,-50,4,2,1,40,0,0
93097,-50,4,2,1,5,0,0
93193,-50,4,2,1,40,0,0
93287,-50,4,2,1,5,0,0

[Colours]
Combo1 : 128,0,64
Combo2 : 128,128,192
Combo3 : 128,0,128
Combo4 : 172,172,172

[HitObjects]
83,86,223,5,0,0:0:0:0:
171,69,410,1,0,0:0:0:0:
347,208,597,1,0,0:0:0:0:
397,133,784,1,0,0:0:0:0:
187,215,972,1,0,0:0:0:0:
177,221,1535,5,0,0:0:0:0:
447,58,1722,1,0,0:0:0:0:
110,355,2097,1,0,0:0:0:0:
484,209,2472,1,0,0:0:0:0:
478,275,2566,2,0,P|483:242|484:209,1,67.5
447,58,3222,1,0,0:0:0:0:
456,53,3784,5,0,0:0:0:0:
356,103,3971,1,0,0:0:0:0:
356,103,4065,1,0,0:0:0:0:
356,103,4159,2,0,P|314:102|298:97,1,45
161,52,4534,5,0,0:0:0:0:
216,329,4721,1,0,0:0:0:0:
392,208,5096,2,0,P|438:212|486:245,1,90
407,305,5658,5,0,0:0:0:0:
456,53,5846,1,0,0:0:0:0:
395,311,6033,1,0,0:0:0:0:
467,46,6221,5,0,0:0:0:0:
364,90,6408,1,0,0:0:0:0:
219,263,6596,1,0,0:0:0:0:
114,221,6783,1,0,0:0:0:0:
339,216,6970,1,0,0:0:0:0:
349,212,7533,5,0,0:0:0:0:
58,333,7720,1,0,0:0:0:0:
475,233,8095,1,0,0:0:0:0:
117,127,8470,1,0,0:0:0:0:
131,191,8564,2,0,P|117:154|118:120,1,67.5
225,278,9220,1,0,0:0:0:0:
215,285,9595,5,0,0:0:0:0:
319,244,9782,2,0,P|358:243|379:252,1,45
455,180,10157,2,0,P|489:198|502:216,1,45
205,292,10532,5,0,0:0:0:0:
421,50,10719,1,0,0:0:0:0:
54,230,11094,1,0,0:0:0:0:
455,180,11469,1,0,0:0:0:0:
256,192,11563,12,0,12219,0:0:0:0:
205,109,12406,5,0,0:0:0:0:
206,123,12468,1,0,0:0:0:0:
208,138,12530,1,0,0:0:0:0:
210,153,12593,1,0,0:0:0:0:
227,166,12969,5,0,0:0:0:0:
189,142,13062,1,0,0:0:0:0:
145,140,13156,1,0,0:0:0:0:
105,161,13250,1,0,0:0:0:0:
82,198,13343,1,0,0:0:0:0:
81,243,13437,1,0,0:0:0:0:
102,282,13531,1,0,0:0:0:0:
141,304,13625,1,0,0:0:0:0:
185,305,13718,1,0,0:0:0:0:
230,303,13811,1,0,0:0:0:0:
274,311,13905,1,0,0:0:0:0:
316,329,13999,1,0,0:0:0:0:
352,355,14093,2,0,L|342:258,1,67.5000025749208
473,113,14281,2,0,L|462:210,1,67.5000025749208
242,66,14468,5,0,0:0:0:0:
181,39,14561,1,0,0:0:0:0:
115,45,14655,1,0,0:0:0:0:
59,81,14749,1,0,0:0:0:0:
28,140,14843,1,0,0:0:0:0:
28,207,14936,1,0,0:0:0:0:
61,265,15030,1,0,0:0:0:0:
118,301,15124,1,0,0:0:0:0:
185,305,15218,2,0,P|259:319|277:332,1,67.5000025749208
381,311,15405,1,0,0:0:0:0:
448,296,15499,1,0,0:0:0:0:
401,246,15593,2,0,P|384:205|382:169,1,67.5000025749208
227,131,15780,2,0,P|232:86|249:54,1,67.5000025749208
427,39,15968,5,0,0:0:0:0:
464,63,16061,1,0,0:0:0:0:
489,101,16155,1,0,0:0:0:0:
494,145,16249,1,0,0:0:0:0:
481,187,16342,1,0,0:0:0:0:
437,199,16435,1,0,0:0:0:0:
402,226,16529,1,0,0:0:0:0:
382,266,16623,1,0,0:0:0:0:
381,311,16717,1,0,0:0:0:0:
336,261,16810,1,0,0:0:0:0:
275,233,16904,1,0,0:0:0:0:
208,230,16998,1,0,0:0:0:0:
145,255,17092,2,0,P|74:255|43:241,1,67.5000025749208
248,159,17280,2,0,P|283:221|287:254,1,67.5000025749208
113,119,17467,5,0,0:0:0:0:
147,61,17560,1,0,0:0:0:0:
204,26,17654,1,0,0:0:0:0:
271,21,17748,1,0,0:0:0:0:
332,46,17842,1,0,0:0:0:0:
309,109,17935,1,0,0:0:0:0:
312,176,18029,1,0,0:0:0:0:
339,237,18123,1,0,0:0:0:0:
388,283,18218,1,0,0:0:0:0:
323,302,18311,1,0,0:0:0:0:
257,291,18405,1,0,0:0:0:0:
203,252,18499,1,0,0:0:0:0:
174,190,18592,6,0,B|110:199|110:199|144:222,1,90
388,283,18779,6,0,L|391:247,1,22.5
324,57,18967,5,0,0:0:0:0:
327,101,19060,1,0,0:0:0:0:
331,146,19154,1,0,0:0:0:0:
335,191,19248,1,0,0:0:0:0:
338,236,19342,1,0,0:0:0:0:
300,212,19435,1,0,0:0:0:0:
256,207,19529,1,0,0:0:0:0:
214,221,19623,1,0,0:0:0:0:
181,251,19716,1,0,0:0:0:0:
143,274,19810,1,0,0:0:0:0:
98,280,19904,1,0,0:0:0:0:
56,266,19998,1,0,0:0:0:0:
23,235,20091,2,0,P|37:195|39:155,1,67.5000025749208
162,38,20279,2,0,P|176:78|178:118,1,67.5000025749208
256,207,20466,5,0,0:0:0:0:
294,230,20559,1,0,0:0:0:0:
338,231,20653,1,0,0:0:0:0:
377,209,20747,1,0,0:0:0:0:
400,172,20840,1,0,0:0:0:0:
402,127,20934,1,0,0:0:0:0:
381,88,21028,1,0,0:0:0:0:
343,64,21122,1,0,0:0:0:0:
298,63,21216,1,0,0:0:0:0:
319,102,21309,1,0,0:0:0:0:
318,147,21403,1,0,0:0:0:0:
294,185,21497,1,0,0:0:0:0:
256,207,21591,2,0,P|208:256|191:293,1,67.5000025749208
91,117,21778,2,0,P|157:134|198:130,1,67.5000025749208
319,322,21966,5,0,0:0:0:0:
375,286,22059,1,0,0:0:0:0:
409,229,22153,1,0,0:0:0:0:
411,162,22247,1,0,0:0:0:0:
380,102,22340,1,0,0:0:0:0:
325,64,22434,1,0,0:0:0:0:
259,57,22528,1,0,0:0:0:0:
197,82,22622,1,0,0:0:0:0:
155,133,22715,1,0,0:0:0:0:
180,195,22808,1,0,0:0:0:0:
167,260,22902,1,0,0:0:0:0:
121,308,22996,1,0,0:0:0:0:
56,323,23090,2,0,L|68:240,1,67.5000025749208
268,124,23278,2,0,L|256:40,1,67.5000025749208
191,304,23465,5,0,0:0:0:0:
234,351,23558,1,0,0:0:0:0:
295,333,23652,1,0,0:0:0:0:
306,270,23746,1,0,0:0:0:0:
254,233,23839,1,0,0:0:0:0:
226,173,23934,1,0,0:0:0:0:
268,124,24028,1,0,0:0:0:0:
329,138,24122,1,0,0:0:0:0:
344,202,24215,1,0,0:0:0:0:
370,143,24308,1,0,0:0:0:0:
434,139,24402,1,0,0:0:0:0:
467,195,24496,1,0,0:0:0:0:
433,249,24590,2,0,P|421:325|425:355,1,67.5000025749208
91,315,24777,2,0,P|88:282|78:249,1,67.5000025749208
483,53,24965,6,0,P|440:71|383:76,1,90
29,53,25246,2,0,P|72:71|129:76,1,90
256,308,25527,2,0,L|256:163,1,135
432,341,25902,6,0,P|451:300|461:257,1,90
50,256,26089,2,0,P|60:300|79:341,1,90
256,173,26277,2,0,L|256:83,1,90
435,320,27214,6,0,P|391:316|346:283,1,90
429,132,27588,2,0,L|423:222,1,90
253,146,27963,2,0,L|246:56,1,90
186,254,28338,1,0,0:0:0:0:
186,254,28432,1,0,0:0:0:0:
186,254,28526,1,0,0:0:0:0:
104,148,28713,6,0,P|64:124|0:120,1,90
282,136,29088,2,0,P|270:90|228:42,1,90
416,253,29463,1,0,0:0:0:0:
416,253,29650,1,0,0:0:0:0:
386,56,29838,1,0,0:0:0:0:
471,349,30025,1,0,0:0:0:0:
300,260,30213,6,0,P|256:248|212:260,1,90
386,56,30587,2,0,P|374:132|380:161,1,90
136,144,30962,2,0,P|137:99|126:56,1,90
256,183,31337,1,0,0:0:0:0:
104,288,31525,1,0,0:0:0:0:
208,304,31712,6,0,L|108:296,1,90
345,175,32087,2,0,L|245:183,1,90
448,288,32462,1,0,0:0:0:0:
448,288,32649,1,0,0:0:0:0:
293,101,32837,1,0,0:0:0:0:
400,352,33024,1,0,0:0:0:0:
245,165,33212,6,0,P|188:152|124:164,1,90
279,288,33587,2,0,P|336:275|400:287,1,90
472,176,33961,1,0,0:0:0:0:
472,176,34055,1,0,0:0:0:0:
472,176,34149,1,0,0:0:0:0:
333,136,34336,1,0,0:0:0:0:
333,136,34430,1,0,0:0:0:0:
333,136,34524,1,0,0:0:0:0:
367,277,34711,6,0,P|359:333|327:373,1,90
180,283,35086,2,0,L|270:291,1,90
427,179,35461,2,0,L|471:175,2,45
252,100,35836,1,0,0:0:0:0:
445,370,36023,1,0,0:0:0:0:
270,291,36211,6,0,P|245:236|244:200,1,90
115,219,36586,2,0,P|120:158|137:127,1,90
427,179,36960,2,0,P|389:203|345:209,1,90
469,53,37335,1,0,0:0:0:0:
365,321,37523,1,0,0:0:0:0:
167,128,37710,6,0,B|151:171|196:212|196:212|165:209|141:223|131:245|135:267|151:283|173:288|194:283|208:270|214:250|204:234|188:231,1,270
91,129,38460,2,0,P|92:179|100:201,1,45
459,342,38647,2,0,P|467:321|471:298,1,45
40,298,38835,2,0,P|44:321|52:342,1,45
421,173,39022,2,0,P|423:151|420:128,1,45
197,235,39210,6,0,L|320:245,1,112.5
267,164,39772,1,0,0:0:0:0:
368,350,39960,2,0,B|349:326|361:292|361:292|379:271|384:246|380:217|365:204,1,157.5
434,313,40709,2,0,B|449:285|451:256|451:256|464:238|464:238|447:210,1,112.5
434,122,41272,1,0,0:0:0:0:
428,100,41365,1,0,0:0:0:0:
365,204,41459,2,0,L|330:208,1,22.5
194,167,41646,1,0,0:0:0:0:
269,307,41834,1,0,0:0:0:0:
273,328,41927,1,0,0:0:0:0:
271,351,42021,1,0,0:0:0:0:
87,77,42209,6,0,B|61:161|61:161|97:142,1,112.5
56,233,42771,1,0,0:0:0:0:
158,118,42959,2,0,B|167:144|167:165|158:190|137:210|137:210|156:235|150:268,1,157.5
221,220,43708,2,0,P|225:269|199:332,1,112.5
291,303,44271,1,0,0:0:0:0:
313,308,44364,1,0,0:0:0:0:
379,225,44458,2,0,P|377:245|377:260,1,22.5
313,308,44646,2,0,P|313:328|315:342,1,22.5
450,185,44833,1,0,0:0:0:0:
436,166,44926,1,0,0:0:0:0:
418,153,45020,1,0,0:0:0:0:
398,145,45114,1,0,0:0:0:0:
304,174,45208,6,0,P|264:171|246:162,1,45
180,258,45583,2,0,P|142:244|127:231,1,45
264,124,45958,2,0,L|257:188,1,45
313,330,46333,1,0,0:0:0:0:
133,349,46520,1,0,0:0:0:0:
133,349,46614,1,0,0:0:0:0:
133,349,46707,6,0,P|138:314|138:302,1,45
264,213,47082,2,0,P|259:178|259:166,1,45
194,56,47457,1,0,0:0:0:0:
190,45,47832,5,0,0:0:0:0:
412,89,48019,1,0,0:0:0:0:
264,213,48207,2,0,P|259:248|259:260,1,45
422,142,48582,2,0,L|418:90,1,45
375,260,48957,1,0,0:0:0:0:
375,260,49144,1,0,0:0:0:0:
303,86,49332,1,0,0:0:0:0:
464,302,49519,1,0,0:0:0:0:
464,302,49613,1,0,0:0:0:0:
464,302,49706,1,0,0:0:0:0:
474,294,50081,5,0,0:0:0:0:
235,263,50269,1,0,0:0:0:0:
385,313,50456,5,0,0:0:0:0:
146,344,50644,1,0,0:0:0:0:
370,108,50831,5,0,0:0:0:0:
416,172,50925,1,0,0:0:0:0:
370,236,51018,1,0,0:0:0:0:
295,211,51112,1,0,0:0:0:0:
295,132,51206,6,0,B|319:171|295:212|295:212|302:259|302:259|255:297|263:363,1,236.250009012223
223,233,51956,6,0,B|188:277|186:338|186:338|171:287|125:264|125:264|123:231|123:231|77:220|63:154,1,315
149,153,52706,6,0,L|248:140,1,90
44,44,53080,2,0,L|143:57,1,90
238,141,53455,2,0,L|337:154,1,90
448,112,53830,2,0,L|440:192,1,45
404,296,54018,2,0,L|412:376,1,45
460,104,54205,6,0,P|440:64|432:8,1,90
180,240,54580,2,0,P|188:197|185:152,1,90
331,240,54955,2,0,P|323:197|326:152,1,90
52,103,55330,2,0,P|72:63|80:19,1,90
256,324,55705,6,0,B|188:316|188:316|160:296|160:296|56:284,1,180
240,148,56267,2,0,P|236:204|212:240,2,90
70,244,56829,2,0,P|90:296|98:304,1,45
283,156,57017,2,0,P|255:148|227:148,1,45
396,336,57204,6,0,P|416:280|416:212,1,90
272,66,57579,2,0,L|284:170,1,90
208,321,57954,2,0,L|218:231,1,90
32,328,58329,6,0,P|64:348|112:344,1,67.5000025749208
304,272,58516,1,0,0:0:0:0:
328,280,58610,1,0,0:0:0:0:
392,332,58704,6,0,P|408:260|356:204,1,135
444,264,59079,2,0,L|452:160,1,90
275,65,59453,2,0,L|281:154,1,90
440,48,59828,2,0,L|388:44,1,45
264,72,60016,2,0,L|212:68,1,45
88,40,60203,5,0,0:0:0:0:
108,212,60391,1,0,0:0:0:0:
73,25,60578,1,0,0:0:0:0:
122,226,60766,1,0,0:0:0:0:
40,120,60953,1,0,0:0:0:0:
40,120,61047,1,0,0:0:0:0:
40,120,61140,1,0,0:0:0:0:
200,184,61328,2,0,P|228:176|264:144,1,67.5000025749208
368,228,61515,1,0,0:0:0:0:
388,224,61609,1,0,0:0:0:0:
444,152,61703,6,0,P|396:200|392:284,1,135
368,228,62078,2,0,P|312:240|248:208,1,90
152,300,62452,1,0,0:0:0:0:
32,168,62640,1,0,0:0:0:0:
68,356,62827,2,0,L|76:296,1,45
172,200,63015,2,0,L|172:139,1,45
48,48,63202,6,0,P|88:125|171:154,1,180
320,48,63765,2,0,P|296:96|292:140,1,90
448,64,64139,1,0,0:0:0:0:
368,216,64327,2,0,P|364:268|376:300,1,45
144,216,64514,2,0,P|148:268|136:300,1,45
256,72,64702,6,0,P|197:98|130:65,1,135
172,154,65077,2,0,L|82:160,1,90
229,224,65452,1,0,0:0:0:0:
318,230,65639,2,0,L|229:224,1,90
91,306,66013,2,0,L|181:300,1,90
318,230,66389,2,0,P|360:251|429:248,1,90
314,69,66764,2,0,P|270:113|256:174,1,90
445,122,67139,1,0,0:0:0:0:
318,230,67326,2,0,L|259:225,1,45
149,141,67513,2,0,L|90:146,1,45
194,307,67701,6,0,P|275:306|273:226,1,180
101,279,68263,2,0,P|112:362|126:380,2,90
266,345,68825,2,0,L|321:339,1,45
427,241,69013,2,0,L|471:245,1,45
325,354,69200,6,0,P|296:305|323:225,1,135
251,270,69575,2,0,B|250:250|233:229|233:229|171:237|138:177,1,135
176,270,69950,2,0,P|161:318|151:266,1,135
218,142,70325,2,0,P|200:126|166:113,1,45
100,273,70512,2,0,L|160:267,1,45
315,233,70700,6,0,P|383:262|454:248,1,135
408,184,71075,2,0,L|428:282,1,90
327,142,71450,1,0,0:0:0:0:
490,142,71637,1,0,0:0:0:0:
315,233,71825,2,0,P|272:229|257:219,1,45
183,319,72012,2,0,P|142:304|130:290,1,45
179,169,72199,6,0,B|173:138|203:121|203:121|218:152|202:185|202:185|185:215|193:258,1,180
107,119,72762,2,0,P|107:196|178:168,1,180
303,57,73324,2,0,L|258:53,1,45
408,163,73512,2,0,L|464:159,1,45
339,263,73699,6,0,B|314:225|264:216|224:239|224:239|218:297|261:321|294:329|294:329|221:368|161:309|161:309|136:356|89:354|51:314|67:263|106:247|128:251|157:265|159:298,1,630
182,129,75199,6,0,B|197:157|180:184|163:199|122:206|81:171|92:117|131:90|177:117|177:117|259:152|317:95|317:95|331:139|331:139|375:48|450:41|528:74,1,630
428,296,76698,6,0,P|371:335|395:218,1,270
39,298,77448,2,0,B|174:303|174:303|209:330|209:330|300:333,1,270
116,227,78198,6,0,L|240:231,1,90
389,329,78572,2,0,L|264:333,1,90
455,169,78947,1,0,0:0:0:0:
464,266,79135,1,0,0:0:0:0:
375,225,79322,1,0,0:0:0:0:
375,225,79416,2,0,P|353:233|325:236,1,45
238,302,79697,5,0,0:0:0:0:
205,271,79790,1,0,0:0:0:0:
164,252,79884,1,0,0:0:0:0:
120,248,79978,1,0,0:0:0:0:
76,260,80072,1,0,0:0:0:0:
48,225,80165,1,0,0:0:0:0:
46,181,80259,1,0,0:0:0:0:
69,143,80353,1,0,0:0:0:0:
110,126,80446,1,0,0:0:0:0:
153,136,80540,1,0,0:0:0:0:
182,169,80634,1,0,0:0:0:0:
187,213,80728,1,0,0:0:0:0:
164,252,80822,2,0,P|237:235|282:244,1,67.5000025749208
358,110,81009,2,0,P|429:130|463:161,1,67.5000025749208
402,333,81197,5,0,0:0:0:0:
338,335,81290,1,0,0:0:0:0:
309,278,81384,1,0,0:0:0:0:
348,228,81478,1,0,0:0:0:0:
410,242,81572,1,0,0:0:0:0:
344,253,81665,1,0,0:0:0:0:
285,223,81759,1,0,0:0:0:0:
256,163,81853,1,0,0:0:0:0:
268,98,81946,1,0,0:0:0:0:
316,53,82040,1,0,0:0:0:0:
382,46,82134,1,0,0:0:0:0:
439,80,82228,1,0,0:0:0:0:
465,141,82321,2,0,L|473:62,1,67.5000025749208
344,253,82509,2,0,L|350:320,1,67.5000025749208
268,98,82696,5,0,0:0:0:0:
228,77,82789,1,0,0:0:0:0:
183,75,82883,1,0,0:0:0:0:
143,93,82977,1,0,0:0:0:0:
141,59,83071,1,0,0:0:0:0:
101,79,83164,1,0,0:0:0:0:
56,81,83258,1,0,0:0:0:0:
16,63,83352,1,0,0:0:0:0:
18,97,83446,1,0,0:0:0:0:
58,150,83539,1,0,0:0:0:0:
76,214,83633,1,0,0:0:0:0:
68,281,83727,1,0,0:0:0:0:
36,339,83821,2,0,P|112:325|138:331,1,67.5000025749208
267,214,84008,2,0,L|199:207,1,67.5000025749208
361,321,84196,5,0,0:0:0:0:
420,293,84289,1,0,0:0:0:0:
445,232,84383,1,0,0:0:0:0:
423,170,84477,1,0,0:0:0:0:
364,140,84570,1,0,0:0:0:0:
301,157,84664,1,0,0:0:0:0:
266,213,84758,1,0,0:0:0:0:
208,245,84851,1,0,0:0:0:0:
144,228,84945,1,0,0:0:0:0:
109,173,85038,1,0,0:0:0:0:
120,108,85132,1,0,0:0:0:0:
173,68,85226,1,0,0:0:0:0:
239,75,85320,6,0,P|293:75|348:31,1,90
467,239,85508,6,0,L|470:197,1,22.5
364,305,85695,5,0,0:0:0:0:
325,327,85788,1,0,0:0:0:0:
281,336,85882,1,0,0:0:0:0:
237,331,85976,1,0,0:0:0:0:
196,311,86070,1,0,0:0:0:0:
161,338,86163,1,0,0:0:0:0:
117,346,86257,1,0,0:0:0:0:
75,330,86351,1,0,0:0:0:0:
46,297,86444,1,0,0:0:0:0:
37,253,86538,1,0,0:0:0:0:
51,211,86632,1,0,0:0:0:0:
83,180,86726,1,0,0:0:0:0:
126,170,86820,2,0,P|162:165|201:130,1,67.5000025749208
257,287,87007,2,0,P|223:291|195:310,1,67.5000025749208
317,185,87195,5,0,0:0:0:0:
351,157,87288,1,0,0:0:0:0:
395,150,87382,1,0,0:0:0:0:
436,167,87476,1,0,0:0:0:0:
464,202,87569,1,0,0:0:0:0:
469,246,87663,1,0,0:0:0:0:
452,287,87757,1,0,0:0:0:0:
416,314,87851,1,0,0:0:0:0:
372,318,87945,1,0,0:0:0:0:
329,304,88038,1,0,0:0:0:0:
284,298,88132,1,0,0:0:0:0:
240,300,88226,1,0,0:0:0:0:
196,309,88319,2,0,P|212:253|205:210,1,67.5000025749208
63,127,88507,2,0,L|74:209,1,67.5000025749208
224,119,88694,5,0,0:0:0:0:
279,82,88787,1,0,0:0:0:0:
346,73,88881,1,0,0:0:0:0:
409,96,88975,1,0,0:0:0:0:
455,144,89069,1,0,0:0:0:0:
408,191,89162,1,0,0:0:0:0:
395,256,89256,1,0,0:0:0:0:
421,317,89350,1,0,0:0:0:0:
477,352,89443,1,0,0:0:0:0:
451,292,89538,1,0,0:0:0:0:
395,256,89632,1,0,0:0:0:0:
329,259,89726,1,0,0:0:0:0:
277,300,89819,2,0,P|208:318|173:302,1,67.5000025749208
156,148,90006,2,0,P|189:150|218:166,1,67.5000025749208
76,342,90194,5,0,0:0:0:0:
70,274,90287,1,0,0:0:0:0:
64,207,90381,1,0,0:0:0:0:
58,140,90475,1,0,0:0:0:0:
53,72,90568,1,0,0:0:0:0:
100,118,90662,1,0,0:0:0:0:
165,128,90756,1,0,0:0:0:0:
225,98,90850,1,0,0:0:0:0:
255,40,90943,1,0,0:0:0:0:
286,98,91036,1,0,0:0:0:0:
346,128,91130,1,0,0:0:0:0:
411,118,91224,1,0,0:0:0:0:
459,72,91318,2,0,L|449:199,1,67.5000025749208
287,247,91506,2,0,L|282:180,1,67.5000025749208
454,337,91693,6,0,P|386:309|318:311,1,90
74,142,91975,2,0,P|117:132|157:112,1,90
370,307,92256,2,0,B|320:321|320:321|291:315|291:315|211:336,1,135
326,146,92631,6,0,L|317:236,1,90
74,142,92818,2,0,L|64:52,1,90
239,328,93005,2,0,B|207:336|207:336|189:333|189:333|138:346,1,90
398,68,93193,5,0,0:0:0:0:
256,192,93287,12,0,97973,0:0:0:0:
