osu file format v14

[General]
AudioFilename: audio.mp3
AudioLeadIn: 0
PreviewTime: 118
Countdown: 1
SampleSet: Soft
StackLeniency: 0.3
Mode: 0
LetterboxInBreaks: 0
WidescreenStoryboard: 1

[Editor]
Bookmarks: 12968,24964,27213,39212,51206,61702,73699,79697,93192
DistanceSpacing: 0.9
BeatDivisor: 6
GridSize: 4
TimelineZoom: 1.9

[Metadata]
Title:Senpuu no Mai [Ten]
TitleUnicode:旋風ノ舞【天】
Artist:Ayane
ArtistUnicode:彩音
Creator:Naotoshi
Version:Kyuukai's Advanced
Source:太鼓の達人
Tags:taiko no tatsujin tatsh 世阿弥 zeami kin kyuukai yaleufeu
BeatmapID:1335717
BeatmapSetID:628368

[Difficulty]
HPDrainRate:4
CircleSize:3.5
OverallDifficulty:5
ApproachRate:6
SliderMultiplier:1.2
SliderTickRate:1

[Events]
//Background and Video events
0,0,"anime-girl-spring-blossoms-1920x1200.jpg",0,0
//Break Periods
//Storyboard Layer 0 (Background)
//Storyboard Layer 1 (Fail)
//Storyboard Layer 2 (Pass)
//Storyboard Layer 3 (Foreground)
//Storyboard Sound Samples

[TimingPoints]
223,374.882849109653,4,2,4,30,1,0
10719,374.882849109653,6,2,4,50,1,0
12968,374.882849109653,4,1,1,50,1,1
12968,-100,6,1,1,50,0,1
24964,374.882849109653,6,2,1,50,1,1
24964,-100,6,2,1,50,0,1
26276,-100,6,2,1,50,0,0
27213,374.882849109653,4,2,1,40,1,0
27213,-100,6,2,1,40,0,0
38646,-100,6,3,0,45,0,0
38834,-100,6,3,0,50,0,0
39021,-100,6,3,0,55,0,0
39209,-100,6,3,1,40,0,0
44551,-100,6,3,0,40,0,0
45207,-100,6,1,1,50,0,0
52705,-100,6,2,1,55,0,0
79696,-100,6,1,1,50,0,1
91692,-100,6,2,1,50,0,1
92816,-100,6,3,0,50,0,1
93191,-100,6,3,1,50,0,1
93286,-100,6,2,1,50,0,0

[Colours]
Combo1 : 249,192,155
Combo2 : 247,168,242
Combo3 : 29,131,180
Combo4 : 122,123,154

[HitObjects]
120,56,223,6,0,L|61:67,2,60,4|0|0,3:1|0:0|0:0,0:0:0:0:
196,44,785,1,0,0:0:0:0:
272,32,972,2,0,L|389:54,1,120,0|0,0:0|0:0,0:0:0:0:
468,68,1535,1,0,3:0:0:0:
416,128,1722,2,0,P|404:188|416:244,1,120,4|4,3:1|3:1,0:0:0:0:
316,364,2472,2,0,P|256:352|200:364,1,120,0|0,0:0|0:0,0:0:0:0:
96,248,3222,6,0,P|108:189|96:131,1,120,4|0,3:2|0:0,0:0:0:0:
60,64,3784,1,0,0:0:0:0:
136,64,3971,2,0,P|192:52|272:72,1,120,0|0,0:0|0:0,0:0:0:0:
304,124,4534,1,2,0:0:0:0:
362,174,4721,2,0,P|380:118|354:66,1,120,4|4,3:1|3:1,0:0:0:0:
184,227,5658,2,0,P|140:223|114:232,2,60,4|4|0,3:2|3:2|3:0,0:0:0:0:
156,299,6221,6,0,L|168:363,1,60,4|0,3:1|0:0,0:0:0:0:
240,331,6596,2,0,L|251:272,1,60,0|0,0:0|0:0,0:0:0:0:
304,216,6970,2,0,P|364:200|440:228,1,120
447,286,7533,1,0,3:0:0:0:
415,357,7720,2,0,P|355:373|279:345,1,120,4|6,3:1|0:0,0:0:0:0:
155,298,8470,1,0,0:0:0:0:
86,159,8845,1,0,0:0:0:0:
196,52,9220,6,0,P|253:31|319:64,1,120,4|0,3:2|0:0,0:0:0:0:
307,129,9782,2,0,P|250:150|184:117,1,120,0|0,0:0|0:0,0:0:0:0:
68,40,10532,1,0,3:0:0:0:
24,104,10719,2,0,P|36:168|28:232,1,120,4|4,3:1|3:1,0:0:0:0:
148,328,11468,2,0,P|136:264|144:200,1,120,4|0,3:2|0:0,0:0:0:0:
340,332,12405,1,8,0:3:0:0:
340,332,12593,1,4,0:2:0:0:
444,216,12968,6,0,L|436:72,1,120,2|10,0:0|0:0,0:0:0:0:
400,28,13530,1,0,0:3:0:0:
348,84,13717,2,0,L|268:76,1,60,2|0,0:0|0:3,0:0:0:0:
228,28,14092,2,0,L|148:36,1,60,10|10,0:0|0:0,0:0:0:0:
108,84,14467,2,0,L|114:203,1,120,2|10,0:0|0:0,0:0:0:0:
92,280,15029,1,0,0:0:0:0:
92,280,15217,2,0,P|120:284|160:268,1,60,2|0,0:0|0:0,0:0:0:0:
212,228,15592,2,0,P|240:219|269:222,1,60,10|10,0:0|0:0,0:0:0:0:
320,284,15967,6,0,P|348:232|328:168,1,120,6|10,0:0|0:0,0:0:0:0:
292,112,16529,1,0,0:0:0:0:
240,56,16716,2,0,P|208:52|172:60,1,60,2|0,0:0|0:0,0:0:0:0:
144,124,17091,2,0,P|114:128|84:124,1,60,8|10,0:0|0:0,0:0:0:0:
12,96,17466,2,0,L|24:16,2,60,2|0|10,0:0|0:0|0:0,0:0:0:0:
12,176,18028,1,0,0:0:0:0:
12,176,18216,2,0,L|20:235,1,60,2|0,0:0|0:0,0:0:0:0:
40,312,18591,2,0,L|48:371,1,60,6|6,0:1|0:1,0:0:0:0:
124,348,18966,6,0,P|184:336|248:348,1,120,2|10,0:0|0:0,0:0:0:0:
316,372,19528,1,0,0:0:0:0:
392,348,19715,2,0,L|480:340,1,60,10|0,0:0|0:0,0:0:0:0:
452,264,20090,2,0,L|392:258,1,60,10|10,0:0|0:0,0:0:0:0:
316,260,20465,2,0,L|320:112,1,120,2|10,0:0|0:0,0:0:0:0:
274,75,21027,1,0,0:0:0:0:
274,75,21121,1,0,0:0:0:0:
274,75,21215,2,0,P|227:87|207:101,1,60,10|0,0:0|0:0,0:0:0:0:
168,152,21590,2,0,P|124:156|88:148,1,60,10|10,0:0|0:0,0:0:0:0:
56,96,21965,6,0,P|32:160|56:212,1,120,2|10,0:0|0:0,0:0:0:0:
96,268,22527,1,0,0:0:0:0:
152,320,22714,2,0,L|240:324,1,60,10|0,0:0|0:0,0:0:0:0:
268,376,23089,2,0,L|327:373,1,60,10|10,0:0|0:0,0:0:0:0:
336,296,23464,2,0,P|360:236|420:212,1,120,2|10,0:0|0:0,0:0:0:0:
484,200,24027,1,0,0:0:0:0:
468,124,24214,1,10,0:0:0:0:
468,124,24308,1,0,0:0:0:0:
468,124,24401,1,8,0:0:0:0:
392,82,24589,2,0,L|400:6,1,60,10|10,0:0|0:0,0:0:0:0:
320,28,24964,6,0,B|277:17|277:17|215:28,2,90,6|4|4,1:2|1:2|1:2,0:0:0:0:
268,176,25901,1,4,1:2:0:0:
268,176,26088,1,4,1:2:0:0:
268,176,26276,1,4,1:2:0:0:
68,304,27213,6,0,P|124:288|196:308,1,120,6|2,0:0|0:0,0:0:0:0:
260,320,27775,1,0,0:0:0:0:
312,264,27962,2,0,L|309:204,1,60,2|0,0:0|0:0,0:0:0:0:
232,184,28337,2,0,L|235:244,1,60,2|0,0:0|0:0,0:0:0:0:
156,232,28712,2,0,L|148:112,1,120,2|0,0:0|0:0,0:0:0:0:
300,80,29462,2,0,L|424:72,1,120,2|2,0:0|0:0,0:0:0:0:
488,119,30024,1,2,0:0:0:0:
488,119,30212,6,0,B|508:183|508:183|496:259,1,120,2|2,0:0|0:0,0:0:0:0:
444,288,30774,2,0,P|376:256|332:264,1,120
300,332,31336,2,0,L|240:337,1,60,2|0,0:0|0:0,0:0:0:0:
188,280,31711,2,0,L|56:268,1,120,2|2,0:0|0:0,0:0:0:0:
16,124,32461,2,0,P|44:112|88:116,1,60,2|0,0:0|0:0,0:0:0:0:
116,176,32836,2,0,P|88:188|44:184,1,60,2|2,0:0|0:0,0:0:0:0:
68,269,33211,6,0,P|132:264|196:288,1,120,2|2,0:0|0:0,0:0:0:0:
240,337,33773,2,0,P|304:342|368:318,1,120,0|0,0:0|0:0,0:0:0:0:
384,252,34335,2,0,L|376:176,1,60,2|0,0:0|0:0,0:0:0:0:
424,132,34710,2,0,P|352:120|312:152,1,120,2|2,0:0|0:0,0:0:0:0:
160,168,35460,2,0,L|152:88,1,60,2|0,0:0|0:0,0:0:0:0:
232,100,35835,2,0,L|237:159,1,60,2|2,0:0|0:0,0:0:0:0:
316,145,36210,6,0,L|302:264,1,120,2|2,0:0|0:0,0:0:0:0:
268,336,36772,2,0,B|208:348|208:348|132:332,1,120,0|0,0:0|0:0,0:0:0:0:
116,264,37334,2,0,L|110:204,1,60,2|2,0:0|0:0,0:0:0:0:
48,160,37709,2,0,P|104:128|168:156,1,120,2|0,0:0|0:0,0:0:0:0:
284,232,38459,2,0,L|281:172,1,60,2|8,0:0|3:0,0:0:0:0:
276,96,38834,2,0,L|273:36,1,60,10|10,3:0|3:0,0:0:0:0:
352,36,39209,6,0,L|480:44,1,120,4|0,0:2|0:0,0:0:0:0:
484,120,39771,1,0,0:0:0:0:
484,120,39959,2,0,P|460:180|484:248,1,120,0|0,0:0|0:0,0:0:0:0:
372,352,40708,2,0,L|244:344,1,120,0|0,0:0|0:0,0:0:0:0:
172,340,41271,1,0,0:0:0:0:
172,340,41458,6,0,L|44:332,1,120,0|0,0:0|0:0,0:0:0:0:
32,256,42020,1,0,0:0:0:0:
32,256,42208,2,0,P|56:196|32:128,1,120,0|0,0:0|0:0,0:0:0:0:
16,72,42770,1,0,0:0:0:0:
16,72,42958,2,0,L|135:64,2,120,0|0|8,0:0|0:0|0:0,0:0:0:0:
140,168,44082,1,0,0:0:0:0:
280,96,44457,2,0,L|392:100,1,60,0|2,0:0|0:0,0:0:0:0:
336,176,44832,2,0,L|276:178,1,60,2|2,0:0|0:0,0:0:0:0:
272,256,45207,6,0,P|352:284|368:316,2,120,2|2|2,0:0|0:0|0:0,0:0:0:0:
156,360,46332,1,2,0:0:0:0:
92,312,46519,1,2,0:0:0:0:
28,268,46706,2,0,L|40:128,1,120,2|2,0:0|0:0,0:0:0:0:
184,96,47456,2,0,L|194:215,1,120,2|2,0:0|0:0,0:0:0:0:
244,276,48018,1,2,0:0:0:0:
244,276,48206,6,0,P|300:256|376:284,1,120,2|2,0:0|0:0,0:0:0:0:
484,180,48956,2,0,L|469:121,2,60,2|0|2,0:0|0:0|0:0,0:0:0:0:
484,260,49518,1,2,0:0:0:0:
477,337,49705,2,0,P|401:333|349:361,1,120,2|2,0:0|0:0,0:0:0:0:
288,344,50268,1,2,0:0:0:0:
288,344,50455,2,0,L|208:340,1,60,2|2,0:0|0:0,0:0:0:0:
172,284,50830,2,0,L|112:286,1,60,0|0,3:0|3:0,0:0:0:0:
68,352,51205,6,0,P|36:276|60:228,1,120,4|0,3:1|0:0,0:0:0:0:
120,104,51955,1,6,0:1:0:0:
192,244,52330,1,0,0:0:0:0:
284,120,52705,6,0,L|360:116,1,60,4|0,3:2|0:0,0:0:0:0:
376,188,53079,2,0,L|452:192,1,60,10|0,3:2|0:0,0:0:0:0:
456,268,53454,2,0,L|336:274,1,120,2|10,3:2|3:2,0:0:0:0:
264,308,54017,1,0,3:0:0:0:
264,308,54204,2,0,P|258:266|266:238,1,60,2|0,3:2|0:0,0:0:0:0:
320,196,54579,2,0,P|326:154|318:126,1,60,10|0,3:2|0:0,0:0:0:0:
300,64,54954,6,0,L|180:70,1,120,2|10,3:2|3:2,0:0:0:0:
40,136,55704,2,0,P|48:208|32:256,1,120,6|10,3:2|3:2,0:0:0:0:
84,312,56266,1,4,0:0:0:0:
84,312,56453,2,0,L|160:324,1,60,0|0,0:0|0:0,0:0:0:0:
208,276,56828,2,0,L|284:288,1,60,10|0,3:2|3:2,0:0:0:0:
316,344,57203,6,0,L|456:320,1,120,6|10,3:2|3:2,0:0:0:0:
452,248,57765,1,4,0:0:0:0:
452,248,57953,2,0,L|464:176,1,60,2|0,3:2|0:0,0:0:0:0:
440,112,58328,1,4,3:1:0:0:
416,40,58515,1,4,3:1:0:0:
364,96,58703,6,0,P|304:112|236:88,1,120,4|10,3:1|3:2,0:0:0:0:
120,184,59452,2,0,P|136:244|112:312,1,120,2|10,3:2|3:2,0:0:0:0:
80,364,60015,1,2,3:2:0:0:
80,364,60202,2,0,L|20:348,2,60,6|0|10,3:2|0:0|3:2,0:0:0:0:
160,368,60765,1,4,0:0:0:0:
160,368,60952,2,0,L|217:352,1,60,0|0,0:0|0:0,0:0:0:0:
292,328,61327,1,6,3:1:0:0:
364,300,61514,1,4,3:1:0:0:
436,272,61702,6,0,L|444:124,1,120,4|2,3:1|3:2,0:0:0:0:
324,48,62451,2,0,L|328:112,1,60,2|0,3:2|0:0,0:0:0:0:
252,128,62826,2,0,L|248:68,1,60,10|2,3:2|0:0,0:0:0:0:
172,88,63201,2,0,L|180:224,1,120,6|10,3:2|3:2,0:0:0:0:
156,284,63764,1,4,0:0:0:0:
232,264,63951,2,0,P|264:260|312:268,1,60,2|0,0:0|0:0,0:0:0:0:
364,292,64326,1,14,3:2:0:0:
412,352,64513,1,2,3:2:0:0:
444,280,64701,6,0,L|448:156,1,120,4|10,3:1|3:2,0:0:0:0:
356,32,65451,2,0,L|272:36,1,60,2|0,3:2|0:0,0:0:0:0:
236,84,65825,2,0,L|152:80,1,60,10|4,3:2|0:0,0:0:0:0:
121,137,66200,2,0,P|99:83|120:28,2,120,2|10|2,3:2|3:2|3:2,0:0:0:0:
252,224,67325,2,0,L|244:140,1,60,10|2,3:2|3:2,0:0:0:0:
172,192,67700,6,0,L|168:336,1,120,6|10,3:2|3:2,0:0:0:0:
236,352,68262,1,4,0:0:0:0:
236,352,68450,2,0,L|308:344,1,60,2|0,3:2|0:0,0:0:0:0:
372,332,68824,1,10,3:2:0:0:
448,320,69012,1,2,3:2:0:0:
476,248,69199,2,0,P|460:180|484:112,2,120,14|6|14,3:2|3:2|3:2,0:0:0:0:
319,241,70324,1,14,3:2:0:0:
377,190,70511,1,2,3:2:0:0:
304,164,70699,6,0,L|164:172,1,120,4|2,3:1|3:2,0:0:0:0:
28,156,71449,2,0,P|32:116|32:92,1,60,2|0,3:2|0:0,0:0:0:0:
108,80,71824,2,0,P|108:109|112:139,1,60,10|2,3:2|0:0,0:0:0:0:
184,170,72198,6,0,L|304:164,1,120,6|8,3:2|3:2,0:0:0:0:
384,160,72761,1,4,0:0:0:0:
384,160,72948,2,0,L|472:156,1,60,2|0,3:2|0:0,0:0:0:0:
484,224,73323,1,2,3:2:0:0:
444,292,73511,1,2,0:0:0:0:
368,300,73698,6,0,P|308:292|248:306,1,120,4|0,3:1|0:0,0:0:0:0:
200,368,74260,2,0,P|172:308|192:252,1,120,0|0,0:0|0:0,0:0:0:0:
256,224,74823,2,0,P|256:188|248:156,1,60,10|0,0:0|3:2,0:0:0:0:
228,92,75198,6,0,L|108:98,1,120,4|0,3:1|0:0,0:0:0:0:
46,144,75760,2,0,P|32:87|60:36,2,120,0|0|2,0:0|0:0|0:0,0:0:0:0:
112,188,76697,6,0,L|231:194,1,120,4|10,3:1|0:0,0:0:0:0:
348,88,77447,2,0,L|228:94,1,120,4|10,3:1|0:0,0:0:0:0:
168,148,78009,1,0,3:0:0:0:
231,194,78197,2,0,L|290:198,1,60,4|0,3:1|0:0,0:0:0:0:
324,268,78571,2,0,L|383:272,1,60,4|0,3:1|0:0,0:0:0:0:
460,276,78946,1,0,3:0:0:0:
497,207,79134,1,0,3:0:0:0:
470,133,79321,1,4,3:1:0:0:
344,40,79696,6,0,P|276:32|220:40,1,120,2|10,0:0|0:0,0:0:0:0:
168,92,80258,1,0,0:0:0:0:
116,148,80446,2,0,P|76:152|36:144,1,60,2|0,0:0|0:0,0:0:0:0:
16,216,80821,2,0,L|24:288,1,60,10|10,0:0|0:0,0:0:0:0:
84,324,81196,2,0,P|136:312|220:332,1,120,6|10,0:0|0:0,0:0:0:0:
272,360,81758,1,0,0:0:0:0:
272,360,81945,2,0,L|348:356,1,60,2|0,0:0|0:0,0:0:0:0:
392,308,82320,2,0,L|451:311,1,60,10|10,0:0|0:0,0:0:0:0:
492,244,82695,6,0,L|480:104,1,120,6|10,0:1|0:0,0:0:0:0:
424,72,83257,1,0,0:0:0:0:
372,128,83445,2,0,L|288:132,1,60,2|0,0:0|0:0,0:0:0:0:
252,84,83820,2,0,L|168:88,1,60,10|10,0:0|0:0,0:0:0:0:
116,92,84195,2,0,P|120:56|136:32,2,60,2|0|10,0:0|0:0|0:0,0:0:0:0:
92,168,84757,1,0,0:0:0:0:
92,168,84944,2,0,P|52:164|23:170,1,60,2|0,0:0|0:0,0:0:0:0:
44,244,85319,2,0,L|52:308,1,60,14|14,0:1|0:1,0:0:0:0:
120,340,85694,6,0,P|180:328|252:344,1,120,2|10,0:0|0:0,0:0:0:0:
308,368,86257,1,0,0:0:0:0:
380,340,86444,2,0,L|396:264,1,60,10|0,0:0|0:0,0:0:0:0:
452,228,86819,2,0,L|436:152,1,60,10|10,0:0|0:0,0:0:0:0:
420,96,87194,6,0,L|296:88,1,120,2|10,0:0|0:0,0:0:0:0:
224,92,87756,1,0,0:0:0:0:
224,92,87850,1,0,0:0:0:0:
224,92,87944,1,10,0:0:0:0:
152,120,88131,1,0,0:0:0:0:
164,196,88318,2,0,L|172:264,1,60,10|10,0:0|0:0,0:0:0:0:
176,332,88693,6,0,L|44:336,1,120,2|10,0:0|0:0,0:0:0:0:
36,260,89256,1,0,0:0:0:0:
36,184,89443,2,0,L|36:112,1,60,10|0,0:0|0:0,0:0:0:0:
112,116,89818,2,0,L|112:176,1,60,8|8,0:0|0:0,0:0:0:0:
184,212,90193,2,0,P|240:204|312:216,1,120,2|10,0:0|0:0,0:0:0:0:
364,264,90755,1,0,0:0:0:0:
364,340,90943,1,10,0:0:0:0:
372,348,91036,1,0,0:0:0:0:
372,348,91130,1,0,0:0:0:0:
293,369,91317,2,0,L|233:365,1,60,10|0,0:0|0:0,0:0:0:0:
183,304,91692,6,0,L|83:296,2,90,6|4|4,1:2|1:0|1:0,0:0:0:0:
288,180,92630,6,0,L|372:172,2,60,4|8|8,1:0|0:0|0:0,0:0:0:0:
212,188,93192,1,4,2:0:0:0:
