osu file format v14

[General]
AudioFilename: audio.mp3
AudioLeadIn: 0
PreviewTime: 118
Countdown: 1
SampleSet: Soft
StackLeniency: 0.3
Mode: 0
LetterboxInBreaks: 0
WidescreenStoryboard: 1

[Editor]
Bookmarks: 12978,16337,24978,27228,39212,51212,61712,73712,79712,93305
DistanceSpacing: 0.9
BeatDivisor: 6
GridSize: 16
TimelineZoom: 1.3

[Metadata]
Title:Senpuu no Mai [Ten]
TitleUnicode:旋風ノ舞【天】
Artist:Ayane
ArtistUnicode:彩音
Creator:Naotoshi
Version:Insane
Source:太鼓の達人
Tags:taiko no tatsujin tatsh 世阿弥 zeami kin kyuukai yaleufeu
BeatmapID:1324919
BeatmapSetID:628368

[Difficulty]
HPDrainRate:5.5
CircleSize:3.8
OverallDifficulty:7.3
ApproachRate:8.7
SliderMultiplier:1.4
SliderTickRate:1

[Events]
//Background and Video events
0,0,"anime-girl-spring-blossoms-1920x1200.jpg",0,0
//Break Periods
//Storyboard Layer 0 (Background)
//Storyboard Layer 1 (Fail)
//Storyboard Layer 2 (Pass)
//Storyboard Layer 3 (Foreground)
//Storyboard Sound Samples

[TimingPoints]
223,374.882849109653,4,2,4,30,1,0
10719,374.882849109653,6,2,4,50,1,0
12968,374.882849109653,4,1,1,50,1,1
12968,-80,6,1,1,50,0,1
24964,374.882849109653,6,2,1,50,1,1
24964,-66.6666666666667,6,2,1,50,0,1
26276,-66.6666666666667,6,2,1,50,0,0
27213,374.882849109653,4,2,1,40,1,0
27213,-90.9090909090909,6,2,1,40,0,0
38646,-90.9090909090909,4,3,0,45,0,0
38834,-90.9090909090909,4,3,0,50,0,0
39021,-90.9090909090909,4,3,0,55,0,0
39209,-90.9090909090909,4,3,1,40,0,0
44551,-90.9090909090909,4,3,0,40,0,0
45207,-90.9090909090909,4,1,1,50,0,0
52705,-76.9230769230769,6,2,1,55,0,0
79696,-80,6,1,1,50,0,1
91692,-66.6666666666667,6,2,1,50,0,1
92816,-100,6,3,0,50,0,1
93191,-100,6,3,1,50,0,1
93286,-80,6,2,1,50,0,0

[Colours]
Combo1 : 249,192,155
Combo2 : 247,168,242
Combo3 : 29,131,180
Combo4 : 122,123,154

[HitObjects]
158,175,223,6,0,L|241:184,1,70,4|0,3:1|0:0,0:0:0:0:
299,122,597,1,0,0:0:0:0:
316,213,785,1,0,0:0:0:0:
246,275,972,1,0,0:0:0:0:
238,247,1347,5,0,0:0:0:0:
456,257,1535,1,0,3:0:0:0:
270,350,1722,2,0,L|183:334,1,70,4|0,3:1|0:0,0:0:0:0:
440,344,2097,2,0,L|527:328,1,70,4|0,3:1|0:0,0:0:0:0:
356,280,2472,1,0,0:0:0:0:
333,290,2847,5,0,0:0:0:0:
401,225,3034,1,0,0:0:0:0:
259,236,3222,2,0,P|185:239|87:232,1,140,4|0,3:2|0:0,0:0:0:0:
57,160,3784,1,0,0:0:0:0:
144,130,3971,1,0,0:0:0:0:
223,329,4534,5,2,0:0:0:0:
93,261,4721,2,0,L|2:258,1,70,4|0,3:1|0:0,0:0:0:0:
264,203,5096,2,0,L|355:200,1,70,4|0,3:1|0:0,0:0:0:0:
358,180,5658,5,4,3:2:0:0:
403,32,5846,1,4,3:2:0:0:
497,146,6033,1,0,3:0:0:0:
280,67,6221,6,0,P|218:63|188:69,1,70,4|0,3:1|0:0,0:0:0:0:
141,126,6596,1,0,0:0:0:0:
197,199,6783,1,0,0:0:0:0:
281,149,6970,1,0,0:0:0:0:
309,172,7345,5,0,0:0:0:0:
101,105,7533,1,0,3:0:0:0:
218,225,7720,2,0,P|224:293|222:310,1,70,4|0,3:1|0:0,0:0:0:0:
72,201,8095,2,0,P|66:133|68:116,1,70,6|0,0:0|0:0,0:0:0:0:
160,155,8470,1,0,0:0:0:0:
147,188,8845,1,0,0:0:0:0:
133,212,9220,6,0,P|122:271|140:349,1,140,4|0,3:2|0:0,0:0:0:0:
227,360,9782,1,0,0:0:0:0:
261,353,10157,1,0,0:0:0:0:
292,347,10532,1,0,3:0:0:0:
161,193,10719,6,0,P|117:192|71:201,1,70,4|0,3:1|0:0,0:0:0:0:
195,372,11093,2,0,P|239:373|285:364,1,70,4|0,3:1|0:0,0:0:0:0:
307,148,11468,2,0,P|422:187|357:290,1,280,4|2,3:2|2:0,0:0:0:0:
329,220,12405,6,0,L|351:213,3,23.3333333333333,4|0|0|4,0:3|0:3|0:3|0:2,0:0:0:0:
158,211,12968,5,2,0:0:0:0:
150,172,13061,1,0,0:0:0:0:
143,135,13155,1,0,0:0:0:0:
294,71,13342,1,10,0:0:0:0:
287,108,13436,1,0,0:3:0:0:
279,147,13530,1,0,0:3:0:0:
393,260,13717,5,2,0:0:0:0:
385,221,13811,1,0,0:3:0:0:
378,184,13905,1,0,0:3:0:0:
463,101,14092,1,10,0:0:0:0:
302,35,14280,1,10,0:0:0:0:
339,205,14467,5,2,0:0:0:0:
212,132,14654,1,0,0:0:0:0:
175,125,14748,1,0,0:0:0:0:
136,117,14842,1,10,0:0:0:0:
50,259,15029,1,0,0:0:0:0:
31,128,15217,1,2,0:0:0:0:
135,220,15404,1,0,0:0:0:0:
135,220,15498,1,0,0:0:0:0:
135,220,15592,1,10,0:0:0:0:
145,260,15685,1,0,0:0:0:0:
160,301,15779,1,10,0:0:0:0:
54,298,15967,5,6,0:0:0:0:
243,257,16154,1,0,0:0:0:0:
243,257,16248,1,0,0:0:0:0:
243,257,16341,1,10,0:0:0:0:
282,265,16435,1,0,0:0:0:0:
319,272,16529,1,0,0:0:0:0:
358,280,16623,1,0,0:0:0:0:
395,287,16716,1,2,0:0:0:0:
371,176,16904,1,0,0:0:0:0:
483,229,17091,1,8,0:0:0:0:
368,143,17279,1,10,0:0:0:0:
478,121,17466,5,2,0:0:0:0:
462,80,17560,1,0,0:0:0:0:
433,48,17654,1,0,0:0:0:0:
394,29,17747,1,0,0:0:0:0:
356,49,17841,1,10,0:0:0:0:
317,70,17935,1,0,0:0:0:0:
274,75,18028,1,0,0:0:0:0:
232,65,18122,1,0,0:0:0:0:
189,80,18216,2,0,L|199:145,3,43.75,2|0|0|0,0:0|0:0|0:0|0:0,0:0:0:0:
101,43,18591,5,6,0:1:0:0:
184,158,18778,1,4,0:1:0:0:
55,214,18966,5,2,0:0:0:0:
77,228,19059,1,0,0:0:0:0:
102,242,19153,1,0,0:0:0:0:
67,341,19341,1,10,0:0:0:0:
109,352,19434,1,0,0:0:0:0:
152,350,19528,1,0,0:0:0:0:
194,337,19622,1,0,0:0:0:0:
223,304,19715,2,0,L|219:241,3,43.75,10|0|0|0,0:0|0:0|0:0|0:0,0:0:0:0:
326,315,20090,2,0,L|328:358,3,43.75,10|0|10|0,0:0|0:0|0:0|0:0,0:0:0:0:
311,205,20465,5,2,0:0:0:0:
206,135,20653,1,0,0:0:0:0:
187,256,20840,1,10,0:0:0:0:
88,145,21027,1,0,0:0:0:0:
100,104,21121,1,0,0:0:0:0:
114,64,21215,1,10,0:0:0:0:
231,112,21402,1,0,0:0:0:0:
288,15,21590,1,10,0:0:0:0:
288,15,21684,1,0,0:0:0:0:
288,15,21777,1,10,0:0:0:0:
330,13,21871,1,0,0:0:0:0:
372,12,21965,6,0,L|437:29,3,43.75,2|0|0|0,0:0|0:0|0:0|0:0,0:0:0:0:
338,124,22340,2,0,L|273:141,3,43.75,10|0|0|0,0:0|0:0|0:0|0:0,0:0:0:0:
444,176,22714,1,10,0:0:0:0:
456,217,22808,1,0,0:0:0:0:
456,261,22902,1,0,0:0:0:0:
446,303,22996,1,0,0:0:0:0:
426,342,23089,2,0,L|368:347,1,43.75,10|0,0:0|0:0,0:0:0:0:
299,295,23277,2,0,L|247:299,1,43.75,10|0,0:0|0:0,0:0:0:0:
180,361,23464,5,2,0:0:0:0:
156,211,23652,1,0,0:0:0:0:
156,211,23745,1,0,0:0:0:0:
156,211,23839,2,0,L|158:160,3,43.75,10|0|0|0,0:0|0:0|0:0|0:0,0:0:0:0:
108,64,24214,5,10,0:0:0:0:
69,46,24308,1,0,0:0:0:0:
28,59,24401,1,0,0:0:0:0:
6,96,24495,1,0,0:0:0:0:
16,137,24589,5,10,0:0:0:0:
89,261,24776,1,10,0:0:0:0:
92,297,24870,1,0,0:0:0:0:
87,333,24964,6,0,P|170:321|213:330,1,105.000004005432,6|0,1:2|0:0,0:0:0:0:
273,344,25245,2,0,P|330:351|396:329,1,105.000004005432,4|0,1:2|0:0,0:0:0:0:
451,302,25526,2,0,P|427:230|440:180,1,105.000004005432,4|0,1:2|0:0,0:0:0:0:
314,125,25901,5,4,1:2:0:0:
316,243,26088,1,4,1:2:0:0:
430,88,26276,1,4,1:2:0:0:
408,75,27213,6,0,P|343:61|250:74,1,154.000004699707,6|2,0:0|0:0,0:0:0:0:
177,156,27775,2,0,L|160:58,1,77.0000023498536,0|2,0:0|0:0,0:0:0:0:
71,160,28150,2,0,L|58:236,1,77.0000023498536,0|2,0:0|0:0,0:0:0:0:
159,287,28525,2,0,P|216:281|261:292,1,77.0000023498536,0|2,0:0|0:0,0:0:0:0:
236,284,28806,1,0,0:0:0:0:
236,284,28899,1,0,0:0:0:0:
350,260,29087,2,0,L|352:216,2,38.5000011749268,2|0|0,0:0|0:0|0:0,0:0:0:0:
458,188,29462,5,2,0:0:0:0:
363,106,29649,1,0,0:0:0:0:
331,198,29837,1,2,0:0:0:0:
470,87,30024,1,2,0:0:0:0:
230,102,30212,6,0,P|202:172|213:260,1,154.000004699707,2|2,0:0|0:0,0:0:0:0:
364,211,30774,2,0,P|372:269|358:314,1,77.0000023498536,0|2,0:0|0:0,0:0:0:0:
274,359,31149,1,0,0:0:0:0:
189,276,31336,1,2,0:0:0:0:
81,350,31524,2,0,P|68:313|61:275,1,77.0000023498536,0|2,0:0|0:0,0:0:0:0:
61,275,31805,1,0,0:0:0:0:
61,275,31899,1,0,0:0:0:0:
113,171,32086,2,0,L|114:120,2,38.5000011749268,2|0|0,0:0|0:0|0:0,0:0:0:0:
34,35,32461,5,2,0:0:0:0:
150,28,32648,1,0,0:0:0:0:
80,134,32836,1,2,0:0:0:0:
10,16,33023,1,2,0:0:0:0:
187,41,33211,6,0,P|175:110|182:200,1,154.000004699707,2|2,0:0|0:0,0:0:0:0:
306,204,33773,2,0,P|306:143|291:94,1,77.0000023498536,0|2,0:0|0:0,0:0:0:0:
302,127,34054,1,0,0:0:0:0:
302,127,34148,5,0,0:0:0:0:
381,38,34335,1,2,0:0:0:0:
463,129,34523,2,0,P|458:187|466:236,1,77.0000023498536,0|2,0:0|0:0,0:0:0:0:
459,205,34804,1,0,0:0:0:0:
459,205,34898,1,0,0:0:0:0:
396,304,35085,2,0,P|339:295|293:298,1,77.0000023498536,2|0,0:0|0:0,0:0:0:0:
234,357,35460,6,2,L|214:258,1,77.0000023498536,2|0,0:0|0:0,0:0:0:0:
304,123,35835,2,0,L|294:200,1,77.0000023498536,2|2,0:0|0:0,0:0:0:0:
383,64,36210,2,0,P|320:26|234:56,1,154.000004699707,2|2,0:0|0:0,0:0:0:0:
177,126,36772,2,0,P|129:131|93:122,1,77.0000023498536,0|2,0:0|0:0,0:0:0:0:
101,125,37053,1,0,0:0:0:0:
101,125,37147,1,0,0:0:0:0:
19,226,37334,5,2,0:0:0:0:
111,310,37522,1,2,0:0:0:0:
116,164,37709,1,2,0:0:0:0:
210,241,37897,2,0,P|278:247|371:224,1,154.000004699707,0|0,0:0|0:0,0:0:0:0:
396,118,38459,5,2,0:0:0:0:
280,106,38646,2,0,L|282:166,1,38.5000011749268,8|8,3:0|3:0,0:0:0:0:
397,79,38834,2,0,L|395:41,1,38.5000011749268,10|8,3:0|3:0,0:0:0:0:
284,30,39021,2,0,L|285:68,1,38.5000011749268,10|8,3:0|3:0,0:0:0:0:
280,177,39209,5,4,0:2:0:0:
129,144,39771,5,0,0:0:0:0:
148,170,39959,1,0,0:0:0:0:
73,352,40708,5,0,0:0:0:0:
272,307,41271,5,0,0:0:0:0:
272,307,41364,1,0,0:0:0:0:
272,307,41458,1,0,0:0:0:0:
152,241,41645,1,0,0:0:0:0:
281,157,42020,5,0,0:0:0:0:
311,150,42208,1,0,0:0:0:0:
369,299,42770,5,0,0:0:0:0:
336,311,42958,1,0,0:0:0:0:
443,98,43707,5,8,0:0:0:0:
225,84,44270,5,0,0:0:0:0:
225,84,44363,1,0,0:0:0:0:
225,84,44457,2,0,L|170:88,3,38.5000011749268,0|0|2|0,0:0|0:0|0:0|0:0,0:0:0:0:
147,166,44832,2,0,L|92:162,3,38.5000011749268,2|0|2|0,0:0|0:0|0:0|0:0,0:0:0:0:
199,246,45207,6,0,P|268:265|360:234,1,154.000004699707,2|2,0:0|0:0,0:0:0:0:
273,159,45769,1,0,0:0:0:0:
394,306,45957,2,0,L|378:145,1,154.000004699707,2|2,0:0|0:0,0:0:0:0:
466,63,46519,1,2,0:0:0:0:
466,63,46613,1,2,0:0:0:0:
466,63,46706,6,0,L|481:159,1,77.0000023498536,2|0,0:0|0:0,0:0:0:0:
347,56,47081,1,2,0:0:0:0:
337,174,47269,1,0,0:0:0:0:
237,100,47456,2,0,L|224:200,1,77.0000023498536,2|0,0:0|0:0,0:0:0:0:
116,84,47831,1,2,0:0:0:0:
125,220,48018,1,2,0:0:0:0:
10,183,48206,6,0,P|11:259|62:326,1,154.000004699707,2|2,0:0|0:0,0:0:0:0:
54,320,48675,1,0,0:0:0:0:
54,320,48768,1,0,0:0:0:0:
176,297,48956,2,0,P|230:286|270:290,1,77.0000023498536,2|0,0:0|0:0,0:0:0:0:
345,335,49331,1,2,0:0:0:0:
331,214,49518,1,2,0:0:0:0:
331,214,49612,1,2,0:0:0:0:
331,214,49705,6,0,L|313:49,1,154.000004699707,2|2,0:0|0:0,0:0:0:0:
418,91,50268,1,2,0:0:0:0:
222,108,50455,1,2,0:0:0:0:
310,28,50643,1,2,0:0:0:0:
331,214,50830,5,0,3:0:0:0:
360,222,50924,1,0,3:0:0:0:
377,196,51018,1,0,3:0:0:0:
360,173,51111,1,0,3:0:0:0:
330,184,51205,1,4,3:1:0:0:
295,199,51955,5,6,0:1:0:0:
264,165,52705,6,0,B|242:44|242:44|208:112,1,181.999991668702,4|10,3:2|3:2,0:0:0:0:
157,213,53267,1,0,0:0:0:0:
39,111,53454,2,0,P|93:61|215:69,1,181.999991668702,2|10,3:2|3:2,0:0:0:0:
147,178,54017,1,0,3:0:0:0:
25,147,54204,2,0,L|-27:149,2,45.4999979171754,2|0|0,3:2|0:0|0:0,0:0:0:0:
68,274,54579,5,10,3:2:0:0:
137,143,54766,1,0,0:0:0:0:
194,276,54954,2,0,L|210:371,1,90.9999958343508,2|0,3:2|0:0,0:0:0:0:
309,227,55329,2,0,L|296:329,1,90.9999958343508,10|0,3:2|0:0,0:0:0:0:
391,155,55704,2,0,L|428:333,1,181.999991668702,6|10,3:2|3:2,0:0:0:0:
491,156,56266,2,0,P|444:69|350:62,1,181.999991668702,4|0,0:0|0:0,0:0:0:0:
263,136,56828,1,10,3:2:0:0:
257,17,57016,5,0,3:2:0:0:
391,155,57203,2,0,L|350:352,1,181.999991668702,6|10,3:2|3:2,0:0:0:0:
244,256,57765,2,0,L|264:165,2,90.9999958343508,4|2|0,0:0|3:2|0:0,0:0:0:0:
73,342,58328,6,0,L|164:339,1,90.9999958343508,4|4,3:1|3:1,0:0:0:0:
135,162,58703,2,0,L|45:166,1,90.9999958343508,4|0,3:1|0:0,0:0:0:0:
223,246,59078,6,0,P|249:177|194:67,1,181.999991668702,10|2,3:2|3:2,0:0:0:0:
210,80,59546,1,0,0:0:0:0:
210,80,59640,1,0,0:0:0:0:
350,114,59827,1,10,3:2:0:0:
319,6,60015,1,2,3:2:0:0:
373,139,60202,6,0,L|372:237,2,90.9999958343508,6|0|10,3:2|0:0|3:2,0:0:0:0:
250,200,60765,2,0,P|176:238|65:198,1,181.999991668702,4|0,0:0|0:0,0:0:0:0:
158,39,61327,6,0,L|164:139,1,90.9999958343508,6|4,3:1|3:1,0:0:0:0:
50,313,61702,2,0,L|55:222,1,90.9999958343508,4|0,3:1|0:0,0:0:0:0:
196,148,62077,6,0,L|202:244,1,90.9999958343508,2|0,3:2|0:0,0:0:0:0:
293,321,62451,1,2,3:2:0:0:
333,204,62639,2,0,P|385:176|448:182,1,90.9999958343508,0|10,0:0|3:2,0:0:0:0:
413,374,63014,2,0,L|412:284,1,90.9999958343508,2|6,0:0|3:2,0:0:0:0:
457,162,63389,2,0,L|458:71,1,90.9999958343508,0|10,0:0|3:2,0:0:0:0:
330,171,63764,2,0,P|243:139|150:163,1,181.999991668702,4|0,0:0|0:0,0:0:0:0:
65,230,64326,1,14,3:2:0:0:
172,271,64513,1,2,3:2:0:0:
54,113,64701,5,4,3:1:0:0:
72,84,65076,6,0,L|188:64,1,90.9999958343508,10|0,3:2|0:0,0:0:0:0:
255,149,65451,1,2,3:2:0:0:
347,69,65638,2,0,P|368:128|355:185,1,90.9999958343508,0|10,0:0|3:2,0:0:0:0:
451,221,66013,6,0,P|402:260|344:268,1,90.9999958343508,4|2,0:0|3:2,0:0:0:0:
353,372,66388,2,0,P|298:340|272:288,1,90.9999958343508,4|10,0:0|3:2,0:0:0:0:
183,330,66763,2,0,P|194:268|234:225,1,90.9999958343508,4|2,0:0|3:2,0:0:0:0:
164,157,67138,2,0,P|225:146|279:169,1,90.9999958343508,0|0,0:0|0:0,0:0:0:0:
348,252,67512,1,2,3:2:0:0:
280,131,67700,6,0,P|307:54|353:121,1,181.999991668702,6|10,3:2|3:2,0:0:0:0:
313,236,68262,2,8,P|258:239|212:223,1,90.9999958343508,4|2,0:0|3:2,0:0:0:0:
133,150,68637,1,0,0:0:0:0:
77,340,68824,2,0,L|124:245,1,90.9999958343508,10|2,3:2|3:2,0:0:0:0:
244,185,69199,6,0,P|250:103|281:6,2,181.999991668702,14|6|14,3:2|3:2|3:2,0:0:0:0:
221,219,70324,1,14,3:2:0:0:
328,320,70511,1,2,3:2:0:0:
86,321,70699,6,0,P|66:246|90:135,1,181.999991668702,4|2,3:1|3:2,0:0:0:0:
84,144,71168,1,0,0:0:0:0:
84,144,71261,1,0,0:0:0:0:
237,161,71449,5,2,3:2:0:0:
171,38,71636,1,0,0:0:0:0:
119,163,71824,1,10,3:2:0:0:
249,120,72011,1,2,0:0:0:0:
133,51,72198,6,0,P|124:104|121:235,1,181.999991668702,6|8,3:2|3:2,0:0:0:0:
220,311,72761,2,0,P|275:316|328:297,1,90.9999958343508,4|2,0:0|3:2,0:0:0:0:
309,306,73042,1,0,0:0:0:0:
309,306,73136,1,0,0:0:0:0:
375,200,73323,1,2,3:2:0:0:
424,339,73511,1,2,0:0:0:0:
476,151,73698,5,4,3:1:0:0:
400,136,75010,5,0,3:2:0:0:
435,141,75198,1,4,3:1:0:0:
435,141,76510,5,2,0:0:0:0:
476,151,76697,1,4,3:1:0:0:
435,141,77447,5,4,3:1:0:0:
476,151,78197,5,4,3:1:0:0:
435,141,78571,5,4,3:1:0:0:
476,151,78946,5,0,3:0:0:0:
435,141,79134,1,0,3:0:0:0:
476,151,79321,1,4,3:1:0:0:
346,198,79696,5,2,0:0:0:0:
310,185,79790,1,0,0:0:0:0:
275,174,79884,1,0,0:0:0:0:
236,60,80071,1,10,0:0:0:0:
271,71,80165,1,0,0:0:0:0:
307,84,80258,1,0,0:0:0:0:
237,155,80446,5,0,0:0:0:0:
202,167,80540,1,0,0:0:0:0:
166,179,80633,1,0,0:0:0:0:
207,258,80821,1,0,0:0:0:0:
125,166,81008,1,10,0:0:0:0:
98,298,81196,5,6,0:0:0:0:
240,252,81383,1,0,0:0:0:0:
244,288,81477,1,0,0:0:0:0:
251,324,81571,1,10,0:0:0:0:
330,246,81758,1,0,0:0:0:0:
405,336,81945,1,2,0:0:0:0:
439,232,82133,1,0,0:0:0:0:
439,232,82227,1,0,0:0:0:0:
439,232,82320,1,10,0:0:0:0:
432,196,82414,1,0,0:0:0:0:
428,160,82508,1,10,0:0:0:0:
285,140,82695,5,6,0:1:0:0:
368,65,82883,1,0,0:0:0:0:
368,65,82976,1,0,0:0:0:0:
368,65,83070,1,10,0:0:0:0:
334,48,83164,1,0,0:0:0:0:
298,40,83257,1,0,0:0:0:0:
260,41,83351,1,0,0:0:0:0:
225,53,83445,1,2,0:0:0:0:
287,144,83632,1,0,0:0:0:0:
176,201,83820,2,0,L|179:157,1,43.75,10|0,0:0|0:0,0:0:0:0:
271,230,84007,2,0,L|266:292,1,43.75,10|0,0:0|0:0,0:0:0:0:
160,328,84195,5,2,0:0:0:0:
129,344,84288,1,0,0:0:0:0:
94,348,84382,1,0,0:0:0:0:
59,344,84476,1,0,0:0:0:0:
29,324,84570,2,0,L|22:265,3,43.75,10|0|0|0,0:0|0:0|0:0|0:0,0:0:0:0:
78,199,84944,2,0,L|88:141,3,43.75,2|0|0|0,0:0|0:0|0:0|0:0,0:0:0:0:
27,71,85319,5,14,0:1:0:0:
192,148,85507,1,14,0:1:0:0:
141,36,85694,5,2,0:0:0:0:
182,24,85788,1,0,0:0:0:0:
226,28,85882,1,0,0:0:0:0:
265,48,85975,1,0,0:0:0:0:
294,80,86069,2,0,L|303:155,3,43.75,10|0|0|0,0:0|0:0|0:0|0:0,0:0:0:0:
398,49,86444,2,0,L|398:5,3,43.75,10|0|0|0,0:0|0:0|0:0|0:0,0:0:0:0:
484,116,86819,2,0,L|492:177,1,43.75,10|0,0:0|0:0,0:0:0:0:
413,232,87006,2,0,L|405:298,1,43.75,10|0,0:0|0:0,0:0:0:0:
307,206,87194,5,2,0:0:0:0:
342,375,87381,1,0,0:0:0:0:
192,305,87569,1,10,0:0:0:0:
316,245,87756,1,0,0:0:0:0:
316,245,87850,1,0,0:0:0:0:
316,245,87944,1,10,0:0:0:0:
167,196,88131,1,0,0:0:0:0:
175,342,88318,2,0,L|175:395,1,43.75
63,281,88506,2,0,L|54:359,1,43.75,10|0,0:0|0:0,0:0:0:0:
27,159,88693,5,0,0:0:0:0:
163,236,88881,1,0,0:0:0:0:
161,95,89068,1,10,0:0:0:0:
323,159,89256,1,0,0:0:0:0:
365,149,89349,1,0,0:0:0:0:
409,152,89443,1,10,0:0:0:0:
449,167,89537,1,0,0:0:0:0:
475,199,89630,1,0,0:0:0:0:
483,238,89724,1,0,0:0:0:0:
467,274,89818,2,0,L|456:329,1,43.75,8|0,0:0|0:0,0:0:0:0:
346,318,90005,2,0,L|335:275,1,43.75,8|0,0:0|0:0,0:0:0:0:
248,362,90193,5,2,0:0:0:0:
149,263,90380,1,0,0:0:0:0:
149,263,90474,1,0,0:0:0:0:
149,263,90568,1,10,0:0:0:0:
108,278,90661,1,0,0:0:0:0:
64,277,90755,1,0,0:0:0:0:
24,260,90849,1,0,0:0:0:0:
3,226,90943,5,10,0:0:0:0:
9,182,91036,1,0,0:0:0:0:
16,139,91130,1,0,0:0:0:0:
23,96,91224,1,0,0:0:0:0:
30,53,91317,6,0,L|36:5,1,43.75,10|0,0:0|0:0,0:0:0:0:
155,96,91505,1,10,0:0:0:0:
155,96,91599,1,0,0:0:0:0:
155,96,91692,6,0,L|172:225,1,105.000004005432,6|0,1:2|0:0,0:0:0:0:
248,143,91974,2,0,L|262:39,1,105.000004005432,4|0,1:0|0:0,0:0:0:0:
341,97,92255,2,0,L|355:202,1,105.000004005432,4|0,1:0|0:0,0:0:0:0:
471,128,92630,5,4,1:0:0:0:
432,308,92817,1,8,0:0:0:0:
326,221,93004,1,8,0:0:0:0:
497,92,93192,5,4,2:0:0:0:
