osu file format v14

[General]
AudioFilename: audio.mp3
AudioLeadIn: 0
PreviewTime: 118
Countdown: 1
SampleSet: Soft
StackLeniency: 0.3
Mode: 0
LetterboxInBreaks: 0
WidescreenStoryboard: 1

[Editor]
Bookmarks: 12968,24964,27213,39212,51206,61702,73699,79697,93192
DistanceSpacing: 0.9
BeatDivisor: 6
GridSize: 16
TimelineZoom: 1.9

[Metadata]
Title:Senpuu no Mai [Ten]
TitleUnicode:旋風ノ舞【天】
Artist:Ayane
ArtistUnicode:彩音
Creator:Naotoshi
Version:Cyclone
Source:太鼓の達人
Tags:taiko no tatsujin tatsh 世阿弥 zeami kin kyuukai yaleufeu
BeatmapID:1324772
BeatmapSetID:628368

[Difficulty]
HPDrainRate:6
CircleSize:4.2
OverallDifficulty:8.1
ApproachRate:9
SliderMultiplier:1.4
SliderTickRate:1

[Events]
//Background and Video events
0,0,"anime-girl-spring-blossoms-1920x1200.jpg",0,0
//Break Periods
//Storyboard Layer 0 (Background)
//Storyboard Layer 1 (Fail)
//Storyboard Layer 2 (Pass)
//Storyboard Layer 3 (Foreground)
//Storyboard Sound Samples

[TimingPoints]
223,374.882849109653,4,2,4,30,1,0
10719,374.882849109653,6,2,4,50,1,0
12968,374.882849109653,4,1,1,50,1,1
12968,-80,6,1,1,50,0,1
24964,374.882849109653,6,2,1,50,1,1
24964,-58.8235294117647,6,2,1,50,0,1
26276,-58.8235294117647,6,2,1,50,0,0
27213,374.882849109653,4,2,1,40,1,0
27213,-80,6,2,1,40,0,0
38646,-80,6,3,0,45,0,0
38834,-80,6,3,0,50,0,0
39021,-80,6,3,0,55,0,0
39209,-80,6,3,1,40,0,0
44551,-80,6,3,0,40,0,0
45207,-80,6,1,1,50,0,0
52705,-66.6666666666667,6,2,1,55,0,0
58328,-58.8235294117647,6,2,1,55,0,0
59078,-66.6666666666667,6,2,1,55,0,0
61327,-58.8235294117647,6,2,1,55,0,0
62077,-66.6666666666667,6,2,1,55,0,0
64701,-58.8235294117647,6,2,1,55,0,0
65076,-66.6666666666667,6,2,1,55,0,0
70699,-58.8235294117647,6,2,1,55,0,0
72198,-66.6666666666667,6,2,1,55,0,0
79696,-80,6,1,1,50,0,1
91692,-58.8235294117647,6,2,1,50,0,1
92816,-58.8235294117647,6,3,0,50,0,1
93191,-58.8235294117647,6,3,1,50,0,1
93286,-80,6,2,1,50,0,0

[Colours]
Combo1 : 249,192,155
Combo2 : 247,168,242
Combo3 : 29,131,180
Combo4 : 122,123,154

[HitObjects]
78,140,223,6,0,L|179:133,1,70,4|0,3:1|0:0,0:0:0:0:
272,211,597,1,0,0:0:0:0:
306,131,785,1,0,0:0:0:0:
274,51,972,1,0,0:0:0:0:
274,51,1347,5,0,0:0:0:0:
363,204,1535,1,0,3:0:0:0:
150,203,1722,2,0,L|140:273,1,70,4|0,3:1|0:0,0:0:0:0:
372,273,2097,2,0,L|362:203,1,70,4|0,3:1|0:0,0:0:0:0:
262,281,2472,1,0,0:0:0:0:
262,281,2847,5,0,0:0:0:0:
323,357,3034,1,0,0:0:0:0:
312,133,3222,2,0,L|304:-11,1,140,4|0,3:2|0:0,0:0:0:0:
224,34,3784,1,0,0:0:0:0:
390,22,3971,1,0,0:0:0:0:
390,22,4534,5,2,0:0:0:0:
219,153,4721,2,0,L|208:245,1,70,4|0,3:1|0:0,0:0:0:0:
425,359,5096,2,0,L|417:290,1,70,4|0,3:1|0:0,0:0:0:0:
331,331,5471,1,0,0:0:0:0:
210,222,5658,5,4,3:2:0:0:
417,290,5846,1,4,3:2:0:0:
276,170,6033,1,0,3:0:0:0:
479,203,6221,6,0,L|395:198,1,70,4|0,3:1|0:0,0:0:0:0:
251,282,6596,1,0,0:0:0:0:
177,322,6783,1,0,0:0:0:0:
90,301,6970,1,0,0:0:0:0:
90,301,7345,5,0,0:0:0:0:
186,115,7533,1,0,3:0:0:0:
0,268,7720,2,0,L|7:360,1,70,4|0,3:1|0:0,0:0:0:0:
260,158,8095,2,4,L|267:66,1,70,6|0,0:0|0:0,3:1:0:0:
192,31,8470,1,0,0:0:0:0:
334,34,8845,1,0,0:0:0:0:
198,259,9220,6,0,L|187:172,1,70,4|0,3:2|0:0,0:0:0:0:
266,131,9595,1,0,0:0:0:0:
102,150,9782,1,0,0:0:0:0:
267,246,10157,1,0,0:0:0:0:
368,41,10532,5,0,3:0:0:0:
436,226,10719,2,0,L|445:328,1,70,4|0,3:1|0:0,0:0:0:0:
131,285,11093,2,0,L|137:215,1,70,4|0,3:1|0:0,0:0:0:0:
304,154,11468,6,0,B|323:158|340:120|312:99|265:106|261:134|269:154|285:174|285:174|301:198|333:262|278:337,1,280,4|2,3:2|2:0,0:0:0:0:
201,266,12405,5,4,0:1:0:0:
201,266,12468,1,0,0:3:0:0:
201,266,12530,1,0,0:3:0:0:
201,266,12593,1,4,0:2:0:0:
200,266,12968,5,2,0:0:0:0:
160,281,13061,1,0,0:0:0:0:
153,321,13155,1,0,0:0:0:0:
179,361,13249,1,0,0:0:0:0:
224,349,13342,1,10,0:0:0:0:
274,356,13436,1,0,0:3:0:0:
314,374,13530,2,0,P|348:359|370:342,1,43.75,0|0,0:3|0:3,0:3:0:0:
454,224,13717,5,2,0:0:0:0:
454,178,13811,1,0,0:3:0:0:
440,140,13905,2,0,P|425:105|408:83,1,43.75,0|0,0:3|0:3,0:3:0:0:
298,178,14092,2,0,L|298:221,1,43.75,10|0,0:0|0:0,0:0:0:0:
220,49,14280,2,0,L|221:6,1,43.75,10|0,0:0|0:0,0:0:0:0:
134,196,14467,6,0,L|136:137,1,43.75,10|0,0:0|0:0,0:0:0:0:
56,82,14654,1,0,0:0:0:0:
29,121,14748,1,0,0:0:0:0:
5,152,14842,6,0,L|16:95,1,43.75,10|0,0:0|0:0,0:0:0:0:
140,240,15029,2,0,L|134:196,1,43.75
27,382,15217,1,2,0:0:0:0:
203,333,15404,5,0,0:0:0:0:
253,320,15498,1,0,0:0:0:0:
305,318,15592,1,10,0:0:0:0:
353,334,15685,1,0,0:0:0:0:
397,306,15779,2,0,L|412:246,1,43.75,10|0,0:0|0:0,0:0:0:0:
306,88,15967,6,0,L|299:34,1,43.75,6|0,0:0|0:0,0:0:0:0:
400,159,16154,1,0,0:0:0:0:
365,185,16248,1,0,0:0:0:0:
324,199,16341,1,10,0:0:0:0:
280,199,16435,1,0,0:0:0:0:
239,186,16529,1,0,0:0:0:0:
208,161,16623,1,0,0:0:0:0:
169,153,16716,6,0,L|167:213,1,43.75,2|0,0:0|0:0,0:0:0:0:
33,59,16904,2,0,L|33:103,1,43.75
73,256,17091,1,8,0:0:0:0:
129,53,17279,1,10,0:0:0:0:
161,32,17372,1,0,0:0:0:0:
200,26,17466,5,2,0:0:0:0:
238,34,17560,1,0,0:0:0:0:
276,41,17654,1,0,0:0:0:0:
313,31,17747,1,0,0:0:0:0:
347,51,17841,1,10,0:0:0:0:
368,83,17935,1,0,0:0:0:0:
372,121,18028,1,0,0:0:0:0:
356,157,18122,1,0,0:0:0:0:
340,193,18216,6,0,L|352:246,1,43.75,2|0,0:0|0:0,0:0:0:0:
228,196,18403,1,0,0:0:0:0:
209,226,18497,1,0,0:0:0:0:
200,259,18591,6,0,L|202:325,1,43.75,6|0,0:1|0:0,0:0:0:0:
257,93,18778,2,0,L|259:32,1,43.75,6|0,0:1|0:0,0:0:0:0:
109,145,18966,5,2,0:0:0:0:
90,184,19059,1,0,0:0:0:0:
82,227,19153,1,0,0:0:0:0:
83,271,19247,1,0,0:0:0:0:
103,310,19341,1,10,0:0:0:0:
146,292,19434,1,0,0:0:0:0:
192,290,19528,1,0,0:0:0:0:
231,308,19622,1,0,0:0:0:0:
272,325,19715,6,0,L|272:280,1,43.75,10|0,0:0|0:0,0:0:0:0:
322,82,19903,1,0,0:0:0:0:
361,51,19997,1,0,0:0:0:0:
410,54,20090,1,10,0:0:0:0:
444,91,20184,1,0,0:0:0:0:
443,141,20278,1,10,0:0:0:0:
409,177,20371,1,0,0:0:0:0:
359,180,20465,6,0,L|301:185,1,43.75,2|0,0:0|0:0,0:0:0:0:
163,107,20653,2,0,L|120:104,1,43.75
4,203,20840,1,10,0:0:0:0:
169,354,21027,5,0,0:0:0:0:
162,308,21121,1,0,0:0:0:0:
151,260,21215,2,0,L|140:208,1,43.75,10|0,0:0|0:0,0:0:0:0:
324,285,21402,2,0,L|316:333,1,43.75
259,160,21590,1,10,0:0:0:0:
298,151,21684,1,0,0:0:0:0:
336,153,21777,1,10,0:0:0:0:
374,174,21871,1,0,0:0:0:0:
408,203,21965,5,2,0:0:0:0:
378,251,22058,1,0,0:0:0:0:
325,275,22152,1,0,0:0:0:0:
268,261,22246,1,0,0:0:0:0:
228,217,22340,1,10,0:0:0:0:
181,182,22433,1,0,0:0:0:0:
124,165,22527,1,0,0:0:0:0:
68,183,22621,1,0,0:0:0:0:
40,234,22714,5,10,0:0:0:0:
54,290,22808,1,0,0:0:0:0:
109,310,22902,1,0,0:0:0:0:
162,284,22996,1,0,0:0:0:0:
175,231,23089,1,10,0:0:0:0:
148,183,23183,1,0,0:0:0:0:
140,126,23277,1,10,0:0:0:0:
159,73,23370,1,0,0:0:0:0:
196,30,23464,1,2,0:0:0:0:
377,51,23652,5,0,0:0:0:0:
400,97,23745,1,0,0:0:0:0:
397,149,23839,1,10,0:0:0:0:
379,198,23933,1,0,0:0:0:0:
383,250,24027,1,0,0:0:0:0:
408,296,24120,1,0,0:0:0:0:
350,352,24214,5,10,0:0:0:0:
285,316,24308,1,0,0:0:0:0:
211,308,24401,1,0,0:0:0:0:
140,333,24495,1,0,0:0:0:0:
78,383,24589,5,10,0:0:0:0:
63,312,24683,1,0,0:0:0:0:
46,242,24776,1,10,0:0:0:0:
32,170,24870,1,0,0:0:0:0:
19,92,24964,6,0,L|148:106,1,119.000002269745,6|0,1:2|0:0,0:0:0:0:
223,176,25245,2,0,L|94:190,1,119.000002269745,4|0,1:2|0:0,0:0:0:0:
19,260,25526,2,0,L|148:274,1,119.000002269745,4|0,1:2|0:0,0:0:0:0:
398,291,25901,6,4,L|385:215,1,59.5000011348725,4|0,1:2|0:0,0:0:0:0:
322,77,26088,2,4,L|308:159,1,59.5000011348725,4|0,1:2|0:0,0:0:0:0:
267,352,26276,1,4,1:2:0:0:
255,259,27213,6,0,L|247:159,1,87.5,6|0,0:0|0:0,0:0:0:0:
161,119,27587,1,2,0:0:0:0:
334,107,27775,2,0,L|344:202,1,87.5,0|2,0:0|0:0,0:0:0:0:
166,319,28150,2,0,L|156:231,1,87.5,0|2,0:0|0:0,0:0:0:0:
298,286,28525,2,0,P|359:294|419:271,1,87.5,0|2,0:0|0:0,0:0:0:0:
407,278,28806,1,0,0:0:0:0:
427,265,28899,1,0,0:0:0:0:
347,148,29087,1,2,0:0:0:0:
348,164,29181,1,0,0:0:0:0:
349,180,29274,1,0,0:0:0:0:
243,91,29462,5,2,0:0:0:0:
419,81,29649,1,0,0:0:0:0:
243,193,29837,2,0,L|241:265,1,43.75,2|0,0:0|0:0,0:0:0:0:
347,148,30024,1,2,0:0:0:0:
144,142,30212,1,2,0:0:0:0:
144,142,30305,1,0,0:0:0:0:
144,142,30399,1,0,0:0:0:0:
112,276,30586,1,2,0:0:0:0:
6,100,30774,2,0,P|4:148|18:192,1,87.5,0|2,0:0|0:0,0:0:0:0:
190,119,31149,5,0,0:0:0:0:
57,11,31336,1,2,0:0:0:0:
115,174,31524,2,0,P|112:217|95:257,1,87.5,0|2,0:0|0:0,0:0:0:0:
78,281,31805,1,0,0:0:0:0:
57,298,31899,1,0,0:0:0:0:
206,352,32086,1,2,0:0:0:0:
206,352,32180,1,0,0:0:0:0:
206,352,32273,1,0,0:0:0:0:
329,254,32461,5,2,0:0:0:0:
319,382,32648,1,0,0:0:0:0:
208,234,32836,1,2,0:0:0:0:
394,328,33023,1,2,0:0:0:0:
178,328,33211,1,2,0:0:0:0:
152,324,33304,1,0,0:0:0:0:
128,320,33398,1,0,0:0:0:0:
117,202,33586,1,2,0:0:0:0:
24,384,33773,2,0,P|10:338|13:290,1,87.5,0|2,0:0|0:0,0:0:0:0:
21,274,34054,1,0,0:0:0:0:
38,254,34148,5,0,0:0:0:0:
11,122,34335,1,2,0:0:0:0:
254,172,34523,2,0,P|200:184|148:173,1,87.5,0|2,0:0|0:0,0:0:0:0:
136,169,34804,1,0,0:0:0:0:
111,151,34898,1,0,0:0:0:0:
205,71,35085,1,2,0:0:0:0:
205,71,35179,1,0,0:0:0:0:
205,71,35272,1,0,0:0:0:0:
345,133,35460,6,0,P|350:188|333:236,1,87.5,2|0,0:0|0:0,0:0:0:0:
427,89,35835,1,2,0:0:0:0:
264,169,36022,1,2,0:0:0:0:
431,246,36210,2,0,L|441:351,1,87.5,2|0,0:0|0:0,0:0:0:0:
342,218,36585,1,2,0:0:0:0:
249,341,36772,2,0,L|259:236,1,87.5,0|2,0:0|0:0,0:0:0:0:
260,223,37053,1,0,0:0:0:0:
263,191,37147,1,0,0:0:0:0:
80,294,37334,5,2,0:0:0:0:
100,151,37522,1,2,0:0:0:0:
177,248,37709,1,2,0:0:0:0:
14,341,37897,2,0,P|111:329|209:339,1,175
338,216,38459,1,2,0:0:0:0:
296,359,38646,5,8,3:0:0:0:
290,342,38740,1,8,3:0:0:0:
284,325,38834,1,10,3:0:0:0:
278,309,38928,1,8,3:0:0:0:
273,292,39021,1,10,3:0:0:0:
267,276,39115,1,8,3:0:0:0:
260,257,39209,5,4,0:2:0:0:
164,225,39771,5,0,0:0:0:0:
164,125,39959,1,0,0:0:0:0:
260,94,40708,5,0,0:0:0:0:
319,175,41271,5,0,0:0:0:0:
319,175,41364,1,0,0:0:0:0:
319,175,41458,1,0,0:0:0:0:
164,125,41645,1,0,0:0:0:0:
164,225,42020,5,0,0:0:0:0:
260,94,42208,1,0,0:0:0:0:
319,175,42770,5,0,0:0:0:0:
474,125,42958,1,0,0:0:0:0:
378,94,43332,5,0,0:0:0:0:
474,225,43707,5,8,0:0:0:0:
474,125,44082,5,0,0:0:0:0:
319,175,44270,1,0,0:0:0:0:
319,175,44363,1,0,0:0:0:0:
319,175,44457,1,0,0:0:0:0:
347,334,44645,2,0,L|312:309,1,43.75,2|0,0:0|0:0,0:0:0:0:
253,233,44832,2,0,L|293:215,1,43.75,2|0,0:0|0:0,0:0:0:0:
388,202,45019,2,0,L|384:246,1,43.75,2|0,0:0|0:0,0:0:0:0:
219,318,45207,6,0,P|138:341|69:288,1,175,2|2,0:0|0:0,0:0:0:0:
156,246,45769,1,0,0:0:0:0:
26,373,45957,2,0,L|31:169,1,175,2|2,0:0|0:0,0:0:0:0:
135,110,46519,1,2,0:0:0:0:
135,110,46613,1,2,0:0:0:0:
135,110,46706,6,0,P|188:124|243:105,1,87.5,2|0,0:0|0:0,0:0:0:0:
380,174,47081,2,0,P|327:160|272:179,1,87.5,2|0,0:0|0:0,0:0:0:0:
333,335,47456,2,0,L|329:236,1,87.5,2|0,0:0|0:0,0:0:0:0:
295,75,47831,1,2,0:0:0:0:
222,237,48018,1,2,0:0:0:0:
179,49,48206,6,0,L|183:148,1,87.5,2|0,0:0|0:0,0:0:0:0:
112,306,48581,2,0,L|115:218,1,87.5,2|0,0:0|0:0,0:0:0:0:
33,345,48956,1,2,0:0:0:0:
194,266,49143,1,0,0:0:0:0:
36,185,49331,1,2,0:0:0:0:
153,359,49518,1,2,0:0:0:0:
153,359,49612,1,2,0:0:0:0:
153,359,49705,6,0,L|249:352,1,87.5,2|0,0:0|0:0,0:0:0:0:
340,214,50080,1,2,0:0:0:0:
340,384,50268,1,2,0:0:0:0:
240,246,50455,1,2,0:0:0:0:
401,299,50643,1,2,0:0:0:0:
240,352,50830,5,0,3:0:0:0:
196,366,50924,1,0,3:0:0:0:
168,325,51018,1,0,3:0:0:0:
196,289,51111,1,0,3:0:0:0:
243,306,51205,1,4,3:1:0:0:
313,301,51955,5,6,0:1:0:0:
309,232,52705,6,0,B|296:155|322:85|322:85|359:106|345:164,1,210.000008010865,4|10,3:2|3:2,0:0:0:0:
188,226,53267,1,0,0:0:0:0:
207,55,53454,1,2,3:2:0:0:
207,55,53548,1,0,0:0:0:0:
211,57,53642,1,0,0:0:0:0:
309,232,53829,1,10,3:2:0:0:
120,166,54017,1,0,3:0:0:0:
310,135,54204,6,0,L|317:31,1,105.000004005432,2|0,3:2|0:0,0:0:0:0:
299,277,54579,1,10,3:2:0:0:
204,172,54766,1,0,0:0:0:0:
395,206,54954,2,0,L|509:237,1,105.000004005432,2|0,3:2|0:0,0:0:0:0:
173,278,55329,2,0,L|89:361,1,105.000004005432,10|0,3:2|0:0,0:0:0:0:
256,104,55704,6,0,L|225:-10,1,105.000004005432,6|2,3:2|0:0,0:0:0:0:
357,142,56078,1,10,3:2:0:0:
214,195,56266,2,0,L|-9:213,1,210.000008010865,4|0,0:0|0:0,0:0:0:0:
102,100,56828,1,10,3:2:0:0:
106,307,57016,1,0,3:2:0:0:
0,94,57203,6,0,P|28:38|197:50,1,210.000008010865,6|10,3:2|3:2,0:0:0:0:
259,173,57765,2,0,P|275:224|276:295,1,105.000004005432,4|2,0:0|3:2,0:0:0:0:
272,299,58047,1,0,0:0:0:0:
261,322,58140,1,0,0:0:0:0:
80,212,58328,6,0,L|120:59,1,119.000002269745,4|0,3:1|3:1,0:0:0:0:
401,96,58703,2,0,L|432:212,1,119.000002269745,4|0,3:1|2:1,0:0:0:0:
261,322,59078,6,0,P|236:235|324:173,1,210.000008010865,10|2,3:2|3:2,0:0:0:0:
349,183,59546,1,0,0:0:0:0:
369,202,59640,1,0,0:0:0:0:
261,322,59827,2,0,L|147:325,1,105.000004005432,10|2,3:2|3:2,0:0:0:0:
61,102,60202,5,6,3:2:0:0:
216,224,60390,1,0,0:0:0:0:
11,276,60577,1,10,3:2:0:0:
174,115,60765,2,0,L|155:326,1,210.000008010865,4|0,0:0|0:0,0:0:0:0:
300,153,61327,6,0,L|320:302,1,119.000002269745,6|4,3:1|3:1,0:0:0:0:
11,137,61702,2,0,L|48:16,1,119.000002269745,4|0,3:1|0:0,0:0:0:0:
145,203,62077,6,0,P|254:225|300:144,1,210.000008010865,2|2,3:2|3:2,0:0:0:0:
47,210,62639,2,0,L|57:325,1,105.000004005432,0|10,0:0|3:2,0:0:0:0:
213,143,63014,2,0,L|220:15,1,105.000004005432,2|6,0:0|3:2,0:0:0:0:
156,219,63389,2,0,P|222:237|288:199,1,105.000004005432,0|10,0:0|3:2,0:0:0:0:
416,113,63764,2,0,P|350:95|284:133,1,105.000004005432,4|2,0:0|0:0,0:0:0:0:
366,313,64138,1,0,0:0:0:0:
362,182,64326,1,14,3:2:0:0:
239,345,64513,1,2,3:2:0:0:
452,225,64701,6,0,P|459:168|432:84,1,119.000002269745,2|0,0:0|0:0,0:0:0:0:
196,87,65076,6,0,P|159:171|214:283,1,210.000008010865,10|2,0:0|0:0,0:0:0:0:
362,182,65638,2,0,P|294:174|230:188,1,105.000004005432,0|10,0:0|3:2,0:0:0:0:
251,375,66013,2,0,P|291:320|311:257,1,105.000004005432,4|2,0:0|3:2,0:0:0:0:
115,165,66388,2,0,P|142:227|186:276,1,105.000004005432,4|10,0:0|3:2,0:0:0:0:
429,269,66763,2,0,P|459:226|478:177,1,105.000004005432,4|2,0:0|3:2,0:0:0:0:
483,137,67044,1,0,0:0:0:0:
480,103,67138,1,0,0:0:0:0:
303,23,67325,1,10,3:2:0:0:
336,199,67512,1,2,3:2:0:0:
405,32,67700,6,0,P|326:18|280:32,1,105.000004005432,6|0,3:2|0:0,0:0:0:0:
190,140,68075,1,10,3:2:0:0:
336,199,68262,2,0,P|350:117|335:80,1,105.000004005432,4|2,0:0|3:2,0:0:0:0:
206,48,68637,1,0,0:0:0:0:
134,253,68824,1,10,3:2:0:0:
276,138,69012,1,2,3:2:0:0:
51,173,69199,6,0,L|25:290,1,105.000004005432,14|0,3:2|0:0,0:0:0:0:
281,354,69574,2,0,L|262:225,1,105.000004005432,6|0,3:2|0:0,0:0:0:0:
66,69,69949,2,0,L|47:198,1,105.000004005432,14|0,3:2|0:0,0:0:0:0:
265,250,70324,1,14,3:2:0:0:
162,133,70511,1,2,3:2:0:0:
207,342,70699,6,0,P|299:356|371:234,1,238.00000453949,4|2,3:1|3:2,0:0:0:0:
373,222,71168,1,0,0:0:0:0:
370,192,71261,1,0,0:0:0:0:
261,65,71449,5,2,3:2:0:0:
214,225,71636,1,0,0:0:0:0:
376,83,71824,1,10,3:2:0:0:
143,120,72011,1,2,0:0:0:0:
261,306,72198,6,8,P|311:220|250:135,1,210.000008010865,6|8,3:2|3:2,0:0:0:0:
66,134,72761,2,0,P|47:187|72:254,1,105.000004005432,4|2,0:0|3:2,0:0:0:0:
75,258,73042,1,0,0:0:0:0:
99,274,73136,1,0,0:0:0:0:
230,231,73323,1,2,3:2:0:0:
95,365,73511,1,2,0:0:0:0:
292,314,73698,5,4,3:1:0:0:
292,314,74823,5,10,0:0:0:0:
412,220,75010,1,0,3:2:0:0:
162,241,75198,1,4,3:1:0:0:
162,241,76510,5,2,0:0:0:0:
375,198,76697,5,4,3:1:0:0:
311,123,77072,5,10,0:0:0:0:
311,123,77259,1,0,0:0:0:0:
259,352,77447,5,4,3:1:0:0:
340,308,77822,5,10,0:0:0:0:
340,308,78009,1,0,3:0:0:0:
101,276,78197,5,4,3:1:0:0:
420,218,78571,1,4,3:1:0:0:
89,139,78946,5,0,3:0:0:0:
348,93,79134,1,0,3:0:0:0:
48,38,79321,1,4,3:1:0:0:
48,38,79696,5,2,0:0:0:0:
90,29,79790,1,0,0:0:0:0:
133,32,79884,1,0,0:0:0:0:
172,50,79977,1,0,0:0:0:0:
209,72,80071,1,10,0:0:0:0:
251,81,80165,1,0,0:0:0:0:
294,78,80258,1,0,0:0:0:0:
333,60,80352,1,0,0:0:0:0:
369,35,80446,5,2,0:0:0:0:
389,73,80540,1,0,0:0:0:0:
399,116,80633,2,0,L|399:195,1,43.75
396,320,80821,1,10,0:0:0:0:
344,296,80914,1,0,0:0:0:0:
286,296,81008,1,10,0:0:0:0:
233,317,81102,1,0,0:0:0:0:
196,360,81196,6,0,L|135:333,1,43.75,6|0,0:0|0:0,0:0:0:0:
52,199,81383,1,0,0:0:0:0:
46,141,81477,1,0,0:0:0:0:
56,86,81571,2,0,L|67:28,1,43.75,10|0,0:0|0:0,0:0:0:0:
159,178,81758,2,0,L|167:237,1,43.75
256,39,81945,1,2,0:0:0:0:
352,203,82133,5,0,0:0:0:0:
387,177,82227,1,0,0:0:0:0:
412,142,82320,1,10,0:0:0:0:
425,100,82414,1,0,0:0:0:0:
426,57,82508,2,0,L|410:3,1,43.75,10|0,0:0|0:0,0:0:0:0:
251,138,82695,5,6,0:1:0:0:
232,177,82789,1,0,0:0:0:0:
226,220,82883,1,0,0:0:0:0:
235,263,82976,1,0,0:0:0:0:
258,300,83070,1,10,0:0:0:0:
308,278,83164,1,0,0:0:0:0:
361,268,83257,1,0,0:0:0:0:
416,270,83351,1,0,0:0:0:0:
469,284,83445,6,0,L|495:223,1,43.75,2|0,0:0|0:0,0:0:0:0:
347,50,83632,2,0,L|348:99,1,43.75
228,239,83820,1,10,0:0:0:0:
187,255,83914,1,0,0:0:0:0:
144,256,84007,1,10,0:0:0:0:
102,242,84101,1,0,0:0:0:0:
68,215,84195,5,2,0:0:0:0:
62,173,84288,1,0,0:0:0:0:
86,137,84382,1,0,0:0:0:0:
128,127,84476,1,0,0:0:0:0:
165,148,84570,1,10,0:0:0:0:
169,191,84663,1,0,0:0:0:0:
173,234,84757,1,0,0:0:0:0:
178,277,84851,1,0,0:0:0:0:
184,320,84944,1,2,0:0:0:0:
299,235,85132,1,0,0:0:0:0:
340,221,85226,1,0,0:0:0:0:
384,217,85319,6,0,L|442:235,1,43.75,14|0,0:1|0:0,0:0:0:0:
302,78,85507,2,0,L|240:98,1,43.75,14|0,0:1|0:0,0:0:0:0:
339,312,85694,5,2,0:0:0:0:
328,353,85788,1,0,0:0:0:0:
291,374,85882,1,0,0:0:0:0:
250,362,85975,1,0,0:0:0:0:
235,324,86069,1,10,0:0:0:0:
193,313,86163,1,0,0:0:0:0:
172,276,86257,1,0,0:0:0:0:
184,235,86350,1,0,0:0:0:0:
217,213,86444,1,10,0:0:0:0:
212,170,86538,1,0,0:0:0:0:
240,138,86631,1,0,0:0:0:0:
282,135,86725,1,0,0:0:0:0:
318,156,86819,5,10,0:0:0:0:
350,109,86913,1,0,0:0:0:0:
398,78,87006,1,10,0:0:0:0:
454,70,87100,1,0,0:0:0:0:
510,74,87194,2,0,L|527:145,1,43.75,2|0,0:0|0:0,0:0:0:0:
445,276,87381,2,0,L|449:232,1,43.75
308,17,87569,1,10,0:0:0:0:
149,139,87756,5,0,0:0:0:0:
133,188,87850,1,0,0:0:0:0:
130,238,87944,2,0,L|144:309,1,43.75,10|0,0:0|0:0,0:0:0:0:
35,126,88131,2,0,L|50:64,1,43.75
217,215,88318,1,10,0:0:0:0:
268,225,88412,1,0,0:0:0:0:
319,216,88506,1,10,0:0:0:0:
362,186,88600,1,0,0:0:0:0:
385,138,88693,5,2,0:0:0:0:
413,181,88787,1,0,0:0:0:0:
424,232,88881,1,0,0:0:0:0:
420,284,88974,1,0,0:0:0:0:
379,317,89068,1,10,0:0:0:0:
329,301,89162,1,0,0:0:0:0:
276,302,89256,1,0,0:0:0:0:
227,322,89349,1,0,0:0:0:0:
204,359,89443,5,10,0:0:0:0:
173,327,89537,1,0,0:0:0:0:
164,283,89630,1,0,0:0:0:0:
181,242,89724,1,0,0:0:0:0:
212,211,89818,2,8,L|195:146,1,43.75,8|0,0:0|0:0,0:0:0:0:
343,71,90005,2,0,L|330:112,1,43.75,8|0,0:0|0:0,0:0:0:0:
184,9,90193,1,2,0:0:0:0:
92,155,90380,5,0,0:0:0:0:
79,204,90474,1,0,0:0:0:0:
108,246,90568,1,10,0:0:0:0:
159,253,90661,1,0,0:0:0:0:
197,220,90755,1,0,0:0:0:0:
199,169,90849,1,0,0:0:0:0:
181,125,90943,5,10,0:0:0:0:
225,66,91036,1,0,0:0:0:0:
292,35,91130,1,0,0:0:0:0:
365,34,91224,1,0,0:0:0:0:
435,59,91317,5,10,0:0:0:0:
414,131,91411,1,0,0:0:0:0:
390,200,91505,1,10,0:0:0:0:
365,271,91599,1,0,0:0:0:0:
330,345,91692,6,0,L|161:316,1,119.000002269745,6|0,1:2|0:0,0:0:0:0:
107,320,91974,2,0,L|216:188,1,119.000002269745,12|0,1:0|0:0,0:0:0:0:
240,139,92255,2,0,L|299:299,1,119.000002269745,12|0,1:0|0:0,0:0:0:0:
343,22,92630,5,4,1:0:0:0:
120,187,92817,1,8,0:0:0:0:
64,232,92911,1,8,0:0:0:0:
89,299,93004,1,8,0:0:0:0:
160,297,93098,1,8,0:3:0:0:
182,228,93192,1,12,2:0:0:0:
