osu file format v14

[General]
AudioFilename: audio.mp3
AudioLeadIn: 0
PreviewTime: 51212
Countdown: 1
SampleSet: Soft
StackLeniency: 0.3
Mode: 0
LetterboxInBreaks: 0
WidescreenStoryboard: 1

[Editor]
Bookmarks: 12978,24978,27228,39212,51212,64712,73712,79712,93305,97712,98087
DistanceSpacing: 1.1
BeatDivisor: 4
GridSize: 32
TimelineZoom: 1

[Metadata]
Title:Senpuu no Mai [Ten]
TitleUnicode:旋風ノ舞【天】
Artist:Ayane
ArtistUnicode:彩音
Creator:Antares-
Version:Tempest of the Heavens
Source:太鼓の達人
Tags:asonate fursum taiko no tatsujin tatsh zeami 世阿弥 original soundtrack full combo!
BeatmapID:1327975
BeatmapSetID:629057

[Difficulty]
HPDrainRate:5
CircleSize:4
OverallDifficulty:8.5
ApproachRate:9.5
SliderMultiplier:1.8
SliderTickRate:1

[Events]
//Background and Video events
0,0,"tapeta.jpg",0,0
//Break Periods
//Storyboard Layer 0 (Background)
//Storyboard Layer 1 (Fail)
//Storyboard Layer 2 (Pass)
//Storyboard Layer 3 (Foreground)
//Storyboard Sound Samples

[TimingPoints]
223,374.882849109653,4,2,1,40,1,0
223,-133.333333333333,4,2,1,40,0,0
10719,-200,4,2,1,40,0,0
12969,374.882849109653,4,2,1,75,1,1
12969,-57.1428571428571,4,2,1,75,0,1
18592,-100,4,2,1,75,0,1
18873,-100,4,2,1,5,0,1
18967,-57.1428571428571,4,2,1,75,0,1
24965,-100,4,2,1,75,0,1
25902,-50,4,2,1,75,0,1
26464,-200,4,2,1,40,0,0
27120,-200,4,2,1,5,0,0
27214,374.882849109653,4,2,1,60,1,0
27214,-100,4,2,1,60,0,0
27495,-100,4,2,1,5,0,0
27588,-66.6666666666667,4,2,1,60,0,0
27776,-133.333333333333,4,2,1,60,0,0
28057,-133.333333333333,4,2,1,5,0,0
28151,-100,4,2,1,60,0,0
28432,-100,4,2,1,5,0,0
28526,-133.333333333333,4,2,1,60,0,0
29838,-66.6666666666667,4,2,1,60,0,0
30213,-100,4,2,1,60,0,0
30494,-100,4,2,1,5,0,0
30587,-66.6666666666667,4,2,1,60,0,0
30775,-133.333333333333,4,2,1,60,0,0
31056,-133.333333333333,4,2,1,5,0,0
31150,-133.333333333333,4,2,1,60,0,0
32837,-66.6666666666667,4,2,1,60,0,0
33212,-100,4,2,1,60,0,0
33493,-100,4,2,1,5,0,0
33587,-66.6666666666667,4,2,1,60,0,0
33774,-133.333333333333,4,2,1,60,0,0
34055,-133.333333333333,4,2,1,5,0,0
34149,-100,4,2,1,60,0,0
34430,-100,4,2,1,5,0,0
34524,-133.333333333333,4,2,1,60,0,0
35742,-133.333333333333,4,2,1,5,0,0
35836,-133.333333333333,4,2,1,60,0,0
36117,-133.333333333333,4,2,1,5,0,0
36211,-100,4,2,1,60,0,0
36492,-100,4,2,1,5,0,0
36586,-66.6666666666667,4,2,1,60,0,0
36773,-133.333333333333,4,2,1,60,0,0
37335,-66.6666666666667,4,2,1,60,0,0
37710,-400,4,2,1,60,0,0
38273,-400,4,2,1,5,0,0
38460,-80,4,2,1,70,0,0
39210,-133.333333333333,4,2,1,60,0,0
40990,-133.333333333333,4,2,1,5,0,0
41084,-133.333333333333,4,2,1,60,0,0
41928,-133.333333333333,4,2,1,5,0,0
42021,-133.333333333333,4,2,1,60,0,0
43240,-133.333333333333,4,2,1,5,0,0
43333,-133.333333333333,4,2,1,60,0,0
43615,-133.333333333333,4,2,1,5,0,0
43708,-133.333333333333,4,2,1,60,0,0
43990,-133.333333333333,4,2,1,5,0,0
44083,-133.333333333333,4,2,1,60,0,0
45208,-133.333333333333,4,2,1,70,0,0
45489,-133.333333333333,4,2,1,5,0,0
45583,-100,4,2,1,70,0,0
45864,-100,4,2,1,5,0,0
45958,-100,4,2,1,70,0,0
46239,-100,4,2,1,5,0,0
46333,-100,4,2,1,70,0,0
46707,-133.333333333333,4,2,1,70,0,0
47738,-133.333333333333,4,2,1,5,0,0
47832,-133.333333333333,4,2,1,70,0,0
48113,-133.333333333333,4,2,1,5,0,0
48207,-100,4,2,1,70,0,0
49706,-100,4,2,1,70,0,0
49988,-100,4,2,1,5,0,0
50081,-100,4,2,1,70,0,0
51393,-133.333333333333,4,2,1,60,0,0
51675,-133.333333333333,4,2,1,5,0,0
51768,-133.333333333333,4,2,1,60,0,0
51956,-200,4,2,1,60,0,0
52237,-200,4,2,1,5,0,0
52331,-200,4,2,1,60,0,0
52612,-200,4,2,1,5,0,0
52706,-50,4,2,1,70,0,0
52987,-50,4,2,1,5,0,0
53080,-50,4,2,1,70,0,0
53736,-50,4,2,1,5,0,0
53830,-40,4,2,1,70,0,0
54205,-80,4,2,1,70,0,0
54486,-80,4,2,1,5,0,0
54580,-50,4,2,1,70,0,0
54955,-66.6666666666667,4,2,1,70,0,0
55236,-66.6666666666667,4,2,1,5,0,0
55330,-66.6666666666667,4,2,1,70,0,0
55611,-66.6666666666667,4,2,1,5,0,0
55705,-50,4,2,1,70,0,0
55986,-50,4,2,1,5,0,0
56079,-50,4,2,1,70,0,0
56736,-50,4,2,1,5,0,0
56829,-40,4,2,1,70,0,0
57204,-50,4,2,1,70,0,0
57485,-50,4,2,1,5,0,0
57579,-50,4,2,1,70,0,0
58048,-50,4,2,1,5,0,0
58141,-50,4,2,1,70,0,0
58329,-40,4,2,1,70,0,0
58704,-66.6666666666667,4,2,1,70,0,0
58985,-66.6666666666667,4,2,1,5,0,0
59079,-50,4,2,1,70,0,0
59360,-50,4,2,1,5,0,0
59453,-50,4,2,1,70,0,0
59735,-50,4,2,1,5,0,0
59828,-66.6666666666667,4,2,1,70,0,0
60109,-66.6666666666667,4,2,1,5,0,0
60203,-50,4,2,1,70,0,0
61047,-50,4,2,1,5,0,0
61140,-50,4,2,1,70,0,0
61328,-40,4,2,1,70,0,0
61703,-66.6666666666667,4,2,1,70,0,0
61984,-66.6666666666667,4,2,1,5,0,0
62078,-50,4,2,1,70,0,0
62359,-50,4,2,1,5,0,0
62452,-50,4,2,1,70,0,0
62921,-50,4,2,1,5,0,0
63015,-66.6666666666667,4,2,1,70,0,0
63296,-66.6666666666667,4,2,1,5,0,0
63390,-66.6666666666667,4,2,1,70,0,0
63671,-66.6666666666667,4,2,1,5,0,0
63765,-50,4,2,1,70,0,0
64702,-66.6666666666667,4,2,1,70,0,0
64983,-66.6666666666667,4,2,1,5,0,0
65077,-50,4,2,1,70,0,0
65358,-50,4,2,1,5,0,0
65452,-50,4,2,1,70,0,0
65920,-50,4,2,1,5,0,0
66014,-66.6666666666667,4,2,1,70,0,0
66295,-66.6666666666667,4,2,1,5,0,0
66389,-66.6666666666667,4,2,1,70,0,0
66670,-66.6666666666667,4,2,1,5,0,0
66764,-66.6666666666667,4,2,1,70,0,0
67045,-66.6666666666667,4,2,1,5,0,0
67139,-50,4,2,1,70,0,0
67701,-66.6666666666667,4,2,1,70,0,0
67982,-66.6666666666667,4,2,1,5,0,0
68076,-50,4,2,1,70,0,0
68544,-50,4,2,1,5,0,0
68638,-50,4,2,1,70,0,0
68825,-40,4,2,1,70,0,0
69200,-50,4,2,1,70,0,0
69482,-50,4,2,1,5,0,0
69575,-50,4,2,1,70,0,0
69856,-50,4,2,1,5,0,0
69950,-50,4,2,1,70,0,0
70231,-50,4,2,1,5,0,0
70325,-50,4,2,1,70,0,0
70606,-50,4,2,1,5,0,0
70700,-50,4,2,1,70,0,0
70981,-50,4,2,1,5,0,0
71075,-50,4,2,1,70,0,0
71356,-50,4,2,1,5,0,0
71450,-50,4,2,1,70,0,0
72199,-66.6666666666667,4,2,1,70,0,0
72481,-66.6666666666667,4,2,1,5,0,0
72574,-50,4,2,1,70,0,0
73043,-50,4,2,1,5,0,0
73137,-50,4,2,1,70,0,0
73324,-40,4,2,1,70,0,0
74261,-200,4,2,1,70,0,0
75011,-200,4,2,1,70,0,0
75199,-50,4,2,1,70,0,0
75761,-100,4,2,1,70,0,0
76042,-100,4,2,1,70,0,0
76136,-100,4,2,1,70,0,0
76417,-100,4,2,1,70,0,0
76511,-100,4,2,1,70,0,0
76698,-133.333333333333,4,2,1,70,0,0
78198,-66.6666666666667,4,2,1,70,0,0
78947,-33.3333333333333,4,2,1,70,0,0
79322,-100,4,2,1,70,0,0
79697,-57.1428571428571,4,2,1,75,0,1
85320,-100,4,2,1,75,0,1
85602,-100,4,2,1,5,0,1
85695,-57.1428571428571,4,2,1,75,0,1
91693,-100,4,2,1,75,0,1
92631,-50,4,2,1,75,0,1
93193,-50,4,2,1,75,0,0

[Colours]
Combo1 : 128,0,64
Combo2 : 128,128,192
Combo3 : 128,0,128
Combo4 : 172,172,172

[HitObjects]
101,319,223,5,0,0:0:0:0:
182,283,410,1,0,0:0:0:0:
264,315,597,1,0,0:0:0:0:
345,278,785,1,0,0:0:0:0:
430,306,972,6,0,P|445:231|425:174,1,135.000005149842
367,81,1535,1,2,0:0:0:0:
247,197,1722,1,2,0:0:0:0:
247,197,2097,1,2,0:0:0:0:
247,197,2472,6,0,P|264:143|245:89,1,101.250003862381,0|0,0:0|0:0,0:0:0:0:
235,152,2847,2,0,P|218:206|237:260,1,101.250003862381,0|0,0:0|0:0,0:0:0:0:
247,197,3222,6,0,L|381:188,1,135.000005149842,2|0,0:0|0:0,0:0:0:0:
397,179,3784,1,2,0:0:0:0:
304,108,3971,2,0,L|169:116,1,135.000005149842,2|0,0:0|0:0,0:0:0:0:
154,126,4534,1,2,0:0:0:0:
317,192,4721,5,2,0:0:0:0:
317,192,5096,1,2,0:0:0:0:
317,192,5658,5,0,0:0:0:0:
426,1,5846,1,0,0:0:0:0:
437,239,6033,1,0,0:0:0:0:
326,65,6221,5,2,0:0:0:0:
250,36,6408,1,0,0:0:0:0:
173,62,6596,1,2,0:0:0:0:
95,39,6783,1,0,0:0:0:0:
38,164,6970,6,0,P|109:181|180:152,1,135.000005149842,4|0,0:0|0:0,0:0:0:0:
235,117,7533,1,2,0:0:0:0:
274,291,7720,1,2,0:0:0:0:
274,291,8095,1,2,0:0:0:0:
274,291,8470,5,0,0:0:0:0:
331,235,8845,1,0,0:0:0:0:
348,312,9220,6,0,P|401:268|393:189,1,135.000005149842,2|0,0:0|0:0,0:0:0:0:
371,133,9782,2,0,P|356:71|402:9,1,135.000005149842,2|0,0:0|0:0,0:0:0:0:
440,84,10344,1,0,0:0:0:0:
227,190,10532,1,2,0:0:0:0:
278,34,10719,5,2,0:0:0:0:
199,60,11094,1,2,0:0:0:0:
122,30,11469,2,0,P|55:28|112:80,1,180,4|0,0:0|0:0,0:0:0:0:
255,90,12406,5,2,0:0:0:0:
259,90,12469,1,0,0:0:0:0:
262,90,12531,1,0,0:0:0:0:
266,90,12594,1,2,0:0:0:0:
111,100,12969,5,4,0:0:0:0:
179,57,13062,1,0,0:0:0:0:
255,90,13156,2,0,L|221:189,1,78.7500007510185
46,218,13343,5,2,0:0:0:0:
3,150,13437,1,0,0:0:0:0:
36,74,13531,2,0,L|135:108,1,78.7500007510185
164,282,13718,5,8,0:0:0:0:
96,325,13812,1,0,0:0:0:0:
20,292,13906,2,0,L|54:193,1,78.7500007510185
229,164,14093,6,0,L|303:189,1,78.7500007510185,2|0,0:0|0:0,0:0:0:0:
239,308,14281,2,0,L|140:274,1,78.7500007510185
46,218,14468,5,4,0:0:0:0:
13,146,14562,1,0,0:0:0:0:
28,68,14655,1,0,0:0:0:0:
90,19,14749,1,0,0:0:0:0:
168,16,14843,6,0,B|172:61|129:88|129:88|203:126|299:57,1,236.250002253056,2|0,0:0|0:0,0:0:0:0:
379,29,15218,2,0,P|420:17|477:29,1,78.7500007510185,4|0,0:0|0:0,0:0:0:0:
306,140,15405,2,0,P|269:161|221:171,1,78.7500007510185
409,139,15593,5,2,0:0:0:0:
460,203,15686,1,0,0:0:0:0:
452,284,15780,1,0,0:0:0:0:
393,341,15874,1,0,0:0:0:0:
313,359,15968,1,8,0:0:0:0:
236,332,16061,1,0,0:0:0:0:
157,358,16155,2,0,L|114:261,1,78.7500007510185
54,174,16342,5,2,0:0:0:0:
132,148,16436,1,0,0:0:0:0:
210,173,16530,1,0,0:0:0:0:
288,149,16624,1,0,0:0:0:0:
359,189,16717,6,0,L|301:272,1,78.7500007510185,8|0,0:0|0:0,0:0:0:0:
420,384,16905,2,0,L|465:319,1,78.7500007510185
354,165,17092,6,0,L|296:248,1,78.7500007510185,2|0,0:0|0:0,0:0:0:0:
415,360,17280,2,0,L|460:295,1,78.7500007510185
438,136,17467,5,4,0:0:0:0:
380,82,17561,1,0,0:0:0:0:
302,98,17655,1,0,0:0:0:0:
278,173,17748,1,0,0:0:0:0:
278,253,17842,1,2,0:0:0:0:
230,315,17936,1,0,0:0:0:0:
150,313,18029,1,0,0:0:0:0:
114,244,18123,1,0,0:0:0:0:
125,166,18217,6,0,L|211:179,1,78.7500007510185,8|0,0:0|0:0,0:0:0:0:
355,264,18404,2,0,L|277:252,1,78.7500007510185,8|0,0:0|0:0,0:0:0:0:
268,48,18592,6,0,P|295:108|270:181,1,135,2|0,0:0|0:0,0:0:0:0:
212,290,18967,5,4,0:0:0:0:
144,333,19060,1,0,0:0:0:0:
68,300,19154,2,0,L|102:201,1,78.7500007510185
277,172,19342,5,2,0:0:0:0:
320,240,19435,1,0,0:0:0:0:
287,316,19529,2,0,L|188:282,1,78.7500007510185
159,108,19716,5,8,0:0:0:0:
227,65,19810,1,0,0:0:0:0:
303,98,19904,2,0,L|269:197,1,78.7500007510185
94,226,20091,6,0,L|20:201,1,78.7500007510185,2|0,0:0|0:0,0:0:0:0:
84,82,20279,2,0,L|183:116,1,78.7500007510185
277,172,20466,5,4,0:0:0:0:
310,244,20560,1,0,0:0:0:0:
261,306,20654,2,0,L|187:281,1,78.7500007510185
193,133,20841,2,0,L|267:157,1,78.7500007510185,2|0,0:0|0:0,0:0:0:0:
270,318,21028,5,0,0:0:0:0:
195,292,21122,1,0,0:0:0:0:
122,262,21216,2,0,B|74:228|77:179|77:179|42:264|72:327,1,236.250002253056,8|0,0:0|0:0,0:0:0:0:
161,185,21591,2,0,P|152:139|121:108,1,78.7500007510185,2|0,0:0|0:0,0:0:0:0:
196,292,21778,2,0,P|242:283|273:252,1,78.7500007510185
294,117,21966,5,4,0:0:0:0:
365,84,22059,1,0,0:0:0:0:
435,120,22153,2,0,L|456:207,1,78.7500007510185
393,356,22341,5,2,0:0:0:0:
319,383,22434,1,0,0:0:0:0:
244,355,22528,1,0,0:0:0:0:
196,292,22622,1,0,0:0:0:0:
204,213,22715,1,8,0:0:0:0:
166,144,22809,1,0,0:0:0:0:
87,134,22903,2,0,L|42:209,1,78.7500007510185
117,290,23090,2,0,L|204:291,1,78.7500007510185,2|0,0:0|0:0,0:0:0:0:
238,187,23278,2,0,L|195:110,1,78.7500007510185
43,52,23465,5,4,0:0:0:0:
18,127,23559,1,0,0:0:0:0:
46,201,23653,2,0,L|144:170,1,78.7500007510185
312,148,23840,5,2,0:0:0:0:
336,72,23934,1,0,0:0:0:0:
307,0,24028,2,0,L|209:30,1,78.7500007510185
90,30,24215,5,8,0:0:0:0:
31,94,24309,1,0,0:0:0:0:
50,177,24402,1,2,0:0:0:0:
130,209,24496,1,0,0:0:0:0:
215,195,24590,5,8,0:0:0:0:
258,269,24684,1,0,0:0:0:0:
224,348,24777,1,2,0:0:0:0:
141,374,24871,1,0,0:0:0:0:
56,348,24965,6,0,L|37:221,1,90,8|0,0:0|0:0,0:0:0:0:
63,266,25246,2,0,L|44:139,1,90,8|0,0:0|0:0,0:0:0:0:
70,184,25527,2,0,L|51:57,1,90,8|0,0:0|0:0,0:0:0:0:
214,58,25902,6,0,L|227:147,1,90,8|0,0:0|0:0,0:0:0:0:
244,118,26089,2,0,L|257:207,1,90,8|0,0:0|0:0,0:0:0:0:
274,178,26277,2,0,L|287:267,1,90,8|0,0:0|0:0,0:0:0:0:
434,237,26464,6,0,L|412:77,1,157.5,2|0,0:0|0:0,0:0:0:0:
400,62,27214,6,0,P|327:45|250:74,1,135,4|0,0:0|0:0,0:0:0:0:
153,169,27589,2,0,L|180:88,1,67.5000025749208,2|0,0:0|0:0,0:0:0:0:
270,60,27776,2,0,L|234:169,1,101.250003862381,8|0,0:0|0:0,0:0:0:0:
102,246,28151,6,0,P|71:204|77:115,1,135,2|0,0:0|0:0,0:0:0:0:
288,89,28526,6,0,L|240:231,1,135.000005149842,8|0,0:0|0:0,0:0:0:0:
179,61,29088,2,0,L|218:55,1,33.7500012874604,8|0,0:0|0:0,0:0:0:0:
288,89,29276,2,0,L|338:80,1,33.7500012874604
407,118,29463,1,2,0:0:0:0:
322,235,29651,1,0,0:0:0:0:
397,138,29838,6,0,L|403:56,1,67.5000025749208,2|0,0:0|0:0,0:0:0:0:
312,255,30026,2,0,L|316:187,1,67.5000025749208,2|0,0:0|0:0,0:0:0:0:
222,126,30213,6,0,P|160:102|86:134,1,135,4|0,0:0|0:0,0:0:0:0:
131,268,30588,2,0,L|156:206,1,67.5000025749208,2|0,0:0|0:0,0:0:0:0:
97,123,30775,2,0,L|52:237,1,101.250003862381,8|0,0:0|0:0,0:0:0:0:
51,305,31150,1,2,0:0:0:0:
156,206,31338,1,2,0:0:0:0:
190,347,31525,6,0,L|356:357,1,135.000005149842,8|0,0:0|0:0,0:0:0:0:
441,288,32088,2,0,L|396:285,1,33.7500012874604,8|0,0:0|0:0,0:0:0:0:
352,228,32275,2,0,L|307:225,1,33.7500012874604
263,168,32462,1,2,0:0:0:0:
324,355,32650,1,0,0:0:0:0:
246,184,32837,6,0,L|250:113,1,67.5000025749208,2|0,0:0|0:0,0:0:0:0:
307,368,33025,2,0,L|311:297,1,67.5000025749208,2|0,0:0|0:0,0:0:0:0:
380,129,33212,6,0,P|414:195|381:279,1,135,4|0,0:0|0:0,0:0:0:0:
246,184,33587,2,0,L|310:203,1,67.5000025749208,2|0,0:0|0:0,0:0:0:0:
250,268,33775,2,0,L|153:238,1,101.250003862381,8|0,0:0|0:0,0:0:0:0:
234,57,34149,6,0,P|261:118|246:183,1,135,2|0,0:0|0:0,0:0:0:0:
154,128,34524,6,0,L|11:85,1,135.000005149842,8|0,0:0|0:0,0:0:0:0:
251,75,35087,2,0,L|260:137,1,33.7500012874604,8|0,0:0|0:0,0:0:0:0:
309,179,35274,2,0,L|318:241,1,33.7500012874604
363,287,35461,2,0,P|395:249|401:199,1,101.250003862381,2|0,0:0|0:0,0:0:0:0:
375,109,35836,2,0,P|362:44|388:-9,1,101.250003862381,8|0,0:0|0:0,0:0:0:0:
309,179,36211,6,0,P|246:200|179:177,1,135,4|0,0:0|0:0,0:0:0:0:
207,40,36586,2,0,L|244:97,1,67.5000025749208,2|0,0:0|0:0,0:0:0:0:
182,179,36773,2,0,L|105:67,1,135.000005149842,8|0,0:0|0:0,0:0:0:0:
207,40,37336,6,0,L|242:97,1,67.5000025749208,2|0,0:0|0:0,0:0:0:0:
361,127,37523,2,0,L|323:70,1,67.5000025749208,2|0,0:0|0:0,0:0:0:0:
235,208,37711,6,0,L|303:208,1,67.5,4|0,0:0|0:0,0:0:0:0:
102,171,38461,6,0,L|157:151,1,56.25,2|0,0:0|0:0,0:0:0:0:
235,208,38648,2,0,L|182:227,1,56.25
223,66,38835,2,0,L|278:46,1,56.25,2|0,0:0|0:0,0:0:0:0:
356,103,39023,2,0,L|303:122,1,56.25
428,28,39210,6,0,P|457:97|433:177,1,135.000005149842,4|0,0:0|0:0,0:0:0:0:
400,227,39773,1,2,0:0:0:0:
356,103,39960,6,0,P|290:89|222:104,1,135.000005149842,8|0,0:0|0:0,0:0:0:0:
152,147,40522,1,2,0:0:0:0:
248,305,40710,6,0,L|278:188,1,101.250003862381,12|0,0:0|0:0,0:0:0:0:
282,175,41085,1,8,0:0:0:0:
191,296,41272,1,2,0:0:0:0:
248,305,41366,1,0,0:0:0:0:
304,316,41460,1,2,0:0:0:0:
425,222,41647,2,0,P|444:162|427:118,1,101.250003862381,4|0,0:0|0:0,0:0:0:0:
367,171,42022,1,2,0:0:0:0:
313,74,42209,6,0,P|258:57|184:75,1,135.000005149842,8|0,0:0|0:0,0:0:0:0:
132,139,42772,1,2,0:0:0:0:
248,178,42959,6,0,L|277:283,1,101.250003862381,8|0,0:0|0:0,0:0:0:0:
199,326,43334,2,0,L|232:217,1,101.250003862381,8|0,0:0|0:0,0:0:0:0:
408,361,43709,6,0,L|291:361,1,101.250003862381,4|0,0:0|0:0,0:0:0:0:
228,229,44084,2,0,L|276:229,1,33.7500012874604,2|0,0:0|0:0,0:0:0:0:
364,281,44271,2,0,L|330:281,1,33.7500012874604
151,262,44459,1,2,0:0:0:0:
98,328,44646,2,0,P|67:261|96:197,1,135.000005149842,8|0,0:0|0:0,0:0:0:0:
236,57,45208,6,0,L|263:164,1,101.250003862381,4|0,0:0|0:0,0:0:0:0:
198,186,45583,2,0,L|236:57,1,135
296,153,45958,2,0,L|333:304,1,135,4|0,0:0|0:0,0:0:0:0:
187,230,46333,6,0,L|209:147,1,45,2|0,0:0|0:0,0:0:0:0:
328,284,46521,2,0,L|339:327,1,45,2|0,0:0|0:0,0:0:0:0:
222,323,46708,6,0,L|94:323,1,101.250003862381,4|0,0:0|0:0,0:0:0:0:
87,323,47083,1,2,0:0:0:0:
262,249,47270,1,0,0:0:0:0:
63,192,47458,2,0,P|47:143|68:84,1,101.250003862381,8|0,0:0|0:0,0:0:0:0:
134,43,47833,2,0,P|150:90|140:138,1,101.250003862381,8|0,0:0|0:0,0:0:0:0:
63,192,48207,6,0,P|131:233|228:184,1,180,4|0,0:0|0:0,0:0:0:0:
218,198,48770,1,2,0:0:0:0:
138,150,48957,5,8,0:0:0:0:
351,117,49145,1,2,0:0:0:0:
178,79,49332,1,8,0:0:0:0:
391,188,49520,1,2,0:0:0:0:
100,211,49707,2,0,P|82:279|100:346,1,135,4|0,0:0|0:0,0:0:0:0:
277,296,50082,5,2,0:0:0:0:
319,181,50269,1,0,0:0:0:0:
249,80,50457,1,2,0:0:0:0:
126,79,50644,1,0,0:0:0:0:
194,181,50832,5,2,0:0:0:0:
256,206,50925,1,0,0:0:0:0:
319,181,51019,1,2,0:0:0:0:
353,122,51113,1,0,0:0:0:0:
340,56,51207,1,0,0:0:0:0:
190,81,51393,6,0,L|165:206,1,101.250003862381,8|0,0:0|0:0,0:0:0:0:
165,204,51769,1,2,0:0:0:0:
70,130,51956,2,0,L|54:204,1,67.5,8|0,0:0|0:0,0:0:0:0:
192,342,52331,2,0,L|206:276,1,67.5,8|0,0:0|0:0,0:0:0:0:
247,63,52706,6,0,B|290:27|329:27|371:50|371:50|284:113|307:199,1,270,4|0,0:0|0:0,0:0:0:0:
331,248,53080,2,0,P|369:223|390:183,1,90,8|0,0:0|0:0,0:0:0:0:
211,137,53268,2,0,P|209:182|229:222,1,90
247,63,53455,2,0,B|184:41|146:90|146:90|98:97|46:89|36:26|106:33,1,270,8|0,0:0|0:0,0:0:0:0:
12,319,53830,6,0,P|72:278|152:296,1,112.5,2|0,0:0|0:0,0:0:0:0:
230,222,54018,6,0,P|178:181|169:128,1,112.5,2|0,0:0|0:0,0:0:0:0:
159,0,54205,6,0,B|184:33|184:33|315:33,1,168.75,4|0,0:0|0:0,0:0:0:0:
412,31,54580,6,0,L|332:128,1,90,2|0,0:0|0:0,0:0:0:0:
376,195,54767,2,0,L|433:125,1,90
503,267,54955,6,0,B|477:298|477:298|405:285|405:285|463:217,1,202.500007724762,8|0,0:0|0:0,2:0:0:0:
256,326,55330,2,0,B|200:279|200:279|356:279,1,202.500007724762,8|0,0:0|0:0,0:0:0:0:
180,362,55705,6,0,B|103:288|103:288|142:252|129:206|129:206|232:206,1,270,4|0,0:0|0:0,0:0:0:0:
279,162,56079,2,0,P|223:119|162:124,1,90,2|0,0:0|0:0,0:0:0:0:
57,161,56267,2,0,P|113:204|174:199,1,90,2|0,0:0|0:0,0:0:0:0:
292,240,56454,6,0,B|355:270|408:184|340:119|280:163|280:163|283:83|374:74,1,270,8|0,0:0|0:0,0:0:0:0:
350,0,56829,6,0,P|371:53|441:86,1,112.5,2|0,0:0|0:0,0:0:0:0:
497,224,57017,6,0,P|444:245|411:315,1,112.5,2|0,0:0|0:0,0:0:0:0:
264,354,57204,6,0,B|208:304|137:342|137:342|108:261|212:210,1,270,4|0,0:0|0:0,0:0:0:0:
176,111,57579,2,0,P|140:156|75:175,1,90,8|0,0:0|0:0,0:0:0:0:
117,47,57766,2,0,B|162:15|207:29|207:29|246:58|298:76|341:58|341:58|322:20,1,270,8|0,0:0|0:0,0:0:0:0:
416,39,58141,2,0,P|406:101|367:132,1,90,2|0,0:0|0:0,0:0:0:0:
205,211,58329,6,0,P|296:181|359:199,1,112.5,10|0,0:0|0:0,0:0:0:0:
511,333,58516,6,0,P|420:363|357:345,1,112.5,10|0,0:0|0:0,0:0:0:0:
146,272,58704,6,0,P|130:171|221:126,1,202.500007724762,4|0,0:0|0:0,0:0:0:0:
421,255,59079,6,0,B|400:201|352:200|352:200|335:282|410:367,1,270,8|0,0:0|0:0,0:0:0:0:
468,183,59453,2,0,B|428:136|375:114|310:135|310:135|300:72|357:16,1,270,8|0,0:0|0:0,0:0:0:0:
264,5,59828,6,0,B|234:47|231:86|231:86|174:56|86:88,1,202.500007724762,8|0,0:0|0:0,0:0:0:0:
28,93,60203,6,0,P|75:157|129:165,1,90,2|0,0:0|0:0,0:0:0:0:
37,245,60391,2,0,P|116:250|157:213,1,90,2|0,0:0|0:0,0:0:0:0:
158,336,60578,2,0,P|212:278|211:224,1,90,2|0,0:0|0:0,0:0:0:0:
305,302,60766,2,0,B|315:263|314:225|260:184|260:184|317:152|362:155|408:197,1,270,8|0,0:0|0:0,0:0:0:0:
427,258,61140,2,0,P|459:227|475:186,1,90,2|0,0:0|0:0,0:0:0:0:
472,19,61328,6,0,P|437:70|357:88,1,112.5,10|0,0:0|0:0,0:0:0:0:
178,117,61515,6,0,P|234:142|265:218,1,112.5,10|0,0:0|0:0,0:0:0:0:
259,371,61703,6,0,P|178:330|47:350,1,202.500007724762,4|0,0:0|0:0,0:0:0:0:
0,226,62078,6,0,P|45:250|0:167,1,270,8|0,0:0|0:0,0:0:0:0:
66,321,62452,2,0,P|108:306|142:277,1,90,8|0,0:0|0:0,0:0:0:0:
164,147,62640,2,0,B|212:88|172:22|172:22|241:60|330:34,1,270,8|0,0:0|0:0,0:0:0:0:
396,31,63015,6,0,P|317:60|193:50,1,202.500007724762,8|0,0:0|0:0,0:0:0:0:
146,68,63390,2,0,P|225:97|349:87,1,202.500007724762,8|0,0:0|0:0,0:0:0:0:
417,132,63765,2,0,P|387:153|305:165,1,90,8|0,0:0|0:0,0:0:0:0:
371,246,63952,6,0,P|323:252|267:224,1,90,2|0,0:0|0:0,0:0:0:0:
186,235,64139,2,0,P|194:278|222:313,1,90,2|0,0:0|0:0,0:0:0:0:
222,152,64327,2,0,P|174:146|118:174,1,90,2|0,0:0|0:0,0:0:0:0:
17,249,64514,2,0,P|65:255|121:227,1,90,2|0,0:0|0:0,0:0:0:0:
245,67,64702,6,0,P|304:124|247:237,1,202.500007724762,4|0,0:0|0:0,0:0:0:0:
222,152,65077,6,0,B|293:159|354:125|354:125|370:192|309:260,1,270,8|0,0:0|0:0,0:0:0:0:
431,127,65452,2,0,P|412:76|375:52,1,90,2|0,0:0|0:0,0:0:0:0:
318,248,65639,2,0,B|385:263|449:231|449:231|425:312|476:358,1,270,8|0,0:0|0:0,0:0:0:0:
256,222,66014,6,0,P|351:252|448:231,1,202.500007724762,8|0,0:0|0:0,0:0:0:0:
505,169,66389,2,0,P|420:222|320:225,1,202.500007724762,8|0,0:0|0:0,0:0:0:0:
283,145,66764,2,0,P|315:260|280:351,1,202.500007724762,8|0,0:0|0:0,0:0:0:0:
207,370,67139,6,0,P|200:325|215:283,1,90,2|0,0:0|0:0,0:0:0:0:
283,145,67326,2,0,P|248:172|204:180,1,90,2|0,0:0|0:0,0:0:0:0:
51,192,67513,2,0,P|92:208|121:242,1,90,2|0,0:0|0:0,0:0:0:0:
207,370,67701,6,0,P|309:344|404:368,1,202.500007724762,4|0,0:0|0:0,0:0:0:0:
499,288,68076,6,0,P|458:294|397:267,1,90,2|0,0:0|0:0,0:0:0:0:
370,149,68263,2,0,B|370:231|310:266|310:266|272:196|188:194,1,270,8|0,0:0|0:0,0:0:0:0:
135,249,68638,2,0,P|195:283|233:279,1,90,2|0,0:0|0:0,0:0:0:0:
370,149,68825,6,0,P|332:112|254:104,1,112.5,2|0,0:0|0:0,0:0:0:0:
60,99,69013,6,0,P|49:153|10:193,1,112.5,2|0,0:0|0:0,0:0:0:0:
167,164,69200,6,0,B|181:129|216:105|275:99|275:99|273:162|243:201|208:206,1,270,4|0,0:0|0:0,2:0:0:0:
127,206,69575,2,0,B|91:192|67:157|61:98|61:98|124:100|163:130|168:165,1,270,8|0,0:0|0:0,2:0:0:0:
167,248,69950,2,0,B|154:284|119:308|60:314|60:314|62:251|92:212|127:207,1,270,4|0,0:0|0:0,2:0:0:0:
208,207,70325,2,0,B|245:221|269:256|275:315|275:315|212:313|173:283|164:235,1,270,8|0,0:0|0:0,2:0:0:0:
174,134,70700,6,0,B|295:132|342:233|346:309,1,270,12|0,0:0|0:0,0:0:0:0:
454,352,71075,2,0,B|417:307|412:255|412:255|476:277|476:277|477:229|439:169,1,270,8|0,0:0|0:0,0:0:0:0:
408,100,71450,2,0,P|466:92|512:116,1,90,2|0,0:0|0:0,0:0:0:0:
319,105,71637,2,0,P|327:62|355:27,1,90,2|0,0:0|0:0,0:0:0:0:
355,188,71825,2,0,P|307:194|251:166,1,90,2|0,0:0|0:0,0:0:0:0:
150,91,72012,2,0,P|198:85|254:113,1,90,2|0,0:0|0:0,0:0:0:0:
440,181,72199,6,0,B|435:253|372:272|372:272|423:272|469:299,1,202.500007724762,4|0,0:0|0:0,0:0:0:0:
511,351,72574,6,0,P|447:375|390:352,1,90,2|0,0:0|0:0,0:0:0:0:
274,351,72762,2,0,B|349:349|372:270|372:270|291:286|236:233,1,270,8|0,0:0|0:0,0:0:0:0:
228,159,73137,2,0,P|281:166|319:202,1,90,2|0,0:0|0:0,0:0:0:0:
274,351,73324,6,0,P|220:365|164:356,1,112.5,10|0,0:0|0:0,0:0:0:0:
62,220,73512,6,0,P|119:205|184:220,1,112.5,10|0,0:0|0:0,0:0:0:0:
274,351,73699,5,4,0:0:0:0:
1,168,74074,5,8,0:0:0:0:
62,220,74262,2,0,P|148:192|236:206,1,180,8|0,0:0|0:0,0:0:0:0:
418,293,75199,5,4,0:0:0:0:
480,229,75574,5,8,0:0:0:0:
418,293,75761,2,0,P|366:282|287:300,1,135,8|0,0:0|0:0,0:0:0:0:
218,334,76136,2,0,P|147:343|81:313,1,135,8|0,0:0|0:0,0:0:0:0:
27,273,76511,1,8,0:0:0:0:
148,119,76699,6,0,L|184:248,1,135.000005149842,4|0,0:0|0:0,0:0:0:0:
364,119,77448,2,0,L|327:248,1,135.000005149842,8|0,0:0|0:0,0:0:0:0:
148,119,78198,6,0,L|184:248,1,135.000005149842,8|0,0:0|0:0,0:0:0:0:
364,119,78573,2,0,L|327:248,1,135.000005149842,8|0,0:0|0:0,0:0:0:0:
148,119,78948,6,0,L|184:248,1,135.000005149842,8|0,0:0|0:0,0:0:0:0:
364,119,79135,2,0,L|327:248,1,135.000005149842,8|0,0:0|0:0,0:0:0:0:
256,27,79323,6,0,L|256:162,1,135,4|0,0:0|0:0,0:0:0:0:
253,351,79698,5,4,0:0:0:0:
329,374,79791,1,0,0:0:0:0:
390,323,79885,2,0,L|373:228,1,78.7500007510185
147,227,80073,5,2,0:0:0:0:
124,303,80166,1,0,0:0:0:0:
175,364,80260,2,0,L|269:347,1,78.7500007510185
270,121,80447,5,8,0:0:0:0:
194,98,80541,1,0,0:0:0:0:
133,149,80635,2,0,L|149:243,1,78.7500007510185
376,245,80822,6,0,L|453:231,1,78.7500007510185,2|0,0:0|0:0,0:0:0:0:
347,107,81010,2,0,L|269:120,1,78.7500007510185
146,226,81197,5,4,0:0:0:0:
72,199,81291,1,0,0:0:0:0:
44,125,81385,1,0,0:0:0:0:
75,53,81478,1,0,0:0:0:0:
146,13,81572,6,0,B|164:60|147:88|147:88|222:111|303:31,1,236.250002253056,2|0,0:0|0:0,0:0:0:0:
429,67,81946,2,0,L|321:142,1,78.7500007510185,4|0,0:0|0:0,0:0:0:0:
364,217,82134,2,0,L|428:172,1,78.7500007510185
437,265,82321,5,2,0:0:0:0:
359,301,82416,1,0,0:0:0:0:
284,256,82509,1,0,0:0:0:0:
282,169,82603,1,0,0:0:0:0:
242,91,82696,6,0,P|205:131|196:180,1,78.7500007510185,4|0,0:0|0:0,0:0:0:0:
104,32,82884,2,0,P|157:44|204:27,1,78.7500007510185,0|0,2:0|0:0,0:0:0:0:
115,129,83072,5,2,0:0:0:0:
69,192,83165,1,0,0:0:0:0:
66,270,83259,1,0,0:0:0:0:
118,328,83353,1,0,0:0:0:0:
196,327,83446,6,0,L|241:262,1,78.7500007510185,8|0,0:0|0:0,0:0:0:0:
397,239,83634,2,0,L|352:304,1,78.7500007510185
218,320,83821,6,0,L|263:255,1,78.7500007510185,2|0,0:0|0:0,0:0:0:0:
419,232,84009,2,0,L|374:297,1,78.7500007510185
239,315,84196,5,4,0:0:0:0:
160,323,84290,1,0,0:0:0:0:
110,261,84384,1,0,0:0:0:0:
135,187,84477,1,0,0:0:0:0:
200,143,84571,1,2,0:0:0:0:
218,66,84665,1,0,0:0:0:0:
163,8,84759,1,0,0:0:0:0:
86,23,84852,1,0,0:0:0:0:
39,86,84945,6,0,L|109:137,1,78.7500007510185,8|0,0:0|0:0,0:0:0:0:
263,189,85133,2,0,L|199:142,1,78.7500007510185,8|0,0:0|0:0,0:0:0:0:
39,86,85321,6,0,P|18:150|37:219,1,135,2|0,0:0|0:0,0:0:0:0:
137,278,85696,5,4,0:0:0:0:
206,314,85790,1,0,0:0:0:0:
280,288,85883,2,0,L|270:197,1,78.7500007510185
69,144,86071,5,2,0:0:0:0:
33,213,86164,1,0,0:0:0:0:
59,287,86258,2,0,L|150:277,1,78.7500007510185
203,75,86446,5,8,0:0:0:0:
134,39,86539,1,0,0:0:0:0:
60,65,86633,2,0,L|70:156,1,78.7500007510185
271,209,86820,6,0,L|180:219,1,78.7500007510185,2|0,0:0|0:0,0:0:0:0:
203,75,87008,2,0,L|281:66,1,78.7500007510185
439,91,87195,5,4,0:0:0:0:
473,161,87289,1,0,0:0:0:0:
437,231,87383,2,0,L|346:241,1,78.7500007510185
341,86,87570,2,0,L|432:76,1,78.7500007510185,2|0,0:0|0:0,0:0:0:0:
450,241,87758,5,0,0:0:0:0:
371,249,87851,1,0,0:0:0:0:
292,260,87945,2,0,B|299:309|344:326|344:326|264:301|186:329,1,236.250002253056,8|0,0:0|0:0,0:0:0:0:
95,272,88319,2,0,L|200:206,1,78.7500007510185,2|0,0:0|0:0,0:0:0:0:
74,179,88507,2,0,L|7:220,1,78.7500007510185
141,66,88694,5,4,0:0:0:0:
212,33,88789,1,0,0:0:0:0:
284,64,88882,2,0,L|304:141,1,78.7500007510185
366,283,89069,5,2,0:0:0:0:
309,336,89163,1,0,0:0:0:0:
231,324,89257,1,0,0:0:0:0:
195,253,89351,1,0,0:0:0:0:
152,187,89444,1,8,0:0:0:0:
74,179,89538,1,0,0:0:0:0:
14,232,89632,2,0,L|1:323,1,78.7500007510185
157,353,89819,2,0,L|242:318,1,78.7500007510185,2|0,0:0|0:0,0:0:0:0:
152,187,90007,2,0,L|79:130,1,78.7500007510185
230,323,90194,5,4,0:0:0:0:
309,336,90288,1,0,0:0:0:0:
366,283,90382,2,0,L|309:205,1,78.7500007510185
127,233,90569,5,2,0:0:0:0:
113,312,90663,1,0,0:0:0:0:
166,369,90757,2,0,L|244:312,1,78.7500007510185
325,140,90944,5,8,0:0:0:0:
270,72,91038,1,0,0:0:0:0:
191,34,91132,1,2,0:0:0:0:
105,42,91225,1,0,0:0:0:0:
39,99,91318,1,8,0:0:0:0:
2,177,91413,1,0,0:0:0:0:
0,262,91506,1,2,0:0:0:0:
23,345,91600,1,0,0:0:0:0:
108,333,91694,6,0,L|119:244,1,90,8|0,0:0|0:0,0:0:0:0:
135,258,91975,2,0,L|146:169,1,90,8|0,0:0|0:0,0:0:0:0:
162,183,92256,2,0,L|173:94,1,90,8|0,0:0|0:0,0:0:0:0:
301,33,92631,6,0,L|312:122,1,90,8|0,0:0|0:0,0:0:0:0:
331,93,92819,2,0,L|342:182,1,90,8|0,0:0|0:0,0:0:0:0:
361,153,93006,2,0,L|372:242,1,90,8|0,0:0|0:0,0:0:0:0:
459,347,93193,5,14,0:0:0:0:
