osu file format v14

[General]
AudioFilename: audio.mp3
AudioLeadIn: 0
PreviewTime: 51212
Countdown: 1
SampleSet: Soft
StackLeniency: 0.5
Mode: 0
LetterboxInBreaks: 0
WidescreenStoryboard: 1

[Editor]
Bookmarks: 12969,24965,27214,39210,52706,64702,73699,79697,91693,93193
DistanceSpacing: 0.9
BeatDivisor: 4
GridSize: 32
TimelineZoom: 1

[Metadata]
Title:Senpuu no Mai [Ten]
TitleUnicode:旋風ノ舞【天】
Artist:Ayane
ArtistUnicode:彩音
Creator:Antares-
Version:Normal
Source:太鼓の達人
Tags:asonate fursum taiko no tatsujin tatsh zeami 世阿弥 original soundtrack full combo!
BeatmapID:1400176
BeatmapSetID:629057

[Difficulty]
HPDrainRate:3
CircleSize:3
OverallDifficulty:3.5
ApproachRate:5
SliderMultiplier:1.1
SliderTickRate:1

[Events]
//Background and Video events
0,0,"tapeta.jpg",0,0
//Break Periods
//Storyboard Layer 0 (Background)
//Storyboard Layer 1 (Fail)
//Storyboard Layer 2 (Pass)
//Storyboard Layer 3 (Foreground)
//Storyboard Sound Samples

[TimingPoints]
223,374.882849109653,4,2,1,40,1,0
12969,374.882849109653,4,2,1,65,1,1
26464,-100,4,2,1,65,0,0
27214,374.882849109653,4,2,1,65,1,0
79697,-100,4,2,1,65,0,1
93193,-100,4,2,1,65,0,0
97973,-100,4,2,1,5,0,0

[Colours]
Combo1 : 128,0,64
Combo2 : 128,128,192
Combo3 : 128,0,128
Combo4 : 172,172,172

[HitObjects]
89,88,223,6,0,P|171:84|77:135,1,275
76,254,1535,1,0,0:0:0:0:
122,265,1722,2,0,P|176:264|235:229,1,110
280,156,2472,1,0,0:0:0:0:
323,245,2847,1,0,0:0:0:0:
380,164,3222,6,0,P|418:273|330:346,1,220
181,282,4534,5,0,0:0:0:0:
144,315,4721,2,0,P|118:265|124:203,1,110
193,145,5471,2,0,L|218:208,1,55
259,215,5846,2,0,L|283:280,1,55
320,291,6221,6,0,P|389:320|355:196,1,275
273,225,7533,1,0,0:0:0:0:
229,247,7720,2,0,P|159:254|112:221,1,110
53,168,8470,1,0,0:0:0:0:
148,141,8845,1,0,0:0:0:0:
244,164,9220,6,0,P|308:204|258:328,1,220
175,209,10532,5,0,0:0:0:0:
161,161,10719,2,0,P|180:101|225:78,1,110
308,122,11469,2,0,P|357:125|405:27,1,165
487,93,12406,6,0,L|457:164,1,55,4|4,0:0|0:0,0:0:0:0:
407,237,12969,6,0,P|348:259|285:246,1,110,4|8,0:0|0:0,0:0:0:0:
218,182,13718,2,0,L|157:182,2,55,2|2|8,0:0|0:0|0:0,0:0:0:0:
292,100,14468,2,0,P|246:74|167:81,1,110,4|8,0:0|0:0,0:0:0:0:
96,132,15218,1,8,0:0:0:0:
90,22,15593,1,0,0:0:0:0:
189,72,15968,6,0,B|217:124|194:182|194:182|214:243|185:293,1,220
94,340,17092,1,0,0:0:0:0:
7,272,17467,2,0,P|64:235|122:234,1,110
210,262,18217,2,0,L|209:333,2,55
252,160,18967,6,0,P|262:106|242:49,1,110,4|8,0:0|0:0,0:0:0:0:
154,113,19716,2,0,L|78:113,2,55
245,54,20466,1,0,0:0:0:0:
352,32,20841,2,0,L|412:32,1,55,8|2,0:0|0:0,0:0:0:0:
439,72,21216,2,0,P|454:137|444:190,1,110
373,260,21966,6,0,P|313:247|259:257,1,110,4|0,0:0|0:0,0:0:0:0:
175,318,22715,2,0,P|156:266|165:212,1,110
211,112,23465,1,0,0:0:0:0:
101,122,23840,1,0,0:0:0:0:
165,212,24215,2,0,L|230:211,1,55
267,239,24590,2,0,P|276:275|259:303,1,55
229,328,24965,6,0,L|132:327,2,82.5,4|2|8,0:0|0:0|0:0,0:0:0:0:
331,368,25902,2,0,L|398:368,2,55,4|2|8,0:0|0:0|0:0,0:0:0:0:
388,124,27214,6,0,P|399:65|382:18,2,110
343,212,28338,1,0,0:0:0:0:
287,127,28713,2,0,P|234:116|176:129,1,110
102,188,29463,1,0,0:0:0:0:
88,89,29838,1,0,0:0:0:0:
10,152,30213,6,0,P|7:214|40:264,2,110
102,188,31337,1,0,0:0:0:0:
195,220,31712,2,0,P|245:233|319:212,1,110
387,173,32462,1,0,0:0:0:0:
385,272,32837,1,0,0:0:0:0:
303,326,33212,6,0,P|287:274|300:221,2,110
385,272,34336,1,0,0:0:0:0:
435,186,34711,2,0,P|451:136|432:66,1,110
349,129,35461,1,0,0:0:0:0:
345,227,35836,1,0,0:0:0:0:
260,174,36211,6,0,B|209:138|157:155|157:155|123:102|171:66|186:64,1,220
284,71,37335,1,0,0:0:0:0:
358,154,37710,6,0,P|346:225|219:266,1,220
96,109,39210,6,0,P|162:80|209:88,1,110
292,116,39960,2,0,P|364:128|412:109,1,110
480,63,40709,1,4,0:0:0:0:
487,161,41084,2,0,P|420:204|333:214,1,165,8|2,0:0|0:0,0:0:0:0:
255,158,42021,1,2,0:0:0:0:
220,193,42209,6,0,L|204:311,1,110,8|0,0:0|0:0,0:0:0:0:
141,378,42959,2,0,P|106:306|119:260,1,110,8|0,0:0|0:0,0:0:0:0:
122,181,43708,1,4,0:0:0:0:
220,193,44083,2,0,L|286:192,1,55,2|0,0:0|0:0,0:0:0:0:
306,223,44458,2,0,L|372:222,1,55,2|0,0:0|0:0,0:0:0:0:
399,242,44833,2,0,P|416:173|391:121,1,110,8|4,0:0|0:0,0:0:0:0:
358,49,45583,5,8,0:0:0:0:
304,132,45958,1,4,0:0:0:0:
260,43,46333,2,0,L|191:28,2,55,2|0|0,0:0|0:0|0:0,0:0:0:0:
358,49,47082,2,0,P|420:37|481:56,2,110,8|2|8,0:0|0:0|0:0,0:0:0:0:
272,98,48207,6,0,P|221:109|155:92,1,110,4|8,0:0|0:0,0:0:0:0:
98,23,48957,1,4,0:0:0:0:
68,117,49332,1,4,0:0:0:0:
133,191,49706,5,12,0:0:0:0:
256,192,49894,12,2,51206,0:0:0:0:
267,172,52706,6,0,P|327:145|305:241,1,220,4|8,0:0|0:0,0:0:0:0:
205,250,53830,2,0,L|148:250,2,55,2|0|0,0:0|0:0|0:0,0:0:0:0:
267,172,54580,2,0,P|300:142|372:148,1,110,8|2,0:0|0:0,0:0:0:0:
456,175,55330,1,8,0:0:0:0:
437,77,55705,6,0,B|427:46|443:9|443:9|405:3|365:21|365:21|330:34|276:27,1,220
198,11,56829,2,0,L|141:11,2,55
232,104,57579,2,0,P|241:157|224:210,1,110
159,284,58329,2,0,L|95:296,1,55
57,280,58704,5,0,0:0:0:0:
102,193,59079,2,0,P|120:131|110:78,2,110
179,254,60203,2,0,B|230:279|286:254|286:254|349:278|414:253,1,220
469,196,61328,2,0,L|479:137,1,55
462,94,61703,5,0,0:0:0:0:
368,126,62078,2,0,P|306:136|255:125,2,110
418,41,63202,2,0,P|322:19|204:50,1,220
143,125,64327,2,0,L|152:194,1,55
182,217,64702,5,0,0:0:0:0:
277,191,65077,1,0,0:0:0:0:
367,231,65452,2,0,P|403:303|392:383,2,165
277,191,66951,2,0,P|217:184|166:203,1,110
99,268,67701,6,0,P|73:222|120:117,2,165
194,294,69200,5,0,0:0:0:0:
171,199,69575,1,0,0:0:0:0:
255,148,69950,1,0,0:0:0:0:
330,212,70325,1,0,0:0:0:0:
293,303,70700,5,0,0:0:0:0:
187,135,71450,2,0,P|178:74|209:26,1,110
243,8,72012,1,0,0:0:0:0:
280,39,72199,6,0,P|338:53|392:43,1,110
431,22,72762,2,0,P|450:73|432:131,1,110
402,160,73324,1,0,0:0:0:0:
333,231,73699,6,0,B|280:246|226:216|226:216|241:147|149:54|121:192|149:243,1,330
200,306,75199,2,0,B|225:345|205:398|121:361|44:300|47:226,1,275
101,144,76511,1,0,0:0:0:0:
141,172,76698,6,0,P|212:189|251:173,1,110
338,145,77448,2,0,P|340:201|305:255,1,110
226,293,78198,5,0,0:0:0:0:
132,262,78572,1,0,0:0:0:0:
38,295,78947,2,0,L|10:352,2,55
132,262,79697,6,0,P|191:284|254:271,1,110,4|8,0:0|0:0,0:0:0:0:
319,224,80447,2,0,L|380:224,2,55,2|2|8,0:0|0:0|0:0,0:0:0:0:
246,155,81197,2,0,P|293:126|365:134,1,110,4|8,0:0|0:0,0:0:0:0:
440,157,81946,1,8,0:0:0:0:
419,60,82321,1,0,0:0:0:0:
346,126,82696,6,0,B|318:178|341:236|341:236|310:296|350:347,1,220
430,382,83820,1,0,0:0:0:0:
508,318,84196,2,0,P|456:286|403:286,1,110
316,322,84945,2,0,L|317:393,2,55
270,233,85695,6,0,P|259:179|280:122,1,110,4|8,0:0|0:0,0:0:0:0:
351,63,86445,2,0,L|427:63,2,55
260,22,87194,1,0,0:0:0:0:
160,32,87569,2,0,L|100:32,1,55,8|2,0:0|0:0,0:0:0:0:
73,72,87944,2,0,P|58:137|68:190,1,110
139,260,88694,6,0,P|199:247|253:257,1,110,4|0,0:0|0:0,0:0:0:0:
337,318,89444,2,0,P|355:266|346:212,1,110
301,112,90193,1,0,0:0:0:0:
411,122,90568,1,0,0:0:0:0:
347,212,90943,2,0,L|282:211,1,55
245,239,91318,2,0,P|236:275|253:303,1,55
283,328,91693,6,0,L|380:327,2,82.5,4|2|8,0:0|0:0|0:0,0:0:0:0:
164,334,92631,2,0,L|97:334,2,55,4|2|8,0:0|0:0|0:0,0:0:0:0:
199,307,93193,1,14,0:0:0:0:
256,192,93380,12,0,97973,0:0:0:0:
