osu file format v14

[General]
AudioFilename: audio.mp3
AudioLeadIn: 0
PreviewTime: 51212
Countdown: 1
SampleSet: Soft
StackLeniency: 0.5
Mode: 0
LetterboxInBreaks: 0
WidescreenStoryboard: 1

[Editor]
Bookmarks: 12969,24965,27214,39210,52706,64702,73699,79697,91693,93193
DistanceSpacing: 1.15
BeatDivisor: 4
GridSize: 32
TimelineZoom: 1

[Metadata]
Title:Senpuu no Mai [Ten]
TitleUnicode:旋風ノ舞【天】
Artist:Ayane
ArtistUnicode:彩音
Creator:Antares-
Version:Advanced
Source:太鼓の達人
Tags:asonate fursum taiko no tatsujin tatsh zeami 世阿弥 original soundtrack full combo!
BeatmapID:1397132
BeatmapSetID:629057

[Difficulty]
HPDrainRate:4
CircleSize:3.2
OverallDifficulty:4.5
ApproachRate:6
SliderMultiplier:1.4
SliderTickRate:1

[Events]
//Background and Video events
0,0,"tapeta.jpg",0,0
//Break Periods
//Storyboard Layer 0 (Background)
//Storyboard Layer 1 (Fail)
//Storyboard Layer 2 (Pass)
//Storyboard Layer 3 (Foreground)
//Storyboard Sound Samples

[TimingPoints]
223,374.882849109653,4,2,1,40,1,0
223,-117.647058823529,4,2,1,40,0,0
12969,374.882849109653,4,2,1,65,1,1
26464,-100,4,2,1,65,0,0
27214,374.882849109653,4,2,1,65,1,0
79697,-100,4,2,1,65,0,1
93193,-100,4,2,1,65,0,0
97973,-100,4,2,1,5,0,0

[Colours]
Combo1 : 128,0,64
Combo2 : 128,128,192
Combo3 : 128,0,128
Combo4 : 172,172,172

[HitObjects]
118,194,223,6,0,P|63:209|3:194,2,119.000002269745
220,133,1347,1,0,0:0:0:0:
299,117,1535,1,0,0:0:0:0:
371,145,1722,6,0,P|400:210|384:273,1,119.000002269745
340,366,2472,1,0,0:0:0:0:
340,366,2847,1,0,0:0:0:0:
459,356,3222,6,0,L|338:367,1,119.000002269745
262,363,3784,1,0,0:0:0:0:
283,289,3971,2,0,P|331:269|401:278,1,119.000002269745
473,289,4534,1,0,0:0:0:0:
413,240,4721,6,0,P|402:177|420:118,1,119.000002269745
402,5,5471,1,0,0:0:0:0:
358,73,5658,2,0,L|282:69,2,59.5000011348725
341,153,6221,6,0,L|213:147,2,119.000002269745
445,213,7345,1,0,0:0:0:0:
366,228,7533,1,0,0:0:0:0:
321,294,7720,6,0,P|264:309|207:292,1,119.000002269745
111,227,8470,1,0,0:0:0:0:
111,227,8845,1,0,0:0:0:0:
0,231,9220,6,0,P|51:212|121:234,1,119.000002269745
178,267,9782,2,0,P|233:286|289:270,1,119.000002269745
347,217,10344,1,0,0:0:0:0:
365,293,10532,1,0,0:0:0:0:
439,322,10719,6,0,L|469:202,1,119.000002269745
368,128,11469,2,0,B|347:217|347:217|279:187|194:226,1,238.00000453949
136,279,12406,2,0,L|107:279,2,29.7500005674362
104,154,12969,6,0,L|87:85,1,70
150,29,13343,2,0,L|170:108,1,70
184,179,13718,1,0,0:0:0:0:
254,146,13906,1,0,0:0:0:0:
325,172,14093,1,0,0:0:0:0:
377,316,14468,6,0,P|335:267|332:240,2,70
483,225,15218,2,0,L|394:242,1,70
334,263,15593,1,0,0:0:0:0:
354,188,15780,1,0,0:0:0:0:
279,207,15968,6,0,L|212:229,1,70
157,282,16342,1,0,0:0:0:0:
87,248,16530,1,0,0:0:0:0:
143,195,16717,2,0,L|125:127,1,70
192,76,17092,2,0,L|212:144,1,70
212,229,17467,6,0,P|296:140|192:74,1,280
121,104,18404,1,0,0:0:0:0:
84,172,18592,6,0,P|67:228|86:297,1,105
91,311,18967,6,0,P|130:297|168:308,1,70
219,348,19342,2,0,P|272:356|306:341,1,70
352,312,19716,1,0,0:0:0:0:
283,276,19904,1,0,0:0:0:0:
349,236,20091,1,0,0:0:0:0:
351,81,20466,6,0,L|279:72,2,70
353,158,21028,1,0,0:0:0:0:
420,121,21216,2,0,P|475:110|497:118,1,70
459,185,21591,1,0,0:0:0:0:
502,248,21778,1,0,0:0:0:0:
424,256,21966,6,0,L|334:268,1,70
342,341,22341,2,0,L|274:322,1,70
283,245,22715,2,0,L|200:260,1,70
145,295,23090,1,0,0:0:0:0:
81,252,23278,1,0,0:0:0:0:
149,216,23465,6,0,P|160:162|155:141,1,70
217,100,23840,2,0,P|253:73|267:26,1,70
191,24,24215,1,0,0:0:0:0:
114,15,24402,1,0,0:0:0:0:
60,70,24590,1,0,0:0:0:0:
80,144,24777,1,0,0:0:0:0:
157,148,24965,6,0,B|208:192|208:192|207:229,2,105
129,299,25902,2,0,L|129:230,2,70
104,120,27214,6,0,P|141:72|230:54,1,140
294,69,27776,2,0,L|281:146,1,70
224,197,28151,2,0,L|235:266,1,70
272,345,28526,2,0,P|318:295|312:227,1,140
235,266,29088,1,0,0:0:0:0:
235,266,29463,6,0,P|189:274|158:262,1,70
92,237,29838,1,0,0:0:0:0:
102,316,30025,1,0,0:0:0:0:
25,286,30213,6,0,P|2:221|12:150,1,140
81,113,30775,2,0,P|127:121|168:107,1,70
224,87,31150,2,0,P|270:79|311:93,1,70
366,116,31525,2,0,P|339:183|270:250,1,140
214,247,32087,1,0,0:0:0:0:
214,247,32462,6,0,P|206:213|186:186,1,70
106,170,32837,1,0,0:0:0:0:
158,109,33024,1,0,0:0:0:0:
237,122,33212,6,0,P|306:131|374:117,1,140
450,92,33774,2,0,P|447:148|423:182,1,70
398,227,34149,2,0,P|401:283|425:317,1,70
443,366,34524,2,0,P|372:380|302:358,1,140
241,315,35086,1,0,0:0:0:0:
241,315,35461,6,0,P|251:259|233:224,1,70
323,219,35836,2,0,P|305:189|275:170,1,70
322,104,36211,6,0,P|266:91|201:138,1,140
275,170,36773,1,0,0:0:0:0:
354,180,36960,2,0,P|388:156|407:119,1,70
385,53,37335,1,0,0:0:0:0:
322,104,37523,1,0,0:0:0:0:
308,24,37710,5,0,0:0:0:0:
144,186,38460,2,0,P|123:196|64:190,1,70
16,142,38835,2,0,P|14:113|32:66,1,70
97,118,39210,6,0,P|158:104|220:153,1,140
296,279,39960,2,0,P|343:228|351:160,1,140
295,16,40709,6,0,P|363:59|431:53,1,140
493,30,41272,1,0,0:0:0:0:
482,106,41459,2,0,L|463:199,1,70
394,149,41834,2,0,L|375:242,1,70
310,250,42209,6,0,P|241:249|189:204,1,140
105,74,42959,2,0,L|93:150,1,70
22,114,43333,2,0,L|11:183,1,70
52,251,43708,6,0,P|115:238|193:269,1,140
254,298,44271,1,0,0:0:0:0:
250,222,44458,2,0,L|256:152,1,70
331,172,44833,2,0,L|341:89,1,70
415,89,45208,5,0,0:0:0:0:
256,153,45583,1,0,0:0:0:0:
409,165,45958,1,0,0:0:0:0:
248,228,46333,1,0,0:0:0:0:
181,190,46520,1,0,0:0:0:0:
176,267,46707,5,0,0:0:0:0:
289,371,47082,2,0,L|274:296,1,70
319,239,47457,2,0,L|332:307,1,70
395,353,47832,1,0,0:0:0:0:
432,286,48019,1,0,0:0:0:0:
469,353,48207,6,0,P|504:308|481:228,1,140
356,155,48957,2,0,L|286:147,1,70
209,150,49332,1,0,0:0:0:0:
241,80,49519,1,0,0:0:0:0:
165,86,49706,6,0,L|154:16,1,70
78,6,50081,2,0,L|23:49,1,70
53,122,50456,2,0,L|118:147,1,70
165,86,50831,2,0,L|154:16,1,70
78,6,51206,5,0,0:0:0:0:
165,86,51956,5,0,0:0:0:0:
31,97,52706,6,0,P|100:73|174:90,1,140
234,116,53268,1,0,0:0:0:0:
172,162,53455,2,0,P|160:215|166:252,1,70
175,306,53830,1,0,0:0:0:0:
248,283,54018,1,0,0:0:0:0:
318,314,54205,1,0,0:0:0:0:
318,314,54580,6,0,P|354:304|393:313,1,70
443,360,54955,2,0,P|462:317|452:270,1,70
412,234,55330,2,0,P|402:192|418:147,1,70
440,96,55705,6,0,P|388:92|351:113,1,70
303,132,56079,1,0,0:0:0:0:
229,107,56267,2,0,P|164:93|93:114,1,140
45,172,56829,1,0,2:0:0:0:
121,184,57017,1,0,2:0:0:0:
71,242,57204,1,0,2:0:0:0:
192,336,57579,5,0,0:0:0:0:
238,274,57766,2,0,P|254:205|237:130,1,140
189,70,58329,1,0,0:0:0:0:
272,61,58516,1,0,0:0:0:0:
360,57,58704,1,0,0:0:0:0:
360,57,59079,6,0,P|359:99|373:137,1,70
414,189,59453,2,0,P|381:203|347:200,1,70
271,186,59828,2,0,P|237:178|203:187,1,70
163,250,60203,6,0,P|139:230|127:188,2,70
239,255,60766,2,0,P|219:304|121:313,1,140
74,269,61328,1,0,0:0:0:0:
46,189,61515,1,0,0:0:0:0:
79,114,61703,1,0,0:0:0:0:
79,114,62078,6,0,L|163:94,1,70
200,42,62452,1,0,0:0:0:0:
267,2,62640,2,0,P|273:70|223:115,1,140
147,97,63202,5,0,0:0:0:0:
168,171,63390,2,0,P|203:194|248:188,1,70
298,158,63765,2,0,P|301:226|239:271,1,140
172,268,64327,1,0,0:0:0:0:
209,335,64514,1,0,0:0:0:0:
285,343,64702,1,0,0:0:0:0:
430,292,65077,6,0,L|360:278,1,70
300,231,65452,1,0,0:0:0:0:
359,183,65639,2,0,L|434:172,1,70
484,225,66014,6,0,P|501:194|502:160,1,70
478,86,66389,2,0,P|458:57|427:42,1,70
351,57,66764,2,0,P|285:73|203:50,1,140
149,18,67326,1,0,0:0:0:0:
145,94,67513,1,0,0:0:0:0:
79,51,67701,6,0,P|21:28|42:95,1,140
76,135,68263,2,0,P|44:159|2:160,2,70
145,94,68825,1,0,0:0:0:0:
144,171,69013,1,0,0:0:0:0:
212,135,69200,6,0,P|277:102|317:106,1,105
345,111,69575,2,0,P|341:183|317:216,1,105
302,240,69950,2,0,P|240:200|224:163,1,105
212,135,70325,2,0,P|170:141|142:172,1,70
115,227,70700,5,0,0:0:0:0:
202,353,71075,2,0,L|218:281,1,70
283,245,71450,2,0,L|263:332,2,70
325,180,72012,1,0,0:0:0:0:
359,248,72199,6,0,P|397:207|377:124,1,140
310,102,72762,2,0,P|232:115|160:91,1,140
120,44,73324,1,0,0:0:0:0:
101,118,73512,1,0,0:0:0:0:
153,173,73699,6,0,B|176:232|132:267|88:269|88:269|128:305|180:304|222:278,1,280
351,200,74824,2,0,P|362:237|347:285,1,70
281,239,75199,6,0,B|253:191|278:120|346:104|391:132|391:132|383:62|326:28|283:40|227:99,1,420
196,153,76511,1,0,0:0:0:0:
144,96,76698,6,0,P|88:94|123:141,1,140
240,222,77448,2,0,P|296:220|261:267,1,140
219,124,78198,6,0,L|239:210,1,70
264,268,78572,2,0,L|286:190,1,70
332,142,78947,1,0,0:0:0:0:
359,213,79135,1,0,0:0:0:0:
408,154,79322,1,0,0:0:0:0:
408,154,79697,6,0,L|417:81,1,70
345,37,80072,2,0,L|336:106,1,70
332,190,80446,1,0,0:0:0:0:
260,161,80634,1,0,0:0:0:0:
183,172,80821,1,0,0:0:0:0:
133,316,81197,6,0,P|175:267|179:235,2,70
25,231,81946,2,0,L|114:248,1,70
175,263,82321,1,0,0:0:0:0:
151,189,82508,1,0,0:0:0:0:
226,207,82696,6,0,L|310:235,1,70
339,289,83070,1,0,0:0:0:0:
415,270,83258,1,0,0:0:0:0:
366,211,83445,2,0,L|384:143,1,70
313,81,83820,2,0,L|293:149,1,70
292,229,84195,6,0,P|208:141|313:81,1,280
384,111,85132,1,0,0:0:0:0:
430,172,85320,6,0,P|442:221|422:282,1,105
409,310,85695,6,0,P|373:301|337:308,1,70
272,342,86070,2,0,P|219:350|185:335,1,70
139,306,86444,1,0,0:0:0:0:
208,270,86632,1,0,0:0:0:0:
142,230,86819,1,0,0:0:0:0:
161,81,87195,6,0,L|233:72,2,70
159,158,87756,1,0,0:0:0:0:
92,121,87944,2,0,P|37:110|15:118,1,70
53,185,88319,1,0,0:0:0:0:
10,248,88506,1,0,0:0:0:0:
86,257,88694,6,0,L|169:272,1,70
176,343,89069,2,0,L|244:324,1,70
233,248,89443,2,0,L|316:263,1,70
354,318,89818,1,0,0:0:0:0:
415,270,90006,1,0,0:0:0:0:
380,201,90193,6,0,P|369:147|374:126,1,70
302,99,90568,2,0,P|260:74|242:40,1,70
320,20,90943,1,0,0:0:0:0:
397,24,91130,1,0,0:0:0:0:
445,84,91318,1,0,0:0:0:0:
428,158,91505,1,0,0:0:0:0:
352,163,91693,6,0,B|301:207|301:207|302:244,2,105
384,313,92630,2,0,L|384:244,2,70
424,379,93193,5,14,0:0:0:0:
256,192,93380,12,0,97973,0:0:0:0:
