osu file format v14

[General]
AudioFilename: audio.mp3
AudioLeadIn: 0
PreviewTime: 105792
Countdown: 0
SampleSet: Soft
StackLeniency: 0.5
Mode: 0
LetterboxInBreaks: 0
WidescreenStoryboard: 1

[Editor]
Bookmarks: 107355,129105
DistanceSpacing: 1
BeatDivisor: 4
GridSize: 32
TimelineZoom: 1.5

[Metadata]
Title:Senpuu no Mai [Chi]
TitleUnicode:旋風ノ舞【地】
Artist:Ayane
ArtistUnicode:彩音
Creator:Nao Tomori
Version:Mordred's Insane
Source:太鼓の達人
Tags:zeami mordred tatsh dance of the whirlwind taiko no tatsujin 世阿弥
BeatmapID:1656122
BeatmapSetID:781693

[Difficulty]
HPDrainRate:7
CircleSize:4
OverallDifficulty:8
ApproachRate:9
SliderMultiplier:1.6
SliderTickRate:1

[Events]
//Background and Video events
0,0,"karen senpuu bg.jpg",0,0
//Break Periods
//Storyboard Layer 0 (Background)
//Storyboard Layer 1 (Fail)
//Storyboard Layer 2 (Pass)
//Storyboard Layer 3 (Foreground)
//Storyboard Sound Samples

[TimingPoints]
97,375,4,2,1,60,1,0
1503,-100,4,2,1,60,0,0
1597,-100,4,2,1,60,0,0
3097,-83.3333333333333,4,2,1,60,0,0
15847,375,4,2,1,50,1,0
15847,-100,4,2,1,50,0,0
27847,-133.333333333333,4,2,1,50,0,0
33847,-100,4,2,1,60,0,0
41347,-76.9230769230769,4,2,1,80,0,1
41440,-76.9230769230769,4,2,1,80,0,0
46972,-50,4,2,1,80,0,0
47722,-76.9230769230769,4,2,1,80,0,0
49972,-50,4,2,1,80,0,0
50722,-76.9230769230769,4,2,1,80,0,0
53347,-66.6666666666667,4,2,1,80,0,0
53722,-76.9230769230769,4,2,1,80,0,0
59347,-66.6666666666667,4,2,1,80,0,0
59722,-90.9090909090909,4,2,1,80,0,0
62347,-71.4285714285714,4,2,1,80,0,0
65722,-100,4,2,1,80,0,0
68347,-83.3333333333333,4,2,1,70,0,0
95347,-71.4285714285714,4,2,1,85,0,0
96097,-71.4285714285714,4,2,1,85,0,0
101347,-71.4285714285714,4,2,1,85,0,0
102097,-71.4285714285714,4,2,1,85,0,0
105847,-71.4285714285714,4,2,1,60,0,0
107347,-76.9230769230769,4,2,1,70,0,1
112972,-66.6666666666667,4,2,1,70,0,1
113347,-76.9230769230769,4,2,1,70,0,1
116347,-71.4285714285714,4,2,1,70,0,1
117472,-83.3333333333333,4,2,1,70,0,1
118597,-71.4285714285714,4,2,1,70,0,1
119347,-71.4285714285714,4,2,1,83,0,1
124222,-142.857142857143,4,2,1,83,0,0
124409,-142.857142857143,4,2,1,5,0,0

[Colours]
Combo1 : 255,128,64
Combo2 : 255,128,128
Combo3 : 128,64,64
Combo4 : 255,128,0

[HitObjects]
256,192,97,12,0,1503,0:0:0:0:
160,128,1597,5,0,3:0:0:0:
39,37,2534,6,0,L|31:0,2,26.6666666666667,0|0|0,3:0|3:0|3:0,0:0:0:0:
29,113,2722,5,8,0:0:0:0:
20,286,3097,6,0,B|79:265|79:265|216:282,2,191.999994140625,4|8|0,3:2|0:0|3:2,0:0:0:0:
88,349,4034,1,0,0:0:0:0:
181,189,4222,1,8,0:0:0:0:
273,349,4409,2,0,L|368:352,1,95.9999970703126,0|0,3:0|3:0,0:0:0:0:
416,183,4784,5,0,0:0:0:0:
323,239,4972,1,8,0:0:0:0:
511,236,5159,1,0,0:0:0:0:
321,130,5347,1,0,3:0:0:0:
418,292,5534,1,0,0:0:0:0:
415,75,5722,1,8,0:0:0:0:
227,184,5909,2,0,L|114:187,1,95.9999970703126,0|0,3:0|3:0,0:0:0:0:
33,211,6284,5,0,0:0:0:0:
23,349,6472,1,8,0:0:0:0:
148,289,6659,1,0,0:0:0:0:
17,200,6847,1,0,3:0:0:0:
163,299,7034,1,0,3:0:0:0:
12,363,7222,1,8,0:0:0:0:
178,309,7409,2,0,L|286:302,1,95.9999970703126,0|0,3:0|3:0,0:0:0:0:
350,185,7784,5,0,0:0:0:0:
446,179,7972,1,8,0:0:0:0:
402,265,8159,1,0,0:0:0:0:
394,99,8347,1,0,3:0:0:0:
498,259,8534,1,0,0:0:0:0:
305,270,8722,1,8,0:0:0:0:
490,94,8909,1,4,3:2:0:0:
305,270,9097,6,0,L|197:275,1,95.9999970703126,2|0,3:2|0:0,0:0:0:0:
46,213,9472,2,0,L|165:219,1,95.9999970703126,8|0,0:0|0:0,0:0:0:0:
298,147,9847,2,0,L|179:153,1,95.9999970703126,0|0,3:0|0:0,0:0:0:0:
46,81,10222,1,8,0:0:0:0:
235,0,10409,2,0,L|354:6,1,95.9999970703126,0|0,3:0|3:0,0:0:0:0:
512,96,10784,5,0,0:0:0:0:
363,104,10972,1,8,0:0:0:0:
512,96,11159,1,0,0:0:0:0:
348,213,11347,1,0,3:0:0:0:
493,243,11534,1,0,0:0:0:0:
363,104,11722,1,8,0:0:0:0:
333,322,11909,2,0,L|231:330,1,95.9999970703126,0|0,3:0|3:0,0:0:0:0:
71,275,12284,5,0,0:0:0:0:
175,252,12472,1,8,0:0:0:0:
142,353,12659,1,0,0:0:0:0:
104,174,12847,1,0,3:0:0:0:
38,376,13034,1,0,0:0:0:0:
0,197,13222,1,8,0:0:0:0:
142,353,13409,1,0,3:0:0:0:
149,359,13503,1,0,3:3:0:0:
156,365,13597,5,4,3:2:0:0:
352,384,13784,1,4,3:2:0:0:
352,384,14159,1,4,3:2:0:0:
352,384,14534,1,4,3:2:0:0:
352,193,14721,1,4,3:2:0:0:
352,0,14909,1,4,3:2:0:0:
61,22,15847,6,0,P|54:62|51:113,1,80,4|0,3:2|0:0,0:0:0:0:
101,212,16222,1,8,0:0:0:0:
182,142,16409,2,0,P|242:137|287:142,1,80,0|0,0:0|3:0,0:0:0:0:
371,227,16784,2,0,P|311:222|266:227,1,80,0|8,0:0|0:0,0:0:0:0:
181,304,17159,6,0,P|241:309|286:304,1,80,0|0,3:0|3:0,0:0:0:0:
260,307,17440,1,0,0:0:0:0:
260,307,17534,1,0,0:0:0:0:
369,361,17722,2,0,L|407:385,2,40,8|0|0,0:0|0:0|0:0,0:0:0:0:
470,308,18097,1,0,3:0:0:0:
414,215,18284,1,0,0:0:0:0:
470,122,18472,1,8,0:0:0:0:
414,29,18659,1,0,3:0:0:0:
358,122,18847,6,0,P|307:125|257:117,1,80,0|0,3:0|0:0,0:0:0:0:
178,15,19222,1,8,0:0:0:0:
94,98,19409,2,0,P|82:143|75:192,1,80,0|0,0:0|3:0,0:0:0:0:
131,286,19784,1,0,3:0:0:0:
216,169,19972,1,8,0:0:0:0:
331,263,20159,6,0,P|343:308|350:357,1,80,0|0,3:0|3:0,0:0:0:0:
348,340,20440,1,0,0:0:0:0:
348,340,20534,1,0,0:0:0:0:
235,374,20722,2,0,L|195:362,2,40,8|0|0,0:0|0:0|0:0,0:0:0:0:
164,274,21097,1,0,3:0:0:0:
35,309,21284,1,0,0:0:0:0:
0,180,21472,1,8,0:0:0:0:
127,145,21659,1,0,3:2:0:0:
187,298,21847,6,0,L|272:302,1,80,4|0,3:2|0:0,0:0:0:0:
350,211,22222,1,8,0:0:0:0:
457,320,22409,2,0,L|461:233,1,80,0|0,0:0|3:0,0:0:0:0:
346,131,22784,2,0,L|349:210,1,80,0|8,0:0|0:0,0:0:0:0:
457,101,23159,6,0,L|460:21,1,80,0|0,3:0|3:0,0:0:0:0:
460,21,23440,1,0,0:0:0:0:
460,21,23534,1,0,0:0:0:0:
325,16,23722,2,0,L|300:-14,2,40,8|0|0,0:0|0:0|0:0,0:0:0:0:
216,105,24097,2,0,L|134:108,1,80,0|0,3:0|0:0,0:0:0:0:
34,18,24472,2,0,L|116:21,1,80,8|0,0:0|3:0,0:0:0:0:
216,105,24847,6,0,P|235:158|207:275,1,160,0|8,3:0|0:0,0:0:0:0:
0,189,25409,2,0,P|53:170|170:198,1,160,0|0,0:0|0:0,0:0:0:0:
225,330,25972,1,8,0:0:0:0:
344,336,26159,1,0,3:0:0:0:
464,343,26347,1,0,3:0:0:0:
464,343,27097,6,0,L|474:300,1,40,8|0,3:2|0:0,0:0:0:0:
380,254,27284,2,0,L|389:292,1,40,8|8,3:2|0:0,0:0:0:0:
296,343,27472,2,0,L|305:304,1,40,8|0,3:2|0:0,0:0:0:0:
212,254,27659,2,0,L|221:292,1,40,8|0,3:2|0:0,0:0:0:0:
128,343,27847,6,0,P|85:338|30:215,1,180.000006866455,4|0,3:2|3:0,0:0:0:0:
136,85,28597,2,0,P|162:118|114:244,1,180.000006866455,8|0,0:0|0:0,0:0:0:0:
7,8,29347,2,0,L|141:11,1,120.000004577637,0|0,3:2|0:0,0:0:0:0:
253,83,29909,1,0,3:0:0:0:
253,83,30003,1,0,3:0:0:0:
253,83,30097,1,8,0:0:0:0:
351,18,30284,2,0,L|423:22,1,60.0000022888184,0|0,3:0|0:0,0:0:0:0:
505,101,30659,1,0,3:0:0:0:
483,273,30847,5,0,3:0:0:0:
483,273,31409,1,0,3:0:0:0:
358,198,31597,2,0,P|319:195|257:203,1,90.0000034332277,8|0,0:0|0:0,0:0:0:0:
219,259,31972,2,0,P|174:264|129:261,1,90.0000034332277,2|0,0:3|0:0,0:0:0:0:
40,192,32347,6,0,P|34:153|50:47,1,120.000004577637,0|0,3:0|0:0,0:0:0:0:
160,9,32909,1,0,3:0:0:0:
160,9,33003,1,0,0:0:0:0:
160,9,33097,2,0,L|215:10,1,30.0000011444092,8|0,0:0|0:0,0:0:0:0:
239,85,33284,2,0,L|294:84,1,30.0000011444092,0|0,0:0|0:0,0:0:0:0:
320,9,33472,2,0,L|375:10,1,30.0000011444092,8|0,0:0|0:0,0:0:0:0:
410,76,33659,2,0,L|465:75,1,30.0000011444092,8|0,0:0|0:0,0:0:0:0:
511,169,33847,6,0,L|506:267,1,80,4|0,3:2|0:0,0:0:0:0:
398,354,34222,2,0,L|393:274,1,80,8|0,0:0|0:0,0:0:0:0:
285,169,34597,2,0,L|280:248,1,80,0|0,3:0|0:0,0:0:0:0:
172,354,34972,1,8,0:0:0:0:
150,191,35159,1,0,3:2:0:0:
150,191,35253,1,0,3:0:0:0:
150,191,35347,2,0,L|145:111,1,80,0|0,3:0|0:0,0:0:0:0:
41,4,35722,5,8,0:0:0:0:
3,122,35909,1,0,0:0:0:0:
41,240,36097,2,0,L|35:344,1,80,0|0,3:0|0:0,0:0:0:0:
150,191,36472,2,0,L|145:111,1,80,8|0,0:0|3:2,0:0:0:0:
266,306,36847,6,0,P|327:305|434:314,1,160,0|8,3:0|0:0,0:0:0:0:
425,312,37315,1,0,0:0:0:0:
425,312,37409,1,0,0:0:0:0:
512,192,37597,1,0,3:0:0:0:
443,60,37784,1,0,0:0:0:0:
363,187,37972,1,8,0:0:0:0:
294,55,38159,1,0,3:2:0:0:
294,55,38253,1,0,3:0:0:0:
294,55,38347,1,0,3:0:0:0:
294,55,38722,5,8,0:0:0:0:
119,154,38909,1,0,3:0:0:0:
218,329,39096,1,0,3:0:0:0:
393,230,39284,1,0,0:0:0:0:
256,192,39472,1,8,0:0:0:0:
256,192,39565,1,0,3:0:0:0:
256,192,39659,1,0,3:2:0:0:
256,192,39753,1,0,3:0:0:0:
256,192,39847,5,4,3:2:0:0:
0,0,40597,5,4,3:2:0:0:
4,315,41347,6,0,B|67:305|67:305|124:326|124:326|225:322,1,207.999990478516,4|8,3:2|0:0,0:0:0:0:
304,227,41909,1,0,0:0:0:0:
141,247,42097,2,0,P|135:192|139:123,1,103.999995239258,0|0,3:0|0:0,0:0:0:0:
280,13,42472,1,8,0:0:0:0:
116,34,42659,1,0,3:0:0:0:
273,122,42847,5,0,3:0:0:0:
273,122,42940,1,0,0:0:0:0:
273,122,43034,1,0,0:0:0:0:
411,31,43222,1,8,0:0:0:0:
487,149,43409,1,0,0:0:0:0:
391,270,43597,2,0,P|389:325|393:375,1,103.999995239258,0|0,3:0|0:0,0:0:0:0:
231,384,43972,2,0,P|233:329|229:279,1,103.999995239258,8|0,0:0|3:0,0:0:0:0:
290,118,44347,6,0,L|81:122,1,207.999990478516,0|8,3:0|0:0,0:0:0:0:
0,304,44909,2,0,L|209:308,1,207.999990478516,0|0,0:0|0:0,0:0:0:0:
319,236,45472,1,8,0:0:0:0:
410,370,45659,1,0,3:0:0:0:
449,160,45847,6,0,P|454:108|452:52,1,103.999995239258,0|0,3:0|0:0,0:0:0:0:
288,0,46222,1,8,0:0:0:0:
198,174,46409,2,0,L|80:179,1,103.999995239258,0|0,0:0|3:0,0:0:0:0:
94,178,46690,1,0,0:0:0:0:
94,178,46784,1,0,0:0:0:0:
29,341,46972,6,0,B|108:358|108:358|191:333,1,160,12|0,0:0|3:0,0:0:0:0:
419,295,47347,2,0,B|340:278|340:278|257:303,1,160,4|0,3:2|0:0,0:0:0:0:
102,273,47722,6,0,L|96:158,1,103.999995239258,8|0,0:0|0:0,0:0:0:0:
300,115,48097,2,0,L|203:176,1,103.999995239258,0|0,3:0|0:0,0:0:0:0:
65,23,48472,2,0,L|167:76,1,103.999995239258,8|0,0:0|3:0,0:0:0:0:
201,267,48847,5,0,3:0:0:0:
353,366,49034,1,0,0:0:0:0:
452,214,49221,1,8,0:0:0:0:
300,115,49409,2,0,L|295:3,1,103.999995239258,0|0,0:0|3:0,0:0:0:0:
296,11,49690,1,0,0:0:0:0:
296,11,49784,1,0,0:0:0:0:
480,0,49972,6,0,B|502:78|502:78|483:163,1,160,12|0,0:0|3:0,0:0:0:0:
464,384,50347,2,0,B|442:306|442:306|461:221,1,160,4|0,3:2|0:0,0:0:0:0:
409,81,50722,6,0,L|278:75,1,103.999995239258,8|0,0:0|0:0,0:0:0:0:
224,192,51097,1,0,3:0:0:0:
160,64,51284,2,0,L|29:70,1,103.999995239258,0|8,0:0|0:0,0:0:0:0:
0,176,51659,2,0,L|131:182,1,103.999995239258,0|0,3:0|3:0,0:0:0:0:
160,288,52034,2,0,L|29:294,1,103.999995239258,0|8,0:0|0:0,0:0:0:0:
247,214,52409,1,0,0:0:0:0:
247,214,52503,1,0,0:0:0:0:
247,214,52597,1,0,3:2:0:0:
247,214,52690,1,0,0:0:0:0:
247,214,52784,1,0,3:0:0:0:
247,214,52878,1,0,0:0:0:0:
247,214,52972,2,0,L|311:210,1,51.999997619629,8|0,0:0|0:0,0:0:0:0:
352,313,53159,2,0,L|288:309,1,51.999997619629,8|0,3:2|0:0,0:0:0:0:
197,349,53347,6,0,L|186:130,1,180.000006866455,4|0,3:2|0:0,0:0:0:0:
238,109,53722,6,0,P|290:87|360:121,1,103.999995239258,8|0,0:0|0:0,0:0:0:0:
451,237,54097,1,0,3:0:0:0:
308,310,54284,2,0,L|313:200,1,103.999995239258,0|8,0:0|0:0,0:0:0:0:
303,15,54659,6,0,L|178:12,1,103.999995239258,0|0,3:0|3:0,0:0:0:0:
79,145,55034,2,0,L|76:270,1,103.999995239258,0|8,0:0|0:0,0:0:0:0:
209,369,55409,2,0,L|334:372,1,103.999995239258,0|0,0:0|3:0,0:0:0:0:
433,239,55784,2,0,L|436:114,1,103.999995239258,0|8,0:0|0:0,0:0:0:0:
303,15,56159,1,0,3:0:0:0:
224,224,56347,6,0,P|128:240|17:198,1,207.999990478516,0|8,3:0|0:0,0:0:0:0:
185,13,56909,2,0,L|187:130,1,103.999995239258,0|0,0:0|3:0,0:0:0:0:
85,66,57284,1,0,0:0:0:0:
285,66,57472,1,8,0:0:0:0:
85,66,57659,1,0,3:0:0:0:
285,66,57847,6,0,L|428:71,1,103.999995239258,0|0,3:0|0:0,0:0:0:0:
227,318,58222,2,0,L|84:313,1,103.999995239258,8|0,0:0|0:0,0:0:0:0:
298,40,58597,2,0,L|401:43,1,103.999995239258,0|0,3:0|0:0,0:0:0:0:
213,343,58972,2,0,L|110:340,1,103.999995239258,8|0,0:0|3:2,0:0:0:0:
0,96,59347,6,0,B|56:72|56:72|194:91,1,180.000006866455,4|0,3:2|0:0,0:0:0:0:
220,146,59722,2,0,L|330:146,1,88.000002685547,8|0,0:0|0:0,0:0:0:0:
487,202,60097,1,0,3:0:0:0:
512,352,60284,1,0,0:0:0:0:
361,380,60472,1,8,0:0:0:0:
334,228,60659,1,0,3:2:0:0:
462,52,60847,6,0,P|419:37|348:26,1,88.000002685547,0|0,3:0|0:0,0:0:0:0:
192,16,61222,1,8,0:0:0:0:
280,161,61409,2,0,L|284:281,1,88.000002685547,0|0,0:0|3:0,0:0:0:0:
282,248,61690,1,0,0:0:0:0:
282,248,61784,1,0,0:0:0:0:
193,343,61972,1,8,0:0:0:0:
316,384,62159,1,8,3:2:0:0:
70,302,62347,5,2,3:2:0:0:
70,302,63472,1,8,0:0:0:0:
193,343,63659,1,0,3:0:0:0:
143,89,63847,5,2,3:2:0:0:
143,89,64972,1,0,0:0:0:0:
20,48,65159,1,0,3:0:0:0:
70,302,65347,5,2,0:0:0:0:
93,304,66097,5,2,0:0:0:0:
116,306,66659,1,0,3:0:0:0:
139,308,66847,5,2,0:0:0:0:
162,310,67222,5,2,0:0:0:0:
185,312,67597,5,0,3:0:0:0:
188,180,67784,1,0,3:0:0:0:
191,48,67972,1,2,0:0:0:0:
191,48,68347,5,0,3:0:0:0:
288,202,68534,1,0,0:0:0:0:
365,36,68722,2,0,B|417:30|417:30|476:57|483:148,1,191.999994140625,8|0,0:0|3:0,0:0:0:0:
387,323,69284,1,0,0:0:0:0:
288,202,69472,1,8,0:0:0:0:
476,267,69659,1,0,3:0:0:0:
286,366,69847,6,0,L|178:363,1,95.9999970703126,0|0,3:0|0:0,0:0:0:0:
19,205,70222,2,0,L|127:202,1,95.9999970703126,8|0,0:0|0:0,0:0:0:0:
303,376,70597,2,0,L|181:373,1,95.9999970703126,0|0,3:0|0:0,0:0:0:0:
1,194,70972,2,0,L|123:191,1,95.9999970703126,8|0,0:0|3:0,0:0:0:0:
256,259,71347,5,0,3:0:0:0:
64,291,71534,1,0,0:0:0:0:
135,87,71722,2,0,P|176:40|305:42,1,191.999994140625,8|0,0:0|3:0,0:0:0:0:
386,207,72284,1,0,0:0:0:0:
452,54,72472,1,8,0:0:0:0:
282,148,72659,1,0,3:0:0:0:
384,303,72847,6,0,L|386:208,1,95.9999970703126,0|0,3:0|0:0,0:0:0:0:
298,37,73222,1,8,0:0:0:0:
266,259,73409,2,0,P|189:262|167:259,1,95.9999970703126,0|0,0:0|3:0,0:0:0:0:
46,120,73784,1,0,0:0:0:0:
212,179,73972,1,8,0:0:0:0:
56,273,74159,2,0,P|50:332|53:376,2,95.9999970703126,0|4|0,3:0|3:2|0:0,0:0:0:0:
151,96,74722,6,0,P|203:82|309:122,1,143.999995605469,8|0,0:0|0:0,0:0:0:0:
318,175,75097,2,0,P|304:227|216:298,1,143.999995605469,0|0,3:0|0:0,0:0:0:0:
166,280,75472,2,0,P|127:241|109:130,1,143.999995605469,8|0,0:0|0:0,0:0:0:0:
151,96,75847,6,0,P|200:116|310:89,1,143.999995605469,0|0,3:0|0:0,0:0:0:0:
331,40,76222,1,8,0:0:0:0:
471,70,76409,2,0,L|477:181,1,95.9999970703126,0|0,0:0|3:0,0:0:0:0:
476,165,76690,1,0,0:0:0:0:
476,165,76784,1,0,0:0:0:0:
385,318,76972,1,12,0:0:0:0:
499,264,77159,1,0,3:0:0:0:
282,247,77347,6,0,L|276:48,1,191.999994140625,0|8,3:2|0:0,0:0:0:0:
80,0,77909,2,0,L|77:95,1,95.9999970703126,0|0,0:0|3:0,0:0:0:0:
160,224,78284,1,0,0:0:0:0:
51,346,78472,1,8,0:0:0:0:
32,187,78659,1,0,3:0:0:0:
184,352,78847,5,0,3:0:0:0:
348,368,79034,1,8,0:0:0:0:
512,384,79222,1,8,0:0:0:0:
382,234,79409,1,0,0:0:0:0:
382,234,79503,2,0,L|309:231,1,47.9999985351563,8|0,0:0|3:0,0:0:0:0:
184,352,79784,1,0,3:0:0:0:
168,188,79971,1,8,0:0:0:0:
152,24,80159,1,0,3:2:0:0:
327,121,80347,5,4,3:2:0:0:
112,115,80534,1,0,0:0:0:0:
287,30,80722,2,0,P|374:41|425:143,1,191.999994140625,8|0,0:0|3:0,0:0:0:0:
327,294,81284,1,0,0:0:0:0:
327,121,81472,1,8,0:0:0:0:
309,316,81659,1,0,3:0:0:0:
486,260,81847,6,0,L|490:145,1,95.9999970703126,0|0,3:0|0:0,0:0:0:0:
244,18,82222,2,0,L|248:133,1,95.9999970703126,8|0,0:0|0:0,0:0:0:0:
506,242,82597,2,0,L|510:127,1,95.9999970703126,0|0,3:0|0:0,0:0:0:0:
224,0,82972,2,0,L|227:95,1,95.9999970703126,8|0,0:0|3:0,0:0:0:0:
154,282,83347,5,0,3:0:0:0:
42,106,83534,1,0,0:0:0:0:
29,323,83722,2,0,L|246:333,1,191.999994140625,8|0,0:0|3:0,0:0:0:0:
418,237,84284,1,0,0:0:0:0:
256,231,84472,1,8,0:0:0:0:
453,337,84659,1,0,3:0:0:0:
495,148,84847,6,0,P|497:98|486:21,1,95.9999970703126,4|0,3:2|0:0,0:0:0:0:
288,0,85222,1,8,0:0:0:0:
373,195,85409,2,0,P|375:145|364:68,1,95.9999970703126,0|4,0:0|3:2,0:0:0:0:
201,40,85784,1,0,0:0:0:0:
397,8,85972,1,8,0:0:0:0:
253,140,86159,1,0,3:2:0:0:
111,0,86347,6,0,P|51:-1|7:7,1,95.9999970703126,4|0,3:2|0:0,0:0:0:0:
0,169,86722,2,0,L|7:326,1,143.999995605469,8|0,0:0|0:0,0:0:0:0:
78,342,87097,2,0,L|84:198,1,143.999995605469,0|0,3:0|0:0,0:0:0:0:
156,169,87472,2,0,L|162:312,1,143.999995605469,8|0,0:0|0:0,0:0:0:0:
224,358,87847,6,0,L|402:362,1,143.999995605469,0|0,3:0|0:0,0:0:0:0:
441,383,88222,1,8,0:0:0:0:
504,224,88409,2,0,P|439:218|384:225,1,95.9999970703126,0|0,0:0|3:0,0:0:0:0:
408,220,88690,1,0,0:0:0:0:
408,220,88784,1,0,0:0:0:0:
336,22,88972,1,8,0:0:0:0:
479,89,89159,1,0,3:2:0:0:
275,130,89347,6,0,P|212:132|119:77,1,143.999995605469,4|0,3:2|0:0,0:0:0:0:
86,153,89722,2,0,P|119:206|118:314,1,143.999995605469,8|0,0:0|0:0,0:0:0:0:
201,306,90097,2,0,P|230:250|324:197,1,143.999995605469,4|0,3:2|0:0,0:0:0:0:
372,198,90472,1,8,0:0:0:0:
399,356,90659,1,0,3:2:0:0:
201,306,90847,6,0,L|49:299,1,143.999995605469,4|0,3:2|0:0,0:0:0:0:
11,238,91222,2,0,P|11:154|18:121,1,95.9999970703126,8|0,0:0|0:0,0:0:0:0:
100,45,91597,1,4,3:2:0:0:
100,45,91690,1,0,3:0:0:0:
100,45,91784,1,0,3:0:0:0:
100,45,91878,1,0,0:0:0:0:
100,45,91972,2,0,L|154:48,1,47.9999985351563,12|0,0:0|0:0,0:0:0:0:
211,141,92159,2,0,L|157:144,1,47.9999985351563,4|0,3:2|0:0,0:0:0:0:
284,16,92347,5,0,3:0:0:0:
347,95,92534,1,0,0:0:0:0:
322,185,92722,2,0,L|281:288,1,95.9999970703126,8|0,0:0|0:0,0:0:0:0:
163,143,93097,5,0,3:0:0:0:
189,50,93284,1,0,0:0:0:0:
284,16,93472,2,0,L|393:-1,1,95.9999970703126,8|0,0:0|3:0,0:0:0:0:
322,185,93847,5,0,3:0:0:0:
230,209,94034,1,0,0:0:0:0:
163,143,94222,2,0,L|93:56,1,95.9999970703126,8|0,0:0|0:0,0:0:0:0:
11,208,94597,1,0,3:0:0:0:
11,208,94690,1,0,0:0:0:0:
11,208,94784,1,0,0:0:0:0:
11,208,94878,1,0,0:0:0:0:
11,208,94972,2,0,L|15:263,1,47.9999985351563,8|0,0:0|0:0,0:0:0:0:
84,321,95159,2,0,L|138:331,1,47.9999985351563,0|0,3:0|0:0,0:0:0:0:
265,272,95347,6,0,B|341:244|341:244|519:266,2,223.999993164063,2|8|0,3:2|0:0|3:0,0:0:0:0:
345,333,96284,1,0,0:0:0:0:
467,135,96472,1,8,0:0:0:0:
275,181,96659,2,0,P|205:180|152:174,1,111.999996582031,0|0,3:0|3:0,0:0:0:0:
30,47,97034,5,0,0:0:0:0:
31,217,97222,1,8,0:0:0:0:
21,38,97409,1,0,0:0:0:0:
39,224,97597,1,0,3:0:0:0:
11,28,97784,1,0,0:0:0:0:
49,234,97972,1,8,0:0:0:0:
128,38,98159,2,0,P|189:31|243:35,1,111.999996582031,8|0,0:0|3:2,0:0:0:0:
381,123,98534,5,0,0:0:0:0:
210,124,98722,1,8,0:0:0:0:
388,114,98909,1,0,0:0:0:0:
202,131,99097,1,0,3:0:0:0:
398,104,99284,1,0,0:0:0:0:
192,141,99472,1,8,0:0:0:0:
343,316,99659,2,0,P|345:252|340:189,1,111.999996582031,0|0,3:0|3:0,0:0:0:0:
90,164,100034,5,0,0:0:0:0:
192,141,100222,1,8,0:0:0:0:
20,83,100409,1,0,0:0:0:0:
157,242,100597,1,0,3:0:0:0:
123,62,100784,1,0,0:0:0:0:
53,261,100972,1,8,0:0:0:0:
262,224,101159,1,4,3:2:0:0:
13,141,101347,6,0,L|9:16,1,111.999996582031,4|0,3:2|0:0,0:0:0:0:
157,242,101722,2,0,L|152:353,1,111.999996582031,8|0,0:0|0:0,0:0:0:0:
292,141,102097,2,0,L|287:29,1,111.999996582031,0|0,3:0|0:0,0:0:0:0:
384,256,102472,1,8,0:0:0:0:
192,141,102659,2,0,L|80:136,1,111.999996582031,0|0,3:0|3:2,0:0:0:0:
0,266,103034,5,0,0:0:0:0:
118,384,103222,1,8,0:0:0:0:
162,222,103409,1,0,0:0:0:0:
24,358,103597,1,0,3:0:0:0:
68,197,103785,1,0,0:0:0:0:
187,315,103972,1,8,0:0:0:0:
392,282,104159,2,0,L|515:288,1,111.999996582031,0|0,3:0|3:2,0:0:0:0:
415,115,104534,5,0,0:0:0:0:
311,138,104722,1,8,0:0:0:0:
336,28,104909,1,0,0:0:0:0:
382,243,105097,1,0,3:0:0:0:
461,0,105284,1,0,0:0:0:0:
506,215,105472,1,8,0:0:0:0:
336,28,105659,1,0,3:0:0:0:
328,21,105753,1,0,0:0:0:0:
319,14,105847,5,2,3:2:0:0:
134,0,106034,1,10,3:2:0:0:
134,0,106409,1,2,3:2:0:0:
134,0,106784,1,2,3:2:0:0:
134,191,106971,1,10,3:2:0:0:
134,384,107159,1,2,3:2:0:0:
259,241,107347,5,4,3:2:0:0:
291,224,107440,1,0,0:0:0:0:
327,221,107534,1,0,0:0:0:0:
361,232,107628,1,0,0:0:0:0:
389,254,107722,1,8,0:0:0:0:
415,280,107815,1,0,0:0:0:0:
450,289,107909,1,0,0:0:0:0:
484,278,108003,1,0,0:0:0:0:
509,252,108097,1,0,3:0:0:0:
512,217,108190,1,0,0:0:0:0:
505,183,108284,1,0,0:0:0:0:
478,159,108378,1,0,0:0:0:0:
442,152,108472,2,0,L|447:272,1,103.999995239258,8|0,0:0|3:0,0:0:0:0:
320,384,108847,5,4,3:2:0:0:
215,298,109034,1,0,0:0:0:0:
215,298,109128,1,0,0:0:0:0:
215,298,109222,1,8,0:0:0:0:
96,364,109409,1,0,0:0:0:0:
30,245,109597,1,0,3:0:0:0:
149,179,109785,1,0,0:0:0:0:
185,176,109878,1,0,0:0:0:0:
221,174,109972,1,8,0:0:0:0:
257,172,110065,1,0,0:0:0:0:
293,170,110159,1,0,3:0:0:0:
409,131,110347,6,0,L|415:25,1,103.999995239258,4|0,3:2|0:0,0:0:0:0:
384,7,110628,1,0,0:0:0:0:
347,2,110722,1,8,0:0:0:0:
311,7,110815,1,0,0:0:0:0:
281,28,110909,1,0,0:0:0:0:
258,56,111003,1,0,0:0:0:0:
225,72,111097,1,0,3:0:0:0:
79,18,111284,1,0,0:0:0:0:
32,171,111472,1,8,0:0:0:0:
32,171,111565,1,0,0:0:0:0:
32,171,111659,1,0,3:0:0:0:
178,225,111847,5,4,3:2:0:0:
213,228,111940,1,0,0:0:0:0:
249,231,112034,1,0,0:0:0:0:
285,234,112128,1,0,0:0:0:0:
299,267,112222,5,8,0:0:0:0:
332,264,112316,1,0,0:0:0:0:
364,261,112410,1,0,0:0:0:0:
396,258,112503,1,0,0:0:0:0:
414,232,112597,5,0,3:0:0:0:
443,235,112691,1,0,0:0:0:0:
472,237,112785,1,0,0:0:0:0:
500,240,112878,1,0,0:0:0:0:
507,204,112972,6,0,L|498:84,1,120.000004577637,12|4,0:0|3:2,0:0:0:0:
340,48,113347,5,4,3:2:0:0:
308,65,113440,1,0,0:0:0:0:
272,68,113534,1,0,0:0:0:0:
238,57,113628,1,0,0:0:0:0:
210,35,113722,1,8,0:0:0:0:
184,9,113815,1,0,0:0:0:0:
149,0,113909,1,0,0:0:0:0:
115,11,114003,1,0,0:0:0:0:
90,37,114097,1,0,3:0:0:0:
87,72,114190,1,0,0:0:0:0:
94,106,114284,1,0,0:0:0:0:
121,130,114378,1,0,0:0:0:0:
157,137,114472,2,0,L|152:17,1,103.999995239258,8|0,0:0|3:0,0:0:0:0:
32,160,114847,5,4,3:2:0:0:
176,256,115034,1,0,0:0:0:0:
20,332,115222,1,8,0:0:0:0:
131,166,115409,1,0,0:0:0:0:
131,166,115503,1,0,0:0:0:0:
131,166,115597,1,0,3:0:0:0:
120,339,115784,1,0,0:0:0:0:
276,263,115972,1,8,0:0:0:0:
276,263,116066,1,0,0:0:0:0:
276,263,116160,1,0,3:0:0:0:
250,73,116347,5,4,3:2:0:0:
289,52,116440,1,0,0:0:0:0:
333,53,116534,1,0,0:0:0:0:
370,77,116628,1,0,0:0:0:0:
391,116,116722,1,8,0:0:0:0:
390,160,116815,1,0,0:0:0:0:
367,198,116909,1,0,0:0:0:0:
343,235,117003,1,0,0:0:0:0:
341,279,117097,1,0,3:0:0:0:
362,318,117190,1,0,0:0:0:0:
400,342,117284,1,0,0:0:0:0:
444,343,117378,1,0,0:0:0:0:
483,323,117472,2,0,L|487:215,1,95.9999970703126,8|0,0:0|3:0,0:0:0:0:
440,163,117753,1,0,0:0:0:0:
428,139,117847,6,0,L|424:31,1,95.9999970703126,4|0,3:2|0:0,0:0:0:0:
351,9,118128,1,0,0:0:0:0:
326,21,118222,2,0,L|218:25,1,95.9999970703126,8|0,0:0|0:0,0:0:0:0:
94,5,118597,5,4,3:2:0:0:
54,42,118690,1,0,0:0:0:0:
47,97,118784,1,0,0:0:0:0:
78,142,118878,1,0,0:0:0:0:
130,158,118972,1,4,3:2:0:0:
182,174,119066,1,0,0:0:0:0:
213,219,119160,1,4,3:2:0:0:
206,274,119254,1,0,0:0:0:0:
166,311,119347,6,0,L|40:305,1,111.999996582031,2|0,0:0|0:0,0:0:0:0:
0,237,119628,2,0,L|126:231,1,111.999996582031,2|0,0:0|0:0,0:0:0:0:
166,163,119909,2,0,L|40:157,1,111.999996582031,2|0,0:0|0:0,0:0:0:0:
0,32,120284,6,0,L|55:34,1,55.9999982910157,0|0,3:0|0:0,0:0:0:0:
135,39,120472,2,0,L|190:41,1,55.9999982910157,8|0,0:0|0:0,0:0:0:0:
270,46,120659,2,0,L|325:48,1,55.9999982910157,0|0,3:0|0:0,0:0:0:0:
405,53,120847,6,0,L|413:189,1,111.999996582031,2|0,0:0|0:0,0:0:0:0:
487,213,121128,2,0,L|493:101,1,111.999996582031,2|0,0:0|0:0,0:0:0:0:
408,256,121409,2,0,L|414:367,1,111.999996582031,2|0,0:0|0:0,0:0:0:0:
254,373,121784,6,0,L|256:317,1,55.9999982910157,0|0,3:0|0:0,0:0:0:0:
261,237,121972,2,0,L|263:182,1,55.9999982910157,8|0,0:0|0:0,0:0:0:0:
268,102,122159,2,0,L|270:47,1,55.9999982910157,0|0,3:0|0:0,0:0:0:0:
169,0,122347,6,0,L|43:6,1,111.999996582031,2|0,0:0|0:0,0:0:0:0:
3,74,122628,2,0,L|129:80,1,111.999996582031,2|0,0:0|0:0,0:0:0:0:
169,148,122909,2,0,L|43:154,1,111.999996582031,2|0,0:0|0:0,0:0:0:0:
0,256,123284,6,0,L|55:254,1,55.9999982910157,0|0,3:0|0:0,0:0:0:0:
135,249,123472,1,8,0:0:0:0:
162,248,123565,1,8,0:0:0:0:
190,246,123659,2,0,L|245:244,1,55.9999982910157,8|0,0:0|0:0,0:0:0:0:
448,32,124222,5,6,3:2:0:0:
256,192,124315,12,0,129097,0:0:0:0:
