osu file format v14

[General]
AudioFilename: audio.mp3
AudioLeadIn: 0
PreviewTime: 30409
Countdown: 0
SampleSet: Soft
StackLeniency: 1
Mode: 3
LetterboxInBreaks: 0
SpecialStyle: 0
WidescreenStoryboard: 0

[Editor]
Bookmarks: 7792,15292,30292,45760,60292,90292,105292,112792
DistanceSpacing: 0.8
BeatDivisor: 4
GridSize: 32
TimelineZoom: 1

[Metadata]
Title:Perfect*Quest
TitleUnicode:パーフェクト☆クエスト
Artist:Ayane
ArtistUnicode:彩音
Creator:Feerum
Version:True Ending
Source:神次元アイドル ネプテューヌPP
Tags:Idea Factory Tamsoft Compile Heart Hyperdimension Neptunia Producing Perfection Kami Jigen Idol ending ps vita playstation 5pb
BeatmapID:974435
BeatmapSetID:454494

[Difficulty]
HPDrainRate:7.5
CircleSize:4
OverallDifficulty:7.5
ApproachRate:10
SliderMultiplier:1.4
SliderTickRate:1

[Events]
//Background and Video events
0,0,"BG.jpg",0,0
//Break Periods
//Storyboard Layer 0 (Background)
//Storyboard Layer 1 (Fail)
//Storyboard Layer 2 (Pass)
//Storyboard Layer 3 (Foreground)
//Storyboard Sound Samples

[TimingPoints]
292,468.75,4,2,1,50,1,0
60292,-100,4,2,1,50,0,1
74823,-100,4,2,1,50,0,0
75292,-100,4,2,1,50,0,1
90292,-100,4,2,1,50,0,0

[HitObjects]
448,192,292,128,0,1698:0:0:0:0:
64,192,292,1,0,0:0:0:0:
192,192,643,1,0,0:0:0:0:
320,192,995,1,0,0:0:0:0:
64,192,2167,128,0,3573:0:0:0:0:
448,192,2167,1,0,0:0:0:0:
320,192,2518,1,0,0:0:0:0:
192,192,2870,1,0,0:0:0:0:
448,192,4042,128,0,5448:0:0:0:0:
64,192,4042,1,0,0:0:0:0:
192,192,4393,1,0,0:0:0:0:
320,192,4745,1,0,0:0:0:0:
192,192,5448,1,0,0:0:0:0:
64,192,5917,128,0,7792:0:0:0:0:
192,192,5917,1,0,0:0:0:0:
448,192,6385,1,0,0:0:0:0:
320,192,6854,1,0,0:0:0:0:
448,192,7792,128,0,9198:0:0:0:0:
192,192,7792,1,0,3:0:0:0:
192,192,8143,1,0,3:0:0:0:
192,192,8495,1,0,3:0:0:0:
64,192,9667,128,0,11073:0:0:0:0:
320,192,9667,1,0,0:0:0:0:
448,192,10018,1,0,0:0:0:0:
192,192,10370,1,0,0:0:0:0:
320,192,11424,1,0,3:0:0:0:
448,192,11542,1,0,3:0:0:0:
192,192,11542,128,0,12948:0:0:0:0:
448,192,11893,1,0,3:0:0:0:
448,192,12245,1,0,3:0:0:0:
320,192,12948,1,0,0:0:0:0:
64,192,13417,128,0,13768:0:0:0:0:
448,192,13417,1,0,0:0:0:0:
64,192,13885,128,0,14237:0:0:0:0:
192,192,13885,128,0,14237:0:0:0:0:
320,192,13885,1,0,0:0:0:0:
64,192,14354,128,0,14706:0:0:0:0:
192,192,14354,128,0,14706:0:0:0:0:
320,192,14354,128,0,14706:0:0:0:0:
448,192,14354,1,0,0:0:0:0:
448,192,14823,1,0,3:0:0:0:
64,192,14823,1,0,0:0:0:50:LR_Clap Long.wav
320,192,14901,1,0,3:0:0:0:
192,192,14979,1,0,3:0:0:0:
64,192,15057,1,0,3:0:0:0:
448,192,15135,1,0,3:0:0:0:
320,192,15213,1,0,3:0:0:0:
192,192,15292,1,0,3:0:0:0:
64,192,15292,1,4,0:0:0:0:
448,192,15760,1,8,0:0:0:0:
192,192,15760,1,0,0:0:0:0:
64,192,16229,1,0,3:0:0:0:
192,192,16698,1,0,0:0:0:0:
320,192,16698,1,8,0:0:0:0:
448,192,17167,1,0,3:0:0:0:
64,192,17635,1,8,0:0:0:0:
320,192,17635,1,0,0:0:0:0:
192,192,18104,1,0,3:0:0:0:
64,192,18573,1,0,0:0:0:0:
320,192,18573,1,0,0:0:0:0:
448,192,18573,1,0,0:0:0:50:LR_Clap Long.wav
320,192,19042,1,0,3:0:0:0:
192,192,19510,1,8,0:0:0:0:
448,192,19510,1,0,0:0:0:0:
64,192,19979,1,0,3:0:0:0:
448,192,20213,1,2,0:0:0:0:
192,192,20448,1,0,0:0:0:0:
320,192,20448,1,8,0:0:0:0:
448,192,20917,1,0,3:0:0:0:
320,192,21151,1,2,0:0:0:0:
192,192,21385,1,8,0:0:0:0:
448,192,21385,1,0,0:0:0:0:
64,192,21620,1,2,0:0:0:0:
320,192,21854,1,0,3:0:0:0:
192,192,22088,1,2,0:0:0:0:
448,192,22323,1,8,0:0:0:0:
64,192,22323,1,0,0:0:0:0:
320,192,22557,1,2,0:0:0:0:
192,192,22792,1,0,3:0:0:0:
448,192,23260,1,0,0:0:0:0:
64,192,23260,1,8,0:0:0:0:
320,192,23729,1,0,3:0:0:0:
192,192,24198,1,8,0:0:0:0:
448,192,24198,1,0,0:0:0:0:
64,192,24667,1,0,3:0:0:0:
192,192,25135,1,8,0:0:0:0:
320,192,25135,1,0,0:0:0:0:
448,192,25604,1,0,3:0:0:0:
192,192,26073,1,0,0:0:0:0:
448,192,26073,1,0,0:0:0:0:
64,192,26073,1,0,0:0:0:50:LR_Clap Long.wav
320,192,26542,1,0,3:0:0:0:
448,192,27010,1,8,0:0:0:0:
192,192,27010,1,0,0:0:0:0:
64,192,27479,1,0,3:0:0:0:
448,192,27713,1,2,0:0:0:0:
192,192,27948,1,8,0:0:0:0:
320,192,27948,1,0,0:0:0:0:
64,192,28417,1,0,3:0:0:0:
192,192,28651,1,2,0:0:0:0:
320,192,28885,1,8,0:0:0:0:
64,192,28885,1,0,0:0:0:0:
448,192,29120,1,2,0:0:0:0:
192,192,29354,1,0,3:0:0:0:
320,192,29588,1,2,0:0:0:0:
448,192,29823,1,0,0:0:0:0:
64,192,29823,1,8,0:0:0:0:
192,192,30057,1,2,0:0:0:0:
320,192,30292,1,0,3:0:0:0:
448,192,30760,1,0,0:0:0:0:
64,192,30760,1,8,3:0:0:0:
192,192,31229,1,0,3:0:0:0:
320,192,31698,1,8,3:0:0:0:
448,192,31698,1,0,0:0:0:0:
64,192,32167,1,0,3:0:0:0:
192,192,32635,1,8,3:0:0:0:
448,192,32635,1,0,0:0:0:0:
64,192,33104,1,0,3:0:0:0:
320,192,33338,1,0,0:0:0:0:
448,192,33573,1,8,3:0:0:0:
192,192,33573,1,0,0:0:0:0:
64,192,33807,1,0,0:0:0:0:
320,192,34042,1,0,3:0:0:0:
448,192,34510,1,8,3:0:0:0:
320,192,34510,1,0,0:0:0:0:
64,192,34979,1,0,3:0:0:0:
192,192,35448,1,8,3:0:0:0:
320,192,35448,1,0,0:0:0:0:
448,192,35917,1,0,3:0:0:0:
64,192,36385,1,8,3:0:0:0:
320,192,36385,1,0,0:0:0:0:
192,192,36854,1,0,3:0:0:0:
448,192,37088,1,0,0:0:0:0:
320,192,37323,1,8,3:0:0:0:
64,192,37323,1,0,0:0:0:0:
192,192,37557,1,0,0:0:0:0:
448,192,37792,1,0,3:0:0:0:
64,192,38026,128,0,38260:0:0:0:0:
192,192,38260,1,0,0:0:0:0:
448,192,38260,1,8,3:0:0:0:
320,192,38495,128,0,38729:0:0:0:0:
64,192,38729,1,0,3:0:0:0:
192,192,38963,128,0,39198:0:0:0:0:
320,192,39198,1,0,0:0:0:0:
448,192,39198,1,8,3:0:0:0:
64,192,39432,128,0,39667:0:0:0:0:
448,192,39667,1,0,3:0:0:0:
320,192,39901,128,0,40135:0:0:0:0:
192,192,40135,1,8,3:0:0:0:
64,192,40135,1,0,0:0:0:0:
448,192,40370,128,0,40604:0:0:0:0:
192,192,40604,1,0,3:0:0:0:
64,192,40838,128,0,41073:0:0:0:0:
320,192,41073,1,0,0:0:0:0:
192,192,41073,1,8,3:0:0:0:
448,192,41307,128,0,41542:0:0:0:0:
64,192,41542,1,0,3:0:0:0:
192,192,41776,128,0,42010:0:0:0:0:
320,192,42010,1,8,3:0:0:0:
448,192,42010,1,0,0:0:0:0:
64,192,42245,128,0,42479:0:0:0:0:
448,192,42479,1,0,3:0:0:0:
320,192,42713,128,0,42948:0:0:0:0:
192,192,42948,1,8,3:0:0:0:
64,192,42948,1,0,0:0:0:0:
448,192,43182,128,0,43417:0:0:0:0:
64,192,43417,1,0,3:0:0:0:
192,192,43651,128,0,43885:0:0:0:0:
320,192,43885,1,8,3:0:0:0:
448,192,43885,1,0,0:0:0:0:
64,192,44120,128,0,44354:0:0:0:0:
448,192,44354,1,0,3:0:0:0:
320,192,44588,128,0,44823:0:0:0:0:
192,192,44588,1,8,3:0:0:0:
64,192,44823,1,8,3:0:0:0:
448,192,44823,1,0,0:0:0:0:
448,192,45057,1,0,3:0:0:0:
320,192,45135,1,0,3:0:0:0:
64,192,45213,1,0,3:0:0:0:
192,192,45292,1,0,3:0:0:0:
320,192,45760,1,0,0:0:0:0:
64,192,45760,1,0,0:0:0:0:
448,192,45760,1,0,0:0:0:50:LR_Clap Long.wav
192,192,46229,1,0,3:0:0:0:
448,192,46698,1,0,0:0:0:0:
320,192,46698,1,8,0:0:0:0:
448,192,47167,128,0,47870:0:0:0:0:
64,192,47167,1,0,3:0:0:0:
320,192,47635,1,0,0:0:0:0:
192,192,47635,1,8,0:0:0:0:
64,192,47870,128,0,49042:0:0:0:0:
320,192,48104,1,0,3:0:0:0:
448,192,48573,1,8,0:0:0:0:
192,192,48573,1,0,0:0:0:0:
320,192,49042,1,0,3:0:0:0:
192,192,49510,1,0,0:0:0:0:
64,192,49510,1,0,0:0:0:0:
448,192,49510,1,0,0:0:0:50:LR_Clap Long.wav
320,192,49979,1,0,3:0:0:0:
192,192,50448,1,8,0:0:0:0:
448,192,50448,1,0,0:0:0:0:
64,192,50917,128,0,51620:0:0:0:0:
320,192,50917,1,0,3:0:0:0:
448,192,51385,1,0,0:0:0:0:
192,192,51385,1,8,0:0:0:0:
320,192,51620,128,0,52323:0:0:0:0:
192,192,51854,1,0,3:0:0:0:
192,192,52323,128,0,52792:0:0:0:0:
448,192,52323,1,8,0:0:0:0:
64,192,52323,1,0,0:0:0:0:
320,192,52792,1,0,3:0:0:0:
192,192,53260,1,0,0:0:0:0:
448,192,53260,1,0,0:0:0:0:
64,192,53260,1,0,0:0:0:50:LR_Clap Long.wav
320,192,53729,1,0,3:0:0:0:
192,192,54198,1,8,0:0:0:0:
448,192,54198,1,0,0:0:0:0:
320,192,54667,128,0,55370:0:0:0:0:
64,192,54667,1,0,3:0:0:0:
192,192,55135,1,8,0:0:0:0:
448,192,55135,1,0,0:0:0:0:
64,192,55370,128,0,56542:0:0:0:0:
448,192,55604,1,0,3:0:0:0:
192,192,56073,1,8,0:0:0:0:
320,192,56073,1,0,0:0:0:0:
448,192,56542,128,0,57479:0:0:0:0:
192,192,56542,1,0,3:0:0:0:
192,192,57010,128,0,57479:0:0:0:0:
320,192,57010,1,8,0:0:0:0:
320,192,57479,128,0,58417:3:0:0:0:
64,192,57479,1,0,0:0:0:0:
64,192,57948,128,0,58417:0:0:0:0:
192,192,57948,1,8,0:0:0:0:
192,192,58417,128,0,59354:0:0:0:0:
448,192,58417,1,8,3:0:0:0:
448,192,58885,1,8,3:0:0:0:
64,192,59354,1,0,0:0:0:0:
448,192,59354,1,8,3:0:0:0:
192,192,59588,1,0,0:0:0:0:
320,192,59588,1,8,3:0:0:0:
448,192,59823,1,0,3:0:0:35:drum-hitclap.wav
64,192,59823,1,0,3:0:0:0:
320,192,59901,1,0,3:0:0:35:drum-hitclap.wav
192,192,59979,1,0,3:0:0:35:drum-hitclap.wav
64,192,60057,1,0,3:0:0:35:drum-hitclap.wav
448,192,60135,1,0,3:0:0:35:drum-hitclap.wav
320,192,60213,1,0,3:0:0:35:drum-hitclap.wav
192,192,60292,1,0,3:0:0:0:
64,192,60292,1,4,0:0:0:0:
448,192,60292,1,0,0:0:0:0:
320,192,60409,1,0,0:0:0:0:
192,192,60526,1,2,0:0:0:0:
448,192,60643,1,0,0:0:0:0:
320,192,60760,1,0,0:0:0:0:
64,192,60760,1,8,3:0:0:0:
192,192,60995,1,2,0:0:0:0:
448,192,61229,1,0,0:0:0:0:
320,192,61229,1,0,3:0:0:0:
64,192,61463,1,2,0:0:0:0:
192,192,61698,1,8,3:0:0:0:
448,192,61698,1,0,0:0:0:0:
320,192,61815,1,0,0:0:0:0:
64,192,61932,1,2,0:0:0:0:
192,192,62049,1,0,0:0:0:0:
320,192,62167,1,0,3:0:0:0:
64,192,62167,1,0,0:0:0:0:
448,192,62401,1,2,0:0:0:0:
320,192,62635,1,0,0:0:0:0:
192,192,62635,1,8,3:0:0:0:
64,192,62870,128,2,63338:0:0:0:0:
448,192,63104,1,0,3:0:0:0:
192,192,63104,1,0,0:0:0:0:
320,192,63338,128,2,63573:0:0:0:0:
64,192,63573,1,8,3:0:0:0:
192,192,63573,128,0,63807:0:0:0:0:
448,192,63807,128,2,64276:0:0:0:0:
320,192,64042,1,0,0:0:0:0:
64,192,64042,1,0,3:0:0:0:
192,192,64276,128,2,64510:0:0:0:0:
448,192,64510,1,8,3:0:0:0:
320,192,64510,128,0,64745:0:0:0:0:
64,192,64745,128,2,65213:0:0:0:0:
448,192,64979,1,0,3:0:0:0:
192,192,64979,1,0,0:0:0:0:
320,192,65213,128,2,65682:0:0:0:0:
192,192,65448,1,8,3:0:0:0:
64,192,65448,1,0,0:0:0:0:
64,192,65682,128,2,66151:0:0:0:0:
448,192,65917,1,0,3:0:0:0:
192,192,65917,1,0,0:0:0:0:
320,192,66151,128,2,66385:0:0:0:0:
64,192,66385,1,0,0:0:0:0:
448,192,66385,128,8,66854:3:0:0:0:
192,192,66620,1,2,0:0:0:0:
320,192,66854,1,0,0:0:0:0:
64,192,66854,128,0,67557:3:0:0:0:
448,192,67088,1,2,0:0:0:0:
320,192,67323,1,8,3:0:0:0:
192,192,67323,1,0,0:0:0:0:
320,192,67557,128,2,67792:0:0:0:0:
192,192,67792,1,0,3:0:0:0:
448,192,67792,1,0,0:0:0:0:
64,192,67909,1,0,0:0:0:0:
448,192,68026,1,2,0:0:0:0:
192,192,68143,1,0,0:0:0:0:
320,192,68260,1,0,0:0:0:0:
64,192,68260,1,8,3:0:0:0:
448,192,68495,1,2,0:0:0:0:
64,192,68729,1,0,0:0:0:0:
192,192,68729,1,0,3:0:0:0:
320,192,68963,1,2,0:0:0:0:
448,192,69198,1,8,3:0:0:0:
64,192,69198,1,0,0:0:0:0:
192,192,69315,1,0,0:0:0:0:
320,192,69432,1,2,0:0:0:0:
64,192,69549,1,0,0:0:0:0:
192,192,69667,1,0,0:0:0:0:
448,192,69667,1,0,3:0:0:0:
64,192,69901,1,2,0:0:0:0:
192,192,70135,1,8,3:0:0:0:
320,192,70135,1,0,0:0:0:0:
448,192,70370,128,2,70838:0:0:0:0:
64,192,70604,1,0,3:0:0:0:
192,192,70604,1,0,0:0:0:0:
320,192,70838,128,2,71073:0:0:0:0:
448,192,71073,1,0,0:0:0:0:
64,192,71073,128,8,71307:3:0:0:0:
192,192,71307,128,2,71776:0:0:0:0:
320,192,71542,1,0,3:0:0:0:
448,192,71542,1,0,0:0:0:0:
64,192,71776,128,2,72245:0:0:0:0:
192,192,72010,1,8,3:0:0:0:
320,192,72010,1,0,0:0:0:0:
448,192,72245,128,2,72713:0:0:0:0:
64,192,72479,1,0,3:0:0:0:
192,192,72479,1,0,0:0:0:0:
320,192,72713,128,2,72948:0:0:0:0:
448,192,72948,1,0,0:0:0:0:
64,192,72948,128,8,73182:3:0:0:0:
192,192,73182,128,2,73417:0:0:0:0:
320,192,73417,1,8,3:0:0:0:
448,192,73417,1,0,0:0:0:0:
192,192,73885,1,0,0:0:0:0:
64,192,73885,1,8,3:0:0:0:
448,192,74237,1,0,0:0:0:0:
192,192,74237,1,8,3:0:0:0:
320,192,74354,1,0,0:0:0:0:
64,192,74354,1,8,3:0:0:0:
320,192,74588,1,8,3:0:0:0:
192,192,74588,1,0,0:0:0:0:
64,192,74823,1,0,0:0:0:0:
192,192,74823,1,8,3:0:0:0:
448,192,74940,1,0,0:0:0:0:
320,192,74940,1,8,3:0:0:0:
192,192,75057,1,8,3:0:0:0:
64,192,75057,1,0,0:0:0:0:
448,192,75174,1,0,0:0:0:0:
320,192,75174,1,8,3:0:0:0:
192,192,75292,1,4,0:0:0:0:
64,192,75292,1,0,3:0:0:0:
448,192,75292,1,0,0:0:0:0:
320,192,75409,1,0,0:0:0:0:
64,192,75526,1,2,0:0:0:0:
448,192,75643,1,0,0:0:0:0:
192,192,75760,1,0,0:0:0:0:
320,192,75760,1,8,3:0:0:0:
64,192,75995,1,2,0:0:0:0:
192,192,76229,1,0,3:0:0:0:
448,192,76229,1,0,0:0:0:0:
320,192,76463,1,2,0:0:0:0:
64,192,76698,1,8,3:0:0:0:
192,192,76698,1,0,0:0:0:0:
448,192,76815,1,0,0:0:0:0:
64,192,76932,1,2,0:0:0:0:
320,192,77049,1,0,0:0:0:0:
448,192,77167,1,0,3:0:0:0:
192,192,77167,1,0,0:0:0:0:
64,192,77401,1,2,0:0:0:0:
320,192,77635,1,8,3:0:0:0:
192,192,77635,1,0,0:0:0:0:
448,192,77870,128,2,78338:0:0:0:0:
320,192,78104,1,0,0:0:0:0:
64,192,78104,1,0,3:0:0:0:
192,192,78338,128,2,78573:0:0:0:0:
448,192,78573,1,8,3:0:0:0:
64,192,78573,128,0,78807:0:0:0:0:
320,192,78807,128,2,79276:0:0:0:0:
192,192,79042,1,0,3:0:0:0:
448,192,79042,1,0,0:0:0:0:
64,192,79276,128,2,79510:0:0:0:0:
320,192,79510,1,8,3:0:0:0:
192,192,79510,128,0,79745:0:0:0:0:
448,192,79745,128,2,80213:0:0:0:0:
64,192,79979,1,0,3:0:0:0:
320,192,79979,1,0,0:0:0:0:
192,192,80213,128,2,80682:0:0:0:0:
448,192,80448,1,8,3:0:0:0:
64,192,80448,1,0,0:0:0:0:
320,192,80682,128,2,81151:0:0:0:0:
192,192,80917,1,0,3:0:0:0:
448,192,80917,1,0,0:0:0:0:
64,192,81151,128,2,81385:0:0:0:0:
320,192,81385,1,8,3:0:0:0:
192,192,81385,128,0,81854:0:0:0:0:
448,192,81620,1,2,0:0:0:0:
64,192,81854,1,0,3:0:0:0:
320,192,81854,128,0,82557:0:0:0:0:
192,192,82088,1,2,0:0:0:0:
448,192,82323,1,8,3:0:0:0:
64,192,82323,1,0,0:0:0:0:
192,192,82557,128,2,82792:0:0:0:0:
64,192,82792,1,0,0:0:0:0:
448,192,82792,1,0,3:0:0:0:
320,192,82909,1,0,0:0:0:0:
64,192,83026,1,2,0:0:0:0:
448,192,83143,1,0,0:0:0:0:
192,192,83260,1,0,0:0:0:0:
320,192,83260,1,8,3:0:0:0:
64,192,83495,1,2,0:0:0:0:
448,192,83729,1,0,0:0:0:0:
192,192,83729,1,0,3:0:0:0:
320,192,83963,1,2,0:0:0:0:
64,192,84198,1,8,3:0:0:0:
192,192,84198,1,0,0:0:0:0:
448,192,84315,1,0,0:0:0:0:
320,192,84432,1,2,0:0:0:0:
64,192,84549,1,0,0:0:0:0:
192,192,84667,1,0,3:0:0:0:
448,192,84667,1,0,0:0:0:0:
320,192,84901,1,2,0:0:0:0:
64,192,85135,1,8,3:0:0:0:
448,192,85135,1,0,0:0:0:0:
192,192,85370,128,2,85838:0:0:0:0:
320,192,85604,1,0,3:0:0:0:
64,192,85604,1,0,0:0:0:0:
448,192,85838,128,2,86073:0:0:0:0:
320,192,86073,1,0,0:0:0:0:
192,192,86073,128,8,86307:3:0:0:0:
64,192,86307,128,2,86776:0:0:0:0:
192,192,86542,1,0,0:0:0:0:
448,192,86542,1,0,3:0:0:0:
320,192,86776,128,2,87245:0:0:0:0:
192,192,87010,1,0,0:0:0:0:
64,192,87010,1,8,3:0:0:0:
448,192,87245,128,2,87713:0:0:0:0:
320,192,87479,1,0,0:0:0:0:
64,192,87479,1,0,3:0:0:0:
192,192,87713,128,2,87948:0:0:0:0:
448,192,87948,1,8,3:0:0:0:
320,192,87948,128,0,88182:0:0:0:0:
64,192,88182,128,2,88651:0:0:0:0:
192,192,88417,1,0,0:0:0:0:
320,192,88417,1,0,3:0:0:0:
448,192,88651,1,2,0:0:0:0:
64,192,88885,1,8,3:0:0:0:
192,192,88885,1,0,0:0:0:0:
320,192,89120,1,2,0:0:0:0:
448,192,89354,128,0,89823:0:0:0:0:
64,192,89354,1,0,0:0:0:0:
192,192,89588,1,2,0:0:0:0:
64,192,89823,1,0,3:0:0:0:
192,192,89881,1,0,3:0:0:0:
320,192,89940,1,0,3:0:0:0:
448,192,89999,1,0,3:0:0:0:
64,192,90057,1,0,3:0:0:0:
320,192,90174,1,0,3:0:0:0:
448,192,90292,1,0,3:0:0:0:
192,192,90292,1,4,0:0:0:0:
64,192,90292,1,0,0:0:0:0:
320,192,90760,1,8,0:0:0:0:
192,192,90760,1,0,0:0:0:0:
64,192,91229,1,0,3:0:0:0:
192,192,91698,1,0,0:0:0:0:
448,192,91698,1,8,0:0:0:0:
320,192,92167,1,0,3:0:0:0:
64,192,92635,1,8,0:0:0:0:
448,192,92635,1,0,0:0:0:0:
192,192,93104,1,0,3:0:0:0:
320,192,93573,1,0,0:0:0:0:
64,192,93573,1,0,0:0:0:0:
448,192,93573,1,0,0:0:0:50:LR_Clap Long.wav
448,192,94042,1,0,3:0:0:0:
64,192,94510,1,8,0:0:0:0:
320,192,94510,1,0,0:0:0:0:
192,192,94979,1,0,3:0:0:0:
64,192,95213,1,2,0:0:0:0:
320,192,95448,1,0,0:0:0:0:
448,192,95448,1,8,0:0:0:0:
64,192,95917,1,0,3:0:0:0:
192,192,96151,1,2,0:0:0:0:
64,192,96385,1,0,0:0:0:0:
320,192,96385,1,8,0:0:0:0:
448,192,96620,1,2,0:0:0:0:
64,192,96854,1,0,3:0:0:0:
192,192,97088,1,2,0:0:0:0:
320,192,97323,1,0,0:0:0:0:
448,192,97323,1,0,0:0:0:0:
64,192,97323,1,0,0:0:0:50:LR_Clap Long.wav
448,192,97557,1,2,0:0:0:0:
192,192,97792,1,0,3:0:0:0:
448,192,98260,1,8,0:0:0:0:
64,192,98260,1,0,0:0:0:0:
320,192,98729,1,0,3:0:0:0:
192,192,99198,1,8,0:0:0:0:
448,192,99198,1,0,0:0:0:0:
64,192,99667,1,0,3:0:0:0:
320,192,100135,1,0,0:0:0:0:
448,192,100135,1,8,0:0:0:0:
192,192,100604,1,0,3:0:0:0:
320,192,101073,1,0,0:0:0:0:
64,192,101073,1,0,0:0:0:0:
448,192,101073,1,0,0:0:0:50:LR_Clap Long.wav
320,192,101542,1,0,3:0:0:0:
64,192,102010,1,8,0:0:0:0:
192,192,102010,1,0,0:0:0:0:
448,192,102479,1,0,3:0:0:0:
192,192,102713,1,2,0:0:0:0:
320,192,102948,1,0,0:0:0:0:
64,192,102948,1,8,0:0:0:0:
192,192,103417,1,0,0:0:0:0:
448,192,103417,1,8,3:0:0:0:
320,192,103651,1,2,0:0:0:0:
64,192,103885,1,8,3:0:0:0:
192,192,103885,1,0,0:0:0:0:
448,192,104120,1,2,0:0:0:0:
320,192,104237,1,0,0:0:0:0:
64,192,104237,1,8,3:0:0:0:
192,192,104354,1,8,3:0:0:0:
448,192,104354,1,0,0:0:0:0:
64,192,104588,1,8,3:0:0:0:
320,192,104588,1,2,0:0:0:0:
448,192,104823,1,0,0:0:0:0:
320,192,104823,1,8,3:0:0:0:
192,192,104940,1,8,3:0:0:0:
64,192,104940,1,0,0:0:0:0:
320,192,105057,1,8,3:0:0:0:
448,192,105057,1,0,0:0:0:0:
192,192,105174,1,8,3:0:0:0:
64,192,105174,1,0,0:0:0:0:
448,192,105292,1,0,0:0:0:0:
320,192,105292,1,8,3:0:0:0:
64,192,105643,1,0,0:0:0:0:
192,192,105995,1,0,0:0:0:0:
448,192,106463,1,0,0:0:0:0:
320,192,106463,1,0,0:0:0:0:
64,192,106698,1,0,0:0:0:0:
448,192,106815,1,0,0:0:0:0:
192,192,106815,1,0,0:0:0:0:
320,192,106932,1,0,0:0:0:0:
192,192,107167,1,0,0:0:0:0:
64,192,107167,1,0,0:0:0:0:
448,192,107518,1,0,0:0:0:0:
64,192,107870,1,0,0:0:0:0:
320,192,108104,1,0,0:0:0:0:
192,192,108104,1,0,0:0:0:0:
64,192,109042,1,0,0:0:0:0:
192,192,109042,1,0,0:0:0:0:
64,192,109276,1,0,0:0:0:0:
320,192,109276,1,0,0:0:0:0:
448,192,109510,1,0,0:0:0:0:
192,192,109510,1,0,0:0:0:0:
448,192,109745,1,0,0:0:0:0:
64,192,109745,1,0,0:0:0:0:
448,192,110213,1,0,0:0:0:0:
192,192,110213,1,0,0:0:0:0:
64,192,110448,1,0,0:0:0:0:
320,192,110448,1,0,0:0:0:0:
448,192,110917,1,0,0:0:0:0:
64,192,110917,1,0,0:0:0:0:
192,192,111151,1,0,0:0:0:0:
320,192,111151,1,0,0:0:0:0:
64,192,111385,1,0,0:0:0:0:
192,192,111385,1,0,0:0:0:0:
64,192,111620,1,0,0:0:0:0:
448,192,111620,1,0,0:0:0:0:
192,192,111854,128,0,112792:0:0:0:0:
