osu file format v14

[General]
AudioFilename: pp2.mp3
AudioLeadIn: 0
PreviewTime: 60983
Countdown: 0
SampleSet: Normal
StackLeniency: 0.7
Mode: 1
LetterboxInBreaks: 0
WidescreenStoryboard: 0

[Editor]
DistanceSpacing: 0.8
BeatDivisor: 4
GridSize: 32
TimelineZoom: 1.2

[Metadata]
Title:Perfect Quest
TitleUnicode:パーフェクト☆クエスト
Artist:Ayane
ArtistUnicode:彩音
Creator:chaica
Version:Oni
Source:神次元アイドル ネプテューヌPP
Tags:Short ver ed ending hyperdimension neptunia 5pb playstation vita kami jigen idol Luminous Flux HYPER DIMENSION NEPTUNE SHARE COMPLETE DISCS Charlotte
BeatmapID:686796
BeatmapSetID:306064

[Difficulty]
HPDrainRate:6
CircleSize:10
OverallDifficulty:5
ApproachRate:9
SliderMultiplier:1.4
SliderTickRate:1

[Events]
//Background and Video events
0,0,"BGpp.jpg",0,100
//Break Periods
//Storyboard Layer 0 (Background)
//Storyboard Layer 1 (Fail)
//Storyboard Layer 2 (Pass)
//Storyboard Layer 3 (Foreground)
//Storyboard Sound Samples

[TimingPoints]
983,468.75,4,1,0,60,1,0
8483,-100,4,1,0,65,0,0
15983,-100,4,1,0,70,0,0
30983,-100,4,1,0,60,0,0
46451,-100,4,1,0,70,0,0
60983,-100,4,1,0,80,0,1
90045,-100,4,1,0,70,0,0
90983,-100,4,1,0,80,0,1
105983,-100,4,1,0,60,0,0

[HitObjects]
256,192,983,5,8,0:0:0:0:
256,192,1334,1,8,0:0:0:0:
256,192,1686,1,8,0:0:0:0:
256,192,2389,1,8,0:0:0:0:
256,192,2858,1,8,0:0:0:0:
256,192,3209,1,8,0:0:0:0:
256,192,3561,1,8,0:0:0:0:
256,192,4733,1,8,0:0:0:0:
256,192,5084,1,8,0:0:0:0:
256,192,5436,1,8,0:0:0:0:
256,192,6139,1,8,0:0:0:0:
256,192,6608,1,0,0:0:0:0:
256,192,6842,1,8,0:0:0:0:
256,192,6959,1,8,0:0:0:0:
256,192,7076,1,8,0:0:0:0:
256,192,7545,1,8,0:0:0:0:
256,192,8483,1,4,0:0:0:0:
256,192,8834,1,0,0:0:0:0:
256,192,9186,1,0,0:0:0:0:
256,192,9420,1,8,0:0:0:0:
256,192,9889,1,8,0:0:0:0:
256,192,10123,1,0,0:0:0:0:
256,192,10358,1,8,0:0:0:0:
256,192,10709,1,8,0:0:0:0:
256,192,11061,1,8,0:0:0:0:
256,192,12115,1,0,0:0:0:0:
256,192,12233,1,0,0:0:0:0:
256,192,12584,1,0,0:0:0:0:
256,192,12936,1,0,0:0:0:0:
256,192,13170,1,8,0:0:0:0:
256,192,13639,1,0,0:0:0:0:
256,192,14108,1,8,0:0:0:0:
256,192,14576,1,8,0:0:0:0:
256,192,15045,1,0,0:0:0:0:
256,192,15279,1,0,0:0:0:0:
256,192,15514,1,12,0:0:0:0:
256,192,15983,1,4,0:0:0:0:
256,192,16217,1,0,0:0:0:0:
256,192,16334,1,0,0:0:0:0:
256,192,16451,1,8,0:0:0:0:
256,192,16686,1,0,0:0:0:0:
256,192,16920,1,8,0:0:0:0:
256,192,17154,1,0,0:0:0:0:
256,192,17389,1,8,0:0:0:0:
256,192,17858,1,0,0:0:0:0:
256,192,18209,1,0,0:0:0:0:
256,192,18326,1,8,0:0:0:0:
256,192,18561,1,0,0:0:0:0:
256,192,18795,1,8,0:0:0:0:
256,192,19029,1,8,0:0:0:0:
256,192,19264,5,0,0:0:0:0:
256,192,19733,5,0,0:0:0:0:
256,192,19967,1,0,0:0:0:0:
256,192,20084,1,0,0:0:0:0:
256,192,20201,1,0,0:0:0:0:
256,192,20436,1,0,0:0:0:0:
256,192,20670,1,8,0:0:0:0:
256,192,20787,1,8,0:0:0:0:
256,192,20904,1,8,0:0:0:0:
256,192,21139,1,0,0:0:0:0:
256,192,21608,1,8,0:0:0:0:
256,192,21842,1,0,0:0:0:0:
256,192,22076,1,8,0:0:0:0:
256,192,22310,1,0,0:0:0:0:
256,192,22545,1,8,0:0:0:0:
256,192,22662,1,8,0:0:0:0:
256,192,22779,1,0,0:0:0:0:
256,192,23014,1,8,0:0:0:0:
256,192,23483,1,4,0:0:0:0:
256,192,23717,1,0,0:0:0:0:
256,192,23834,1,0,0:0:0:0:
256,192,23951,1,8,0:0:0:0:
256,192,24186,1,0,0:0:0:0:
256,192,24420,1,8,0:0:0:0:
256,192,24654,5,0,0:0:0:0:
256,192,24889,1,8,0:0:0:0:
256,192,25358,1,0,0:0:0:0:
256,192,25709,1,0,0:0:0:0:
256,192,25826,1,8,0:0:0:0:
256,192,26061,1,0,0:0:0:0:
256,192,26295,1,8,0:0:0:0:
256,192,26529,1,8,0:0:0:0:
256,192,26764,1,0,0:0:0:0:
256,192,27233,1,8,0:0:0:0:
256,192,27467,1,8,0:0:0:0:
256,192,27584,1,8,0:0:0:0:
256,192,27701,1,8,0:0:0:0:
256,192,27936,1,8,0:0:0:0:
256,192,28170,1,0,0:0:0:0:
256,192,28287,1,0,0:0:0:0:
256,192,28404,1,0,0:0:0:0:
256,192,28639,1,0,0:0:0:0:
256,192,29108,1,0,0:0:0:0:
256,192,29342,1,0,0:0:0:0:
256,192,29576,1,8,0:0:0:0:
256,192,29811,1,8,0:0:0:0:
256,192,30045,1,0,0:0:0:0:
256,192,30162,1,0,0:0:0:0:
256,192,30279,1,8,0:0:0:0:
256,192,30514,1,0,0:0:0:0:
256,192,30983,1,4,0:0:0:0:
256,192,31451,1,8,0:0:0:0:
256,192,31920,1,0,0:0:0:0:
256,192,32154,1,0,0:0:0:0:
256,192,32389,1,8,0:0:0:0:
256,192,32858,1,8,0:0:0:0:
256,192,33092,1,0,0:0:0:0:
256,192,33209,1,0,0:0:0:0:
256,192,33326,1,8,0:0:0:0:
256,192,33561,1,0,0:0:0:0:
256,192,34029,1,0,0:0:0:0:
256,192,34264,1,8,0:0:0:0:
256,192,34733,1,0,0:0:0:0:
256,192,35201,1,8,0:0:0:0:
256,192,35436,1,8,0:0:0:0:
256,192,35670,1,0,0:0:0:0:
256,192,36139,1,8,0:0:0:0:
256,192,36608,1,8,0:0:0:0:
256,192,36842,1,0,0:0:0:0:
256,192,36959,1,0,0:0:0:0:
256,192,37076,1,0,0:0:0:0:
256,192,37311,1,0,0:0:0:0:
256,192,37545,1,8,0:0:0:0:
256,192,38014,1,8,0:0:0:0:
256,192,38483,1,4,0:0:0:0:
256,192,38717,1,0,0:0:0:0:
256,192,38951,1,8,0:0:0:0:
256,192,39420,1,8,0:0:0:0:
256,192,39654,1,8,0:0:0:0:
256,192,39889,1,0,0:0:0:0:
256,192,40358,1,0,0:0:0:0:
256,192,40592,1,0,0:0:0:0:
256,192,40709,1,0,0:0:0:0:
256,192,40826,1,0,0:0:0:0:
256,192,41061,1,8,0:0:0:0:
256,192,41295,1,0,0:0:0:0:
256,192,41764,1,8,0:0:0:0:
256,192,41998,1,8,0:0:0:0:
256,192,42233,1,0,0:0:0:0:
256,192,42701,1,8,0:0:0:0:
256,192,42935,1,0,0:0:0:0:
256,192,43052,1,0,0:0:0:0:
256,192,43169,1,8,0:0:0:0:
256,192,43404,1,0,0:0:0:0:
256,192,43639,1,8,0:0:0:0:
256,192,44108,1,0,0:0:0:0:
256,192,44342,1,0,0:0:0:0:
256,192,44459,1,0,0:0:0:0:
256,192,44576,1,8,0:0:0:0:
256,192,44811,1,0,0:0:0:0:
256,192,45045,1,8,0:0:0:0:
256,192,45279,1,8,0:0:0:0:
256,192,45397,1,0,0:0:0:0:
256,192,45514,1,8,0:0:0:0:
256,192,45748,5,8,0:0:0:0:
256,192,45983,1,0,0:0:0:0:
256,192,46451,1,12,0:0:0:0:
256,192,46920,1,0,0:0:0:0:
256,192,47154,1,0,0:0:0:0:
256,192,47272,1,0,0:0:0:0:
256,192,47389,1,8,0:0:0:0:
256,192,47623,1,8,0:0:0:0:
256,192,48092,1,0,0:0:0:0:
256,192,48326,1,8,0:0:0:0:
256,192,48561,1,0,0:0:0:0:
256,192,48795,1,8,0:0:0:0:
256,192,49264,1,8,0:0:0:0:
256,192,49733,1,0,0:0:0:0:
256,192,50201,1,12,0:0:0:0:
256,192,50670,1,0,0:0:0:0:
256,192,50904,1,0,0:0:0:0:
256,192,51022,1,0,0:0:0:0:
256,192,51139,1,8,0:0:0:0:
256,192,51373,1,0,0:0:0:0:
256,192,51490,1,8,0:0:0:0:
256,192,51608,1,8,0:0:0:0:
256,192,51842,1,8,0:0:0:0:
256,192,52076,1,0,0:0:0:0:
256,192,52311,5,8,0:0:0:0:
256,192,52545,1,0,0:0:0:0:
256,192,53014,1,8,0:0:0:0:
256,192,53483,1,0,0:0:0:0:
256,192,53951,1,12,0:0:0:0:
256,192,54420,1,0,0:0:0:0:
256,192,54654,1,8,0:0:0:0:
256,192,54772,1,8,0:0:0:0:
256,192,54889,1,0,0:0:0:0:
256,192,55123,1,0,0:0:0:0:
256,192,55592,1,0,0:0:0:0:
256,192,55826,1,8,0:0:0:0:
256,192,56061,1,0,0:0:0:0:
256,192,56295,1,8,0:0:0:0:
256,192,56764,1,8,0:0:0:0:
256,192,57233,1,8,0:0:0:0:
256,192,57467,1,0,0:0:0:0:
256,192,57584,1,0,0:0:0:0:
256,192,57701,1,8,0:0:0:0:
256,192,57936,1,0,0:0:0:0:
256,192,58170,1,8,0:0:0:0:
256,192,58287,1,8,0:0:0:0:
256,192,58404,1,0,0:0:0:0:
256,192,58639,1,8,0:0:0:0:
256,192,58873,1,8,0:0:0:0:
256,192,59108,1,0,0:0:0:0:
256,192,59576,1,8,0:0:0:0:
256,192,60045,1,0,0:0:0:0:
256,192,60279,1,0,0:0:0:0:
256,192,60514,1,8,0:0:0:0:
256,192,60748,1,0,0:0:0:0:
256,192,60983,1,0,0:0:0:0:
256,192,61100,1,0,0:0:0:0:
256,192,61217,1,8,0:0:0:0:
256,192,61451,1,8,0:0:0:0:
256,192,61686,1,0,0:0:0:0:
256,192,61803,1,8,0:0:0:0:
256,192,62154,1,0,0:0:0:0:
256,192,62389,1,8,0:0:0:0:
256,192,62506,1,8,0:0:0:0:
256,192,62623,1,0,0:0:0:0:
256,192,62858,1,8,0:0:0:0:
256,192,63092,1,0,0:0:0:0:
256,192,63209,1,8,0:0:0:0:
256,192,63561,5,0,0:0:0:0:
256,192,63795,1,0,0:0:0:0:
256,192,64029,1,0,0:0:0:0:
256,192,64147,1,0,0:0:0:0:
256,192,64264,1,8,0:0:0:0:
256,192,64498,1,0,0:0:0:0:
256,192,64967,1,0,0:0:0:0:
256,192,65201,1,8,0:0:0:0:
256,192,65436,1,8,0:0:0:0:
256,192,65553,1,8,0:0:0:0:
256,192,65670,1,0,0:0:0:0:
256,192,65904,1,0,0:0:0:0:
256,192,66139,1,8,0:0:0:0:
256,192,66373,1,0,0:0:0:0:
256,192,66842,5,0,0:0:0:0:
256,192,66959,1,0,0:0:0:0:
256,192,67076,1,8,0:0:0:0:
256,192,67311,1,0,0:0:0:0:
256,192,67428,1,0,0:0:0:0:
256,192,67545,1,0,0:0:0:0:
256,192,67779,1,0,0:0:0:0:
256,192,68014,1,8,0:0:0:0:
256,192,68483,1,8,0:0:0:0:
256,192,68600,1,8,0:0:0:0:
256,192,68717,1,0,0:0:0:0:
256,192,68951,1,8,0:0:0:0:
256,192,69186,1,0,0:0:0:0:
256,192,69303,1,8,0:0:0:0:
256,192,69654,1,0,0:0:0:0:
256,192,69889,1,0,0:0:0:0:
256,192,70006,5,0,0:0:0:0:
256,192,70123,1,8,0:0:0:0:
256,192,70358,1,8,0:0:0:0:
256,192,70592,1,0,0:0:0:0:
256,192,70709,1,8,0:0:0:0:
256,192,71061,1,8,0:0:0:0:
256,192,71295,1,0,0:0:0:0:
256,192,71529,1,8,0:0:0:0:
256,192,71647,1,8,0:0:0:0:
256,192,71764,1,0,0:0:0:0:
256,192,71998,1,0,0:0:0:0:
256,192,72233,1,8,0:0:0:0:
256,192,72467,1,8,0:0:0:0:
256,192,72936,1,8,0:0:0:0:
256,192,73170,1,0,0:0:0:0:
256,192,73404,5,0,0:0:0:0:
256,192,73522,1,0,0:0:0:0:
256,192,73639,1,8,0:0:0:0:
256,192,73873,1,8,0:0:0:0:
256,192,74108,1,0,0:0:0:0:
256,192,74576,1,8,0:0:0:0:
256,192,74811,1,0,0:0:0:0:
256,192,75045,1,8,0:0:0:0:
256,192,75279,1,0,0:0:0:0:
256,192,75397,1,0,0:0:0:0:
256,192,75514,1,8,0:0:0:0:
256,192,75748,1,0,0:0:0:0:
256,192,75983,1,0,0:0:0:0:
256,192,76100,1,0,0:0:0:0:
256,192,76217,1,8,0:0:0:0:
256,192,76334,1,8,0:0:0:0:
256,192,76451,1,0,0:0:0:0:
256,192,76686,1,0,0:0:0:0:
256,192,76803,1,8,0:0:0:0:
256,192,77154,1,0,0:0:0:0:
256,192,77389,1,8,0:0:0:0:
256,192,77506,1,8,0:0:0:0:
256,192,77623,1,0,0:0:0:0:
256,192,77740,1,0,0:0:0:0:
256,192,77858,1,8,0:0:0:0:
256,192,78092,1,0,0:0:0:0:
256,192,78209,1,8,0:0:0:0:
256,192,78561,1,8,0:0:0:0:
256,192,78795,1,0,0:0:0:0:
256,192,79029,1,0,0:0:0:0:
256,192,79147,1,0,0:0:0:0:
256,192,79264,1,8,0:0:0:0:
256,192,79498,1,8,0:0:0:0:
256,192,79733,1,8,0:0:0:0:
256,192,79850,1,8,0:0:0:0:
256,192,79967,1,0,0:0:0:0:
256,192,80201,1,8,0:0:0:0:
256,192,80436,1,0,0:0:0:0:
256,192,80904,1,8,0:0:0:0:
256,192,81139,1,0,0:0:0:0:
256,192,81373,1,8,0:0:0:0:
256,192,81490,1,8,0:0:0:0:
256,192,81608,1,0,0:0:0:0:
256,192,81842,1,0,0:0:0:0:
256,192,82076,1,8,0:0:0:0:
256,192,82311,1,0,0:0:0:0:
256,192,82428,1,0,0:0:0:0:
256,192,82545,1,8,0:0:0:0:
256,192,82779,1,0,0:0:0:0:
256,192,83014,5,8,0:0:0:0:
256,192,83483,1,8,0:0:0:0:
256,192,83600,1,8,0:0:0:0:
256,192,83717,1,0,0:0:0:0:
256,192,83834,1,0,0:0:0:0:
256,192,83951,1,8,0:0:0:0:
256,192,84186,1,0,0:0:0:0:
256,192,84303,1,8,0:0:0:0:
256,192,84654,1,0,0:0:0:0:
256,192,84889,1,0,0:0:0:0:
256,192,85006,1,0,0:0:0:0:
256,192,85123,1,8,0:0:0:0:
256,192,85240,1,8,0:0:0:0:
256,192,85358,1,0,0:0:0:0:
256,192,85592,1,0,0:0:0:0:
256,192,85709,1,8,0:0:0:0:
256,192,86061,1,8,0:0:0:0:
256,192,86295,1,0,0:0:0:0:
256,192,86529,1,0,0:0:0:0:
256,192,86647,1,0,0:0:0:0:
256,192,86764,1,8,0:0:0:0:
256,192,86998,1,8,0:0:0:0:
256,192,87233,1,8,0:0:0:0:
256,192,87350,1,8,0:0:0:0:
256,192,87467,1,0,0:0:0:0:
256,192,87701,1,0,0:0:0:0:
256,192,87936,1,8,0:0:0:0:
256,192,88170,1,0,0:0:0:0:
256,192,88404,1,0,0:0:0:0:
256,192,88522,1,0,0:0:0:0:
256,192,88639,1,8,0:0:0:0:
256,192,88873,1,0,0:0:0:0:
256,192,89108,5,8,0:0:0:0:
256,192,89342,1,8,0:0:0:0:
256,192,89459,1,8,0:0:0:0:
256,192,89576,1,0,0:0:0:0:
256,192,89811,1,0,0:0:0:0:
256,192,90045,1,8,0:0:0:0:
256,192,90514,1,0,0:0:0:0:
256,192,90983,1,4,0:0:0:0:
256,192,91217,1,0,0:0:0:0:
256,192,91334,1,0,0:0:0:0:
256,192,91451,1,8,0:0:0:0:
256,192,91686,1,0,0:0:0:0:
256,192,91920,1,8,0:0:0:0:
256,192,92037,1,8,0:0:0:0:
256,192,92154,1,0,0:0:0:0:
256,192,92389,1,8,0:0:0:0:
256,192,92858,1,0,0:0:0:0:
256,192,93209,1,0,0:0:0:0:
256,192,93326,1,8,0:0:0:0:
256,192,93561,1,0,0:0:0:0:
256,192,93795,1,8,0:0:0:0:
256,192,93912,1,0,0:0:0:0:
256,192,94029,1,8,0:0:0:0:
256,192,94264,1,0,0:0:0:0:
256,192,94733,1,0,0:0:0:0:
256,192,94967,1,0,0:0:0:0:
256,192,95084,1,0,0:0:0:0:
256,192,95201,1,8,0:0:0:0:
256,192,95436,1,0,0:0:0:0:
256,192,95670,1,8,0:0:0:0:
256,192,95787,1,8,0:0:0:0:
256,192,95904,1,0,0:0:0:0:
256,192,96139,1,8,0:0:0:0:
256,192,96373,1,0,0:0:0:0:
256,192,96608,1,8,0:0:0:0:
256,192,96842,1,8,0:0:0:0:
256,192,96959,1,8,0:0:0:0:
256,192,97076,1,0,0:0:0:0:
256,192,97311,1,0,0:0:0:0:
256,192,97545,1,0,0:0:0:0:
256,192,97662,1,0,0:0:0:0:
256,192,97779,1,8,0:0:0:0:
256,192,98014,1,8,0:0:0:0:
256,192,98483,1,0,0:0:0:0:
256,192,98717,1,0,0:0:0:0:
256,192,98834,1,0,0:0:0:0:
256,192,98951,1,8,0:0:0:0:
256,192,99186,1,0,0:0:0:0:
256,192,99420,1,8,0:0:0:0:
256,192,99537,1,8,0:0:0:0:
256,192,99654,1,0,0:0:0:0:
256,192,99889,1,8,0:0:0:0:
256,192,100358,1,0,0:0:0:0:
256,192,100709,1,0,0:0:0:0:
256,192,100826,1,8,0:0:0:0:
256,192,101061,1,0,0:0:0:0:
256,192,101295,1,8,0:0:0:0:
256,192,101412,1,0,0:0:0:0:
256,192,101529,1,8,0:0:0:0:
256,192,101647,1,8,0:0:0:0:
256,192,101764,5,0,0:0:0:0:
256,192,102233,1,8,0:0:0:0:
256,192,102467,1,8,0:0:0:0:
256,192,102584,1,8,0:0:0:0:
256,192,102701,1,0,0:0:0:0:
256,192,102936,1,8,0:0:0:0:
256,192,103170,1,0,0:0:0:0:
256,192,103287,1,0,0:0:0:0:
256,192,103404,1,8,0:0:0:0:
256,192,103639,1,0,0:0:0:0:
256,192,103873,1,8,0:0:0:0:
256,192,104108,1,0,0:0:0:0:
256,192,104225,1,0,0:0:0:0:
256,192,104342,1,0,0:0:0:0:
256,192,104576,1,8,0:0:0:0:
256,192,104811,1,0,0:0:0:0:
256,192,105045,1,8,0:0:0:0:
256,192,105162,1,8,0:0:0:0:
256,192,105279,1,8,0:0:0:0:
256,192,105514,1,0,0:0:0:0:
256,192,105631,1,0,0:0:0:0:
256,192,105748,1,8,0:0:0:0:
256,192,105983,1,12,0:0:0:0:
256,192,106334,1,8,0:0:0:0:
256,192,106686,1,8,0:0:0:0:
256,192,106920,1,0,0:0:0:0:
256,192,107154,1,8,0:0:0:0:
256,192,107389,1,8,0:0:0:0:
256,192,107506,1,0,0:0:0:0:
256,192,107858,1,8,0:0:0:0:
256,192,108209,1,8,0:0:0:0:
256,192,108561,1,0,0:0:0:0:
256,192,108795,1,8,0:0:0:0:
256,192,109733,1,8,0:0:0:0:
256,192,110201,1,8,0:0:0:0:
256,192,110436,1,8,0:0:0:0:
256,192,110670,1,0,0:0:0:0:
256,192,110904,1,8,0:0:0:0:
256,192,111139,1,0,0:0:0:0:
256,192,111608,1,8,0:0:0:0:
256,192,111842,1,8,0:0:0:0:
256,192,112076,1,8,0:0:0:0:
256,192,112311,1,0,0:0:0:0:
256,192,112545,1,8,0:0:0:0:
