osu file format v14

[General]
AudioFilename: pp2.mp3
AudioLeadIn: 0
PreviewTime: 60983
Countdown: 0
SampleSet: Normal
StackLeniency: 0.7
Mode: 1
LetterboxInBreaks: 0
WidescreenStoryboard: 0

[Editor]
DistanceSpacing: 0.8
BeatDivisor: 2
GridSize: 32
TimelineZoom: 0.3999999

[Metadata]
Title:Perfect Quest
TitleUnicode:パーフェクト☆クエスト
Artist:Ayane
ArtistUnicode:彩音
Creator:chaica
Version:Kantan
Source:神次元アイドル ネプテューヌPP
Tags:Short ver ed ending hyperdimension neptunia 5pb playstation vita kami jigen idol Luminous Flux HYPER DIMENSION NEPTUNE SHARE COMPLETE DISCS Charlotte
BeatmapID:685204
BeatmapSetID:306064

[Difficulty]
HPDrainRate:7
CircleSize:10
OverallDifficulty:3
ApproachRate:9
SliderMultiplier:1.4
SliderTickRate:1

[Events]
//Background and Video events
0,0,"BGpp.jpg",0,100
//Break Periods
//Storyboard Layer 0 (Background)
//Storyboard Layer 1 (Fail)
//Storyboard Layer 2 (Pass)
//Storyboard Layer 3 (Foreground)
//Storyboard Sound Samples

[TimingPoints]
983,468.75,4,1,0,60,1,0
8483,-100,4,1,0,65,0,0
15983,-100,4,1,0,70,0,0
30983,-100,4,1,0,60,0,0
46451,-100,4,1,0,70,0,0
60983,-100,4,1,0,80,0,1
90045,-100,4,1,0,70,0,0
90983,-100,4,1,0,80,0,1
105983,-100,4,1,0,60,0,0

[HitObjects]
256,192,983,5,8,0:0:0:0:
256,192,2858,1,8,0:0:0:0:
256,192,4733,1,8,0:0:0:0:
256,192,6608,1,0,0:0:0:0:
256,192,7545,1,8,0:0:0:0:
256,192,8483,1,4,0:0:0:0:
256,192,10358,1,8,0:0:0:0:
256,192,12233,1,0,0:0:0:0:
256,192,14108,1,8,0:0:0:0:
256,192,15045,1,0,0:0:0:0:
256,192,15514,1,8,0:0:0:0:
256,192,15983,1,4,0:0:0:0:
256,192,17858,1,0,0:0:0:0:
256,192,18795,1,8,0:0:0:0:
256,192,19733,1,0,0:0:0:0:
256,192,20670,1,8,0:0:0:0:
256,192,21608,1,0,0:0:0:0:
256,192,22076,1,8,0:0:0:0:
256,192,22544,1,8,0:0:0:0:
256,192,23483,1,4,0:0:0:0:
256,192,25358,1,0,0:0:0:0:
256,192,26295,1,8,0:0:0:0:
256,192,27233,1,8,0:0:0:0:
256,192,28170,1,0,0:0:0:0:
256,192,29108,1,0,0:0:0:0:
256,192,29576,1,8,0:0:0:0:
256,192,30045,1,8,0:0:0:0:
256,192,30983,1,4,0:0:0:0:
256,192,32857,1,8,0:0:0:0:
256,192,33795,5,0,0:0:0:0:
256,192,34733,1,0,0:0:0:0:
256,192,36608,1,8,0:0:0:0:
256,192,37545,1,8,0:0:0:0:
256,192,38483,1,4,0:0:0:0:
256,192,40358,1,8,0:0:0:0:
256,192,41295,1,0,0:0:0:0:
256,192,42233,1,0,0:0:0:0:
256,192,43170,1,8,0:0:0:0:
256,192,43639,1,8,0:0:0:0:
256,192,44108,1,0,0:0:0:0:
256,192,45045,1,8,0:0:0:0:
256,192,46451,1,12,0:0:0:0:
256,192,47858,1,8,0:0:0:0:
256,192,48795,1,8,0:0:0:0:
256,192,49264,1,8,0:0:0:0:
256,192,50201,1,12,0:0:0:0:
256,192,51608,1,8,0:0:0:0:
256,192,52545,1,0,0:0:0:0:
256,192,53014,1,8,0:0:0:0:
256,192,53951,1,12,0:0:0:0:
256,192,55358,1,8,0:0:0:0:
256,192,56295,1,8,0:0:0:0:
256,192,56764,1,8,0:0:0:0:
256,192,57233,1,0,0:0:0:0:
256,192,58170,1,8,0:0:0:0:
256,192,59108,1,0,0:0:0:0:
256,192,60983,5,4,0:0:0:0:
256,192,62389,1,0,0:0:0:0:
256,192,62858,1,8,0:0:0:0:
256,192,63795,1,0,0:0:0:0:
256,192,64733,1,8,0:0:0:0:
256,192,65670,1,0,0:0:0:0:
256,192,66608,1,0,0:0:0:0:
256,192,67076,1,8,0:0:0:0:
256,192,67545,1,0,0:0:0:0:
256,192,68483,1,0,0:0:0:0:
256,192,69889,1,0,0:0:0:0:
256,192,70358,1,8,0:0:0:0:
256,192,71295,1,0,0:0:0:0:
256,192,72233,5,8,0:0:0:0:
256,192,73170,1,0,0:0:0:0:
256,192,73639,1,8,0:0:0:0:
256,192,74108,1,0,0:0:0:0:
256,192,75983,1,4,0:0:0:0:
256,192,77389,1,0,0:0:0:0:
256,192,77858,1,8,0:0:0:0:
256,192,78795,1,0,0:0:0:0:
256,192,79733,1,8,0:0:0:0:
256,192,80201,1,0,0:0:0:0:
256,192,80670,1,0,0:0:0:0:
256,192,81608,1,8,0:0:0:0:
256,192,82076,1,8,0:0:0:0:
256,192,82545,5,0,0:0:0:0:
256,192,83483,1,0,0:0:0:0:
256,192,84889,1,8,0:0:0:0:
256,192,85358,1,8,0:0:0:0:
256,192,86295,1,0,0:0:0:0:
256,192,87233,1,8,0:0:0:0:
256,192,88170,1,0,0:0:0:0:
256,192,88639,1,8,0:0:0:0:
256,192,89108,1,8,0:0:0:0:
256,192,90045,1,8,0:0:0:0:
256,192,90983,1,4,0:0:0:0:
256,192,92858,1,0,0:0:0:0:
256,192,93795,1,8,0:0:0:0:
256,192,94733,1,0,0:0:0:0:
256,192,95670,1,0,0:0:0:0:
256,192,96608,1,8,0:0:0:0:
256,192,97076,1,0,0:0:0:0:
256,192,97545,1,8,0:0:0:0:
256,192,98483,1,0,0:0:0:0:
256,192,100358,1,0,0:0:0:0:
256,192,101295,1,8,0:0:0:0:
256,192,102233,1,8,0:0:0:0:
256,192,103170,1,0,0:0:0:0:
256,192,104108,1,0,0:0:0:0:
256,192,104576,1,8,0:0:0:0:
256,192,105045,1,8,0:0:0:0:
256,192,105983,1,12,0:0:0:0:
256,192,107858,1,8,0:0:0:0:
256,192,109733,1,8,0:0:0:0:
256,192,111608,1,8,0:0:0:0:
256,192,112545,1,8,0:0:0:0:
