osu file format v14

[General]
AudioFilename: audio.mp3
AudioLeadIn: 0
PreviewTime: 796
Countdown: 0
SampleSet: Soft
StackLeniency: 0.5
Mode: 0
LetterboxInBreaks: 0
EpilepsyWarning: 1
WidescreenStoryboard: 1

[Editor]
Bookmarks: 31686,80500,125245,151686,184228,228974,265584,296093,308917
DistanceSpacing: 0.9
BeatDivisor: 8
GridSize: 4
TimelineZoom: 2.900005

[Metadata]
Title:Nageki no Mori
TitleUnicode:嘆きノ森
Artist:Ayane
ArtistUnicode:彩音
Creator:Luscent
Version:Lament
Source:ひぐらしのなく頃に祭
Tags:japanese game 07th Expansion 5qb.Records five PS2 Playstation 2 Alchemist Opening Theme Full Version Higurashi no Naku Koro ni Matsuri When They Cry kalibe evilelvis v2 jounzan natteke desu 404 aimnotfound
BeatmapID:2317079
BeatmapSetID:1108479

[Difficulty]
HPDrainRate:6.5
CircleSize:4
OverallDifficulty:8.5
ApproachRate:9.3
SliderMultiplier:2.8
SliderTickRate:0.5

[Events]
//Background and Video events
0,0,"bg.jpg",0,0
//Break Periods
//Storyboard Layer 0 (Background)
//Storyboard Layer 1 (Fail)
//Storyboard Layer 2 (Pass)
//Storyboard Layer 3 (Foreground)
Sprite,Foreground,Centre,"sb\ring.png",529,182 C,0,134405,,238,238,238 F,2,134405,137294,1,0 S,2,134405,137294,0.1,2 P,0,134405,137294,A
Sprite,Foreground,Centre,"sb\ring.png",272,352 C,0,132371,,238,238,238 F,2,132371,135260,1,0 S,2,132371,135260,0.1,2 P,0,132371,135260,A
Sprite,Foreground,Centre,"sb\blood.png",0,0 M,0,123218,,260,140 F,0,123218,,1 S,0,123218,,0.38 R,0,123218,,0 F,0,124235,125252,1,0 M,0,226947,,365,82 F,0,226947,,1 S,0,226947,,0.38 R,0,226947,,0 F,0,227964,228981,1,0 M,0,247286,,320,125 F,0,247286,,1 S,0,247286,,0.38 R,0,247286,,3 F,0,249320,,0 M,0,292032,,516,460 F,0,292032,,1 S,0,292032,,0.38 R,0,292032,,0 F,0,293049,294066,1,0
Sprite,Foreground,Centre,"sb\cut-1.png",0,0 M,0,247668,,320,390 F,0,247668,,1 S,0,247668,,0.2 R,0,247668,,-0.2 F,0,249320,,0
Sprite,Foreground,Centre,"sb\blood2.png",0,0 M,0,248049,,529,250 F,0,248049,,1 S,0,248049,,0.38 R,0,248049,,-2 F,0,249320,,0
Sprite,Foreground,Centre,"sb\blood3.png",0,0 M,0,248430,,100,338 F,0,248430,,1 S,0,248430,,0.45 R,0,248430,,-1.5 F,0,249320,,0
Sprite,Foreground,Centre,"sb\particle.png",478,250 C,0,227964,,253,160,153 F,2,227964,228964,1,0 S,2,227964,228964,4,0.8 P,0,227964,228964,A
Sprite,Foreground,Centre,"sb\particle.png",411,273 C,0,228049,,250,217,131 F,2,228049,229049,1,0 S,2,228049,229049,4,0.8 P,0,228049,229049,A
Sprite,Foreground,Centre,"sb\particle.png",359,253 C,0,228134,,245,142,80 F,2,228134,229134,1,0 S,2,228134,229134,4,0.8 P,0,228134,229134,A
Sprite,Foreground,Centre,"sb\particle.png",329,219 C,0,228218,,255,62,62 F,2,228218,229218,1,0 S,2,228218,229218,4,0.8 P,0,228218,229218,A
Sprite,Foreground,Centre,"sb\particle.png",282,194 C,0,228303,,253,160,153 F,2,228303,229303,1,0 S,2,228303,229303,4,0.8 P,0,228303,229303,A
Sprite,Foreground,Centre,"sb\particle.png",236,201 C,0,228388,,250,217,131 F,2,228388,229388,1,0 S,2,228388,229388,4,0.8 P,0,228388,229388,A
Sprite,Foreground,Centre,"sb\particle.png",161,246 C,0,228473,,245,142,80 F,2,228473,229896,1,0 S,2,228473,229896,4,0.8 P,0,228473,229896,A
Sprite,Foreground,Centre,"sb\collabpart\_000.png",650,430.75 L,0,1200 R,3,0,3000,-0.01,0.01 R,3,3000,6000,0.01,-0.01 S,0,0,,0.5 F,0,31686,31936,0,0.8 F,0,80500,80750,0.8,0 F,0,127279,127529,0,0.8 F,0,151686,151936,0.8,0 F,0,184228,184478,0,0.8 F,0,228974,229224,0.8,0 F,0,265584,265834,0,0.8 F,0,292025,292275,0.8,0
Sprite,Foreground,Centre,"sb\collabpart\_002.png",650,430.75 L,0,9999999 R,5,0,3000,-0.01,0.01 R,5,3000,6000,0.01,-0.01 S,0,0,,0.5 F,0,15422,15672,0,0.8 F,0,31693,31943,0.8,0 F,0,80500,80750,0,0.8 F,0,127279,127529,0.8,0 F,0,151686,151936,0,0.8 F,0,184228,184478,0.8,0 F,0,228974,229224,0,0.8 F,0,265584,265834,0.8,0
//Storyboard Layer 4 (Overlay)
//Storyboard Sound Samples

[TimingPoints]
930,508.474576271186,4,2,3,35,1,0
1185,508.474576271186,4,2,3,35,1,0
1185,-166.666666666667,4,2,3,35,0,0
1693,-166.666666666667,4,2,3,20,0,0
1947,-166.666666666667,4,2,3,35,0,0
2710,-166.666666666667,4,2,3,20,0,0
2964,-166.666666666667,4,2,3,30,0,0
3218,-166.666666666667,4,2,3,35,0,0
3727,-166.666666666667,4,2,3,20,0,0
3981,-166.666666666667,4,2,3,35,0,0
4490,-166.666666666667,4,2,3,20,0,0
4744,-166.666666666667,4,2,3,35,0,0
5252,-166.666666666667,4,2,3,20,0,0
5761,-166.666666666667,4,2,3,35,0,0
6015,-166.666666666667,4,2,3,20,0,0
6523,-166.666666666667,4,2,3,35,0,0
7286,-166.666666666667,4,2,3,20,0,0
7795,-166.666666666667,4,2,3,35,0,0
8812,-166.666666666667,4,2,3,15,0,0
9066,-166.666666666667,4,2,3,25,0,0
9193,-166.666666666667,4,2,3,15,0,0
9320,-166.666666666667,4,2,3,20,0,0
10337,-166.666666666667,4,2,3,5,0,0
10401,-166.666666666667,4,2,3,20,0,0
14151,-166.666666666667,4,2,1,30,0,0
14405,-166.666666666667,4,2,1,60,0,0
15422,-83.3333333333333,4,2,1,70,0,0
31184,-125,4,2,1,50,0,0
31216,-125,4,2,44,50,0,0
31566,-125,4,2,1,15,0,0
31693,-200,4,1,1,55,0,0
31947,-200,4,1,1,45,0,0
47901,-200,4,1,1,5,0,0
47964,-142.857142857143,4,1,2,55,0,0
48028,-142.857142857143,4,2,44,55,0,0
48981,-142.857142857143,4,1,1,55,0,0
49490,-200,4,1,1,45,0,0
52032,-142.857142857143,4,1,2,55,0,0
52096,-142.857142857143,4,2,44,55,0,0
53049,-200,4,1,1,45,0,0
56036,-200,4,1,1,5,0,0
56100,-142.857142857143,4,1,2,55,0,0
56163,-142.857142857143,4,2,44,55,0,0
57117,-200,4,1,1,45,0,0
60168,-142.857142857143,4,1,2,55,0,0
60231,-142.857142857143,4,2,44,55,0,0
61184,-200,4,1,1,45,0,0
62710,-200,4,1,1,55,0,0
64235,-111.111111111111,4,1,1,55,0,0
68303,-111.111111111111,4,1,2,55,0,0
68367,-111.111111111111,4,1,1,55,0,0
71354,-111.111111111111,4,1,2,55,0,0
71418,-111.111111111111,4,1,1,55,0,0
72371,-99.9999999999999,4,1,1,75,0,0
79744,-66.6666666666667,4,1,1,70,0,0
79934,-66.6666666666667,4,1,1,5,0,0
79998,-99.9999999999999,4,1,1,80,0,0
80507,-83.3333333333333,4,1,3,62,0,1
80570,-83.3333333333333,4,1,1,62,0,1
84574,-83.3333333333333,4,1,2,75,0,1
84638,-83.3333333333333,4,1,1,75,0,1
88642,-83.3333333333333,4,1,2,75,0,1
88706,-83.3333333333333,4,1,1,75,0,1
92710,-83.3333333333333,4,1,2,75,0,1
92773,-83.3333333333333,4,1,1,75,0,1
95761,-83.3333333333333,4,1,1,75,0,0
96778,-83.3333333333333,4,1,2,70,0,1
96841,-83.3333333333333,4,1,1,70,0,1
100846,-83.3333333333333,4,1,2,75,0,1
100909,-83.3333333333333,4,1,1,75,0,1
104913,-83.3333333333333,4,1,3,60,0,1
104977,-83.3333333333333,4,1,1,60,0,1
108981,-83.3333333333333,4,1,2,75,0,1
109045,-83.3333333333333,4,1,1,75,0,1
111015,-83.3333333333333,4,1,2,75,0,1
111206,-83.3333333333333,4,1,1,25,0,1
111269,-83.3333333333333,4,1,1,75,0,1
111587,-83.3333333333333,4,1,1,25,0,1
111651,-83.3333333333333,4,1,1,75,0,1
112032,-83.3333333333333,4,1,2,75,0,0
112159,-83.3333333333333,4,1,1,75,0,0
113049,-83.3333333333333,4,1,2,75,0,1
113112,-83.3333333333333,4,1,1,75,0,1
117117,-83.3333333333333,4,1,2,75,0,1
117180,-83.3333333333333,4,1,1,75,0,1
121184,-83.3333333333333,4,1,2,75,0,1
121248,-83.3333333333333,4,1,1,75,0,1
123218,-400,4,2,2,50,0,0
123282,-400,4,2,44,50,0,0
124235,-400,4,2,45,50,0,0
124744,-400,4,2,44,50,0,0
125252,-400,4,2,1,10,0,0
127286,-285.714285714286,4,2,3,30,0,0
132371,-285.714285714286,4,2,8,30,0,0
132434,-285.714285714286,4,2,3,30,0,0
134405,-285.714285714286,4,2,2,30,0,0
134468,-285.714285714286,4,2,3,30,0,0
135295,-285.714285714286,4,2,3,5,0,0
135422,-222.222222222222,4,2,3,50,0,0
143557,-166.666666666667,4,2,1,45,0,0
149659,-111.111111111111,4,1,2,60,0,1
149913,-111.111111111111,4,1,1,60,0,1
150612,-111.111111111111,4,1,1,5,0,1
150676,-111.111111111111,4,1,1,60,0,1
151439,-200,4,1,1,55,0,0
151629,-200,4,1,1,5,0,0
151693,-142.857142857143,4,1,2,55,0,0
151757,-142.857142857143,4,2,44,55,0,0
152710,-142.857142857143,4,1,1,50,0,0
155761,-142.857142857143,4,1,2,55,0,0
155824,-142.857142857143,4,2,44,55,0,0
156778,-142.857142857143,4,1,1,50,0,0
159829,-142.857142857143,4,1,2,55,0,0
159892,-142.857142857143,4,2,44,55,0,0
160337,-142.857142857143,4,1,1,50,0,0
163896,-142.857142857143,4,1,2,55,0,0
163960,-142.857142857143,4,1,44,55,0,0
164405,-142.857142857143,4,1,1,50,0,0
167964,-125,4,1,1,55,0,0
172032,-125,4,1,2,55,0,0
172096,-125,4,1,1,55,0,0
176100,-100,4,1,1,75,0,0
182201,-100,4,1,1,25,0,0
183727,-100,4,1,1,50,0,0
184235,-83.3333333333333,4,1,3,75,0,1
184298,-83.3333333333333,4,1,1,75,0,1
188303,-83.3333333333333,4,1,2,75,0,1
188367,-83.3333333333333,4,1,1,75,0,1
192371,-83.3333333333333,4,1,2,75,0,1
192434,-83.3333333333333,4,1,1,75,0,1
196439,-83.3333333333333,4,1,2,75,0,1
196501,-83.3333333333333,4,1,1,75,0,1
196629,-83.3333333333333,4,1,2,75,0,1
196693,-83.3333333333333,4,1,1,75,0,1
199490,-83.3333333333333,4,1,1,75,0,0
200507,-83.3333333333333,4,1,2,75,0,1
200569,-83.3333333333333,4,1,1,75,0,1
204574,-83.3333333333333,4,1,2,75,0,1
204637,-83.3333333333333,4,1,1,75,0,1
208642,-83.3333333333333,4,1,3,75,0,1
208705,-83.3333333333333,4,1,1,75,0,1
212710,-83.3333333333333,4,1,2,75,0,1
212773,-83.3333333333333,4,1,1,75,0,1
214744,-83.3333333333333,4,1,2,75,0,1
214998,-83.3333333333333,4,1,1,75,0,1
215761,-83.3333333333333,4,1,2,75,0,0
215888,-83.3333333333333,4,1,1,75,0,0
216778,-83.3333333333333,4,1,2,75,0,1
216840,-83.3333333333333,4,1,1,75,0,1
220846,-83.3333333333333,4,1,2,75,0,1
220908,-83.3333333333333,4,1,1,75,0,1
224913,-83.3333333333333,4,1,2,75,0,1
224977,-83.3333333333333,4,1,1,75,0,1
226947,-200,4,2,2,50,0,0
227011,-200,4,2,44,50,0,0
227456,-200,4,2,45,50,0,0
227879,-200,4,2,1,20,0,0
227964,-200,4,1,1,70,0,1
228218,-200,4,1,1,60,0,1
228473,-200,4,1,1,70,0,1
228981,-83.3333333333333,4,2,3,55,0,0
229045,-83.3333333333333,4,2,1,55,0,0
231015,-83.3333333333333,4,2,2,65,0,0
231079,-83.3333333333333,4,2,1,65,0,0
233049,-83.3333333333333,4,2,2,65,0,0
233112,-83.3333333333333,4,2,1,65,0,0
235083,-83.3333333333333,4,2,2,65,0,0
235146,-83.3333333333333,4,2,1,65,0,0
237117,-83.3333333333333,4,2,2,60,0,0
237180,-83.3333333333333,4,2,1,60,0,0
243218,-83.3333333333333,4,2,2,70,0,0
243282,-83.3333333333333,4,2,1,70,0,0
243409,-83.3333333333333,4,2,1,5,0,0
243473,-83.3333333333333,4,2,1,70,0,0
244299,-83.3333333333333,4,2,1,25,0,0
244362,-83.3333333333333,4,2,1,70,0,0
245252,-83.3333333333333,4,2,2,65,0,0
245316,-83.3333333333333,4,2,1,65,0,0
247286,-83.3333333333333,4,2,1,80,0,1
247540,-83.3333333333333,4,2,1,80,0,0
247668,-83.3333333333333,4,2,1,80,0,1
247922,-83.3333333333333,4,2,1,80,0,0
248049,-83.3333333333333,4,2,1,80,0,1
248303,-83.3333333333333,4,2,1,80,0,0
248430,-83.3333333333333,4,2,1,80,0,1
248684,-83.3333333333333,4,2,1,80,0,0
248812,-83.3333333333333,4,2,1,45,0,0
249066,-83.3333333333333,4,2,1,65,0,0
249320,-83.3333333333333,4,1,3,75,0,1
249383,-83.3333333333333,4,1,1,75,0,1
253388,-83.3333333333333,4,1,2,75,0,1
253452,-83.3333333333333,4,1,1,75,0,1
257456,-83.3333333333333,4,1,2,75,0,1
257519,-83.3333333333333,4,1,1,75,0,1
261523,-83.3333333333333,4,1,2,75,0,1
261586,-83.3333333333333,4,1,1,75,0,1
264574,-83.3333333333333,4,1,1,75,0,0
265591,-83.3333333333333,4,1,2,75,0,1
265654,-83.3333333333333,4,1,1,75,0,1
269659,-83.3333333333333,4,1,2,75,0,1
269722,-83.3333333333333,4,1,1,75,0,1
273727,-83.3333333333333,4,1,3,75,0,1
273790,-83.3333333333333,4,1,1,75,0,1
273854,-83.3333333333333,4,1,3,75,0,1
273981,-83.3333333333333,4,1,1,75,0,1
277795,-83.3333333333333,4,1,2,75,0,1
277858,-83.3333333333333,4,1,1,75,0,1
277985,-83.3333333333333,4,1,2,75,0,1
278049,-83.3333333333333,4,1,1,75,0,1
279829,-83.3333333333333,4,1,2,75,0,1
279956,-83.3333333333333,4,1,1,75,0,1
280846,-83.3333333333333,4,1,2,75,0,0
280973,-83.3333333333333,4,1,1,75,0,0
281862,-83.3333333333333,4,1,2,75,0,1
281925,-83.3333333333333,4,1,1,75,0,1
285930,-83.3333333333333,4,1,2,75,0,1
285993,-83.3333333333333,4,1,1,75,0,1
286057,-83.3333333333333,4,1,2,75,0,1
286184,-83.3333333333333,4,1,1,75,0,1
289998,-83.3333333333333,4,1,2,75,0,1
290062,-83.3333333333333,4,1,1,75,0,1
290125,-83.3333333333333,4,1,2,75,0,1
290252,-83.3333333333333,4,1,1,75,0,1
292032,-400,4,2,2,50,0,0
292159,-400,4,2,44,50,0,0
292540,-400,4,2,45,40,0,0
293049,-400,4,2,44,30,0,0
293557,-400,4,2,45,20,0,0
294066,-400,4,2,1,10,0,0
296100,724.63768115942,4,2,3,35,1,0
296100,-133.333333333333,4,2,3,35,0,0
297549,701.754385964912,4,2,3,35,1,0
297549,-133.333333333333,4,2,3,35,0,0
298250,724.63768115942,4,2,3,20,1,0
298612,895.522388059701,4,2,3,25,1,0
299059,597.609561752988,4,2,3,35,1,0
299059,-181.818181818182,4,2,3,35,0,0
299656,659.340659340659,4,2,3,35,1,0
299985,705.052878965922,4,2,3,35,1,0
301042,659.340659340659,4,2,3,25,1,0
301371,780.234070221066,4,2,3,35,1,0
301761,734.394124847001,4,2,3,25,1,0
301761,-133.333333333333,4,2,3,25,0,0
302495,649.350649350649,4,2,3,23,1,0
302495,-147.058823529412,4,2,3,23,0,0
302819,833.333333333333,4,2,3,23,1,0
303235,645.161290322581,4,2,3,21,1,0
303235,-166.666666666667,4,2,3,21,0,0
303557,986.842105263158,4,2,3,21,1,0
304050,756.620428751576,4,2,3,19,1,0
304050,-222.222222222222,4,2,3,19,0,0
304428,724.63768115942,4,2,3,19,1,0
305514,750,4,2,3,30,1,0
305514,-200,4,2,3,30,0,0
305701,788.954635108481,4,2,3,20,1,0
307278,801.068090787717,4,2,3,20,1,0
307278,-200,4,2,3,20,0,0
308079,845.070422535211,4,2,3,17,1,0
308924,724.63768115942,4,2,3,10,1,0

[Colours]
Combo1 : 253,160,153
Combo2 : 238,238,238
Combo3 : 98,98,98
Combo4 : 194,81,238
Combo5 : 249,64,160
Combo6 : 255,62,62
Combo7 : 245,142,80
Combo8 : 250,217,131

[HitObjects]
63,241,930,5,0,0:0:0:0:
150,172,1185,2,0,B|234:164|213:237|317:221,1,167.999994873047,2|0,0:0|0:0,0:0:0:0:
300,353,1947,2,0,B|292:255|353:282|337:173|337:173|299:188|303:243,1,251.999992309571,2|0,0:0|0:0,0:0:0:0:
420,335,2964,1,0,0:0:0:0:
181,351,3218,6,0,B|176:261|234:287|229:194,1,167.999994873047,2|0,0:0|0:0,0:0:0:0:
197,62,3981,2,0,B|202:152|144:126|149:219,1,167.999994873047,2|0,0:0|0:0,0:0:0:0:
295,271,4744,1,2,0:0:0:0:
295,271,5252,102,0,P|371:237|473:263,1,167.999994873047,0|2,0:0|0:0,0:0:0:0:
501,333,6015,2,0,L|485:134,1,167.999994873047,0|2,0:0|0:0,0:0:0:0:
512,87,7032,1,2,0:0:0:0:
375,118,7286,6,0,P|328:120|267:86,1,83.9999974365235
346,31,7795,1,2,0:0:0:0:
245,35,8049,2,0,L|259:230,1,167.999994873047,0|2,0:0|0:0,0:0:0:0:
238,329,8812,2,0,L|233:384,2,41.9999987182618
260,302,9193,1,0,0:0:0:0:
164,294,9320,102,0,B|87:263|88:199|92:145|136:117|179:114|179:114|225:108|270:147|270:147|341:203|431:157,1,503.999984619141
191,205,11354,1,2,0:0:0:0:
256,192,11608,12,0,14151,0:0:0:0:
207,217,14405,101,12,1:0:0:0:
211,194,14490,101,12,1:0:0:0:
215,172,14574,101,12,1:0:0:0:
219,149,14659,101,12,1:0:0:0:
123,179,14786,5,8,1:0:0:0:
303,190,14913,101,12,1:0:0:0:
150,97,15040,1,8,1:0:0:0:
272,275,15168,5,12,1:0:0:0:
387,219,15295,1,8,1:0:0:0:
308,349,15422,102,0,P|213:349|141:308,1,167.999994873047,4|0,1:2|0:0,0:0:0:0:
224,212,15803,1,0,1:0:0:0:
408,293,15930,2,0,B|426:336|403:398,1,83.9999974365235,4|0,1:0|0:0,0:0:0:0:
482,122,16184,6,0,P|450:177|332:162,1,167.999994873047,10|2,1:0|1:3,0:0:0:0:
259,165,16566,1,0,0:0:0:0:
397,114,16693,1,2,1:3:0:0:
254,249,16820,1,0,1:0:0:0:
230,85,16947,102,0,P|301:93|344:119,1,83.9999974365235,12|0,1:0|0:0,0:0:0:0:
458,215,17201,1,0,1:0:0:0:
353,181,17329,1,2,1:3:0:0:
245,318,17456,6,0,B|145:328|173:256|47:276,1,167.999994873047,6|2,1:0|1:3,0:0:0:0:
27,324,17837,1,0,1:0:0:0:
229,155,17964,2,0,P|227:208|214:272,1,83.9999974365235,2|0,1:3|2:3,0:0:0:0:
112,137,18218,102,0,P|136:81|251:66,1,167.999994873047,10|2,1:0|1:3,0:0:0:0:
402,203,18600,1,2,0:0:0:0:
415,71,18727,1,2,1:3:0:0:
308,133,18854,1,0,1:0:0:0:
497,124,18981,6,0,P|501:76|494:15,1,83.9999974365235,12|0,1:0|1:0,0:0:0:0:
393,214,19235,1,0,1:2:0:0:
493,218,19362,1,0,1:0:0:0:
255,253,19490,102,0,B|339:245|311:322|446:305,1,167.999994873047,6|0,1:0|1:0,0:0:0:0:
251,346,19871,1,0,0:0:0:0:
181,194,19998,2,0,P|148:221|62:230,1,83.9999974365235,2|0,1:3|0:0,0:0:0:0:
97,337,20252,6,0,P|77:244|-31:189,1,167.999994873047,14|2,1:0|1:3,0:0:0:0:
0,278,20634,1,0,1:0:0:0:
106,155,20761,2,0,P|155:159|221:178,1,83.9999974365235,0|0,1:0|0:0,0:0:0:0:
378,60,21015,102,0,P|292:121|211:62,1,167.999994873047,12|0,1:0|1:0,0:0:0:0:
294,37,21396,1,0,0:0:0:0:
414,157,21523,6,0,P|412:202|406:264,1,83.9999974365235,6|0,1:0|0:0,0:0:0:0:
205,277,21778,2,0,P|201:235|199:193,1,83.9999974365235,2|0,1:3|0:0,0:0:0:0:
363,325,22032,2,0,P|415:325|487:330,1,83.9999974365235,4|0,1:0|0:0,0:0:0:0:
110,238,22286,2,0,P|58:238|-14:243,1,83.9999974365235,10|0,1:0|0:0,0:0:0:0:
192,357,22540,101,2,1:3:0:0:
290,275,22668,1,0,1:0:0:0:
303,193,22795,1,2,1:2:0:0:
300,165,22922,1,0,1:0:0:0:
237,114,23049,5,12,1:0:0:0:
380,193,23176,1,0,1:0:0:0:
327,47,23303,101,2,1:3:0:0:
228,231,23430,1,2,1:2:0:0:
461,173,23557,6,0,P|473:123|478:64,1,83.9999974365235,4|0,1:0|0:0,0:0:0:0:
364,269,23812,2,0,P|369:310|379:351,1,83.9999974365235,0|0,1:3|0:0,0:0:0:0:
238,205,24066,2,0,P|204:247|143:283,1,83.9999974365235,2|0,1:3|0:0,0:0:0:0:
94,298,24320,1,14,1:0:0:0:
274,282,24447,1,0,1:0:0:0:
108,219,24574,102,0,P|88:168|87:97,1,83.9999974365235,2|0,1:3|0:0,0:0:0:0:
162,352,24829,1,0,3:0:0:0:
169,165,24956,1,2,1:2:0:0:
24,221,25083,2,0,P|71:220|145:217,1,83.9999974365235,12|0,1:0|0:0,0:0:0:0:
323,120,25337,2,0,P|276:119|202:116,1,83.9999974365235,0|0,3:0|0:0,0:0:0:0:
351,258,25591,6,0,P|302:259|223:267,1,83.9999974365235,4|0,1:0|0:0,0:0:0:0:
435,293,25846,1,0,3:0:0:0:
439,297,25973,1,2,0:0:0:0:
397,186,26100,1,4,1:0:0:0:
326,334,26227,1,0,1:0:0:0:
507,217,26354,2,0,P|509:171|504:101,1,83.9999974365235,14|0,1:0|0:0,0:0:0:0:
302,58,26608,102,0,P|300:104|305:174,1,83.9999974365235,2|8,1:3|0:3,0:0:0:0:
118,174,26862,2,0,P|119:132|118:91,1,83.9999974365235,2|0,1:3|0:0,0:0:0:0:
247,192,27117,1,12,1:0:0:0:
264,316,27244,1,0,3:0:0:0:
193,258,27371,1,0,1:0:0:0:
315,245,27498,1,2,0:0:0:0:
133,308,27625,6,0,P|90:311|38:307,1,83.9999974365235,4|0,1:1|0:0,0:0:0:0:
347,275,27879,2,0,P|350:318|346:370,1,83.9999974365235,2|0,3:1|1:0,0:0:0:0:
118,174,28134,2,0,P|115:131|119:79,1,83.9999974365235,2|0,1:3|0:0,0:0:0:0:
263,89,28388,2,0,P|266:132|262:184,1,83.9999974365235,14|0,1:0|0:0,0:0:0:0:
189,128,28642,101,2,1:3:0:0:
328,50,28769,1,2,1:3:0:0:
461,159,28896,1,0,3:0:0:0:
358,138,29023,1,0,1:0:0:0:
342,267,29151,5,12,1:0:0:0:
478,251,29278,1,0,3:0:0:0:
430,369,29405,2,0,P|377:360|312:359,1,83.9999974365235,2|0,1:2|0:0,0:0:0:0:
84,197,29659,102,0,L|92:286,1,83.9999974365235,12|0,1:0|0:0,0:0:0:0:
216,334,29913,1,0,3:0:0:0:
49,171,30040,6,0,L|57:260,1,83.9999974365235,12|4,1:0|3:0,0:0:0:0:
216,334,30295,1,2,0:0:0:0:
14,145,30422,102,0,L|22:234,1,83.9999974365235,14|0,1:0|0:0,0:0:0:0:
216,334,30676,1,12,1:0:0:0:
192,209,30803,1,12,1:0:0:0:
89,316,30930,1,2,1:2:0:0:
297,343,31057,1,0,1:0:0:0:
266,85,31184,2,2,B|242:185|304:154|261:296,1,168,14|0,1:0|0:0,1:0:0:0:
261,277,31693,53,4,1:2:0:0:
367,199,31947,1,0,0:0:0:0:
394,211,32074,1,8,0:3:0:0:
464,260,32329,1,10,0:3:0:0:
490,244,32456,2,0,L|496:193,1,35,8|0,0:0|2:0,2:0:0:0:
424,143,32710,6,0,L|404:47,1,70,0|0,2:0|3:0,0:0:0:0:
286,156,33218,2,0,L|212:180,1,70,0|8,0:0|0:3,0:0:0:0:
219,177,33600,1,0,2:0:0:0:
219,177,33727,1,2,0:2:0:0:
111,14,33981,102,0,L|123:49,1,35,0|8,0:0|0:3,2:0:0:0:
49,54,34235,2,0,L|45:96,1,35,0|0,3:0|0:0,2:0:0:0:
136,128,34490,1,8,3:3:0:0:
96,224,34617,5,2,0:2:0:0:
96,224,34680,1,2,0:2:0:0:
96,224,34744,1,8,0:0:0:0:
164,200,34871,2,0,B|197:204|241:222,1,70,8|0,0:3|2:0,0:0:0:0:
373,308,35252,1,8,0:0:0:0:
313,353,35379,2,0,B|277:349|244:329,1,70,8|0,0:3|2:0,0:0:0:0:
319,235,35761,102,0,P|318:195|337:79,1,140,4|0,0:1|2:0,0:0:0:0:
386,46,36523,2,0,L|430:32,1,35,8|0,0:0|2:0,2:0:0:0:
466,61,36778,1,0,3:2:0:0:
347,151,37032,1,0,0:0:0:0:
220,60,37286,1,2,0:2:0:0:
260,119,37413,1,2,2:0:0:0:
322,80,37540,1,8,0:0:0:0:
303,57,37668,1,0,2:0:0:0:
216,102,37795,6,0,L|137:124,1,70,8|0,0:3|0:0,0:0:0:0:
86,181,38176,1,8,3:0:0:0:
113,244,38303,2,0,L|125:201,1,35,0|8,0:0|0:3,2:0:0:0:
289,152,38557,2,0,L|307:213,1,52.5,8|0,3:0|2:0,0:0:0:0:
279,229,38812,101,8,0:0:0:0:
414,286,38939,1,8,0:3:0:0:
136,178,39320,5,8,0:0:0:0:
9,229,39447,1,8,0:3:0:0:
77,255,39574,1,0,3:3:0:0:
57,292,39701,1,0,2:0:0:0:
160,309,39829,102,0,P|203:315|271:330,1,105,4|8,0:2|0:3,0:0:0:0:
324,376,40337,2,0,L|337:332,1,35,0|2,2:0|0:2,2:0:0:0:
467,203,40591,2,0,L|426:216,1,35,8|0,0:0|2:0,2:0:0:0:
380,272,40846,1,0,2:0:0:0:
380,272,41100,2,0,B|452:299,1,70,8|2,0:3|3:0,2:0:0:0:
324,376,41608,1,8,0:0:0:0:
201,185,41862,5,2,0:3:0:0:
184,201,42117,1,0,0:0:0:0:
122,241,42244,1,8,0:3:0:0:
187,275,42371,1,0,3:0:0:0:
253,235,42498,1,8,0:3:0:0:
102,165,42625,2,0,L|44:147,1,52.5,8|0,3:0|2:0,0:0:0:0:
26,134,42879,101,8,0:0:0:0:
177,79,43007,1,8,0:0:0:0:
110,31,43134,2,0,L|101:72,1,35,0|0,0:0|2:0,2:0:0:0:
224,162,43388,5,8,0:0:0:0:
355,105,43515,1,12,0:3:0:0:
438,153,43642,2,0,L|520:140,2,70,8|4|2,3:0|0:2|3:0,2:0:0:0:
409,176,44278,1,2,0:3:0:0:
409,176,44405,1,2,2:0:0:0:
172,164,44659,102,0,L|204:148,1,35,8|2,0:0|2:0,2:0:0:0:
278,68,44913,2,0,L|261:107,1,35,0|0,2:0|2:0,0:0:0:0:
292,207,45168,2,0,L|272:175,1,35,0|0,0:0|2:0,2:0:0:0:
246,141,45422,1,0,3:0:0:0:
11,280,45676,6,0,L|57:269,1,35,8|0,0:0|2:0,2:0:0:0:
112,306,45930,1,0,3:0:0:0:
112,306,46184,2,0,L|126:351,1,35,8|0,0:3|3:0,2:0:0:0:
217,259,46439,2,0,L|174:241,1,35,0|10,3:0|0:3,0:0:0:0:
214,374,46693,2,0,L|246:341,1,35,8|2,3:0|0:2,2:0:0:0:
238,348,46884,1,2,0:2:0:0:
238,348,46947,1,8,0:0:0:0:
497,331,47201,37,4,3:0:0:0:
361,251,47329,1,8,0:0:0:0:
457,204,47456,1,8,3:0:0:0:
270,209,47583,69,8,0:0:0:0:
174,131,47710,2,0,L|159:186,1,52.5,10|0,3:0|2:0,0:0:0:0:
221,276,47964,70,0,P|170:302|51:86,1,391.99998803711,4|8,0:0|0:0,2:0:0:0:
59,94,49235,1,2,0:3:0:0:
125,71,49490,2,0,L|197:87,1,70,2|2,2:0|0:3,2:0:0:0:
268,56,49871,1,0,0:0:0:0:
360,141,49998,2,0,L|285:159,1,70,8|0,2:3|3:0,2:0:0:0:
291,157,50507,1,8,0:3:0:0:
370,144,50761,6,0,L|383:190,1,35,2|0,0:2|2:0,2:0:0:0:
190,100,51015,2,0,L|166:172,1,70,8|0,0:0|3:0,2:0:0:0:
227,218,51396,1,8,0:3:0:0:
350,106,51523,2,0,L|371:182,1,70,2|8,2:0|3:0,2:0:0:0:
503,250,52032,102,0,P|341:137|152:105,1,391.99998803711,4|8,0:0|0:0,2:0:0:0:
86,62,53557,1,2,2:0:0:0:
131,127,53812,1,0,2:0:0:0:
91,162,54066,1,2,1:2:0:0:
121,174,54320,2,0,L|128:214,1,35,0|8,3:0|0:3,2:0:0:0:
213,380,54574,5,4,1:1:0:0:
233,306,54829,1,2,2:0:0:0:
147,293,54956,101,2,0:2:0:0:
142,287,55019,1,2,0:2:0:0:
150,286,55083,1,8,0:0:0:0:
200,113,55337,5,0,3:0:0:0:
305,47,55464,1,8,0:0:0:0:
236,11,55591,1,0,2:0:0:0:
297,144,55718,1,8,0:0:0:0:
429,62,55846,102,0,L|488:52,1,52.5,8|0,3:0|2:0,0:0:0:0:
511,131,56100,6,0,B|348:170|298:66|112:106,1,391.99998803711,4|8,0:0|0:0,0:0:0:0:
133,111,57371,1,0,0:0:0:0:
133,111,57498,1,2,0:3:0:0:
37,67,57625,2,0,P|31:86|26:148,1,70,2|2,2:0|0:3,2:0:0:0:
82,178,58007,1,0,0:0:0:0:
211,136,58134,2,0,P|217:117|222:55,1,70,2|0,2:0|3:0,2:0:0:0:
222,67,58642,1,8,0:3:0:0:
136,119,58896,102,0,L|95:133,1,35,2|0,0:2|2:0,2:0:0:0:
229,211,59151,2,0,L|310:234,1,70,8|0,0:0|3:0,2:0:0:0:
190,297,59532,1,8,0:3:0:0:
190,297,59659,2,0,L|162:370,1,70,2|0,2:0|3:0,0:0:0:0:
165,363,60168,6,0,B|225:303|136:210|134:308|22:236|36:139|110:81|208:114|215:175|177:212,1,391.99998803711,4|8,0:0|0:0,0:0:0:0:
186,200,61693,1,2,2:0:0:0:
162,169,61947,1,0,2:0:0:0:
210,114,62201,1,2,1:2:0:0:
184,73,62456,2,0,L|192:33,1,35,0|8,3:0|0:3,2:0:0:0:
407,8,62710,102,0,L|483:20,1,70,4|2,1:2|2:0,2:0:0:0:
392,79,63091,1,8,0:3:0:0:
249,173,63218,6,0,L|178:185,1,70,8|0,0:0|3:0,2:0:0:0:
149,206,63600,1,0,2:0:0:0:
236,251,63727,1,8,0:0:0:0:
251,265,63981,101,12,0:0:0:0:
386,188,64108,1,12,0:0:0:0:
485,257,64235,6,0,P|455:261|419:274,1,62.9999980773926,4|0,1:2|2:0,2:0:0:0:
383,335,64490,2,0,B|328:324|310:358|241:336,2,125.999996154785,8|0|0,0:2|1:0|0:0,2:0:0:0:
287,268,65125,1,0,2:0:0:0:
436,190,65252,102,0,B|336:110|336:110|216:154,1,251.999992309571,10|0,0:0|3:0,0:0:0:0:
219,152,66015,1,0,0:0:0:0:
335,110,66269,6,0,L|319:181,1,62.9999980773926,2|0,0:3|2:0,2:0:0:0:
247,69,66523,2,0,B|200:54|200:54|175:53|175:53|120:35,2,125.999996154785,8|0|0,0:2|0:0|0:0,2:0:0:0:
311,37,67159,1,0,2:0:0:0:
145,119,67286,102,0,B|260:44|283:197|380:163,1,251.999992309571,10|0,0:0|3:0,0:0:0:0:
253,319,68049,5,8,0:0:0:0:
237,335,68112,1,2,0:2:0:0:
261,359,68176,1,2,0:2:0:0:
251,376,68240,1,2,0:2:0:0:
251,376,68303,102,0,P|186:378|150:310,1,125.999996154785,4|8,0:1|0:2,0:0:0:0:
110,170,68812,1,4,3:1:0:0:
110,170,69066,1,2,0:2:0:0:
89,241,69193,1,0,2:0:0:0:
199,161,69320,2,0,P|194:116|163:32,2,125.999996154785,10|0|4,0:0|0:0|3:1,2:0:0:0:
325,328,70083,2,0,L|401:349,1,62.9999980773926,0|0,1:2|2:0,2:0:0:0:
271,252,70337,6,0,P|215:269|194:342,1,125.999996154785,4|4,0:2|0:0,0:0:0:0:
245,383,70718,1,0,2:0:0:0:
111,339,70846,2,0,L|44:370,1,62.9999980773926,0|0,3:0|2:0,2:0:0:0:
107,258,71100,1,2,0:2:0:0:
41,225,71227,1,0,3:0:0:0:
20,71,71354,102,0,P|71:147|169:138,1,188.999994232178,12|0,0:0|2:0,0:0:0:0:
281,47,71862,1,12,0:0:0:0:
203,48,72117,5,12,0:0:0:0:
333,135,72244,1,12,0:0:0:0:
475,18,72371,2,0,P|440:22|389:35,1,70,4|0,0:2|2:0,0:0:0:0:
422,108,72625,2,0,P|454:118|497:138,1,70,2|0,2:0|2:0,0:0:0:0:
326,62,72879,2,0,B|260:53|248:88|183:79,1,140,12|0,0:0|3:0,0:0:0:0:
77,134,73261,1,8,0:2:0:0:
16,0,73388,101,0,0:0:0:0:
16,0,73515,2,0,P|62:-6|106:74,1,140,8|0,0:0|2:0,0:0:0:0:
286,169,73896,2,0,P|277:139|253:92,1,70,12|0,0:0|2:0,0:0:0:0:
188,112,74151,1,2,3:0:0:0:
68,156,74278,1,8,0:2:0:0:
144,216,74405,5,4,3:1:0:0:
248,276,74532,1,8,0:0:0:0:
156,352,74659,2,0,P|133:365|80:381,1,70,2|0,0:2|2:0,0:0:0:0:
323,253,74913,2,0,P|357:259|407:344,1,140,12|0,0:0|2:0,0:0:0:0:
248,276,75295,1,8,0:2:0:0:
239,192,75422,102,0,L|254:102,1,70,6|2,0:1|2:0,0:0:0:0:
340,78,75676,2,0,L|368:163,1,70,0|0,0:0|2:0,0:0:0:0:
157,265,75930,2,0,B|105:257|105:257|63:262|63:262|3:252,1,140,12|0,0:0|1:0,0:0:0:0:
155,179,76312,1,8,0:0:0:0:
312,246,76439,6,0,P|346:238|392:235,1,70,6|0,2:2|1:0,0:0:0:0:
468,183,76693,2,0,P|491:208|501:251,1,70,0|0,0:0|2:0,0:0:0:0:
365,147,76947,2,0,B|368:92|407:68|400:5,1,140,12|0,0:0|3:0,0:0:0:0:
260,174,77329,1,8,0:2:0:0:
190,15,77456,101,4,3:1:0:0:
290,82,77583,1,8,0:1:0:0:
183,156,77710,2,0,B|173:125|173:125|178:80,1,70,2|0,0:2|2:0,0:0:0:0:
374,28,77964,2,0,L|452:48,1,70,14|0,0:0|2:0,0:0:0:0:
509,132,78218,2,0,B|520:100|520:100|510:55,1,70,0|8,3:0|0:2,0:0:0:0:
222,10,78473,5,14,0:0:0:0:
119,58,78600,1,2,0:3:0:0:
142,131,78727,1,8,3:0:0:0:
267,198,78854,101,14,0:0:0:0:
386,244,78981,1,2,0:3:0:0:
366,316,79108,1,8,3:0:0:0:
256,384,79235,5,14,0:0:0:0:
256,0,79617,101,10,0:0:0:0:
333,91,79744,2,0,B|256:64|174:90,1,157.500006008148,4|0,0:0|2:0,0:0:0:0:
80,44,79998,85,8,0:0:0:0:
80,44,80252,6,0,P|74:61|70:77,1,35,12|0,0:0|2:0,0:0:0:0:
0,96,80379,2,0,P|1:117|5:130,1,35,12|0,0:0|2:0,0:0:0:0:
88,216,80507,70,0,B|174:212|167:244|253:241,1,167.999994873047,4|0,0:0|3:0,0:0:0:0:
325,310,80888,1,2,0:3:0:0:
367,164,81015,2,0,P|326:157|268:171,1,83.9999974365235,0|0,3:0|2:0,0:0:0:0:
407,370,81269,2,0,P|474:308|435:190,1,167.999994873047,14|8,1:0|0:3,0:0:0:0:
212,162,81651,1,2,2:0:0:0:
326,234,81778,1,0,3:0:0:0:
318,83,81905,1,2,1:3:0:0:
156,229,82032,5,12,0:0:0:0:
196,367,82159,1,8,0:0:0:0:
75,212,82286,101,4,3:1:0:0:
107,84,82413,1,2,0:3:0:0:
247,278,82540,6,0,B|333:269|316:320|431:301,1,167.999994873047,6|2,0:2|0:3,0:0:0:0:
479,253,82922,1,0,0:0:0:0:
271,357,83049,1,4,3:1:0:0:
375,227,83176,1,2,0:2:0:0:
170,158,83303,2,0,P|161:202|170:243,1,83.9999974365235,14|0,1:0|2:0,0:0:0:0:
385,207,83557,102,0,P|394:163|385:122,1,83.9999974365235,8|0,3:0|2:2,0:0:0:0:
210,84,83812,2,0,L|293:78,1,83.9999974365235,8|2,0:3|0:3,0:0:0:0:
240,200,84066,5,12,1:0:0:0:
128,90,84193,1,8,3:0:0:0:
386,125,84320,101,0,3:0:0:0:
241,273,84447,1,2,0:2:0:0:
64,140,84574,6,0,P|51:64|149:14,1,167.999994873047,4|0,0:0|3:0,0:0:0:0:
269,168,84956,2,0,P|282:244|184:294,1,167.999994873047,2|0,0:3|2:0,0:0:0:0:
396,262,85337,101,12,0:0:0:0:
207,218,85464,1,2,0:2:0:0:
466,317,85591,2,0,P|479:268|467:200,1,83.9999974365235,0|0,3:0|2:0,0:0:0:0:
218,297,85846,5,2,3:0:0:0:
401,229,85973,1,2,0:2:0:0:
234,384,86100,2,0,P|184:372|130:329,1,83.9999974365235,12|8,0:0|0:3,0:0:0:0:
401,229,86354,2,0,P|402:270|390:311,1,83.9999974365235,0|0,3:0|2:0,0:0:0:0:
82,299,86608,102,0,P|53:204|103:119,1,167.999994873047,6|2,0:2|0:3,0:0:0:0:
317,281,86990,1,0,0:0:0:0:
317,281,87117,2,0,P|270:306|208:297,1,83.9999974365235,8|0,0:1|0:0,0:0:0:0:
151,245,87371,1,12,0:0:0:0:
347,53,87498,2,0,P|377:131|369:213,1,167.999994873047,2|0,0:2|2:0,0:0:0:0:
398,297,87879,5,2,3:0:0:0:
282,167,88007,1,2,1:2:0:0:
287,352,88134,1,12,0:0:0:0:
379,207,88261,2,0,P|431:204|490:214,1,83.9999974365235,0|8,3:3|0:3,0:0:0:0:
165,377,88515,101,2,2:0:0:0:
165,377,88579,1,2,2:0:0:0:
165,377,88642,2,0,P|74:361|27:295,1,167.999994873047,4|2,0:0|0:3,0:0:0:0:
196,125,89023,1,2,0:2:0:0:
134,277,89151,1,0,3:0:0:0:
28,155,89278,2,0,P|73:153|135:153,1,83.9999974365235,0|12,2:0|0:0,0:0:0:0:
283,144,89532,6,0,P|211:106|211:3,1,167.999994873047,2|0,2:2|2:0,0:0:0:0:
395,105,89913,1,0,3:0:0:0:
285,57,90040,1,2,0:3:0:0:
409,193,90168,101,12,0:0:0:0:
478,41,90295,1,2,0:2:0:0:
306,159,90422,5,8,3:0:0:0:
497,241,90549,1,2,0:3:0:0:
426,345,90676,102,0,B|346:370|337:323|243:355,1,167.999994873047,6|0,0:2|3:0,0:0:0:0:
100,227,91057,1,0,2:0:0:0:
172,184,91184,2,0,P|214:188|260:224,1,83.9999974365235,4|0,0:0|2:0,0:0:0:0:
162,342,91439,1,12,0:0:0:0:
19,209,91566,6,0,P|40:129|160:114,1,167.999994873047,2|0,2:0|0:0,0:0:0:0:
331,223,91947,2,0,P|339:174|324:121,1,83.9999974365235,4|0,3:0|2:0,0:0:0:0:
85,297,92201,2,0,B|135:297|200:298,1,83.9999974365235,12|8,0:0|1:3,0:0:0:0:
247,359,92456,1,2,3:0:0:0:
247,359,92583,1,2,0:2:0:0:
392,327,92710,102,0,P|392:272|360:212,1,83.9999974365235,4|0,0:0|2:0,0:0:0:0:
167,174,92964,2,0,P|213:200|281:202,1,83.9999974365235,2|2,1:3|2:0,0:0:0:0:
412,56,93218,2,0,P|364:84|329:141,1,83.9999974365235,0|2,3:0|2:0,0:0:0:0:
325,186,93473,1,12,0:0:0:0:
98,139,93600,6,0,P|108:57|204:40,1,167.999994873047,2|2,2:0|0:3,0:0:0:0:
407,168,93981,2,0,L|314:188,1,83.9999974365235,0|0,3:2|2:0,0:0:0:0:
112,290,94235,2,0,L|211:310,1,83.9999974365235,12|0,0:0|2:0,0:0:0:0:
348,293,94490,1,2,0:2:0:0:
267,366,94617,1,0,2:0:0:0:
64,224,94744,102,0,L|55:128,1,83.9999974365235,14|0,0:0|2:0,0:0:0:0:
22,308,94998,1,2,0:3:0:0:
357,209,95125,6,0,L|366:113,1,83.9999974365235,14|0,0:0|3:0,0:0:0:0:
399,293,95379,1,2,0:3:0:0:
192,168,95507,1,14,0:0:0:0:
209,319,95634,1,2,2:0:0:0:
245,238,95761,101,12,2:1:0:0:
158,248,95888,1,12,2:1:0:0:
321,280,96015,5,12,3:0:0:0:
81,205,96142,1,12,3:0:0:0:
283,368,96269,101,12,0:0:0:0:
440,222,96396,1,8,0:3:0:0:
285,123,96523,2,0,P|282:168|285:213,1,83.9999974365235,2|0,0:2|2:0,0:0:0:0:
495,48,96778,6,0,P|452:108|341:97,1,167.999994873047,4|2,0:0|0:3,0:0:0:0:
278,43,97159,1,2,0:2:0:0:
105,91,97286,2,0,P|142:86|196:89,1,83.9999974365235,0|0,3:0|2:0,0:0:0:0:
222,278,97540,102,0,P|250:198|251:75,1,167.999994873047,12|0,0:0|3:0,0:0:0:0:
205,15,97922,1,2,0:3:0:0:
30,51,98049,2,0,P|24:101|46:162,1,83.9999974365235,4|2,3:1|2:0,0:0:0:0:
190,261,98303,5,12,0:0:0:0:
7,216,98429,1,8,0:3:0:0:
163,177,98556,1,0,3:0:0:0:
45,296,98684,1,2,0:3:0:0:
301,269,98812,102,0,P|285:200|300:92,1,167.999994873047,6|0,0:2|0:2,0:0:0:0:
368,345,99193,1,2,2:0:0:0:
502,267,99320,2,0,P|458:265|398:264,1,83.9999974365235,4|0,3:1|2:0,0:0:0:0:
246,32,99574,6,0,P|336:120|420:104,1,167.999994873047,12|0,0:0|3:0,0:0:0:0:
467,80,99956,1,8,0:3:0:0:
355,201,100083,2,0,P|311:203|239:198,1,83.9999974365235,2|0,1:3|1:0,0:0:0:0:
48,99,100337,101,12,0:0:0:0:
144,231,100464,1,12,0:3:0:0:
144,67,100591,1,0,3:0:0:0:
48,199,100718,1,2,0:2:0:0:
229,276,100846,6,0,P|138:270|71:355,1,167.999994873047,4|2,0:0|0:3,0:0:0:0:
176,366,101227,1,2,0:2:0:0:
350,295,101354,2,0,P|352:240|345:185,1,83.9999974365235,0|0,3:0|2:0,0:0:0:0:
431,219,101608,101,12,0:0:0:0:
265,96,101735,1,2,2:0:0:0:
431,16,101862,2,0,L|419:101,1,83.9999974365235,0|0,3:0|2:0,0:0:0:0:
494,152,102117,1,0,3:0:0:0:
274,183,102244,2,0,B|185:180|194:124|111:121,1,167.999994873047,2|0,0:2|2:3,0:0:0:0:
338,58,102625,2,0,P|345:98|334:139,1,83.9999974365235,0|6,1:0|0:2,0:0:0:0:
69,210,102879,6,0,P|18:126|51:39,1,167.999994873047,6|0,0:2|3:0,0:0:0:0:
197,257,103261,1,2,0:3:0:0:
197,257,103388,2,0,P|145:280|78:271,1,83.9999974365235,4|0,0:1|2:0,0:0:0:0:
10,263,103642,1,12,0:0:0:0:
205,164,103769,2,0,P|284:246|238:332,1,167.999994873047,0|8,2:0|0:3,0:0:0:0:
106,364,104151,2,0,L|126:222,1,83.9999974365235,0|0,3:0|0:0,0:0:0:0:
165,19,104405,101,12,0:0:0:0:
142,112,104533,1,0,3:0:0:0:
73,45,104659,1,2,0:3:0:0:
301,88,104786,5,2,2:0:0:0:
301,88,104850,1,2,2:0:0:0:
301,88,104913,2,0,P|403:73|450:25,1,167.999994873047,4|2,0:0|0:3,0:0:0:0:
458,228,105295,1,8,0:3:0:0:
383,187,105422,2,0,P|333:191|285:226,1,83.9999974365235,0|0,3:1|2:0,0:0:0:0:
452,342,105676,2,0,P|473:297|466:238,1,83.9999974365235,12|0,0:0|2:0,0:0:0:0:
222,208,105930,102,0,P|213:257|234:309,1,83.9999974365235,2|0,0:2|2:0,0:0:0:0:
362,272,106184,1,0,3:0:0:0:
187,368,106312,1,2,0:3:0:0:
25,191,106439,2,0,P|112:197|170:129,1,167.999994873047,12|0,0:0|3:0,0:0:0:0:
60,288,106820,1,4,0:1:0:0:
253,183,106947,6,0,P|262:135|240:75,1,83.9999974365235,6|0,0:2|2:0,0:0:0:0:
101,44,107201,2,0,L|208:32,1,83.9999974365235,0|2,3:0|2:2,0:0:0:0:
334,164,107456,1,4,3:0:0:0:
262,19,107583,1,2,0:2:0:0:
467,25,107710,2,0,P|410:89|321:77,1,167.999994873047,12|0,0:0|3:0,0:0:0:0:
496,204,108091,101,8,0:3:0:0:
496,204,108218,2,0,L|521:83,1,83.9999974365235,0|0,3:0|2:0,0:0:0:0:
405,204,108473,2,0,L|426:383,1,167.999994873047,12|2,0:0|0:3,0:0:0:0:
345,376,108854,1,0,2:0:0:0:
230,343,108981,6,0,P|182:335|137:307,1,83.9999974365235,4|0,0:0|2:0,0:0:0:0:
297,178,109235,2,0,P|313:222|311:275,1,83.9999974365235,2|0,0:3|2:0,0:0:0:0:
121,201,109490,2,0,P|150:163|197:138,1,83.9999974365235,2|0,0:2|2:0,0:0:0:0:
215,242,109744,1,12,0:0:0:0:
297,100,109871,102,0,B|377:109|388:72|467:75,1,167.999994873047,0|0,2:0|2:0,0:0:0:0:
140,80,110252,2,0,P|128:40|135:0,1,83.9999974365235,0|0,3:0|2:0,0:0:0:0:
297,178,110507,2,0,P|294:226|295:280,1,83.9999974365235,12|2,0:0|2:0,0:0:0:0:
382,326,110761,1,0,3:0:0:0:
458,247,110888,1,2,0:3:0:0:
194,228,111015,6,0,B|129:243|133:218|46:233,1,125.999996154785,6|0,0:1|2:0,0:0:0:0:
68,229,111269,1,2,0:3:0:0:
331,102,111396,2,0,B|396:117|392:92|479:107,1,125.999996154785,6|0,0:3|2:0,0:0:0:0:
457,103,111650,1,2,2:2:0:0:
287,37,111778,1,12,0:0:0:0:
382,189,111905,1,0,1:0:0:0:
268,310,112032,101,6,0:0:0:0:
303,176,112159,1,12,0:3:0:0:
299,321,112286,5,2,0:3:0:0:
272,165,112413,1,2,0:3:0:0:
394,300,112540,101,12,0:0:0:0:
169,204,112668,1,12,3:0:0:0:
382,189,112795,5,14,0:0:0:0:
152,299,112922,1,14,0:0:0:0:
463,237,113049,102,0,P|463:139|384:94,1,167.999994873047,4|2,0:1|0:3,0:0:0:0:
218,21,113430,1,8,0:3:0:0:
218,21,113557,2,0,P|208:68|223:119,1,83.9999974365235,4|0,3:0|2:0,0:0:0:0:
261,276,113812,6,0,P|337:189|422:208,1,167.999994873047,12|0,0:0|0:0,0:0:0:0:
482,364,114193,1,0,2:0:0:0:
482,364,114320,2,0,P|425:372|369:362,1,83.9999974365235,2|2,0:3|2:0,0:0:0:0:
89,248,114574,101,12,0:0:0:0:
108,347,114701,1,8,0:3:0:0:
223,271,114829,5,0,3:0:0:0:
207,143,114956,1,2,0:3:0:0:
26,114,115083,102,0,P|130:103|177:26,1,167.999994873047,6|2,0:2|0:3,0:0:0:0:
280,204,115464,1,8,0:3:0:0:
280,204,115591,2,0,P|225:207|174:202,1,83.9999974365235,4|0,0:0|2:0,0:0:0:0:
352,347,115846,6,0,P|364:237|402:123,1,167.999994873047,12|0,0:0|3:0,0:0:0:0:
339,76,116227,1,0,2:2:0:0:
465,211,116354,1,2,0:2:0:0:
440,85,116481,101,0,2:0:0:0:
249,133,116608,2,0,P|183:129|142:138,1,83.9999974365235,12|8,0:0|0:3,0:0:0:0:
77,249,116862,1,0,3:0:0:0:
48,150,116990,1,2,0:2:0:0:
287,351,117117,6,0,P|306:230|253:139,1,167.999994873047,4|2,0:0|0:3,0:0:0:0:
245,45,117498,1,2,2:0:0:0:
150,108,117625,2,0,P|200:130|250:125,1,83.9999974365235,0|0,3:0|2:0,0:0:0:0:
358,40,117879,2,0,P|330:87|287:113,1,83.9999974365235,12|0,0:0|0:0,0:0:0:0:
168,306,118134,101,8,0:3:0:0:
147,190,118261,1,2,0:2:0:0:
371,224,118388,1,0,3:0:0:0:
313,363,118515,1,0,2:0:0:0:
384,242,118642,5,12,0:0:0:0:
306,349,118769,1,2,0:2:0:0:
461,226,118896,101,2,3:0:0:0:
383,70,119023,1,0,1:0:0:0:
301,109,119151,6,0,P|400:157|467:120,1,167.999994873047,6|2,0:2|0:3,0:0:0:0:
345,0,119532,1,2,2:2:0:0:
224,32,119659,2,0,P|220:86|225:139,1,83.9999974365235,4|0,0:1|2:0,0:0:0:0:
252,323,119913,102,0,P|210:233|129:216,1,167.999994873047,12|0,0:0|3:3,0:0:0:0:
78,267,120295,1,0,0:1:0:0:
283,193,120422,1,2,0:3:0:0:
160,302,120549,1,0,0:3:0:0:
215,109,120676,5,12,0:0:0:0:
146,317,120803,1,8,0:3:0:0:
319,267,120930,101,2,0:3:0:0:
111,160,121057,1,2,0:3:0:0:
132,334,121184,6,0,B|224:321|208:373|331:355,1,167.999994873047,4|2,0:0|0:3,0:0:0:0:
407,300,121566,1,2,2:0:0:0:
302,243,121693,2,0,P|295:192|307:139,1,83.9999974365235,0|0,3:0|2:0,0:0:0:0:
483,19,121947,102,0,P|443:92|343:66,1,167.999994873047,12|8,0:0|0:3,0:0:0:0:
201,33,122329,1,0,2:0:0:0:
111,84,122456,2,0,P|106:126|114:166,1,83.9999974365235,0|0,3:0|2:0,0:0:0:0:
327,300,122710,5,12,0:0:0:0:
178,241,122837,1,2,0:3:0:0:
318,126,122964,101,0,3:0:0:0:
190,254,123091,1,2,1:3:0:0:
256,64,123218,86,0,B|205:124|256:191|256:191|307:260|256:320,1,280,4|0,1:2|0:0,0:0:0:0:
16,376,127286,6,0,L|60:364,1,24.4999992523194,0|2,0:0|0:0,0:0:0:0:
76,352,127540,2,0,L|116:364,1,24.4999992523194
174,381,127795,1,2,1:2:0:0:
512,140,128303,102,0,L|468:128,1,24.4999992523194,2|0,0:0|0:0,0:0:0:0:
452,116,128557,2,0,L|412:128,1,24.4999992523194
354,145,128812,1,2,1:2:0:0:
304,128,128939,1,0,0:0:0:0:
271,156,129066,1,0,0:0:0:0:
236,144,129193,1,0,0:0:0:0:
160,108,129320,6,0,L|152:76,1,24.4999992523194,2|0,0:0|0:0,0:0:0:0:
108,72,129574,2,0,L|120:28,1,24.4999992523194
48,8,129829,1,2,1:2:0:0:
352,276,130337,102,0,L|360:308,1,24.4999992523194,0|2,0:0|0:3,0:0:0:0:
404,312,130591,2,0,L|392:356,1,24.4999992523194,2|0,0:0|0:0,0:0:0:0:
464,376,130846,1,2,1:2:0:0:
256,192,131354,5,2,0:0:0:0:
264,184,131481,1,0,0:0:0:0:
280,196,131608,1,0,0:0:0:0:
260,216,131735,1,0,0:0:0:0:
216,212,131862,1,0,0:0:0:0:
156,232,131990,1,0,0:0:0:0:
96,280,132117,1,0,0:0:0:0:
60,364,132244,1,0,0:0:0:0:
208,296,132371,102,0,B|188:216|128:232|104:136,1,171.499994766236,8|0,0:1|0:0,0:0:0:0:
152,48,133388,5,2,0:0:0:0:
164,56,133515,1,0,0:0:0:0:
148,68,133642,1,0,0:0:0:0:
124,48,133769,1,0,0:0:0:0:
160,24,133896,1,0,0:0:0:0:
224,28,134023,1,0,0:0:0:0:
280,80,134151,1,0,0:0:0:0:
354,121,134278,1,0,0:0:0:0:
465,126,134405,102,0,P|393:138|313:198,1,171.499994766236,4|0,0:2|0:0,0:0:0:0:
264,308,135422,5,2,0:0:0:0:
264,308,135676,2,0,L|280:348,1,31.4999990386963
168,260,135930,2,0,L|88:280,1,62.9999980773926,2|0,0:2|0:0,0:0:0:0:
243,161,136439,2,0,L|263:29,1,125.999996154785,2|0,0:0|0:0,0:0:0:0:
296,42,137074,1,0,0:0:0:0:
364,76,137201,2,0,L|376:40,1,31.4999990386963
168,72,137456,101,2,1:3:0:0:
168,72,137710,2,0,L|172:103,1,31.4999990386963,2|0,0:0|0:0,0:0:0:0:
319,209,137964,5,0,1:2:0:0:
319,209,138218,2,0,L|329:154,1,31.4999990386963,2|0,0:0|0:0,0:0:0:0:
219,284,138473,101,0,1:0:0:0:
219,284,138727,2,0,L|232:348,2,62.9999980773926,2|0|2,0:2|0:0|0:0,0:0:0:0:
360,312,139490,6,0,L|408:296,1,31.4999990386963,2|0,1:3|0:0,0:0:0:0:
296,248,139744,1,2,0:0:0:0:
360,216,139871,2,0,L|376:148,1,62.9999980773926,0|0,1:0|0:0,0:0:0:0:
452,88,140252,2,0,L|531:113,2,62.9999980773926,0|2|0,1:0|0:0|1:0,0:0:0:0:
242,8,141015,101,2,0:0:0:0:
224,76,141142,1,2,1:2:0:0:
275,27,141269,1,2,0:0:0:0:
250,94,141396,1,0,0:0:0:0:
124,136,141523,5,2,1:3:0:0:
60,96,141778,2,0,L|100:108,1,31.4999990386963,2|2,0:0|0:0,0:0:0:0:
228,200,142032,101,0,1:0:0:0:
136,264,142286,2,0,L|172:252,1,31.4999990386963,2|0,0:0|0:0,0:0:0:0:
368,176,142540,5,0,1:0:0:0:
272,80,142795,2,0,L|324:96,1,31.4999990386963,2|0,0:0|0:0,0:0:0:0:
451,262,143049,101,2,1:2:0:0:
451,262,143176,1,2,0:0:0:0:
451,262,143303,2,0,L|491:272,1,31.4999990386963
418,232,143557,5,2,0:0:0:0:
347,219,143684,1,0,0:0:0:0:
269,250,143812,1,0,0:0:0:0:
187,275,143939,1,0,0:0:0:0:
99,247,144066,1,2,1:2:0:0:
99,247,144193,1,2,0:0:0:0:
19,205,144320,102,0,P|38:196|72:178,1,41.9999987182618
75,321,144574,2,0,P|58:308|33:295,1,41.9999987182618,2|0,0:0|0:0,0:0:0:0:
150,216,144829,2,0,P|148:259|156:312,2,83.9999974365235,0|0|2,0:0|1:0|0:0,0:0:0:0:
216,180,145464,1,0,0:0:0:0:
356,200,145591,2,0,P|366:159|363:106,1,83.9999974365235,2|0,1:3|0:0,0:0:0:0:
427,78,145973,1,0,0:0:0:0:
331,21,146100,2,0,L|312:64,1,41.9999987182618,0|0,1:0|0:0,0:0:0:0:
257,116,146354,1,0,0:0:0:0:
329,87,146481,1,2,0:0:0:0:
231,47,146608,6,0,B|194:47|182:69|132:68,1,83.9999974365235,0|0,1:0|0:0,0:0:0:0:
54,150,146990,1,0,0:0:0:0:
129,137,147117,2,0,P|149:142|176:155,1,41.9999987182618,2|0,1:3|0:0,0:0:0:0:
313,239,147371,2,0,P|307:218|295:192,1,41.9999987182618,2|0,0:2|0:0,0:0:0:0:
228,87,147625,101,0,1:0:0:0:
290,119,147752,1,2,0:0:0:0:
208,170,147879,1,0,0:0:0:0:
234,240,148007,1,2,0:0:0:0:
152,324,148134,1,2,1:3:0:0:
152,324,148261,1,0,0:0:0:0:
152,324,148388,2,0,P|129:316|104:297,1,41.9999987182618,2|0,0:0|0:0,0:0:0:0:
0,193,148642,6,0,P|32:166|86:184,1,83.9999974365235,0|0,1:0|0:0,2:0:0:0:
128,212,149023,1,2,0:0:0:0:
128,212,149151,1,2,1:3:0:0:
174,228,149278,1,2,0:3:0:0:
247,204,149405,1,2,0:0:0:0:
324,176,149532,1,2,0:0:0:0:
488,214,149659,101,12,0:0:0:0:
312,56,149913,5,8,3:0:0:0:
448,128,150040,1,12,0:0:0:0:
247,204,150168,101,0,3:0:0:0:
224,184,150422,2,0,B|209:139|221:77,1,94.499997116089,12|0,0:0|2:0,0:0:0:0:
248,4,150676,5,8,0:0:0:0:
252,332,150930,101,0,3:0:0:0:
172,272,151057,53,8,0:0:0:0:
304,224,151184,1,2,2:0:0:0:
456,268,151312,53,12,0:0:0:0:
352,156,151439,2,0,L|365:105,1,52.5,8|0,3:0|0:0,0:0:0:0:
436,184,151693,86,0,B|356:240|232:152|312:124|172:16|92:76,1,391.99998803711,4|8,0:0|0:0,2:0:0:0:
76,189,152964,2,0,P|106:187|145:181,1,48.9999985046387,2|0,0:3|0:0,2:0:0:0:
188,247,153218,2,0,P|190:277|196:316,1,48.9999985046387,2|0,2:0|2:0,0:0:0:0:
131,349,153473,1,0,0:0:0:0:
131,349,153600,1,0,2:0:0:0:
277,259,153727,6,0,B|287:210|256:212|274:157,2,97.9999970092774,2|0|0,1:2|3:0|3:0,2:0:0:0:
442,320,154490,1,2,0:2:0:0:
442,320,154617,1,0,2:0:0:0:
403,254,154744,2,0,P|374:251|338:252,1,48.9999985046387,8|0,0:0|2:0,2:0:0:0:
500,209,154998,1,0,3:0:0:0:
441,161,155125,2,0,P|440:126|442:97,1,48.9999985046387,8|2,0:3|0:3,2:0:0:0:
362,15,155379,1,2,2:0:0:0:
322,82,155506,2,0,P|323:117|321:146,1,48.9999985046387,0|0,3:0|2:0,0:0:0:0:
175,299,155761,102,0,B|114:274|114:223|119:179|160:160|186:156|186:156|223:152|258:182|258:182|314:227|385:190,1,391.99998803711,4|8,0:0|0:0,0:0:0:0:
199,229,157032,1,2,2:0:0:0:
154,73,157286,1,0,2:0:0:0:
34,169,157540,1,2,0:2:0:0:
322,130,157795,6,0,P|333:81|319:17,1,97.9999970092774,2|0,1:2|3:0,2:0:0:0:
155,166,158303,2,0,P|214:168|271:174,1,97.9999970092774,4|2,1:0|1:3,2:0:0:0:
344,243,158812,1,8,0:0:0:0:
234,287,159066,101,0,3:0:0:0:
360,236,159193,1,8,0:0:0:0:
218,294,159447,5,8,0:0:0:0:
399,351,159574,1,0,3:0:0:0:
410,171,159701,1,2,0:2:0:0:
270,218,159829,102,0,P|268:153|389:98,1,195.999994018555,4|2,0:0|0:3,2:0:0:0:
494,76,160591,1,0,2:0:0:0:
372,16,160846,2,0,P|321:16|245:21,1,97.9999970092774,8|2,0:0|0:3,2:0:0:0:
203,66,161227,1,8,1:3:0:0:
203,66,161354,2,0,P|154:68|105:68,1,97.9999970092774,2|0,2:0|2:2,0:0:0:0:
5,124,161862,5,4,1:0:0:0:
5,232,162116,1,0,3:0:0:0:
108,266,162371,1,0,3:0:0:0:
171,178,162625,1,0,2:0:0:0:
273,357,162879,101,8,0:0:0:0:
209,242,163134,1,0,3:0:0:0:
205,271,163261,1,8,0:3:0:0:
330,201,163515,1,2,0:2:0:0:
323,162,163642,1,8,3:0:0:0:
316,123,163769,1,0,2:0:0:0:
247,77,163896,6,0,P|336:81|448:70,1,195.999994018555,4|2,0:0|0:3,2:0:0:0:
477,224,164659,1,2,0:2:0:0:
394,174,164913,2,0,P|352:173|289:173,1,97.9999970092774,8|0,0:0|2:0,2:0:0:0:
374,335,165422,2,0,P|416:334|479:334,1,97.9999970092774,4|0,0:0|2:0,0:0:0:0:
209,372,165930,101,2,0:2:0:0:
129,272,166184,1,0,3:0:0:0:
226,189,166439,1,6,3:2:0:0:
306,289,166693,1,2,0:2:0:0:
10,182,166947,5,8,0:0:0:0:
136,164,167201,1,0,3:0:0:0:
29,179,167456,1,8,0:0:0:0:
155,161,167710,1,12,0:0:0:0:
53,105,167837,1,12,0:0:0:0:
236,136,167964,102,0,P|237:72|164:26,1,112,4|0,0:2|0:2,0:0:0:0:
307,208,168346,1,0,2:0:0:0:
307,208,168473,2,0,P|336:204|384:208,1,56,0|2,0:0|2:0,0:0:0:0:
369,307,168727,2,0,P|340:311|292:307,1,56,0|0,0:0|2:0,0:0:0:0:
124,339,168981,6,0,B|180:338|175:361|249:358,1,112,10|0,0:0|3:0,0:0:0:0:
52,228,169362,1,0,2:0:0:0:
52,228,169490,2,0,P|48:266|55:300,1,56,4|0,0:0|2:0,0:0:0:0:
220,210,169744,2,0,P|224:172|217:138,1,56,8|0,1:3|2:0,0:0:0:0:
63,85,169998,102,0,P|139:79|179:42,1,112,0|8,3:0|1:3,0:0:0:0:
392,129,170507,2,0,P|316:123|276:86,1,112,4|0,0:0|3:0,0:0:0:0:
488,55,170888,1,2,2:0:0:0:
488,55,171015,2,0,L|485:140,1,56,10|0,0:0|2:0,0:0:0:0:
418,265,171269,2,0,L|416:209,1,56,4|0,0:0|2:0,0:0:0:0:
478,322,171523,1,4,3:0:0:0:
179,300,171778,1,8,0:2:0:0:
258,328,172032,6,0,L|247:182,1,112,4|0,0:0|0:0,0:0:0:0:
220,22,172540,1,4,3:1:0:0:
297,67,172795,2,0,P|261:112|220:137,1,56,0|0,3:0|2:0,2:0:0:0:
167,202,173049,102,0,P|116:145|119:59,1,112,8|0,1:0|0:0,0:0:0:0:
28,102,173430,1,0,2:0:0:0:
28,102,173557,2,0,P|24:135|26:167,1,56,4|2,0:1|2:0,0:0:0:0:
176,214,173812,2,0,P|180:181|178:149,1,56,8|0,0:0|2:0,0:0:0:0:
3,273,174066,5,6,0:2:0:0:
114,263,174320,1,4,3:0:0:0:
177,355,174574,1,4,3:1:0:0:
447,188,174829,1,0,3:0:0:0:
375,199,174956,1,2,0:2:0:0:
311,163,175083,2,0,P|310:122|315:93,1,56,12|0,0:0|2:0,0:0:0:0:
435,108,175337,101,0,3:0:0:0:
311,238,175464,1,2,0:2:0:0:
217,117,175591,2,0,P|212:75|213:33,1,56,14|0,0:0|2:0,0:0:0:0:
351,301,175846,5,12,0:0:0:0:
239,192,175973,1,12,0:0:0:0:
474,219,176100,2,0,P|484:302|444:371,1,140,4|0,0:2|2:0,0:0:0:0:
303,378,176481,1,2,0:2:0:0:
303,378,176608,2,0,P|348:381|405:371,1,70,12|0,0:0|2:0,0:0:0:0:
222,320,176862,2,0,P|177:317|120:327,1,70,0|0,3:0|0:0,0:0:0:0:
92,367,177117,101,2,0:3:0:0:
298,296,177244,2,0,P|261:218|175:224,1,140,8|0,0:2|2:0,0:0:0:0:
80,185,177625,2,0,P|136:173|166:148,1,70,12|0,0:0|0:0,0:0:0:0:
151,251,177879,1,0,3:0:0:0:
90,108,178007,1,8,0:3:0:0:
294,126,178134,6,0,P|296:84|291:25,1,70,4|8,0:1|0:0,0:0:0:0:
381,200,178388,2,0,P|379:242|384:301,1,70,2|0,0:3|2:0,0:0:0:0:
507,332,178642,2,0,B|450:323|434:373|357:365,1,140,12|2,0:0|0:2,0:0:0:0:
301,355,179023,1,8,0:2:0:0:
142,292,179151,102,0,P|122:206|158:146,1,140,6|0,0:0|0:2,0:0:0:0:
245,167,179532,2,0,P|265:253|229:313,1,140,2|0,0:2|2:0,0:0:0:0:
60,296,179913,1,2,0:3:0:0:
194,230,180040,1,8,0:3:0:0:
332,166,180168,6,0,P|376:167|434:171,1,70,6|0,0:2|2:0,0:0:0:0:
263,92,180422,2,0,P|219:91|161:87,1,70,0|0,3:0|2:0,0:0:0:0:
464,219,180676,2,0,P|504:132|468:49,1,140,12|0,0:0|3:0,0:0:0:0:
444,30,181057,1,8,0:2:0:0:
320,195,181184,101,6,0:0:0:0:
290,99,181312,1,8,0:0:0:0:
91,268,181439,5,0,3:0:0:0:
112,152,181566,1,2,0:2:0:0:
372,310,181693,101,12,0:0:0:0:
411,142,181820,1,10,0:3:0:0:
236,321,181947,5,10,0:1:0:0:
195,116,182074,1,10,0:1:0:0:
256,192,182201,12,0,183473,0:0:0:0:
279,147,183727,69,6,0:3:0:0:
232,236,183854,1,2,0:3:0:0:
192,161,183981,5,2,2:0:0:0:
319,222,184108,1,2,2:0:0:0:
23,279,184235,70,0,P|50:229|152:238,1,167.999994873047,4|0,0:0|3:0,0:0:0:0:
332,328,184617,1,2,0:3:0:0:
224,384,184744,2,0,P|236:341|244:289,1,83.9999974365235,0|0,3:0|2:0,0:0:0:0:
476,132,184998,2,0,P|413:128|348:112,1,125.999996154785,14|0,1:0|2:2,0:0:0:0:
352,113,185252,2,0,P|352:153|360:216,1,83.9999974365235,8|2,0:3|2:0,0:0:0:0:
120,372,185507,1,2,0:3:0:0:
176,256,185634,1,0,0:0:0:0:
468,284,185761,5,12,0:0:0:0:
316,376,185888,1,8,0:0:0:0:
267,206,186015,1,4,3:1:0:0:
352,284,186142,1,2,0:3:0:0:
208,344,186269,102,0,B|140:326|119:379|36:355,1,167.999994873047,6|2,0:2|0:3,0:0:0:0:
267,206,186651,1,0,0:0:0:0:
168,178,186778,2,0,B|165:217|165:217|186:263,1,83.9999974365235,4|2,3:1|0:2,0:0:0:0:
329,124,187032,2,0,B|288:105|288:105|249:108,1,83.9999974365235,14|0,1:0|2:0,0:0:0:0:
315,297,187286,2,0,B|349:267|349:267|362:231,1,83.9999974365235,8|0,3:0|2:2,0:0:0:0:
150,94,187540,2,0,L|50:120,1,83.9999974365235,8|2,0:3|0:3,0:0:0:0:
275,221,187795,5,12,1:0:0:0:
459,162,187922,1,8,3:0:0:0:
339,131,188049,101,0,3:0:0:0:
383,263,188176,1,2,0:2:0:0:
434,74,188303,6,0,P|388:30|283:48,1,167.999994873047,4|0,0:0|3:0,0:0:0:0:
147,212,188684,1,2,0:3:0:0:
234,267,188812,2,0,P|251:193|248:117,1,125.999996154785,0|0,0:0|2:0,0:0:0:0:
251,143,189066,2,0,P|282:139|345:115,1,83.9999974365235,12|2,0:0|0:2,0:0:0:0:
512,338,189320,2,0,P|470:323|427:320,1,83.9999974365235,0|0,3:0|2:0,0:0:0:0:
201,368,189574,101,2,3:0:0:0:
351,270,189701,1,2,0:2:0:0:
184,140,189829,2,0,B|158:172|158:172|152:216,1,83.9999974365235,12|8,0:0|0:3,0:0:0:0:
334,351,190083,2,0,P|376:341|423:338,1,83.9999974365235,0|0,3:0|0:0,0:0:0:0:
161,292,190337,6,0,B|90:287|90:333|-17:311,1,167.999994873047,6|2,0:2|0:3,0:0:0:0:
256,192,190718,1,0,0:0:0:0:
100,112,190846,2,0,P|39:125|25:235,1,167.999994873047,4|12,0:1|0:0,0:0:0:0:
192,384,191227,1,2,0:2:0:0:
343,216,191354,102,0,P|336:174|322:121,1,83.9999974365235,6|0,0:2|2:0,0:0:0:0:
227,215,191608,1,2,0:3:0:0:
341,334,191735,1,0,3:0:0:0:
501,213,191862,2,0,P|487:133|403:112,1,167.999994873047,12|0,0:0|3:3,0:0:0:0:
461,301,192244,1,2,0:2:0:0:
314,201,192371,6,0,B|255:192|255:192|203:203|203:203|140:192,1,167.999994873047,4|2,0:0|0:3,0:0:0:0:
389,144,192752,1,2,0:2:0:0:
287,101,192879,1,0,3:0:0:0:
393,239,193007,1,0,2:0:0:0:
489,96,193134,2,0,P|504:55|490:-10,1,83.9999974365235,12|2,0:0|2:2,0:0:0:0:
275,17,193388,102,0,L|378:40,1,83.9999974365235,0|0,0:0|2:0,0:0:0:0:
182,163,193642,2,0,L|159:60,1,83.9999974365235,0|2,3:0|0:3,0:0:0:0:
367,156,193896,2,0,L|295:210,1,83.9999974365235,12|2,0:0|0:2,0:0:0:0:
275,113,194151,5,8,3:0:0:0:
171,266,194278,1,2,0:3:0:0:
300,328,194405,2,0,P|378:335|418:250,1,167.999994873047,6|0,0:2|3:0,0:0:0:0:
512,215,194786,1,0,2:0:0:0:
420,112,194913,2,0,P|381:125|325:137,1,83.9999974365235,4|0,0:0|2:0,0:0:0:0:
61,115,195168,101,12,0:0:0:0:
61,115,195295,2,0,P|121:94|167:193,1,167.999994873047,2|0,2:0|2:0,0:0:0:0:
304,241,195676,2,0,L|390:262,1,83.9999974365235,4|0,3:0|2:0,0:0:0:0:
144,380,195930,5,12,0:0:0:0:
301,318,196057,1,8,1:3:0:0:
148,283,196184,101,2,3:0:0:0:
37,238,196312,1,2,0:2:0:0:
263,174,196439,6,0,P|286:136|282:45,1,125.999996154785,4|0,0:0|2:0,0:0:0:0:
286,56,196693,2,0,P|320:49|374:22,1,83.9999974365235,2|2,1:3|2:0,0:0:0:0:
166,156,196947,2,0,P|144:168|74:180,1,83.9999974365235,0|2,3:0|2:0,0:0:0:0:
400,118,197201,101,12,0:0:0:0:
272,216,197329,2,0,P|272:175|307:128,1,83.9999974365235,2|0,2:0|0:0,0:0:0:0:
381,246,197583,1,2,0:3:0:0:
192,290,197710,2,0,B|140:280|111:321|50:316,1,125.999996154785,0|0,3:2|2:0,0:0:0:0:
0,280,197964,5,12,0:0:0:0:
134,214,198091,1,8,0:3:0:0:
231,228,198218,101,0,3:2:0:0:
320,306,198346,1,2,2:0:0:0:
199,152,198473,6,0,P|186:114|186:65,1,83.9999974365235,14|0,0:0|2:0,0:0:0:0:
263,13,198727,1,2,0:3:0:0:
115,184,198854,102,0,P|86:207|39:225,1,83.9999974365235,14|0,0:0|3:0,0:0:0:0:
0,131,199108,1,2,0:3:0:0:
245,223,199235,6,0,P|289:228|362:300,1,125.999996154785,14|0,0:0|2:0,0:0:0:0:
441,344,199490,101,12,2:1:0:0:
348,119,199617,1,12,2:1:0:0:
498,179,199744,5,12,3:0:0:0:
402,219,199871,1,12,3:0:0:0:
238,214,199998,101,12,0:0:0:0:
301,348,200125,1,8,0:3:0:0:
490,286,200252,5,2,0:2:0:0:
451,355,200379,1,2,2:0:0:0:
498,179,200507,2,0,P|461:111|357:114,1,167.999994873047,4|2,0:0|0:3,0:0:0:0:
310,61,200888,1,2,0:2:0:0:
352,296,201015,2,0,P|361:269|364:205,1,83.9999974365235,0|0,3:0|2:0,0:0:0:0:
176,104,201269,2,0,B|125:101|110:132|51:125,1,125.999996154785,12|0,0:0|2:0,0:0:0:0:
53,125,201523,2,0,P|26:92|14:52,1,83.9999974365235,0|2,0:0|2:3,0:0:0:0:
150,249,201778,2,0,L|124:345,1,83.9999974365235,4|2,3:1|2:0,0:0:0:0:
137,147,202032,101,12,0:0:0:0:
44,263,202159,1,8,0:3:0:0:
220,202,202286,5,0,3:0:0:0:
264,348,202413,1,2,0:3:0:0:
509,276,202540,102,0,P|464:213|375:224,1,167.999994873047,6|0,0:2|0:2,0:0:0:0:
343,149,202922,1,2,2:0:0:0:
119,28,203049,2,0,B|169:34|184:62|248:62,1,125.999996154785,4|0,3:1|2:0,0:0:0:0:
239,61,203303,2,0,L|219:155,1,83.9999974365235,12|0,0:0|0:0,0:0:0:0:
327,316,203557,1,0,3:0:0:0:
302,243,203684,1,8,0:3:0:0:
253,304,203812,1,2,1:3:0:0:
375,258,203939,1,0,1:0:0:0:
174,238,204066,5,12,0:0:0:0:
216,378,204193,1,12,0:3:0:0:
253,304,204320,101,0,3:0:0:0:
87,242,204447,1,2,0:2:0:0:
225,115,204574,6,0,B|304:119|299:166|389:164,1,167.999994873047,4|2,0:0|0:3,0:0:0:0:
447,210,204956,1,2,0:2:0:0:
305,314,205083,1,0,3:0:0:0:
182,188,205210,1,2,0:2:0:0:
204,273,205337,102,0,P|241:254|272:213,1,83.9999974365235,12|2,0:0|2:0,0:0:0:0:
357,381,205591,2,0,P|355:339|331:294,1,83.9999974365235,0|0,3:0|2:0,0:0:0:0:
401,250,205846,2,0,P|374:282|337:301,1,83.9999974365235,0|2,3:0|0:2,0:0:0:0:
512,113,206100,2,0,P|510:71|486:26,1,83.9999974365235,12|2,0:0|0:3,0:0:0:0:
376,165,206354,6,0,P|416:170|470:188,1,83.9999974365235,0|0,3:0|2:0,0:0:0:0:
225,0,206608,2,0,P|205:35|190:166,1,167.999994873047,6|0,0:2|3:0,0:0:0:0:
85,259,206990,1,2,0:3:0:0:
202,324,207117,2,0,P|197:284|173:245,1,83.9999974365235,4|0,0:1|2:0,0:0:0:0:
28,197,207371,2,0,P|6:232|0:274,1,83.9999974365235,12|0,0:0|2:0,0:0:0:0:
277,374,207625,2,0,P|320:370|360:345,1,83.9999974365235,6|8,0:2|0:3,0:0:0:0:
201,172,207879,2,0,P|177:204|179:259,1,83.9999974365235,0|0,3:0|0:0,0:0:0:0:
435,375,208134,101,12,0:0:0:0:
347,234,208261,1,0,3:0:0:0:
355,350,208388,5,8,0:3:0:0:
489,301,208515,1,2,2:0:0:0:
258,372,208642,102,0,P|205:382|97:299,1,167.999994873047,4|2,0:0|0:3,0:0:0:0:
46,227,209023,1,8,0:3:0:0:
237,71,209151,2,0,P|245:109|222:160,1,83.9999974365235,0|0,3:1|2:0,0:0:0:0:
233,230,209405,2,0,P|219:191|234:146,1,83.9999974365235,12|0,0:0|2:0,0:0:0:0:
133,57,209659,6,0,P|95:73|46:84,1,83.9999974365235,2|0,0:2|2:0,0:0:0:0:
316,188,209913,2,0,P|356:200|404:207,1,83.9999974365235,0|0,3:0|2:0,0:0:0:0:
178,360,210168,2,0,P|122:349|125:234,1,167.999994873047,12|0,0:0|3:0,0:0:0:0:
161,135,210549,1,0,2:2:0:0:
227,9,210676,102,0,P|235:44|231:184,1,167.999994873047,6|0,0:2|3:0,0:0:0:0:
208,242,211057,1,2,2:2:0:0:
158,343,211184,1,4,3:0:0:0:
279,274,211312,1,2,0:2:0:0:
448,378,211439,5,12,0:0:0:0:
357,265,211566,1,2,2:0:0:0:
492,201,211693,2,0,P|504:246|512:295,1,83.9999974365235,0|8,3:0|0:3,0:0:0:0:
510,282,211947,2,0,P|470:290|420:306,1,83.9999974365235,0|0,3:0|2:0,0:0:0:0:
176,181,212201,2,0,P|191:119|290:110,1,167.999994873047,12|2,0:0|0:3,0:0:0:0:
392,195,212583,1,8,1:0:0:0:
187,320,212710,102,0,P|161:339|86:351,1,83.9999974365235,4|0,0:0|2:0,0:0:0:0:
294,179,212964,2,0,P|310:212|310:284,1,83.9999974365235,2|0,0:3|2:0,0:0:0:0:
405,365,213218,2,0,P|443:368|507:311,1,125.999996154785,2|0,0:2|2:0,0:0:0:0:
506,313,213473,2,0,P|512:287|522:216,1,83.9999974365235,12|0,0:0|2:0,0:0:0:0:
389,36,213727,5,2,0:3:0:0:
426,166,213854,1,0,2:0:0:0:
457,59,213981,1,0,3:0:0:0:
347,146,214108,1,2,2:0:0:0:
272,320,214235,101,12,0:0:0:0:
170,134,214362,1,8,0:0:0:0:
141,230,214490,5,0,3:0:0:0:
264,148,214617,1,2,0:3:0:0:
132,48,214744,2,0,P|55:44|33:126,1,167.999994873047,6|2,0:1|0:3,0:0:0:0:
61,190,215125,1,10,0:3:0:0:
181,325,215252,2,0,P|164:297|162:245,1,83.9999974365235,0|2,0:0|2:2,0:0:0:0:
289,111,215507,2,0,P|330:121|382:130,1,83.9999974365235,12|0,0:0|1:0,0:0:0:0:
455,206,215761,102,0,P|417:222|382:251,1,83.9999974365235,6|12,0:0|0:3,0:0:0:0:
351,10,216015,2,0,P|385:31|456:50,1,83.9999974365235,2|2,0:3|0:3,0:0:0:0:
194,152,216269,2,0,B|125:139|96:187|13:157,1,167.999994873047,12|14,0:0|0:0,0:0:0:0:
227,67,216651,1,14,0:0:0:0:
339,251,216778,6,0,P|431:234|450:167,1,167.999994873047,4|2,0:1|0:3,0:0:0:0:
341,356,217159,1,8,0:3:0:0:
424,285,217286,2,0,P|446:321|441:384,1,83.9999974365235,4|0,3:0|2:0,0:0:0:0:
257,213,217540,2,0,P|268:173|279:115,1,83.9999974365235,12|0,0:0|0:0,0:0:0:0:
441,192,217795,102,0,P|402:180|355:176,1,83.9999974365235,2|0,0:2|2:0,0:0:0:0:
158,306,218049,2,0,P|197:294|244:290,1,83.9999974365235,2|2,0:3|2:0,0:0:0:0:
438,366,218303,5,12,0:0:0:0:
296,226,218430,1,8,0:3:0:0:
413,275,218557,1,0,3:0:0:0:
279,366,218684,1,2,0:3:0:0:
121,214,218812,2,0,B|127:157|161:145|164:65,1,125.999996154785,6|0,0:2|2:0,0:0:0:0:
161,95,219066,2,0,P|120:87|75:72,1,83.9999974365235,2|8,0:3|0:3,0:0:0:0:
249,184,219320,102,0,P|287:179|328:152,1,83.9999974365235,4|0,0:0|2:0,0:0:0:0:
82,289,219574,2,0,P|141:359|215:345,1,167.999994873047,12|0,0:0|3:0,0:0:0:0:
329,263,219956,1,0,2:2:0:0:
223,211,220083,1,2,0:2:0:0:
319,363,220210,1,0,2:0:0:0:
464,230,220337,2,0,P|477:193|477:135,1,83.9999974365235,12|8,0:0|0:3,0:0:0:0:
431,311,220591,6,0,P|470:343|530:340,1,83.9999974365235,0|2,3:0|0:2,0:0:0:0:
291,146,220846,2,0,P|240:142|186:248,1,167.999994873047,4|2,0:0|0:3,0:0:0:0:
296,348,221227,1,2,2:0:0:0:
452,193,221354,2,0,B|465:154|465:154|459:106,1,83.9999974365235,0|0,3:0|2:0,0:0:0:0:
207,2,221608,102,0,P|245:12|305:19,1,83.9999974365235,12|0,0:0|2:0,0:0:0:0:
126,132,221862,2,0,P|125:89|111:41,1,83.9999974365235,8|2,0:3|0:2,0:0:0:0:
297,133,222117,2,0,P|259:151|227:178,1,83.9999974365235,0|0,3:0|2:0,0:0:0:0:
114,49,222371,5,12,0:0:0:0:
289,18,222498,1,2,0:2:0:0:
303,141,222625,101,2,3:0:0:0:
167,105,222752,1,0,1:0:0:0:
20,239,222879,6,0,P|51:230|155:221,1,125.999996154785,6|0,0:2|2:0,0:0:0:0:
143,220,223134,2,0,P|172:250|222:264,1,83.9999974365235,2|2,0:3|2:2,0:0:0:0:
43,129,223388,2,0,P|13:100|-1:50,1,83.9999974365235,4|0,0:1|2:0,0:0:0:0:
295,170,223642,102,0,P|338:162|376:134,1,83.9999974365235,12|0,0:0|0:0,0:0:0:0:
177,344,223896,2,0,B|173:271|221:263|208:172,1,167.999994873047,8|4,0:3|0:3,0:0:0:0:
358,352,224278,1,2,0:3:0:0:
308,235,224405,5,12,0:0:0:0:
240,384,224532,1,8,0:3:0:0:
401,252,224659,101,2,0:3:0:0:
448,373,224786,1,2,0:3:0:0:
227,308,224913,6,0,B|175:300|175:300|134:308|134:308|44:289,1,167.999994873047,4|2,0:0|0:3,0:0:0:0:
0,243,225295,1,2,2:0:0:0:
62,159,225422,2,0,L|159:134,1,83.9999974365235,0|0,3:0|2:0,0:0:0:0:
367,172,225676,102,0,B|400:135|383:84,1,83.9999974365235,12|0,0:0|0:0,0:0:0:0:
216,183,225930,1,8,0:3:0:0:
342,247,226057,1,12,0:3:0:0:
173,66,226184,2,0,P|146:98|151:156,1,83.9999974365235,0|0,3:0|2:0,0:0:0:0:
83,307,226439,5,12,0:0:0:0:
246,255,226566,1,2,0:3:0:0:
403,171,226693,101,0,3:0:0:0:
285,123,226820,1,2,1:3:0:0:
361,6,226947,6,0,P|483:34|496:150,1,256.666666666667,4|0,1:2|0:0,0:0:0:0:
414,194,227964,53,12,0:0:0:0:
347,217,228049,101,8,0:0:0:0:
295,197,228134,101,8,0:0:0:0:
265,163,228218,101,8,0:0:0:0:
218,138,228303,37,8,0:0:0:0:
172,145,228388,101,8,0:0:0:0:
97,190,228473,102,0,L|61:202,5,23.3333333333333,8|8|8|8|8|0,3:0|3:0|3:0|3:0|3:0|3:0,0:0:0:0:
185,247,228981,102,0,P|201:206|190:146,1,83.9999974365235,4|0,1:0|0:0,0:0:0:0:
69,99,229235,2,0,P|128:93|172:109,1,83.9999974365235,0|0,1:0|0:0,0:0:0:0:
311,93,229490,1,0,3:0:0:0:
162,21,229617,1,2,1:3:0:0:
282,175,229744,6,0,B|359:192|358:144|455:159,1,167.999994873047,14|2,1:0|3:0,0:0:0:0:
412,233,230125,1,2,0:0:0:0:
239,48,230252,2,0,P|223:86|228:128,1,83.9999974365235,0|0,1:0|0:0,0:0:0:0:
253,305,230507,2,0,P|219:234|110:234,1,167.999994873047,14|0,1:0|3:0,0:0:0:0:
69,268,230888,1,0,0:0:0:0:
295,202,231015,102,0,P|343:199|404:201,1,83.9999974365235,6|0,1:0|0:0,0:0:0:0:
452,349,231269,2,0,P|448:291|453:225,1,83.9999974365235,0|0,3:0|1:0,0:0:0:0:
464,186,231523,1,4,1:0:0:0:
325,281,231651,1,2,0:0:0:0:
219,148,231778,6,0,P|272:63|366:75,1,167.999994873047,14|0,1:0|3:0,0:0:0:0:
496,45,232159,1,2,0:0:0:0:
496,45,232286,2,0,P|501:90|487:152,1,83.9999974365235,0|0,3:0|0:0,0:0:0:0:
384,235,232540,101,14,1:0:0:0:
271,203,232667,1,8,3:0:0:0:
372,310,232795,5,2,1:3:0:0:
505,209,232922,1,2,0:0:0:0:
144,123,233049,102,0,L|127:220,1,83.9999974365235,4|0,1:0|0:0,0:0:0:0:
234,353,233303,2,0,P|234:308|219:270,1,83.9999974365235,2|0,3:1|2:0,0:0:0:0:
117,285,233557,1,2,3:1:0:0:
271,203,233684,1,2,0:0:0:0:
47,163,233812,6,0,P|60:77|149:56,1,167.999994873047,12|2,1:0|1:0,0:0:0:0:
312,74,234193,1,2,0:0:0:0:
242,138,234320,2,0,P|220:90|223:30,1,83.9999974365235,0|0,1:0|0:0,0:0:0:0:
390,227,234574,102,0,B|391:139|440:162|445:55,1,167.999994873047,12|0,1:0|3:0,0:0:0:0:
275,226,234956,1,0,0:0:0:0:
197,276,235083,2,0,L|181:166,1,83.9999974365235,4|0,1:0|0:0,0:0:0:0:
468,302,235337,2,0,L|497:195,1,83.9999974365235,2|2,3:1|0:0,0:0:0:0:
162,310,235591,2,0,L|146:200,1,83.9999974365235,4|2,1:1|1:3,0:0:0:0:
275,254,235846,5,12,1:0:0:0:
82,116,235973,2,0,P|139:179|239:134,1,167.999994873047,2|0,1:2|0:0,0:0:0:0:
37,320,236354,2,0,B|24:279|24:279|42:201,1,83.9999974365235,2|0,1:0|0:0,0:0:0:0:
314,184,236608,101,12,1:0:0:0:
279,333,236735,1,2,1:3:0:0:
438,217,236862,5,6,3:0:0:0:
355,70,236990,1,12,1:0:0:0:
200,39,237117,102,0,P|247:55|318:39,1,83.9999974365235,4|0,1:0|0:0,0:0:0:0:
512,90,237371,2,0,P|471:104|421:100,1,83.9999974365235,2|0,3:1|0:0,0:0:0:0:
213,184,237625,2,0,P|254:170|304:174,1,83.9999974365235,2|2,3:1|0:0,0:0:0:0:
454,251,237879,1,12,1:0:0:0:
294,337,238007,6,0,B|277:268|319:248|294:171,1,167.999994873047,2|0,1:0|0:0,0:0:0:0:
369,365,238388,1,2,3:1:0:0:
212,258,238515,1,2,0:0:0:0:
381,175,238642,102,0,P|386:123|373:77,1,83.9999974365235,14|0,1:0|0:0,0:0:0:0:
154,318,238896,1,2,3:1:0:0:
377,251,239023,1,2,0:0:0:0:
108,244,239151,6,0,P|77:205|64:147,1,83.9999974365235,6|0,1:0|0:0,0:0:0:0:
311,209,239405,2,0,P|326:166|320:112,1,83.9999974365235,2|0,3:1|0:0,0:0:0:0:
68,313,239659,2,0,P|29:279|8:230,1,83.9999974365235,2|0,3:1|0:0,0:0:0:0:
307,286,239913,1,12,1:0:0:0:
150,169,240040,102,0,B|125:92|167:72|146:-14,1,167.999994873047,2|0,1:0|0:0,0:0:0:0:
232,242,240422,1,2,3:1:0:0:
60,122,240549,1,2,0:0:0:0:
226,116,240676,5,12,1:0:0:0:
74,198,240803,1,8,1:3:0:0:
332,142,240930,101,2,1:0:0:0:
147,84,241057,1,2,1:2:0:0:
416,108,241184,6,0,L|428:18,1,83.9999974365235,6|0,1:0|0:0,0:0:0:0:
236,96,241439,2,0,L|229:7,1,83.9999974365235,2|0,3:1|0:0,0:0:0:0:
491,149,241693,2,0,L|503:59,1,83.9999974365235,2|2,3:1|0:0,0:0:0:0:
312,16,241947,1,12,1:0:0:0:
218,226,242074,102,0,P|298:163|384:200,1,167.999994873047,2|0,1:0|0:0,0:0:0:0:
429,247,242456,2,0,P|437:293|428:330,1,83.9999974365235,2|0,3:1|0:0,0:0:0:0:
252,312,242710,5,14,1:0:0:0:
82,243,242837,1,2,1:2:0:0:
283,190,242964,101,2,3:1:0:0:
164,346,243091,1,2,1:2:0:0:
61,159,243218,6,0,P|48:97|82:36,1,125.999996154785,6|0,1:0|0:0,0:0:0:0:
74,42,243473,2,0,P|124:29|175:41,1,83.9999974365235,2|0,3:1|0:0,0:0:0:0:
191,206,243727,2,0,P|141:219|90:207,1,83.9999974365235,6|0,1:0|0:0,0:0:0:0:
223,76,243981,1,14,1:0:0:0:
401,193,244108,102,0,P|377:144|297:121,1,125.999996154785,2|0,1:0|0:0,0:0:0:0:
313,119,244362,1,8,1:3:0:0:
459,260,244490,2,0,P|486:217|479:151,1,83.9999974365235,2|0,3:1|0:0,0:0:0:0:
317,200,244744,5,14,1:0:0:0:
424,340,244871,1,0,1:0:0:0:
251,254,244998,101,2,3:1:0:0:
401,193,245125,1,2,1:2:0:0:
174,206,245252,6,0,B|142:296|200:286|170:393,1,167.999994873047,6|0,1:0|3:0,0:0:0:0:
214,126,245634,1,2,1:3:0:0:
214,126,245761,2,0,P|165:118|111:140,1,83.9999974365235,12|0,1:0|0:0,0:0:0:0:
75,266,246015,2,0,P|61:218|75:160,1,83.9999974365235,2|0,3:0|1:0,0:0:0:0:
329,162,246269,101,6,3:1:0:0:
330,303,246396,1,8,1:1:0:0:
400,191,246523,5,2,3:3:0:0:
256,276,246650,1,2,1:3:0:0:
454,130,246778,101,12,1:0:0:0:
483,285,246905,1,2,1:2:0:0:
262,121,247032,5,2,3:2:0:0:
183,293,247159,1,12,1:0:0:0:
188,64,247286,102,0,B|272:74|272:74|355:24,1,167.999994873047,14|0,1:0|3:0,0:0:0:0:
324,320,247668,2,0,B|240:310|240:310|157:360,1,167.999994873047,14|8,1:0|1:3,0:0:0:0:
450,107,248049,6,0,P|472:198|434:286,1,167.999994873047,14|0,1:1|3:0,0:0:0:0:
62,277,248430,2,0,P|40:186|78:98,1,167.999994873047,14|8,1:1|1:3,0:0:0:0:
301,203,248812,101,8,0:0:0:0:
211,181,248939,1,8,0:0:0:0:
269,118,249066,5,14,1:0:0:0:
243,266,249193,1,12,1:0:0:0:
364,70,249320,70,0,B|274:57|289:102|199:87,1,167.999994873047,4|0,0:0|3:0,0:0:0:0:
444,169,249701,1,2,0:3:0:0:
500,104,249829,2,0,B|509:62|509:62|494:7,1,83.9999974365235,0|0,3:0|2:0,0:0:0:0:
333,154,250083,6,0,P|328:223|365:285,1,125.999996154785,14|0,1:0|2:0,0:0:0:0:
352,272,250337,2,0,L|264:300,1,83.9999974365235,8|2,0:3|2:0,0:0:0:0:
70,223,250591,2,0,L|158:250,1,83.9999974365235,0|2,3:0|1:3,0:0:0:0:
137,364,250846,101,12,0:0:0:0:
2,245,250973,1,8,0:0:0:0:
84,99,251100,5,4,3:1:0:0:
219,218,251227,1,2,0:3:0:0:
17,154,251354,102,0,L|195:137,1,167.999994873047,6|2,0:2|0:3,0:0:0:0:
352,219,251735,1,0,0:0:0:0:
438,260,251862,2,0,B|449:219|449:219|431:149,1,83.9999974365235,4|2,3:1|0:2,0:0:0:0:
267,179,252117,2,0,B|256:220|256:220|274:290,1,83.9999974365235,14|0,1:0|2:0,0:0:0:0:
498,66,252371,6,0,P|439:126|347:105,1,167.999994873047,8|8,3:0|0:3,0:0:0:0:
178,14,252752,1,2,0:3:0:0:
194,138,252879,101,12,1:0:0:0:
297,64,253007,1,8,3:0:0:0:
54,122,253134,5,0,3:0:0:0:
173,172,253262,1,2,0:2:0:0:
84,313,253388,102,0,B|98:241|51:219|71:125,1,167.999994873047,4|0,0:0|3:0,0:0:0:0:
0,274,253769,1,2,0:3:0:0:
159,362,253896,2,0,P|212:363|265:325,1,83.9999974365235,0|0,0:0|2:0,0:0:0:0:
312,180,254151,5,12,0:0:0:0:
190,283,254278,1,2,0:2:0:0:
382,337,254405,2,0,P|429:339|482:335,1,83.9999974365235,0|0,3:0|2:0,0:0:0:0:
254,110,254659,101,2,3:0:0:0:
358,256,254786,1,2,0:2:0:0:
490,134,254913,2,0,P|444:134|387:137,1,83.9999974365235,12|8,0:0|0:3,0:0:0:0:
232,184,255168,2,0,P|167:155|143:88,1,125.999996154785,0|0,3:0|2:0,0:0:0:0:
144,108,255422,6,0,P|87:184|108:268,1,167.999994873047,6|2,0:2|0:3,0:0:0:0:
249,81,255803,1,0,0:0:0:0:
249,81,255930,2,0,P|185:10|98:13,1,167.999994873047,4|12,0:1|0:0,0:0:0:0:
179,307,256312,1,2,0:2:0:0:
179,307,256439,2,0,P|226:310|285:275,1,83.9999974365235,0|0,0:0|2:0,0:0:0:0:
32,223,256693,2,0,P|29:270|64:329,1,83.9999974365235,2|2,3:0|1:2,0:0:0:0:
366,284,256947,101,12,0:0:0:0:
210,232,257074,1,0,3:3:0:0:
322,357,257201,5,8,0:3:0:0:
478,258,257329,1,2,2:0:0:0:
346,131,257456,102,0,B|264:126|268:173|173:159,1,167.999994873047,4|2,0:0|0:3,0:0:0:0:
67,79,257837,1,2,0:2:0:0:
217,2,257964,2,0,P|224:41|209:106,1,83.9999974365235,0|0,3:0|2:0,0:0:0:0:
324,215,258218,1,12,0:0:0:0:
463,101,258346,6,0,P|369:88|349:1,1,167.999994873047,2|0,2:2|2:0,0:0:0:0:
237,198,258727,2,0,P|230:249|251:310,1,83.9999974365235,0|2,3:0|0:3,0:0:0:0:
364,297,258981,1,12,0:0:0:0:
474,197,259108,1,2,0:2:0:0:
287,120,259235,2,0,P|247:118|175:119,1,83.9999974365235,8|2,3:0|0:3,0:0:0:0:
149,324,259490,102,0,L|107:130,1,167.999994873047,6|0,0:2|3:0,0:0:0:0:
44,238,259871,1,0,2:0:0:0:
223,185,259998,2,0,P|236:131|221:67,1,83.9999974365235,4|0,0:0|2:0,0:0:0:0:
43,56,260252,5,12,0:0:0:0:
43,56,260379,2,0,P|106:143|181:107,1,167.999994873047,2|0,2:0|0:0,0:0:0:0:
310,120,260761,2,0,P|314:67|308:20,1,83.9999974365235,4|0,3:0|2:0,0:0:0:0:
502,87,261015,2,0,P|454:89|402:87,1,83.9999974365235,12|8,0:0|1:3,0:0:0:0:
317,198,261269,1,2,3:0:0:0:
476,290,261396,1,2,0:2:0:0:
286,278,261523,102,0,B|327:284|327:284|395:261,1,83.9999974365235,4|0,0:0|2:0,0:0:0:0:
177,138,261778,2,0,B|136:132|136:132|68:155,1,83.9999974365235,2|2,1:3|2:0,0:0:0:0:
211,368,262032,1,0,3:0:0:0:
146,218,262159,1,2,2:0:0:0:
213,282,262286,1,12,0:0:0:0:
35,357,262413,6,0,B|46:276|11:282|27:190,1,167.999994873047,2|2,2:0|0:3,0:0:0:0:
178,145,262795,2,0,P|135:151|81:141,1,83.9999974365235,0|0,3:2|2:0,0:0:0:0:
238,6,263049,2,0,P|244:49|234:103,1,83.9999974365235,12|0,0:0|2:0,0:0:0:0:
218,301,263303,101,2,0:2:0:0:
255,167,263430,1,0,2:0:0:0:
429,190,263557,6,0,L|520:180,1,83.9999974365235,14|0,0:0|2:0,0:0:0:0:
384,260,263812,1,2,0:3:0:0:
122,213,263939,102,0,L|16:206,1,83.9999974365235,14|0,0:0|3:0,0:0:0:0:
137,292,264193,1,2,0:3:0:0:
369,343,264320,6,0,P|420:332|470:301,1,83.9999974365235,14|2,0:0|2:0,0:0:0:0:
211,258,264574,1,12,2:1:0:0:
219,353,264701,1,12,2:1:0:0:
344,189,264829,101,12,3:0:0:0:
200,166,264956,1,12,3:0:0:0:
414,126,265083,5,12,0:0:0:0:
292,261,265210,1,8,0:3:0:0:
369,48,265337,101,2,0:2:0:0:
493,202,265464,1,2,2:0:0:0:
287,138,265591,6,0,P|210:108|124:113,1,167.999994873047,4|2,0:0|0:3,0:0:0:0:
12,252,265973,1,2,0:2:0:0:
113,206,266100,2,0,P|152:217|193:245,1,83.9999974365235,0|0,3:0|2:0,0:0:0:0:
403,374,266354,2,0,P|345:353|352:263,1,125.999996154785,12|0,0:0|2:0,0:0:0:0:
331,295,266608,2,0,P|294:312|253:324,1,83.9999974365235,0|2,0:0|2:3,0:0:0:0:
413,166,266862,2,0,P|404:128|404:79,1,83.9999974365235,4|2,3:1|2:0,0:0:0:0:
498,321,267117,101,12,0:0:0:0:
394,245,267244,1,8,0:3:0:0:
444,371,267371,1,0,3:0:0:0:
470,224,267498,1,2,0:3:0:0:
253,299,267625,6,0,P|209:313|128:223,1,167.999994873047,6|0,0:2|0:2,0:0:0:0:
6,137,268007,1,2,2:0:0:0:
92,56,268134,2,0,B|114:92|106:149,1,83.9999974365235,4|0,3:1|2:0,0:0:0:0:
335,208,268388,2,0,B|343:163|305:145|304:79,1,125.999996154785,12|0,0:0|2:0,0:0:0:0:
304,87,268642,2,0,P|345:83|387:65,1,83.9999974365235,0|8,3:0|0:3,0:0:0:0:
249,192,268896,1,2,1:3:0:0:
138,348,269023,101,2,1:2:0:0:
141,351,269087,1,2,1:2:0:0:
145,355,269151,1,12,1:2:0:0:
253,312,269278,1,12,0:3:0:0:
176,225,269405,1,8,3:0:0:0:
68,266,269532,1,2,0:2:0:0:
325,267,269659,6,0,B|392:258|392:258|430:263|430:263|496:253,1,167.999994873047,4|2,0:0|0:3,0:0:0:0:
417,138,270040,2,0,B|421:176|401:233,1,83.9999974365235,2|0,0:2|3:0,0:0:0:0:
405,220,270295,1,0,2:0:0:0:
186,256,270422,101,12,0:0:0:0:
325,163,270549,1,2,2:0:0:0:
205,53,270676,2,0,P|152:46|89:149,1,167.999994873047,0|0,3:0|3:0,0:0:0:0:
182,175,271057,1,2,0:2:0:0:
230,322,271184,5,12,0:0:0:0:
105,255,271312,1,2,0:3:0:0:
267,251,271439,101,12,3:0:0:0:
80,331,271566,1,8,3:0:0:0:
301,384,271693,6,0,P|367:384|422:348,1,125.999996154785,6|0,0:2|2:0,0:0:0:0:
416,353,271947,2,0,P|418:311|394:270,1,83.9999974365235,0|2,3:0|0:3,0:0:0:0:
512,99,272201,2,0,P|512:140|487:173,1,83.9999974365235,4|0,0:1|2:0,0:0:0:0:
290,268,272456,102,0,P|250:278|189:285,1,83.9999974365235,12|0,0:0|2:0,0:0:0:0:
7,39,272710,2,0,P|62:32|91:117,1,125.999996154785,6|0,0:2|2:0,0:0:0:0:
99,84,272964,2,0,P|138:93|193:100,1,83.9999974365235,0|0,3:0|0:0,0:0:0:0:
306,62,273218,5,12,0:0:0:0:
334,208,273346,1,8,0:0:0:0:
422,255,273473,101,0,3:3:0:0:
510,182,273600,1,2,2:0:0:0:
469,51,273727,6,0,P|432:63|405:103,1,83.9999974365235,4|0,0:0|0:0,0:0:0:0:
320,308,273981,2,0,P|303:271|311:227,1,83.9999974365235,2|8,0:3|0:3,0:0:0:0:
422,255,274235,102,0,L|512:278,1,83.9999974365235,0|0,3:1|2:0,0:0:0:0:
216,132,274490,2,0,B|133:143|140:185|47:182,1,167.999994873047,12|0,0:0|3:0,0:0:0:0:
96,252,274871,1,2,2:0:0:0:
285,195,274998,2,0,L|266:279,1,83.9999974365235,0|2,3:0|0:3,0:0:0:0:
340,375,275252,5,12,0:0:0:0:
181,282,275379,1,0,0:0:0:0:
378,284,275507,101,0,3:0:0:0:
277,189,275634,1,2,2:0:0:0:
489,59,275761,6,0,P|431:52|399:111,1,125.999996154785,6|0,0:2|2:0,0:0:0:0:
398,103,276015,2,0,P|402:136|421:196,1,83.9999974365235,0|2,3:0|2:2,0:0:0:0:
173,91,276269,2,0,P|186:54|198:-10,1,83.9999974365235,4|0,3:0|2:2,0:0:0:0:
287,89,276523,1,12,0:0:0:0:
126,214,276651,2,0,P|71:222|20:117,1,167.999994873047,0|8,2:0|0:3,0:0:0:0:
233,167,277032,101,0,3:0:0:0:
331,249,277159,1,0,2:0:0:0:
192,347,277286,2,0,P|151:361|96:370,1,83.9999974365235,12|0,0:0|0:0,0:0:0:0:
409,308,277540,5,2,0:3:0:0:
267,377,277668,1,8,0:0:0:0:
150,233,277795,2,0,P|146:191|174:111,1,125.999996154785,4|0,0:0|2:0,0:0:0:0:
172,112,278049,2,0,P|213:105|269:81,1,83.9999974365235,2|0,0:3|2:0,0:0:0:0:
465,24,278303,102,0,P|427:5|374:6,1,83.9999974365235,2|0,0:2|2:0,0:0:0:0:
512,122,278557,2,0,P|459:124|422:240,1,167.999994873047,12|0,0:0|3:0,0:0:0:0:
226,322,278939,1,0,2:0:0:0:
322,361,279066,5,0,3:0:0:0:
244,243,279193,1,2,0:2:0:0:
159,367,279320,101,12,0:0:0:0:
324,276,279447,1,2,2:0:0:0:
146,264,279574,5,8,3:0:0:0:
322,361,279701,1,8,0:0:0:0:
183,185,279829,102,0,P|131:174|59:254,1,167.999994873047,6|2,0:1|0:3,0:0:0:0:
203,366,280210,1,10,0:3:0:0:
277,283,280337,2,0,P|275:243|254:197,1,83.9999974365235,0|2,0:0|2:2,0:0:0:0:
51,283,280591,2,0,P|53:324|70:365,1,83.9999974365235,12|0,0:0|1:0,0:0:0:0:
332,362,280846,5,6,0:0:0:0:
427,230,280973,1,12,0:3:0:0:
499,352,281100,1,2,0:3:0:0:
415,307,281227,1,2,0:3:0:0:
249,213,281354,101,12,0:0:0:0:
347,180,281481,1,12,3:0:0:0:
189,325,281608,5,14,0:0:0:0:
25,264,281735,1,14,0:0:0:0:
0,140,281862,102,0,P|49:136|90:252,1,167.999994873047,4|2,0:1|0:3,0:0:0:0:
143,384,282244,1,8,0:3:0:0:
143,384,282371,2,0,P|155:343|192:311,1,83.9999974365235,4|0,3:0|2:0,0:0:0:0:
423,318,282625,6,0,P|391:293|338:289,1,83.9999974365235,12|0,0:0|0:0,0:0:0:0:
512,217,282879,2,0,P|452:214|410:118,1,167.999994873047,2|0,0:3|0:3,0:0:0:0:
342,288,283261,1,2,2:0:0:0:
181,156,283388,101,12,0:0:0:0:
225,251,283515,1,8,0:3:0:0:
271,186,283642,1,0,3:0:0:0:
143,237,283769,1,2,0:3:0:0:
0,182,283896,6,0,P|-2:139|70:36,1,167.999994873047,6|2,0:2|0:3,0:0:0:0:
214,0,284278,1,8,0:3:0:0:
174,141,284405,1,4,0:0:0:0:
146,68,284532,1,0,2:0:0:0:
349,39,284659,102,0,P|390:32|442:16,1,83.9999974365235,12|0,0:0|0:0,0:0:0:0:
357,193,284913,2,0,P|334:157|306:124,1,83.9999974365235,0|0,3:0|2:2,0:0:0:0:
494,97,285168,2,0,P|474:134|457:185,1,83.9999974365235,2|0,0:2|2:0,0:0:0:0:
372,368,285422,5,12,0:0:0:0:
473,269,285549,1,8,0:3:0:0:
353,276,285676,101,0,3:0:0:0:
486,360,285803,1,2,0:2:0:0:
237,342,285930,6,0,P|199:348|136:366,1,83.9999974365235,4|0,0:0|0:0,0:0:0:0:
296,184,286184,2,0,P|313:148|308:101,1,83.9999974365235,2|2,0:3|2:0,0:0:0:0:
395,164,286439,2,0,P|437:170|498:186,1,83.9999974365235,0|0,3:0|2:0,0:0:0:0:
222,140,286693,2,0,B|137:128|149:175|47:148,1,167.999994873047,12|8,0:0|0:3,0:0:0:0:
149,234,287074,1,2,0:2:0:0:
99,352,287201,101,0,3:0:0:0:
227,297,287329,1,0,2:0:0:0:
458,318,287456,5,12,0:0:0:0:
334,208,287583,1,2,0:2:0:0:
490,154,287710,2,0,P|504:185|501:249,1,83.9999974365235,2|0,0:3|2:0,0:0:0:0:
346,384,287964,102,0,P|356:360|365:282,1,83.9999974365235,6|0,0:2|0:0,0:0:0:0:
171,334,288218,2,0,P|162:310|153:241,1,83.9999974365235,2|2,0:3|2:2,0:0:0:0:
301,234,288473,6,0,P|324:197|328:134,1,83.9999974365235,4|0,0:1|2:0,0:0:0:0:
41,226,288727,2,0,P|21:191|22:129,1,83.9999974365235,12|0,0:0|2:0,0:0:0:0:
251,66,288981,101,8,0:3:0:0:
224,136,289108,1,0,3:0:0:0:
152,112,289235,1,4,0:3:0:0:
179,41,289362,1,2,0:3:0:0:
308,127,289490,5,12,0:0:0:0:
158,186,289617,1,8,0:3:0:0:
302,227,289744,101,2,0:3:0:0:
411,292,289871,1,2,0:3:0:0:
192,282,289998,6,0,P|151:291|110:309,1,83.9999974365235,4|0,0:0|0:0,0:0:0:0:
259,53,290252,2,0,P|277:89|270:147,1,83.9999974365235,2|2,0:3|2:0,0:0:0:0:
394,210,290507,2,0,B|431:207|451:247|523:249,1,125.999996154785,0|0,3:0|2:0,0:0:0:0:
512,248,290761,2,0,P|500:276|480:340,1,83.9999974365235,12|0,0:0|0:0,0:0:0:0:
332,374,291015,101,8,0:3:0:0:
295,282,291142,1,2,0:2:0:0:
197,245,291269,5,0,3:0:0:0:
99,370,291396,1,2,2:0:0:0:
72,227,291523,101,12,0:0:0:0:
252,366,291651,1,8,0:0:0:0:
419,226,291778,1,2,3:2:0:0:
295,283,291905,1,2,1:3:0:0:
512,384,292032,86,0,P|503:326|496:106,1,280,4|0,1:2|0:0,0:0:0:0:
166,181,296100,86,0,L|149:183,2,17.500000667572,0|0|2,0:0|0:0|0:0,0:0:0:0:
289,287,296824,2,0,B|285:233|307:242|302:180,1,105.000004005432,2|0,0:0|0:0,0:0:0:0:
242,32,297549,2,0,P|299:89|435:50,1,210.000008010865,2|0,0:0|0:0,0:0:0:0:
487,162,298612,1,0,0:0:0:0:
407,291,299059,5,2,0:0:0:0:
332,360,299656,1,0,0:0:0:0:
309,350,299985,1,0,0:0:0:0:
309,174,300690,1,0,0:0:0:0:
278,184,301042,1,0,0:0:0:0:
228,248,301371,1,2,0:0:0:0:
136,345,301761,102,0,P|121:274|82:204,1,105.000004005432
50,89,302495,2,0,P|120:108|187:101,1,95.2000005810547,2|0,0:0|0:0,0:0:0:0:
331,59,303235,2,0,P|334:106|324:174,1,83.9999974365235,2|0,0:0|0:0,0:0:0:0:
244,235,304050,2,0,P|229:203|223:164,1,62.9999980773926,0|2,0:0|0:0,0:0:0:0:
461,298,305514,6,0,L|463:325,2,17.5,0|0|2,0:0|0:0|0:0,0:0:0:0:
365,358,306489,1,0,0:0:0:0:
245,330,307278,2,0,B|189:350|142:315|142:315|159:330|165:340,1,140,2|0,0:0|0:0,0:0:0:0:
207,241,308924,101,2,0:0:0:0:
