osu file format v14

[General]
AudioFilename: 02 Lunatic Tears... (DJ Shimamura Remix).mp3
AudioLeadIn: 0
PreviewTime: 218925
Countdown: 0
SampleSet: Soft
StackLeniency: 0.4
Mode: 0
LetterboxInBreaks: 0
EpilepsyWarning: 1
WidescreenStoryboard: 0

[Editor]
Bookmarks: 53584,151807,156539,167448,246539,256425,268357,399477
DistanceSpacing: 1
BeatDivisor: 4
GridSize: 4
TimelineZoom: 1.6

[Metadata]
Title:Lunatic Tears... (DJ Shimamura Remix)
TitleUnicode:Lunatic Tears... (DJ Shimamura Remix)
Artist:Ayane
ArtistUnicode:彩音
Creator:mercury2004
Version:Aeon
Source:11eyes -罪と罰と贖いの少女
Tags:Lass super shot 3 bishoujo game collection tatsh mixmaster 5pb records 美少女ゲームリミックスコレクション music
BeatmapID:274410
BeatmapSetID:104331

[Difficulty]
HPDrainRate:7
CircleSize:4
OverallDifficulty:7
ApproachRate:9.3
SliderMultiplier:1.85
SliderTickRate:1

[Events]
//Background and Video events
0,0,"bg.jpg",0,0
//Break Periods
//Storyboard Layer 0 (Background)
//Storyboard Layer 1 (Fail)
//Storyboard Layer 2 (Pass)
//Storyboard Layer 3 (Foreground)
//Storyboard Layer 4 (Overlay)
//Storyboard Sound Samples

[TimingPoints]
1084.95454545455,340.909090909091,4,2,1,50,1,0
2448,-166.666666666667,4,2,3,20,0,0
2533,-166.666666666667,4,2,0,35,0,0
4067,-166.666666666667,4,2,0,5,0,0
4153,-166.666666666667,4,2,0,35,0,0
4408,-166.666666666667,4,2,0,5,0,0
4494,-166.666666666667,4,2,0,35,0,0
4749,-166.666666666667,4,2,0,5,0,0
4834,-166.666666666667,4,2,0,35,0,0
5090,-166.666666666667,4,2,0,5,0,0
5175,-166.666666666667,4,2,0,35,0,0
6113,-166.666666666667,4,2,0,5,0,0
6198,-166.666666666667,4,2,0,35,0,0
6454,-166.666666666667,4,2,0,5,0,0
6539,-166.666666666667,4,2,0,35,0,0
6795,-166.666666666667,4,2,0,5,0,0
6880,-166.666666666667,4,2,0,35,0,0
7136,-166.666666666667,4,2,0,5,0,0
7221,-500.666666666667,4,2,0,35,0,0
7903,-166.666666666667,4,2,0,35,0,0
8840,-166.666666666667,4,2,0,5,0,0
8925,-166.666666666667,4,2,0,35,0,0
9181,-166.666666666667,4,2,0,5,0,0
9266,-166.666666666667,4,2,0,35,0,0
9522,-166.666666666667,4,2,0,5,0,0
9607,-166.666666666667,4,2,0,35,0,0
9863,-166.666666666667,4,2,0,5,0,0
9948,-166.666666666667,4,2,0,35,0,0
10204,-166.666666666667,4,2,0,5,0,0
10289,-166.666666666667,4,2,0,35,0,0
11567,-166.666666666667,4,2,0,5,0,0
11653,-166.666666666667,4,2,0,35,0,0
11908,-166.666666666667,4,2,0,5,0,0
11994,-166.666666666667,4,2,0,35,0,0
12249,-166.666666666667,4,2,0,5,0,0
12334,-166.666666666667,4,2,0,35,0,0
12590,-166.666666666667,4,2,0,5,0,0
12675,-166.666666666667,4,2,0,35,0,0
14977,-166.666666666667,4,2,0,5,0,0
15062,-166.666666666667,4,2,0,35,0,0
15317,-166.666666666667,4,2,0,5,0,0
15403,-166.666666666667,4,2,0,35,0,0
15658,-166.666666666667,4,2,0,5,0,0
15744,-166.666666666667,4,2,0,35,0,0
15999,-166.666666666667,4,2,0,5,0,0
16084,-166.666666666667,4,2,0,35,0,0
17022,-166.666666666667,4,2,0,5,0,0
17107,-166.666666666667,4,2,0,35,0,0
17363,-166.666666666667,4,2,0,5,0,0
17448,-166.666666666667,4,2,0,35,0,0
17704,-166.666666666667,4,2,0,5,0,0
17789,-166.666666666667,4,2,0,35,0,0
18045,-166.666666666667,4,2,0,5,0,0
18130,-166.666666666667,4,2,0,35,0,0
19749,-166.666666666667,4,2,0,5,0,0
19834,-166.666666666667,4,2,0,35,0,0
20090,-166.666666666667,4,2,0,5,0,0
20175,-166.666666666667,4,2,0,35,0,0
20431,-166.666666666667,4,2,0,5,0,0
20516,-166.666666666667,4,2,0,35,0,0
20772,-166.666666666667,4,2,0,5,0,0
20857,-166.666666666667,4,2,0,35,0,0
24266,-100,4,1,3,40,0,0
24352,-100,4,1,2,45,0,0
26567,-100,4,1,2,5,0,0
26653,-100,4,1,2,45,0,0
26738,-100,4,1,2,5,0,0
26823,-100,4,1,2,45,0,0
26908,-100,4,1,2,5,0,0
26994,-100,4,1,3,40,0,0
27079,-100,4,1,2,45,0,0
29295,-100,4,1,2,5,0,0
29380,-100,4,1,2,45,0,0
29465,-100,4,1,2,5,0,0
29550,-100,4,1,2,45,0,0
29636,-100,4,1,2,5,0,0
29721,-100,4,1,3,40,0,0
29806,-100,4,1,2,40,0,0
32448,-100,4,1,3,40,0,0
32533,-100,4,1,2,40,0,0
33982,-166.666666666667,4,1,2,30,0,0
34153,-100,4,1,2,5,0,0
34238,-166.666666666667,4,1,2,30,0,0
34494,-100,4,1,2,5,0,0
34579,-100,4,1,2,30,0,0
34664,-100,4,1,1,30,0,0
35090,-100,4,1,2,30,0,0
35175,-100,4,1,3,40,0,0
35261,-100,4,1,2,60,0,0
37562,-200,4,1,2,60,0,0
37647,-200,4,1,2,60,0,0
37732,-200,4,1,2,60,0,0
37817,-200,4,1,2,60,0,0
37903,-100,4,1,3,30,0,0
37988,-100,4,1,2,60,0,0
40630,-100,4,1,3,40,0,0
40715,-100,4,1,2,60,0,0
43357,-100,4,1,3,40,0,0
43442,-100,4,1,2,40,0,0
44721,-100,4,2,2,5,0,0
45573,-100,4,1,0,40,0,0
46084,-100,4,1,1,50,0,1
53584,-200,4,1,1,50,0,1
53670,-100,4,2,1,5,0,1
53755,-200,4,1,1,50,0,1
53840,-100,4,2,1,5,0,1
53925,-200,4,1,1,50,0,1
54011,-100,4,2,1,5,0,1
54096,-200,4,1,1,50,0,1
54181,-100,4,2,1,5,0,1
54266,-100,4,1,1,50,0,1
55204,-100,4,1,1,5,0,1
55289,-100,4,1,1,50,0,1
55374,-100,4,1,1,5,0,1
55459,-100,4,1,1,50,0,1
60062,-200,4,1,1,50,0,1
60147,-200,4,2,1,5,0,1
60232,-200,4,1,1,50,0,1
60317,-200,4,2,1,5,0,1
60403,-200,4,1,1,50,0,1
60488,-200,4,2,1,5,0,1
60573,-200,4,1,1,50,0,1
60658,-200,4,2,1,5,0,1
60744,-200,4,1,1,50,0,1
60829,-200,4,2,1,5,0,1
60914,-200,4,1,1,50,0,1
60999,-100,4,2,1,5,0,1
61084,-100,4,1,1,50,0,1
67903,-100,4,1,5,30,0,1
70630,-100,4,1,2,30,0,1
71994,-200,4,2,1,5,0,1
73357,-125,4,2,1,50,0,0
73954,-125,4,2,1,5,0,0
74039,-125,4,2,1,50,0,0
74636,-125,4,2,1,5,0,0
74721,-125,4,2,1,50,0,0
75317,-125,4,2,1,5,0,0
75403,-125,4,2,1,50,0,0
75999,-125,4,2,1,5,0,0
76084,-125,4,2,1,50,0,0
77363,-125,4,2,1,5,0,0
77448,-125,4,2,1,50,0,0
78045,-125,4,2,1,5,0,0
78130,-125,4,2,1,50,0,0
78727,-125,4,2,1,5,0,0
78812,-125,4,2,1,50,0,0
79408,-125,4,2,1,5,0,0
79494,-125,4,2,1,50,0,0
80090,-125,4,2,1,5,0,0
80175,-125,4,2,1,50,0,0
80772,-125,4,2,1,5,0,0
80857,-125,4,2,1,50,0,0
81539,-125,4,2,4,5,0,0
88357,-100,4,1,5,40,0,0
89039,-200,4,1,5,40,0,0
89124,-100,4,2,5,5,0,0
89209,-200,4,1,5,40,0,0
89295,-100,4,2,5,5,0,0
89380,-200,4,1,5,40,0,0
89465,-100,4,2,5,5,0,0
89550,-200,4,1,5,40,0,0
89636,-100,4,2,5,5,0,0
89721,-100,4,1,5,40,0,0
90147,-100,4,1,5,5,0,0
90232,-100,4,1,5,40,0,0
91596,-200,4,1,5,40,0,0
91681,-200,4,2,5,5,0,0
91766,-200,4,1,5,40,0,0
91852,-200,4,2,5,5,0,0
91937,-200,4,1,5,40,0,0
92022,-200,4,2,5,5,0,0
92107,-200,4,1,5,40,0,0
92192,-200,4,2,5,5,0,0
92278,-200,4,1,5,40,0,0
92363,-200,4,2,5,5,0,0
92448,-100,4,1,5,40,0,0
92959,-66.6666666666667,4,1,5,40,0,0
93130,-100,4,1,5,5,0,0
93215,-100,4,1,5,40,0,0
93300,-66.6666666666667,4,1,5,40,0,0
93471,-100,4,1,5,5,0,0
93556,-100,4,1,5,40,0,0
93727,-100,4,1,5,5,0,0
93812,-100,4,1,5,40,0,0
93897,-100,4,2,5,5,0,0
93982,-100,4,1,5,40,0,0
94323,-133.333333333333,4,1,5,40,0,0
94408,-200,4,2,5,5,0,0
94494,-200,4,1,5,40,0,0
94579,-200,4,2,5,5,0,0
94664,-200,4,1,5,40,0,0
94749,-200,4,2,5,5,0,0
94834,-200,4,1,5,40,0,0
94920,-200,4,2,5,5,0,0
95005,-200,4,1,5,40,0,0
95090,-200,4,2,5,5,0,0
95175,-100,4,1,5,40,0,0
96624,-100,4,2,5,5,0,0
96709,-100,4,1,5,40,0,0
96880,-200,4,1,5,40,0,0
96965,-200,4,2,5,5,0,0
97050,-200,4,1,5,40,0,0
97136,-200,4,2,5,5,0,0
97221,-200,4,1,5,40,0,0
97306,-200,4,2,5,5,0,0
97391,-200,4,1,5,40,0,0
97477,-200,4,2,5,5,0,0
97562,-200,4,1,5,40,0,0
97647,-200,4,2,5,5,0,0
97732,-200,4,1,5,40,0,0
97817,-200,4,2,5,5,0,0
97903,-100,4,1,5,40,0,0
99607,-200,4,2,1,35,0,0
99778,-200,4,2,1,5,0,0
99863,-200,4,2,1,35,0,0
100119,-200,4,2,1,5,0,0
100204,-200,4,2,1,35,0,0
100459,-200,4,2,1,5,0,0
100545,-200,4,2,1,35,0,0
100800,-200,4,2,1,5,0,0
100886,-200,4,2,1,35,0,0
101141,-200,4,2,1,5,0,0
101227,-200,4,2,1,35,0,0
101482,-200,4,2,1,5,0,0
101567,-200,4,2,1,35,0,0
101823,-200,4,2,1,5,0,0
101908,-200,4,2,1,35,0,0
102164,-200,4,2,1,5,0,0
102249,-200,4,2,1,35,0,0
102505,-200,4,2,1,5,0,0
102590,-200,4,2,1,35,0,0
103187,-200,4,2,1,5,0,0
103272,-200,4,2,1,35,0,0
103528,-200,4,2,1,5,0,0
103613,-200,4,2,1,35,0,0
103869,-200,4,2,1,5,0,0
103954,-200,4,2,1,60,0,0
104039,-200,4,2,1,5,0,0
104721,-166.666666666667,4,1,2,5,0,0
104806,-166.666666666667,4,2,1,15,0,0
109494,-166.666666666667,4,2,3,15,0,0
109579,-166.666666666667,4,2,1,15,0,0
120403,-166.666666666667,4,2,3,15,0,0
120488,-166.666666666667,4,2,1,30,0,0
129266,-100,4,1,1,40,0,0
140175,-100,4,1,1,50,0,0
142903,-100,4,1,1,60,0,0
148102,-100,4,2,1,5,0,0
148187,-100,4,1,1,50,0,0
148272,-100,4,2,1,5,0,0
148357,-100,4,1,2,60,0,0
151084,-100,4,2,1,50,0,0
156539,-100,4,1,1,40,0,0
157306,-100,4,1,1,10,0,0
157391,-100,4,1,1,40,0,0
175630,-100,4,1,1,35,0,0
176994,-100,4,1,1,25,0,0
178016,-100,4,2,1,5,0,0
178357,-142.857142857143,4,1,5,40,0,0
179721,-142.857142857143,4,1,1,60,0,0
179806,-142.857142857143,4,1,5,40,0,0
182448,-142.857142857143,4,1,1,60,0,0
182533,-142.857142857143,4,1,5,40,0,0
183812,-50,4,2,1,5,0,0
183982,-142.857142857143,4,2,1,5,0,0
184067,-142.857142857143,4,1,5,40,0,0
185175,-142.857142857143,4,1,1,60,0,0
185261,-142.857142857143,4,1,5,40,0,0
187903,-142.857142857143,4,1,1,60,0,0
188073,-142.857142857143,4,1,5,20,0,0
189266,-100,4,1,1,50,0,0
189778,-100,4,1,1,50,0,0
189863,-100,4,1,1,30,0,0
189948,-100,4,1,1,50,0,0
190033,-100,4,1,1,30,0,0
190119,-100,4,1,1,50,0,0
190204,-100,4,1,1,30,0,0
190289,-100,4,1,1,50,0,0
190374,-100,4,1,1,30,0,0
190459,-100,4,1,1,50,0,0
190545,-100,4,1,1,50,0,0
191823,-44.4444444444445,4,1,1,50,0,0
191908,-100,4,1,1,50,0,0
193187,-44.4444444444445,4,1,1,50,0,0
193272,-100,4,1,1,50,0,0
193357,-166.666666666667,4,1,1,20,0,0
194380,-400,4,1,1,20,0,0
194721,-100,4,1,1,60,0,0
199494,-100,4,1,3,30,0,0
199579,-100,4,1,1,60,0,0
204948,-200,4,1,1,40,0,0
205289,-100,4,1,1,5,0,0
205374,-100,4,1,1,60,0,0
210403,-100,4,1,3,30,0,0
210488,-100,4,1,1,60,0,0
211084,-100,4,1,1,85,0,0
211170,-100,4,1,1,60,0,0
213812,-100,4,1,1,85,0,0
213897,-100,4,1,1,45,0,0
215175,-100,4,1,1,85,0,0
215261,-100,4,1,1,40,0,0
216539,-100,4,1,2,75,0,0
218244,-100,4,2,1,5,0,0
219266,-100,4,1,1,50,0,1
233244,-200,4,1,1,50,0,1
233329,-200,4,2,1,5,0,1
233414,-200,4,1,1,50,0,1
233499,-200,4,2,1,5,0,1
233584,-200,4,1,1,50,0,1
233670,-200,4,2,1,5,0,1
233755,-200,4,1,1,50,0,1
233840,-200,4,2,1,5,0,1
233925,-200,4,1,1,50,0,1
234011,-200,4,2,1,5,0,1
234096,-200,4,1,1,50,0,1
234181,-200,4,2,1,5,0,1
234266,-100,4,1,1,50,0,1
237761,-100,4,1,1,10,0,1
237846,-100,4,1,1,50,0,1
237931,-100,4,1,1,10,0,1
238016,-100,4,1,1,50,0,1
238102,-100,4,1,1,10,0,1
238187,-100,4,1,1,50,0,1
238272,-100,4,1,1,50,0,1
241084,-100,4,1,5,40,0,1
243812,-100,4,1,1,50,0,1
246539,-166.666666666667,4,2,3,40,0,0
246624,-166.666666666667,4,2,1,40,0,0
247477,-166.666666666667,4,2,1,5,0,0
247562,-166.666666666667,4,2,1,40,0,0
247817,-166.666666666667,4,2,1,5,0,0
247903,-166.666666666667,4,2,1,40,0,0
248158,-166.666666666667,4,2,1,5,0,0
248244,-166.666666666667,4,2,1,40,0,0
248499,-166.666666666667,4,2,1,5,0,0
248584,-166.666666666667,4,2,1,25,0,0
248925,-166.666666666667,4,2,1,40,0,0
250204,-166.666666666667,4,2,1,5,0,0
250289,-166.666666666667,4,2,1,40,0,0
250545,-166.666666666667,4,2,1,5,0,0
250630,-166.666666666667,4,2,1,40,0,0
250886,-166.666666666667,4,2,1,5,0,0
250971,-166.666666666667,4,2,1,40,0,0
251227,-166.666666666667,4,2,1,5,0,0
251312,-166.666666666667,4,2,1,40,0,0
251994,-166.666666666667,4,2,3,40,0,0
252079,-166.666666666667,4,2,1,40,0,0
252931,-166.666666666667,4,2,1,5,0,0
253016,-166.666666666667,4,2,1,40,0,0
253272,-166.666666666667,4,2,1,5,0,0
253357,-166.666666666667,4,2,1,40,0,0
253613,-166.666666666667,4,2,1,5,0,0
253698,-166.666666666667,4,2,1,40,0,0
253954,-166.666666666667,4,2,1,5,0,0
254039,-166.666666666667,4,2,1,25,0,0
254380,-166.666666666667,4,2,1,40,0,0
254721,-166.666666666667,4,2,3,40,0,0
254806,-166.666666666667,4,2,1,40,0,0
255658,-166.666666666667,4,2,1,5,0,0
255744,-166.666666666667,4,2,1,40,0,0
255999,-166.666666666667,4,2,1,5,0,0
256084,-166.666666666667,4,2,1,40,0,0
256340,-166.666666666667,4,2,1,5,0,0
256425,-166.666666666667,4,2,1,40,0,0
256596,-166.666666666667,4,2,1,5,0,0
256766,-166.666666666667,4,2,1,40,0,0
256937,-166.666666666667,4,2,1,5,0,0
257107,-166.666666666667,4,2,1,40,0,0
257278,-166.666666666667,4,2,1,5,0,0
257448,-125,4,1,3,40,0,0
257533,-125,4,1,1,60,0,0
260175,-125,4,1,3,40,0,0
260261,-125,4,1,1,60,0,0
262903,-125,4,1,3,40,0,0
262988,-125,4,1,1,60,0,0
265630,-125,4,1,3,40,0,0
265715,-125,4,1,1,60,0,0
266994,-76.9230769230769,4,1,2,50,0,0
268016,-76.9230769230769,4,2,1,5,0,0
268357,-100,4,2,4,20,0,0
268442,-100,4,2,1,50,0,0
269039,-100,4,2,3,20,0,0
269124,-100,4,2,1,50,0,0
269721,-100,4,2,6,20,0,0
269806,-100,4,2,1,50,0,0
270403,-100,4,2,5,20,0,0
270488,-100,4,2,1,50,0,0
271084,-100,4,2,3,40,0,0
271170,-100,4,2,1,50,0,0
272448,-100,4,2,4,20,0,0
272533,-100,4,2,1,50,0,0
273812,-100,4,2,7,20,0,0
273897,-100,4,2,1,50,0,0
274494,-100,4,2,3,20,0,0
274579,-100,4,2,1,50,0,0
275175,-100,4,2,6,20,0,0
275261,-100,4,2,1,50,0,0
275857,-100,4,2,5,20,0,0
275942,-100,4,2,1,50,0,0
276539,-100,4,2,3,40,0,0
276624,-100,4,2,1,50,0,0
277903,-100,4,2,4,20,0,0
277988,-100,4,2,1,50,0,0
279266,-100,4,2,7,20,0,0
279352,-100,4,2,1,50,0,0
279948,-100,4,2,3,20,0,0
280033,-100,4,2,1,50,0,0
280630,-100,4,2,6,20,0,0
280715,-100,4,2,1,50,0,0
281312,-100,4,2,5,20,0,0
281397,-100,4,2,1,50,0,0
281994,-100,4,2,3,40,0,0
282079,-100,4,2,1,50,0,0
283357,-100,4,2,4,20,0,0
283442,-100,4,2,1,50,0,0
284721,-100,4,2,7,20,0,0
284806,-100,4,2,1,50,0,0
285403,-100,4,2,3,20,0,0
285488,-100,4,2,1,50,0,0
286084,-100,4,2,6,20,0,0
286170,-100,4,2,1,50,0,0
286766,-100,4,2,5,20,0,0
286852,-100,4,2,1,50,0,0
287448,-100,4,1,3,30,0,0
287533,-100,4,1,2,20,0,0
288812,-100,4,1,3,25,0,0
288897,-100,4,1,2,20,0,0
290175,-100,4,1,1,5,0,0
290261,-100,4,2,4,5,0,0
294437,-166.666666666667,4,2,1,50,0,0
317448,-125,4,1,1,50,0,0
317619,-125,4,1,1,5,0,0
317704,-125,4,1,1,50,0,0
317959,-125,4,1,1,5,0,0
318045,-125,4,1,1,50,0,0
318300,-125,4,1,1,5,0,0
318386,-125,4,1,1,50,0,0
318641,-125,4,1,1,5,0,0
318727,-125,4,1,1,50,0,0
318982,-125,4,1,1,5,0,0
319067,-125,4,1,1,50,0,0
319323,-125,4,1,1,5,0,0
319408,-125,4,1,1,50,0,0
319664,-125,4,1,1,5,0,0
319749,-125,4,1,1,50,0,0
320005,-125,4,1,1,5,0,0
320090,-125,4,1,1,35,0,0
321539,-125,4,1,1,25,0,0
322562,-200,4,1,1,50,0,0
322903,-100,4,1,1,50,0,1
326056,-100,4,1,1,5,0,1
326141,-100,4,1,1,50,0,1
326227,-100,4,1,1,5,0,1
326312,-100,4,1,1,50,0,1
326397,-100,4,1,1,5,0,1
326482,-100,4,1,1,50,0,1
344721,-100,4,1,5,30,0,1
347448,-100,4,1,1,50,0,1
370630,-100,4,2,1,5,0,1
371994,-100,4,2,2,70,0,0
392448,-100,4,2,4,5,0,0

[HitObjects]
256,192,1084,12,4,2448,0:0:0:0:
304,56,2789,6,0,P|308:88|300:120,1,55.4999983062745
140,104,3130,1,2,0:0:0:0:
408,224,3471,1,0,0:0:0:0:
216,344,3812,6,0,P|264:352|292:328,1,83.2499974594117,2|0,0:0|0:0,0:0:0:0:
380,296,4153,2,0,L|392:212,1,83.2499974594117
256,240,4494,2,0,L|256:156,1,83.2499974594117,2|0,0:0|0:0,0:0:0:0:
132,292,4834,2,0,L|116:208,1,83.2499974594117
144,48,5175,6,0,P|164:92|156:156,1,110.999996612549,2|0,0:0|0:0,0:0:0:0:
104,292,5687,1,0,0:0:0:0:
248,340,5857,2,0,P|208:356|160:352,1,83.2499974594117,2|0,0:0|0:0,0:0:0:0:
256,240,6198,2,0,L|264:140,1,83.2499974594117
360,104,6539,2,0,P|372:148|356:188,1,83.2499974594117,2|0,0:0|0:0,0:0:0:0:
256,240,6880,2,0,L|180:196,1,83.2499974594117
88,228,7221,6,0,P|80:192|96:152,1,73.9014662152422,2|2,0:0|0:0,0:0:0:0:
216,96,8244,5,2,0:0:0:0:
216,96,8414,1,0,0:0:0:0:
304,160,8584,2,0,P|264:188|224:188,1,83.2499974594117,2|0,0:0|0:0,0:0:0:0:
112,88,8925,2,0,P|124:140|140:156,1,83.2499974594117,2|0,0:0|0:0,0:0:0:0:
100,272,9266,2,0,P|152:260|172:240,1,83.2499974594117
284,344,9607,2,0,P|272:292|252:272,1,83.2499974594117,2|0,0:0|0:0,0:0:0:0:
304,160,9948,2,0,P|252:172|232:192,1,83.2499974594117
216,68,10289,2,0,B|164:100|164:100|172:112|156:156,1,110.999996612549,2|2,0:0|0:0,0:0:0:0:
188,316,10971,5,0,0:0:0:0:
256,144,11141,1,0,0:0:0:0:
308,240,11312,2,0,P|340:200|360:164,1,83.2499974594117,2|0,0:0|0:0,0:0:0:0:
256,60,11653,2,0,L|256:164,1,83.2499974594117
208,232,11994,2,0,P|176:192|156:156,1,83.2499974594117,2|0,0:0|0:0,0:0:0:0:
116,88,12334,2,0,P|84:128|64:164,1,83.2499974594117
160,220,12675,6,0,B|153:177|153:177|177:153|201:145|221:109|201:81|190:63|208:30|239:28,1,221.999993225098,2|4,0:0|1:0,0:0:0:0:
296,76,13698,5,2,0:0:0:0:
192,208,13869,1,0,0:0:0:0:
68,92,14039,1,2,0:0:0:0:
68,92,14380,1,2,0:0:0:0:
56,296,14721,6,0,P|88:296|152:272,1,83.2499974594117,2|0,0:0|0:0,0:0:0:0:
168,192,15062,2,0,P|136:192|72:216,1,83.2499974594117
136,281,15403,2,0,P|168:281|232:257,1,83.2499974594117,2|0,0:0|0:0,0:0:0:0:
332,160,15744,2,0,P|300:160|236:184,1,83.2499974594117
356,248,16084,6,0,P|404:232|424:160,1,110.999996612549,2|2,0:0|0:0,0:0:0:0:
412,104,16596,1,0,0:0:0:0:
348,44,16766,2,0,L|252:60,1,83.2499974594117,2|0,0:0|0:0,0:0:0:0:
180,120,17107,2,0,L|276:136,1,83.2499974594117
348,224,17448,2,0,L|252:208,1,83.2499974594117,2|0,0:0|0:0,0:0:0:0:
262,133,17789,2,0,L|358:117,1,83.2499974594117
428,180,18130,2,2,B|444:236|444:236|436:288|436:288|420:308|384:296|376:288|340:320|336:340,1,221.999993225098
64,288,19153,6,0,L|64:224,1,55.4999983062745,2|0,0:0|0:0,0:0:0:0:
132,144,19494,2,0,L|148:228,1,83.2499974594117,2|0,0:0|0:0,0:0:0:0:
260,144,19834,2,0,L|244:228,1,83.2499974594117
240,324,20175,2,0,L|328:272,1,83.2499974594117,2|0,0:0|0:0,0:0:0:0:
400,240,20516,2,0,L|312:188,1,83.2499974594117
248,164,20857,2,0,B|192:224|192:224|224:304,1,166.499994918823,2|0,0:0|0:0,0:0:0:0:
316,64,21539,6,0,B|284:124|284:124|332:160|328:208|312:272|212:272|188:212|188:188|200:152|228:124|228:124|184:52,1,443.999986450196,4|2,0:0|0:0,0:0:0:0:
468,40,23584,5,0,3:0:0:0:
487,53,23670,1,0,3:0:0:0:
479,76,23755,1,0,3:0:0:0:
456,76,23840,1,0,3:0:0:0:
448,52,23925,2,0,B|440:88|440:88|452:112|452:112|440:136|440:136|448:168,1,110.999996612549,0|6,0:0|0:0,0:0:0:0:
476,252,24437,5,0,0:0:0:0:
384,360,24607,2,0,P|348:368|288:356,1,92.5,0|8,0:0|0:0,0:0:0:0:
288,128,24948,2,0,P|324:120|384:132,1,92.5,0|8,0:0|0:0,0:0:0:0:
293,358,25289,1,8,0:0:0:0:
68,264,25459,2,0,P|32:224|32:168,1,92.5,0|8,0:0|0:0,0:0:0:0:
236,192,25800,2,0,P|224:240|188:268,1,92.5,0|8,0:0|0:0,0:0:0:0:
40,68,26141,2,0,P|80:40|140:32,1,92.5,0|8,0:0|0:0,0:0:0:0:
143,164,26482,6,0,L|126:122,1,46.25,0|0,0:0|2:0,0:0:0:0:
256,102,26653,2,0,L|260:56,1,46.25,0|0,0:0|2:0,0:0:0:0:
372,166,26823,2,0,L|392:124,1,46.25,0|0,0:0|2:0,0:0:0:0:
464,276,26994,5,6,0:0:0:0:
244,340,27164,1,0,0:0:0:0:
372,166,27334,1,0,0:0:0:0:
408,344,27505,1,8,0:0:0:0:
352,88,27675,2,0,P|258:68|193:133,1,185,8|8,0:0|0:0,0:0:0:0:
299,328,28187,6,0,P|312:283|301:239,1,92.5,0|8,0:0|0:0,0:0:0:0:
116,112,28528,2,0,P|103:157|114:201,1,92.5,0|8,0:0|0:0,0:0:0:0:
344,344,28869,1,0,0:0:0:0:
232,200,29039,1,8,0:0:0:0:
144,344,29209,2,0,L|96:344,1,46.25,0|0,0:0|2:0,0:0:0:0:
344,216,29380,2,0,L|344:280,1,46.25,0|0,0:0|2:0,0:0:0:0:
220,364,29550,2,0,L|220:308,1,46.25,0|0,0:0|2:0,0:0:0:0:
220,76,29721,1,6,0:0:0:0:
428,142,29891,5,0,0:0:0:0:
351,317,30062,1,8,0:0:0:0:
151,243,30232,1,0,0:0:0:0:
220,76,30403,2,0,P|265:85|300:116,1,92.5,8|0,0:0|0:0,0:0:0:0:
276,356,30744,2,0,P|231:347|196:316,1,92.5,8|0,0:0|0:0,0:0:0:0:
220,76,31084,5,8,0:0:0:0:
304,172,31255,1,0,0:0:0:0:
208,256,31425,1,8,0:0:0:0:
116,156,31596,1,0,0:0:0:0:
228,24,31766,1,0,0:0:0:0:
356,180,31937,1,0,0:0:0:0:
204,312,32107,1,0,0:0:0:0:
64,144,32278,1,0,0:0:0:0:
348,108,32448,6,0,P|392:184|319:265,2,185,6|8|8,0:0|0:0|0:0,0:0:0:0:
172,172,33300,1,0,0:0:0:0:
104,264,33471,1,8,0:0:0:0:
172,360,33641,1,0,0:0:0:0:
288,312,33812,1,8,0:0:0:0:
288,204,33982,6,0,L|288:148,1,55.4999983062745
172,172,34323,2,0,L|172:252,1,55.4999983062745
120,80,34664,6,0,L|88:128,1,46.25,8|0,0:0|0:0,0:0:0:0:
232,104,34834,2,0,L|220:148,1,46.25,8|0,0:0|0:0,0:0:0:0:
344,128,35005,2,0,L|344:192,1,46.25,8|0,0:0|0:0,0:0:0:0:
432,220,35175,6,0,P|433:265|423:309,1,92.5,6|0,0:0|0:3,0:3:0:0:
243,342,35516,2,0,P|241:296|251:252,1,92.5,0|0,0:0|0:3,0:3:0:0:
344,37,35857,2,0,P|346:84|335:128,1,92.5,0|0,0:0|0:3,0:3:0:0:
156,160,36198,2,0,P|154:113|165:69,1,92.5,0|0,0:0|0:3,0:3:0:0:
344,37,36539,5,8,0:0:0:0:
352,272,36709,1,8,0:0:0:0:
248,60,36880,1,0,0:0:0:0:
388,148,37050,1,8,0:0:0:0:
196,228,37221,1,0,0:0:0:0:
352,56,37391,1,0,0:0:0:0:
328,320,37562,6,0,L|296:320,1,23.125,0|0,0:0|2:0,0:0:0:0:
204,108,37732,2,0,L|172:108,1,23.125,0|0,0:0|2:0,0:0:0:0:
160,368,37903,6,0,L|252:356,1,92.5,6|0,0:0|0:0,0:0:0:0:
336,224,38244,2,0,P|288:220|240:224,1,92.5,8|0,0:0|0:0,0:0:0:0:
424,276,38584,2,0,P|440:228|428:176,1,92.5,8|0,0:0|0:0,0:0:0:0:
160,176,38925,2,0,P|144:224|156:276,1,92.5,8|0,0:0|0:0,0:0:0:0:
384,180,39266,6,0,L|336:84,1,92.5
98,81,39607,2,0,L|146:177,1,92.5
256,320,39948,2,0,P|301:297|344:232,1,92.5,8|0,0:0|0:0,0:0:0:0:
320,100,40289,2,0,P|275:123|232:188,1,92.5,8|0,0:0|0:0,0:0:0:0:
104,32,40630,5,6,0:0:0:0:
8,128,40800,1,0,0:0:0:0:
104,224,40971,1,8,0:0:0:0:
200,128,41141,1,0,0:0:0:0:
176,240,41312,1,8,0:0:0:0:
288,264,41482,1,0,0:0:0:0:
312,152,41653,1,8,0:0:0:0:
408,248,41823,1,0,0:0:0:0:
504,152,41994,5,8,0:0:0:0:
408,56,42164,1,0,0:0:0:0:
312,152,42334,1,8,0:0:0:0:
288,264,42505,1,0,0:0:0:0:
176,240,42675,1,8,0:0:0:0:
200,128,42846,1,0,0:0:0:0:
304,24,43016,2,0,L|240:84,1,46.25,0|0,0:0|2:0,0:0:0:0:
384,88,43187,2,0,L|352:152,1,46.25,0|0,0:0|2:0,0:0:0:0:
484,100,43357,2,0,L|480:148,1,46.25,6|0,0:0|2:0,0:0:0:0:
432,320,43528,6,0,L|320:308,1,92.5,0|0,0:0|2:0,0:0:0:0:
124,172,43869,2,0,P|184:172|224:180,1,92.5,0|0,0:0|2:0,0:0:0:0:
500,112,44209,2,0,P|432:112|400:104,1,92.5,0|0,0:0|2:0,0:0:0:0:
176,56,44550,1,0,0:0:0:0:
408,106,44721,6,0,L|432:104,20,23.125
308,16,45744,5,0,0:0:0:0:
452,104,45914,1,0,0:0:0:0:
396,244,46084,2,0,P|360:252|292:228,1,92.5,6|0,0:0|0:0,0:0:0:0:
228,100,46425,2,0,L|328:140,1,92.5,10|2,0:0|0:0,0:0:0:0:
148,272,46766,2,0,P|140:228|161:180,1,92.5
344,280,47107,2,0,P|352:324|331:372,1,92.5,10|0,0:0|0:0,0:0:0:0:
68,304,47448,6,0,P|60:260|80:211,1,92.5,2|0,0:0|0:0,0:0:0:0:
128,200,47704,2,0,L|128:144,1,46.25,0|10,0:0|0:0,0:0:0:0:
324,144,47959,1,2,0:0:0:0:
324,144,48045,1,0,0:0:0:0:
324,144,48130,2,0,P|316:204|288:236,1,92.5,2|0,0:0|0:0,0:0:0:0:
128,100,48471,2,0,L|192:20,1,92.5,10|0,0:0|0:0,0:0:0:0:
456,128,48812,6,0,P|484:212|464:284,1,138.75,2|0,0:0|0:0,0:0:0:0:
468,288,49153,1,10,0:0:0:0:
392,348,49323,1,2,0:0:0:0:
392,348,49408,1,0,0:0:0:0:
392,348,49494,1,0,0:0:0:0:
304,192,49664,1,2,0:0:0:0:
212,352,49834,2,0,P|196:312|192:248,1,92.5,8|2,0:0|0:0,0:0:0:0:
184,80,50175,6,0,P|264:104|304:192,1,185,2|10,0:0|0:0,0:0:0:0:
284,304,50687,1,2,0:0:0:0:
216,160,50857,1,2,0:0:0:0:
348,48,51028,1,0,0:0:0:0:
476,148,51198,1,10,0:0:0:0:
452,304,51369,1,2,0:0:0:0:
452,304,51454,1,0,0:0:0:0:
452,304,51539,6,0,P|360:336|284:304,1,185,2|10,0:0|0:0,0:0:0:0:
256,68,52050,1,2,0:0:0:0:
256,68,52136,1,0,0:0:0:0:
256,68,52221,2,0,P|184:96|160:196,1,185,2|10,0:0|0:0,0:0:0:0:
184,324,52732,1,2,0:0:0:0:
348,296,52903,6,0,P|312:192|232:160,1,185,2|10,0:0|0:0,0:0:0:0:
28,180,53414,1,0,0:0:0:0:
28,180,53499,1,0,0:0:0:0:
28,180,53584,2,0,L|64:180,1,23.125,2|0,0:0|0:0,0:0:0:0:
184,308,53755,2,0,L|184:276,1,23.125
196,120,53925,2,0,L|156:120,1,23.125,10|8,0:0|0:0,0:0:0:0:
28,92,54096,6,0,L|28:124,1,23.125,2|0,0:0|0:0,0:0:0:0:
268,196,54266,2,0,P|300:80|248:40,1,185,2|10,0:0|0:0,0:0:0:0:
56,44,54778,1,2,0:0:0:0:
128,184,54948,1,2,0:0:0:0:
224,48,55119,2,0,L|224:100,1,46.25,2|0,0:0|0:0,0:0:0:0:
184,277,55289,2,0,L|184:329,1,46.25,8|0,0:0|0:0,0:0:0:0:
104,88,55459,6,0,L|200:132,1,92.5,2|4,0:0|0:0,0:0:0:0:
422,112,55800,2,0,L|335:173,1,92.5,2|8,0:0|0:0,0:0:0:0:
241,375,56141,2,0,L|232:270,1,92.5,6|4,0:0|0:0,0:0:0:0:
216,40,56482,6,0,L|220:96,1,46.25,2|0,0:0|2:0,0:0:0:0:
364,164,56653,2,0,L|368:220,1,46.25,10|0,0:0|2:0,0:0:0:0:
160,272,56823,2,0,L|164:328,1,46.25
68,104,56994,6,0,P|148:64|236:108,1,185,6|10,0:0|0:0,0:0:0:0:
252,348,57505,1,0,0:0:0:0:
252,348,57590,1,0,0:0:0:0:
252,348,57675,2,0,L|252:244,1,92.5,2|2,0:0|0:0,0:0:0:0:
424,88,58016,1,10,0:0:0:0:
472,316,58187,1,0,0:0:0:0:
172,308,58357,6,0,P|156:256|168:208,1,92.5,2|2,0:0|0:0,0:0:0:0:
192,184,58613,2,0,L|172:128,1,46.25,0|10,0:0|0:0,0:0:0:0:
408,188,58869,1,2,0:0:0:0:
408,188,58954,1,0,0:0:0:0:
408,188,59039,2,0,B|404:235|404:235|367:283,1,92.5,2|0,0:0|0:0,0:0:0:0:
52,272,59380,2,0,P|56:216|80:180,1,92.5,10|0,0:0|0:0,0:0:0:0:
412,92,59721,6,0,P|460:140|476:212,1,138.75,2|0,0:0|0:0,0:0:0:0:
476,236,60062,2,0,L|456:264,1,23.125,10|10,0:0|0:0,0:0:0:0:
356,160,60232,2,0,L|336:132,1,23.125,2|2,0:0|0:0,0:0:0:0:
136,196,60403,2,0,L|156:168,1,23.125
328,248,60573,2,0,L|308:220,1,23.125,2|0,0:0|0:0,0:0:0:0:
72,248,60744,5,8,0:0:0:0:
408,248,60914,1,2,0:0:0:0:
162,17,61084,2,0,P|122:61|110:109,1,92.5,2|2,0:0|0:0,0:0:0:0:
324,16,61425,2,0,P|364:60|376:108,1,92.5,10|2,0:0|0:0,0:0:0:0:
72,184,61766,5,0,0:0:0:0:
440,184,61937,1,10,0:0:0:0:
256,344,62107,1,2,0:0:0:0:
256,128,62278,2,0,L|256:188,1,46.25,2|0,0:0|0:0,0:0:0:0:
256,80,62448,2,0,P|220:104|189:147,1,92.5,2|0,0:0|0:0,0:0:0:0:
340,324,62789,2,0,P|376:300|407:257,1,92.5,10|0,0:0|0:0,0:0:0:0:
256,80,63130,5,2,0:0:0:0:
108,232,63300,1,0,0:0:0:0:
108,232,63386,1,0,0:0:0:0:
108,232,63471,2,0,P|120:276|164:312,1,92.5,10|0,0:0|0:0,0:0:0:0:
452,296,63812,2,0,B|468:256|468:256|468:184,1,92.5,2|0,0:0|0:0,0:0:0:0:
300,40,64067,1,0,0:0:0:0:
300,40,64153,2,0,P|274:77|275:128,1,92.5,10|2,0:0|0:0,0:0:0:0:
360,336,64494,2,0,L|360:280,1,46.25,2|0,0:0|2:0,0:0:0:0:
468,206,64664,2,0,L|468:150,1,46.25,0|0,0:0|2:0,0:0:0:0:
416,44,64834,2,0,P|372:23|318:21,1,92.5,10|0,0:0|0:0,0:0:0:0:
196,56,65090,5,0,0:0:0:0:
196,56,65175,2,0,L|160:148,1,92.5,6|0,0:0|0:0,0:0:0:0:
256,192,65516,1,10,0:0:0:0:
316,328,65687,2,0,L|352:236,1,92.5,6|0,0:0|0:0,0:0:0:0:
316,56,65942,1,0,0:0:0:0:
316,56,66028,2,0,L|352:148,1,92.5,6|0,0:0|0:0,0:0:0:0:
196,328,66369,6,0,L|160:236,1,92.5,6|0,0:0|1:0,0:0:0:0:
72,72,66709,2,0,P|56:132|56:180,1,92.5,6|0,0:0|1:0,0:0:0:0:
92,304,67050,2,0,P|136:264|168:236,1,92.5,6|0,0:0|0:0,0:0:0:0:
328,276,67391,2,0,P|380:256|416:208,1,92.5,6|0,0:0|0:0,0:0:0:0:
304,64,67732,1,2,0:0:0:0:
488,52,67903,5,6,0:0:0:0:
272,160,68073,1,2,0:0:0:0:
463,147,68244,1,0,0:0:0:0:
168,96,68414,6,0,B|132:56|96:40|88:24,1,92.5,2|0,0:0|0:0,0:0:0:0:
372,152,68755,2,0,P|424:156|480:140,1,92.5,2|0,0:0|0:0,0:0:0:0:
220,296,69096,2,0,B|200:332|196:364|196:364|176:400,1,92.5,2|0,0:0|0:0,0:0:0:0:
284,88,69437,6,0,B|300:76|308:36|332:8,1,92.5,10|0,0:0|0:0,0:0:0:0:
168,200,69778,2,0,B|144:224|100:200|72:220,1,92.5,10|0,0:0|0:0,0:0:0:0:
312,244,70119,2,0,B|332:264|340:296|376:316,1,92.5,10|0,0:0|0:0,0:0:0:0:
368,48,70459,1,10,0:0:0:0:
176,24,70630,5,12,0:0:0:0:
136,37,70715,1,8,0:0:0:0:
109,68,70800,1,8,0:0:0:0:
94,107,70886,1,8,0:0:0:0:
97,148,70971,1,8,0:0:0:0:
114,185,71056,1,8,0:0:0:0:
147,209,71141,1,8,0:0:0:0:
188,214,71227,1,8,0:0:0:0:
227,200,71312,1,8,0:0:0:0:
251,166,71397,1,8,0:0:0:0:
262,126,71482,1,8,0:0:0:0:
288,94,71567,1,8,0:0:0:0:
329,85,71653,1,8,0:0:0:0:
368,96,71738,1,8,0:0:0:0:
392,129,71823,1,8,0:0:0:0:
407,167,71908,1,8,0:0:0:0:
412,187,71994,6,0,L|429:188,32,11.5625
108,308,73698,6,0,P|80:260|96:200,1,111
112,208,74039,2,0,P|160:176|71:52,1,259,2|0,0:0|0:0,0:0:0:0:
56,72,74721,6,0,B|104:124|160:72|160:72|180:56|208:40|248:48|248:87|304:100,1,259
308,92,75403,6,0,P|328:36|352:136,1,259,2|0,0:0|0:0,0:0:0:0:
368,160,76084,2,0,B|324:188|324:188|284:188|284:188|248:172|248:172|248:132|232:104|216:76|184:64|144:56|104:60|76:80|64:104|48:136|40:168|44:200|60:232|76:260|100:280|128:284|128:284|128:284|128:284|128:284|128:284,1,555
140,312,77448,6,0,B|216:316|216:316|204:288|204:288|216:264|236:252|288:264|308:280|304:312|300:340,1,259,2|0,0:0|0:0,0:0:0:0:
328,360,78130,2,0,B|384:356|400:336|388:304|380:276|364:248|360:212|380:188|404:168|448:176,1,259
468,192,78812,6,0,B|432:248|396:240|356:240|320:180|336:136|348:104|400:84,1,259,2|0,0:0|0:0,0:0:0:0:
408,72,79494,2,0,B|296:40|296:40|280:96|232:132|176:124,1,259
156,124,80175,6,0,P|148:60|72:144,1,259
84,180,80857,2,0,B|100:252|148:264|152:256|152:256|224:216|336:248,1,296,2|0,0:0|0:0,0:0:0:0:
256,192,81624,12,8,84096,0:0:0:0:
256,192,84266,12,8,86653,0:0:0:0:
256,192,86823,12,4,87846,0:0:0:0:
256,8,88187,5,0,0:0:0:0:
256,8,88272,1,0,0:0:0:0:
256,8,88357,2,0,P|276:48|268:108,1,92.5
20,184,88698,2,0,P|0:144|8:84,1,92.5
172,94,89039,2,0,L|207:86,1,23.125
369,94,89209,2,0,L|334:102,1,23.125
277,210,89380,2,0,L|269:175,1,23.125
280,0,89550,2,0,L|287:23,1,23.125
304,304,89721,6,0,B|272:344|272:344|256:360|240:352|240:352|240:336|216:324|216:324,1,92.5,12|0,0:0|0:0,0:0:0:0:
148,284,90062,2,0,L|148:228,1,46.25,0|0,0:0|2:0,0:0:0:0:
252,208,90232,2,0,P|248:152|180:88,1,138.75
156,84,90573,1,0,0:0:0:0:
48,212,90744,1,0,0:0:0:0:
116,356,90914,1,0,0:0:0:0:
296,352,91084,6,0,P|344:332|368:248,1,138.75
360,224,91425,1,0,0:0:0:0:
368,68,91596,2,0,L|368:36,1,23.125
304,144,91766,2,0,L|276:144,1,23.125
168,72,91937,2,0,L|192:72,1,23.125
92,152,92107,2,0,L|92:184,1,23.125
176,276,92278,2,0,L|176:236,1,23.125
104,336,92448,6,0,P|148:364|240:340,1,138.75,8|0,0:0|0:0,0:0:0:0:
256,320,92789,1,0,0:0:0:0:
444,232,92959,2,0,B|428:196|428:196|448:184|456:132|456:132|428:132,1,138.750005292893,0|0,0:0|2:0,0:0:0:0:
156,84,93300,2,0,B|172:120|172:120|152:132|144:184|144:184|172:184,1,138.750005292893,0|0,0:0|2:0,0:0:0:0:
368,72,93641,2,0,L|368:12,1,46.25,0|0,0:0|2:0,0:0:0:0:
88,24,93812,6,0,P|68:76|76:120,1,92.5
256,192,94153,1,0,0:0:0:0:
432,136,94323,2,0,L|432:96,1,34.6875013232232
316,28,94494,2,0,L|356:28,1,23.125
228,104,94664,2,0,L|228:140,1,23.125
372,228,94834,2,0,L|372:188,1,23.125
268,308,95005,2,4,L|224:308,1,23.125,0|0,0:0|0:0,0:0:0:0:
428,352,95175,6,0,B|464:316|464:316|464:220,1,138.75,8|0,0:0|0:0,0:0:0:0:
464,188,95516,1,0,0:0:0:0:
460,40,95687,2,0,L|416:84,1,46.25
328,64,95857,2,0,L|284:108,1,46.25
196,96,96028,5,0,0:0:0:0:
388,160,96198,1,0,0:0:0:0:
200,232,96369,1,0,0:0:0:0:
388,300,96539,6,0,L|328:300,1,46.25
196,344,96709,2,0,B|152:364|152:364|104:340,1,92.5
40,232,97050,2,0,L|40:200,1,23.125
124,152,97221,2,0,L|124:112,1,23.125
224,236,97391,2,0,L|224:200,1,23.125
292,60,97562,2,0,L|292:96,1,23.125
376,236,97732,2,0,L|376:200,1,23.125
456,36,97903,6,0,P|484:76|484:124,1,92.5,8|0,0:0|0:0,0:0:0:0:
376,316,98244,1,0,0:0:0:0:
274,173,98414,2,0,L|294:69,1,92.5
288,280,98755,2,0,P|239:275|202:236,1,92.5
256,8,99096,1,0,0:0:0:0:
256,8,99181,1,0,0:0:0:0:
256,8,99266,1,4,0:0:0:0:
252,180,99437,5,0,0:0:0:0:
124,72,99607,2,0,P|120:108|124:136,1,46.25,2|0,0:0|0:0,0:0:0:0:
388,128,99948,2,0,P|400:156|400:188,1,46.25,2|0,0:0|0:0,0:0:0:0:
120,196,100289,2,0,P|112:224|112:248,1,46.25,2|0,0:0|0:0,0:0:0:0:
400,248,100630,2,0,P|412:280|412:308,1,46.25,2|0,0:0|0:0,0:0:0:0:
140,360,100971,6,0,P|128:332|124:308,1,46.25,2|0,0:0|0:0,0:0:0:0:
400,248,101312,2,0,P|408:216|408:192,1,46.25,2|0,0:0|0:0,0:0:0:0:
108,176,101653,2,0,P|96:144|92:112,1,46.25,2|0,0:0|0:0,0:0:0:0:
424,84,101994,6,0,P|436:48|436:28,1,46.25,2|0,0:0|0:0,0:0:0:0:
228,72,102334,2,0,L|224:8,1,57.8125,2|0,0:0|0:0,0:0:0:0:
48,104,102675,2,0,P|40:172|104:220,1,138.75,2|0,0:0|0:0,0:0:0:0:
416,236,103357,6,0,P|420:208|416:176,1,46.25,2|0,0:0|0:0,0:0:0:0:
248,288,103698,2,0,P|244:260|248:228,1,46.25,2|0,0:0|0:0,0:0:0:0:
440,336,104039,6,0,L|440:348,16,11.5625,0|0|0|0|0|0|0|0|0|0|0|0|0|0|0|0|8,0:0|0:0|0:0|0:0|0:0|0:0|0:0|0:0|0:0|0:0|0:0|0:0|0:0|0:0|0:0|0:0|0:0,0:0:0:0:
72,240,105062,5,0,0:0:0:0:
164,312,105232,2,0,P|184:228|144:136,1,166.499994918823,2|0,0:0|0:0,0:0:0:0:
144,140,105914,1,0,0:0:0:0:
144,140,106084,2,0,P|192:64|320:96,1,221.999993225098,2|0,0:0|0:0,0:0:0:0:
468,208,107107,1,0,0:0:0:0:
384,232,107278,1,0,0:0:0:0:
468,208,107448,6,0,P|472:296|344:296,1,221.999993225098,2|0,0:0|0:0,0:0:0:0:
256,208,108471,2,0,L|256:128,1,55.4999983062745
256,68,108812,5,2,0:0:0:0:
104,172,109153,1,0,0:0:0:0:
104,172,109494,1,4,0:0:0:0:
242,112,109834,1,2,0:0:0:0:
52,40,110175,6,0,P|136:112|244:112,1,221.999993225098,2|0,0:0|0:0,0:0:0:0:
460,344,111198,1,0,0:0:0:0:
336,368,111369,1,0,0:0:0:0:
460,344,111539,6,0,P|376:272|268:272,1,221.999993225098,2|0,0:0|0:0,0:0:0:0:
144,376,112562,1,0,0:0:0:0:
192,304,112732,1,0,0:0:0:0:
120,264,112903,6,0,P|84:200|128:60,1,221.999993225098,2|0,0:0|0:0,0:0:0:0:
376,72,113925,1,0,0:0:0:0:
376,72,114266,2,0,P|412:136|368:276,1,221.999993225098,2|0,0:0|0:0,0:0:0:0:
176,292,115289,5,0,0:0:0:0:
188,192,115459,1,0,0:0:0:0:
176,292,115630,2,0,P|96:248|88:176,1,166.499994918823,2|0,0:0|0:0,0:0:0:0:
300,188,116653,1,0,0:0:0:0:
200,156,116823,1,0,0:0:0:0:
300,188,116994,2,0,P|292:108|216:52,1,166.499994918823,2|0,0:0|0:0,0:0:0:0:
172,248,117846,5,0,0:0:0:0:
240,328,118016,1,0,0:0:0:0:
268,232,118187,1,0,0:0:0:0:
240,328,118357,2,0,P|344:324|360:216,1,221.999993225098,2|0,0:0|0:0,0:0:0:0:
268,232,119380,2,0,P|192:220|192:96,1,221.999993225098
364,40,120403,5,4,0:0:0:0:
268,100,120744,1,2,0:0:0:0:
188,24,121084,2,0,P|128:108|204:180,1,221.999993225098,0|2,0:0|0:0,0:0:0:0:
324,360,122107,1,0,0:0:0:0:
324,360,122448,2,0,P|384:276|308:204,1,221.999993225098,2|0,0:0|0:0,0:0:0:0:
92,224,123471,5,0,0:0:0:0:
92,224,123812,2,0,B|92:132|196:132|196:24,1,221.999993225098,2|0,0:0|0:0,0:0:0:0:
444,108,125005,1,2,0:0:0:0:
444,108,125175,1,0,0:0:0:0:
388,204,125346,1,0,0:0:0:0:
388,204,125516,1,2,0:0:0:0:
396,316,125687,1,0,0:0:0:0:
396,316,125772,1,0,0:0:0:0:
396,316,125857,2,2,P|336:304|292:252,1,110.999996612549
256,192,126539,12,0,128925,0:0:0:0:
227,104,129266,6,0,P|235:59|208:24,1,92.5,4|0,0:0|0:0,0:0:0:0:
24,136,129607,2,0,P|72:152|116:124,1,92.5,8|0,0:0|0:0,0:0:0:0:
136,136,129863,2,0,L|192:136,1,46.25
328,20,130119,2,0,P|364:96|308:184,1,185,8|0,0:0|0:0,0:0:0:0:
244,92,130630,5,0,0:0:0:0:
424,24,130800,1,0,0:0:0:0:
428,208,130971,2,0,P|408:244|356:272,1,92.5,8|0,0:0|0:0,0:0:0:0:
336,272,131227,1,0,0:0:0:0:
300,288,131312,2,0,P|272:248|224:228,1,92.5
140,236,131653,2,0,P|96:284|88:332,1,92.5,8|0,0:0|0:0,0:0:0:0:
32,236,131994,6,0,P|64:156|52:84,1,138.75
48,80,132334,1,8,0:0:0:0:
188,112,132505,1,0,0:0:0:0:
188,112,132590,1,0,0:0:0:0:
188,112,132675,2,0,P|220:72|256:48,1,92.5,0|8,0:0|0:0,0:0:0:0:
424,24,133016,2,0,P|436:68|412:132,1,92.5,8|0,0:0|0:0,0:0:0:0:
404,124,133272,1,0,0:0:0:0:
384,128,133357,1,0,0:0:0:0:
172,328,133528,6,0,P|216:316|248:276,1,92.5,0|8,0:0|0:0,0:0:0:0:
312,360,133869,2,0,P|336:292|296:212,1,138.75,8|0,0:0|0:0,0:0:0:0:
300,208,134209,1,0,0:0:0:0:
245,281,134380,2,0,L|173:193,1,92.5,8|0,0:0|0:0,0:0:0:0:
44,144,134721,6,0,P|76:72|156:40,1,138.75
152,48,135062,1,8,0:0:0:0:
336,48,135232,1,0,0:0:0:0:
336,48,135317,1,0,0:0:0:0:
336,48,135403,2,0,L|432:124,1,92.5,0|8,0:0|0:0,0:0:0:0:
500,184,135744,1,0,0:0:0:0:
432,16,135914,1,8,0:0:0:0:
336,164,136084,6,0,P|280:208|152:172,1,185,0|8,0:0|0:0,0:0:0:0:
96,64,136596,1,0,0:0:0:0:
96,64,136681,1,0,0:0:0:0:
96,64,136766,2,0,P|132:100|136:160,1,92.5
64,248,137107,1,8,0:0:0:0:
148,344,137278,5,0,0:0:0:0:
148,344,137363,1,0,0:0:0:0:
148,344,137448,2,0,P|240:332|292:256,1,185,0|8,0:0|0:0,0:0:0:0:
380,324,137959,2,0,P|296:264|304:188,2,185
446,253,138812,1,0,0:0:0:0:
448,168,138982,2,0,P|432:216|456:264,1,92.5,0|8,0:0|0:0,0:0:0:0:
392,92,139323,2,0,P|352:60|288:44,1,92.5
160,40,139664,2,0,P|200:72|264:88,1,92.5,0|8,0:0|0:0,0:0:0:0:
344,236,140005,5,0,0:0:0:0:
344,236,140090,1,0,0:0:0:0:
344,236,140175,2,0,P|356:316|268:352,1,185,0|8,0:0|0:0,0:0:0:0:
204,224,140687,1,0,0:0:0:0:
56,220,140857,2,0,P|36:164|48:112,1,92.5
220,12,141198,2,0,P|240:68|228:120,1,92.5,8|0,0:0|0:0,0:0:0:0:
204,308,141539,5,0,0:0:0:0:
448,312,141709,1,0,0:0:0:0:
420,280,141795,1,0,0:0:0:0:
392,244,141880,2,0,P|388:188|392:152,1,92.5,8|0,0:0|0:0,0:0:0:0:
476,28,142221,2,0,P|436:48|376:60,1,92.5
220,12,142562,2,0,P|173:22|133:42,1,92.5,8|0,0:0|0:0,0:0:0:0:
36,224,142817,5,0,0:0:0:0:
36,224,142903,2,0,P|40:300|116:348,1,138.75
104,344,143244,1,8,0:0:0:0:
256,292,143414,2,0,L|304:292,1,46.25
424,348,143584,2,0,P|452:308|452:252,1,92.5
456,216,143840,2,0,L|456:160,1,46.25,0|8,0:0|0:0,0:0:0:0:
236,28,144096,5,0,0:0:0:0:
200,260,144266,1,0,0:0:0:0:
112,56,144437,1,0,0:0:0:0:
296,148,144607,1,8,0:0:0:0:
104,268,144778,1,0,0:0:0:0:
112,56,144948,1,0,0:0:0:0:
24,204,145119,5,0,0:0:0:0:
345,312,145289,2,0,P|363:270|363:222,1,92.5,8|0,0:0|0:0,0:0:0:0:
24,204,145630,6,0,P|28:120|112:80,1,185,4|8,0:0|0:0,0:0:0:0:
440,164,146141,1,0,0:0:0:0:
440,164,146227,1,0,0:0:0:0:
440,164,146312,2,0,L|272:72,1,185,0|8,0:0|0:0,0:0:0:0:
164,16,146823,1,0,0:0:0:0:
72,208,146994,6,0,P|144:232|172:212,1,92.5,4|0,0:0|0:0,0:0:0:0:
361,343,147334,2,0,P|346:268|315:254,1,92.5,8|0,0:0|0:0,0:0:0:0:
334,24,147675,2,0,P|277:75|280:109,1,92.5
412,310,148016,2,0,L|412:254,1,46.25
492,40,148187,2,0,L|492:104,1,46.25
412,264,148357,6,8,P|400:308|360:344,1,92.5,12|8,0:0|0:0,0:0:0:0:
60,344,148698,1,8,0:0:0:0:
12,80,148869,2,8,P|52:56|112:60,1,92.5,8|12,0:0|0:0,0:0:0:0:
412,264,149209,1,8,0:0:0:0:
220,284,149380,1,8,0:0:0:0:
364,68,149550,5,8,0:0:0:0:
296,320,149721,1,12,0:0:0:0:
212,64,149891,1,8,0:0:0:0:
184,368,150062,1,12,0:0:0:0:
240,136,150232,1,8,0:0:0:0:
376,316,150403,5,12,0:0:0:0:
104,192,150573,1,8,0:0:0:0:
384,160,150744,1,12,0:0:0:0:
56,336,150914,1,8,0:0:0:0:
348,280,151084,6,0,B|432:256|432:256|416:180|492:160|492:160|456:132|456:132|472:72|420:32,1,370,0|2,0:0|0:0,0:0:0:0:
48,128,152448,1,2,0:0:0:0:
48,128,153130,6,0,B|24:208|24:208|60:184|64:212|48:232|44:272|72:304|104:324|148:324|188:300|200:264|192:204,1,370,2|2,0:0|0:0,0:0:0:0:
96,328,155175,5,2,0:0:0:0:
96,280,155261,1,0,0:0:0:0:
76,240,155346,1,0,0:0:0:0:
59,196,155431,1,0,0:0:0:0:
65,150,155516,1,0,0:0:0:0:
93,113,155602,1,0,0:0:0:0:
137,101,155687,1,0,0:0:0:0:
181,114,155772,1,0,0:0:0:0:
205,152,155857,1,0,0:0:0:0:
210,197,155942,1,0,0:0:0:0:
233,237,156028,1,0,0:0:0:0:
275,254,156113,1,0,0:0:0:0:
320,244,156198,1,0,0:0:0:0:
342,203,156283,1,0,0:0:0:0:
337,156,156369,1,0,0:0:0:0:
342,110,156454,1,0,0:0:0:0:
377,80,156539,5,6,0:0:0:0:
93,113,156709,1,0,0:0:0:0:
93,113,156795,1,0,0:0:0:0:
93,113,156880,1,10,0:0:0:0:
128,292,157050,5,0,0:0:0:0:
128,292,157136,1,0,0:0:0:0:
128,292,157221,2,0,L|128:344,1,46.25,2|0,0:0|0:0,0:0:0:0:
276,328,157391,2,0,P|284:272|268:232,1,92.5,2|8,0:0|2:0,0:0:0:0:
93,113,157732,2,0,L|189:113,1,92.5,2|0,0:0|0:0,0:0:0:0:
185,113,158073,1,2,0:0:0:0:
424,72,158244,6,0,L|332:104,1,92.5,10|0,0:0|0:0,0:0:0:0:
336,102,158499,1,0,0:0:0:0:
336,102,158584,1,2,0:0:0:0:
148,320,158755,2,0,L|248:276,1,92.5,2|8,0:0|0:0,0:0:0:0:
232,282,159096,1,2,0:0:0:0:
460,284,159266,6,0,P|424:324|376:336,1,92.5,2|0,0:0|0:0,0:0:0:0:
108,244,159607,2,0,P|144:204|192:192,1,92.5,10|0,0:0|0:0,0:0:0:0:
216,208,159863,1,2,0:0:0:0:
216,208,159948,1,0,0:0:0:0:
231,42,160119,2,0,L|300:104,1,92.5,2|8,0:0|0:0,0:0:0:0:
168,296,160459,2,0,P|128:276|96:224,1,92.5,2|0,0:0|0:0,0:0:0:0:
299,103,160800,5,2,0:0:0:0:
352,256,160971,2,0,L|276:276,1,46.25,10|0,0:0|0:0,0:0:0:0:
252,288,161141,2,0,P|200:304|124:288,1,92.5,0|2,0:0|0:0,0:0:0:0:
20,220,161482,2,0,P|20:185|52:133,1,92.5,2|8,0:0|0:0,0:0:0:0:
432,124,161823,5,2,0:0:0:0:
432,124,161908,1,0,0:0:0:0:
432,124,161994,2,0,P|456:180|456:216,1,92.5,2|0,0:0|0:0,0:0:0:0:
376,184,162334,2,0,P|320:208|284:208,1,92.5,10|2,0:0|0:0,0:0:0:0:
192,208,162590,2,0,L|240:208,1,46.25
272,376,162846,2,0,L|224:376,1,46.25,2|0,0:0|0:0,0:0:0:0:
184,344,163016,2,0,P|236:284|276:268,1,92.5,8|2,0:0|0:0,0:0:0:0:
436,168,163357,5,0,0:0:0:0:
440,360,163528,1,2,0:0:0:0:
432,120,163698,2,0,P|396:88|340:80,1,92.5,10|0,0:0|0:0,0:0:0:0:
333,86,163954,1,0,0:0:0:0:
333,86,164039,1,2,0:0:0:0:
160,224,164209,2,0,P|212:224|260:208,1,92.5,2|8,0:0|0:0,0:0:0:0:
250,212,164550,1,2,0:0:0:0:
136,344,164721,6,0,P|68:308|68:240,1,138.75,2|0,0:0|0:0,0:0:0:0:
68,240,165062,1,10,0:0:0:0:
124,44,165232,2,0,L|112:96,1,46.25,2|0,0:0|0:0,0:0:0:0:
148,120,165403,2,0,P|216:108|264:112,1,92.5,2|0,0:0|0:0,0:0:0:0:
400,132,165744,1,10,0:0:0:0:
496,284,165914,2,0,P|428:272|380:276,1,92.5,2|0,0:0|0:0,0:0:0:0:
268,312,166255,1,2,0:0:0:0:
116,228,166425,6,0,P|104:284|128:324,1,92.5,10|0,0:0|0:0,0:0:0:0:
120,312,166681,1,10,0:0:0:0:
120,312,166766,1,2,0:0:0:0:
196,176,166937,2,0,P|208:120|184:80,1,92.5,10|0,0:0|0:0,0:0:0:0:
33,16,167278,2,0,L|89:16,1,46.25,10|0,0:0|2:0,0:0:0:0:
112,136,167448,6,0,B|160:156|160:156|196:132|196:132|228:144|228:144|296:144,1,185,2|10,0:0|0:0,0:0:0:0:
400,144,167959,1,0,0:0:0:0:
400,144,168045,1,2,0:0:0:0:
400,144,168130,2,0,P|388:192|336:216,1,92.5,0|2,0:0|0:0,0:0:0:0:
80,16,168471,1,8,0:0:0:0:
80,16,168641,2,0,P|57:54|58:110,1,92.5,2|0,0:0|0:0,0:0:0:0:
124,356,168982,5,2,0:0:0:0:
68,244,169153,2,0,P|72:192|108:152,1,92.5,10|0,0:0|0:0,0:0:0:0:
120,148,169408,1,2,0:0:0:0:
144,132,169494,2,0,P|172:92|176:44,1,92.5,2|2,0:0|0:0,0:0:0:0:
368,252,169834,2,0,P|340:292|336:340,1,92.5,8|2,0:0|0:0,0:0:0:0:
192,128,170175,6,0,L|96:112,1,92.5,2|0,0:0|0:0,0:0:0:0:
320,256,170516,2,0,L|416:272,1,92.5,10|0,0:0|0:0,0:0:0:0:
416,276,170772,1,2,0:0:0:0:
416,276,170857,1,0,0:0:0:0:
76,240,171028,2,0,L|72:128,1,92.5,2|8,0:0|0:0,0:0:0:0:
342,136,171369,2,0,P|342:184|318:232,1,92.5,2|0,0:0|0:0,0:0:0:0:
168,360,171709,5,2,0:0:0:0:
164,160,171880,2,0,P|204:124|244:116,1,92.5,10|0,0:0|0:0,0:0:0:0:
264,128,172136,1,0,0:0:0:0:
288,144,172221,1,2,0:0:0:0:
448,312,172391,2,0,P|476:260|468:204,1,92.5,2|8,0:0|0:0,0:0:0:0:
256,68,172732,5,2,0:0:0:0:
64,312,172903,2,0,P|36:260|44:204,1,92.5,2|0,0:0|0:0,0:0:0:0:
64,204,173158,2,0,L|64:140,1,46.25,0|10,0:0|0:0,0:0:0:0:
324,28,173414,1,0,0:0:0:0:
324,28,173499,1,2,0:0:0:0:
324,28,173584,1,0,0:0:0:0:
392,136,173755,2,0,L|308:188,1,92.5,2|8,0:0|0:0,0:0:0:0:
180,152,174096,6,0,L|180:256,1,92.5,2|0,0:0|0:0,0:0:0:0:
180,352,174437,2,0,L|264:300,1,92.5,2|10,0:0|0:0,0:0:0:0:
420,272,174778,2,0,L|368:304,1,46.25,0|2,0:0|0:0,0:0:0:0:
360,352,174948,2,0,L|316:252,2,92.5,0|2|8,0:0|0:0|0:0,0:0:0:0:
360,352,175459,1,2,0:0:0:0:
324,108,175630,6,0,L|344:56,3,46.25,2|0|0|0,0:0|0:0|0:0|0:0,0:0:0:0:
252,240,175971,2,0,L|272:300,3,46.25,2|0|0|2,0:0|0:0|0:0|0:0,0:0:0:0:
152,64,176312,2,0,L|152:0,3,46.25,2|0|2|0,0:0|0:0|0:0|0:0,0:0:0:0:
44,260,176653,2,0,L|24:304,3,46.25,0|0|2|0,0:0|0:0|0:0|0:0,0:0:0:0:
92,120,176994,6,0,L|84:56,1,46.25
164,244,177164,2,0,L|172:308,1,46.25,2|0,0:0|0:0,0:0:0:0:
68,112,177334,6,0,L|43:52,1,46.25
196,244,177505,2,0,L|221:304,1,46.25,2|0,0:0|0:0,0:0:0:0:
28,104,177675,6,0,L|-11:52,1,46.25
232,228,177845,2,0,L|271:280,1,46.25,2|0,0:0|0:0,0:0:0:0:
20,152,178016,6,0,L|8:172,8,23.125
396,112,178528,5,0,0:0:0:0:
396,112,178613,1,8,0:0:0:0:
396,112,178698,2,0,L|324:112,1,64.7499980239869,8|0,0:0|0:0,0:0:0:0:
228,24,179039,1,8,0:0:0:0:
116,192,179209,1,0,0:0:0:0:
108,72,179380,5,8,0:0:0:0:
216,264,179550,1,0,0:0:0:0:
332,76,179721,1,0,0:0:0:0:
392,292,179891,5,0,0:0:0:0:
444,124,180062,1,0,0:0:0:0:
264,160,180232,1,0,0:0:0:0:
392,292,180403,1,8,0:0:0:0:
444,124,180573,5,0,0:0:0:0:
444,124,180744,1,8,0:0:0:0:
156,96,180914,5,0,0:0:0:0:
156,96,180999,1,0,0:0:0:0:
156,96,181084,2,0,L|156:172,1,64.7499980239869,8|0,0:0|0:0,0:0:0:0:
408,240,181425,1,8,0:0:0:0:
116,232,181596,1,0,0:0:0:0:
368,164,181766,1,8,0:0:0:0:
212,360,181937,1,0,0:0:0:0:
208,132,182107,1,8,0:0:0:0:
356,352,182278,6,0,L|372:288,1,64.7499980239869,0|8,0:0|0:0,0:0:0:0:
88,88,182619,1,0,0:0:0:0:
88,88,182704,1,0,0:0:0:0:
88,88,182789,2,0,P|84:136|88:156,1,64.7499980239869,8|0,0:0|0:0,0:0:0:0:
472,152,183130,2,0,P|476:184|472:224,1,64.7499980239869,8|0,0:0|0:0,0:0:0:0:
444,260,183386,2,0,L|444:312,1,32.3749990119934
108,96,183641,6,0,L|108:60,1,32.3749990119934
104,192,183812,2,0,B|116:184|116:184|96:176|96:176|116:176|116:176|96:168|96:168|116:168|116:168|96:160|96:160|116:160|116:160|96:152|96:152|112:128,1,185
112,308,184153,5,8,0:0:0:0:
228,120,184323,1,0,0:0:0:0:
344,312,184494,1,8,0:0:0:0:
448,120,184664,2,0,L|448:52,2,64.7499980239869,0|8|0,0:0|0:0|0:0,0:0:0:0:
156,332,185175,6,0,L|141:256,1,64.7499980239869,8|0,0:0|0:0,0:0:0:0:
112,40,185516,2,0,L|176:61,1,64.7499980239869,8|0,0:0|0:0,0:0:0:0:
400,156,185857,2,0,L|351:196,1,64.7499980239869,8|0,0:0|0:0,0:0:0:0:
112,156,186198,2,0,L|164:200,1,64.7499980239869,8|0,0:0|0:0,0:0:0:0:
176,224,186454,5,0,0:0:0:0:
176,224,186539,2,0,L|176:308,1,64.7499980239869,8|0,0:0|0:0,0:0:0:0:
484,224,186880,1,8,0:0:0:0:
484,336,187050,2,0,L|484:260,1,64.7499980239869,0|8,0:0|0:0,0:0:0:0:
204,328,187391,2,0,L|204:256,1,64.7499980239869,0|8,0:0|0:0,0:0:0:0:
312,96,187732,2,0,L|312:160,1,64.7499980239869,0|8,0:0|0:0,0:0:0:0:
48,96,188073,2,0,L|48:160,1,64.7499980239869
168,216,188414,6,0,L|112:160,1,64.7499980239869
344,168,188755,2,0,L|400:224,1,64.7499980239869
308,344,189096,1,0,0:0:0:0:
156,348,189266,5,4,0:0:0:0:
32,308,189437,1,0,0:0:0:0:
36,184,189607,2,0,P|52:144|100:108,1,92.5
116,120,189863,1,0,0:0:0:0:
128,100,189948,1,0,0:0:0:0:
148,112,190033,1,0,0:0:0:0:
160,92,190119,1,0,0:0:0:0:
180,104,190204,1,0,0:0:0:0:
196,88,190289,1,0,0:0:0:0:
216,98,190374,1,0,0:0:0:0:
231,80,190459,1,0,0:0:0:0:
384,60,190630,6,0,P|416:104|412:152,1,92.5
200,228,190971,2,0,P|168:184|172:136,1,92.5,8|0,0:0|0:0,0:0:0:0:
272,28,191312,5,0,0:0:0:0:
304,308,191482,1,8,0:0:0:0:
60,216,191653,1,8,0:0:0:0:
200,28,191823,6,0,B|204:56|204:56|188:72|188:72|208:76|208:76|212:88|212:88|192:108|192:108|200:120,1,104.062503969669,0|0,0:0|2:0,0:0:0:0:
360,208,191994,6,0,P|392:164|408:108,1,92.5,4|0,0:0|0:0,0:0:0:0:
60,216,192334,2,0,P|28:260|12:316,1,92.5,8|0,0:0|0:0,0:0:0:0:
300,360,192675,2,0,P|268:308|184:276,1,138.75
172,280,193016,1,8,0:0:0:0:
28,268,193187,6,0,B|36:292|36:292|24:292|24:292|36:308|36:308|16:312|16:312|36:320|20:320|28:324|28:336|28:344,1,104.062503969669
36,180,193357,6,0,P|24:156|32:112,1,55.4999983062745,4|0,0:0|2:0,0:0:0:0:
188,56,193698,2,0,P|196:88|192:128,1,55.4999983062745,0|0,0:0|2:0,0:0:0:0:
352,176,194039,2,0,P|360:144|360:100,1,55.4999983062745,0|0,0:0|2:0,0:0:0:0:
472,88,194380,6,0,B|464:104|464:104|472:104|472:104|468:112|468:112|468:120,1,34.6875,0|0,0:0|2:0,0:0:0:0:
416,224,194721,6,0,B|408:280|408:280|376:328|376:328|328:304|280:332,1,185,4|8,0:0|0:0,0:0:0:0:
124,372,195232,2,0,P|112:320|136:276,1,92.5
208,332,195573,1,0,0:0:0:0:
224,152,195744,1,8,0:0:0:0:
216,244,195914,1,0,0:0:0:0:
228,60,196084,6,0,P|272:24|328:24,1,92.5
140,188,196425,2,0,P|96:224|40:224,1,92.5,8|0,0:0|0:0,0:0:0:0:
132,88,196766,1,0,0:0:0:0:
208,332,196937,1,0,0:0:0:0:
344,168,197107,2,0,P|336:220|304:252,1,92.5,8|0,0:0|0:0,0:0:0:0:
256,324,197448,5,0,0:0:0:0:
144,116,197619,1,0,0:0:0:0:
72,336,197789,2,0,P|64:284|76:240,1,92.5,8|0,0:0|0:0,0:0:0:0:
216,152,198130,2,0,P|224:204|212:248,1,92.5,0|0,0:0|0:0,0:0:0:0:
72,148,198471,2,0,P|64:96|76:52,1,92.5,8|0,0:0|0:0,0:0:0:0:
164,36,198812,5,0,0:0:0:0:
336,152,198982,1,0,0:0:0:0:
152,252,199153,1,8,0:0:0:0:
164,36,199323,1,0,0:0:0:0:
336,152,199494,2,0,P|364:204|364:260,1,92.5,12|0,0:0|0:0,0:0:0:0:
176,152,199834,2,0,P|148:204|148:260,1,92.5,8|0,0:0|0:0,0:0:0:0:
424,384,200175,6,0,P|476:348|444:236,1,185,0|8,0:0|0:0,0:0:0:0:
320,52,200687,1,0,0:0:0:0:
280,292,200857,1,0,0:0:0:0:
400,140,201028,1,0,0:0:0:0:
208,172,201198,2,0,P|172:136|148:80,1,92.5,8|0,0:0|0:0,0:0:0:0:
449,66,201539,6,0,P|433:110|393:142,1,92.5
208,172,201880,1,8,0:0:0:0:
92,288,202050,1,0,0:0:0:0:
92,288,202136,1,0,0:0:0:0:
92,288,202221,2,0,P|132:304|196:288,1,92.5
421,298,202562,2,0,P|377:309|333:297,1,92.5,8|0,0:0|0:0,0:0:0:0:
260,256,202903,5,0,0:0:0:0:
60,340,203073,1,0,0:0:0:0:
60,340,203158,1,0,0:0:0:0:
60,340,203244,2,0,P|56:300|60:248,1,92.5,8|0,0:0|0:0,0:0:0:0:
128,116,203584,1,0,0:0:0:0:
400,116,203755,1,0,0:0:0:0:
224,116,203925,6,0,L|320:116,1,92.5,8|0,0:0|0:0,0:0:0:0:
72,48,204266,2,0,P|44:85|40:134,1,92.5
40,236,204607,1,8,0:0:0:0:
152,272,204778,1,0,0:0:0:0:
152,272,204863,1,0,0:0:0:0:
152,272,204948,1,0,0:0:0:0:
152,272,205289,5,0,0:0:0:0:
392,276,205459,1,0,0:0:0:0:
392,276,205545,1,0,0:0:0:0:
392,276,205630,2,0,P|416:184|388:80,1,185,4|8,0:0|0:0,0:0:0:0:
336,16,206141,1,0,0:0:0:0:
280,240,206312,1,0,0:0:0:0:
192,20,206482,1,0,0:0:0:0:
108,240,206653,2,0,P|88:196|112:144,1,92.5,8|0,0:0|0:0,0:0:0:0:
464,160,206994,2,0,P|484:204|460:256,1,92.5
172,192,207334,5,8,0:0:0:0:
319,240,207505,1,0,0:0:0:0:
68,300,207675,1,0,0:0:0:0:
400,284,207846,1,0,0:0:0:0:
0,232,208016,2,0,P|4:188|28:148,1,92.5,8|0,0:0|0:0,0:0:0:0:
352,96,208357,6,0,P|288:32|192:20,1,185,0|8,0:0|0:0,0:0:0:0:
28,147,208869,1,0,0:0:0:0:
96,344,209039,1,0,0:0:0:0:
184,124,209209,1,0,0:0:0:0:
272,344,209380,2,0,L|176:344,1,92.5,8|0,0:0|0:0,0:0:0:0:
3,228,209721,2,0,L|99:228,1,92.5
308,108,210062,2,0,L|212:108,1,92.5,8|0,0:0|0:0,0:0:0:0:
456,68,210403,6,0,P|482:108|472:162,1,92.5,12|0,0:0|0:0,0:0:0:0:
120,112,210744,2,0,P|124:60|172:28,1,92.5,8|0,0:0|0:0,0:0:0:0:
261,272,211084,6,0,P|209:200|217:104,1,185,4|8,0:0|0:0,0:0:0:0:
384,28,211596,1,0,0:0:0:0:
152,40,211766,1,0,0:0:0:0:
300,76,211937,1,0,0:0:0:0:
68,128,212107,2,0,L|56:32,1,92.5,8|0,0:0|0:0,0:0:0:0:
300,76,212448,6,0,P|340:152|324:264,1,185,0|8,0:0|0:0,0:0:0:0:
192,132,212959,1,0,0:0:0:0:
192,132,213045,1,0,0:0:0:0:
192,132,213130,2,0,P|196:84|228:40,1,92.5
440,224,213471,2,0,L|400:320,1,92.5,8|0,0:0|0:0,0:0:0:0:
256,353,213812,5,4,0:0:0:0:
210,347,213897,1,0,0:0:0:0:
168,327,213982,1,0,0:0:0:0:
139,290,214067,1,0,0:0:0:0:
129,244,214153,1,0,0:0:0:0:
134,198,214238,1,0,0:0:0:0:
151,155,214323,1,0,0:0:0:0:
182,120,214408,1,0,0:0:0:0:
226,105,214494,1,0,0:0:0:0:
272,105,214579,1,0,0:0:0:0:
316,117,214664,1,0,0:0:0:0:
352,145,214749,1,0,0:0:0:0:
363,189,214834,1,0,0:0:0:0:
362,235,214920,1,0,0:0:0:0:
338,274,215005,1,0,0:0:0:0:
298,298,215090,1,0,0:0:0:0:
264,300,215175,6,0,L|200:300,1,46.25,4|0,0:0|0:0,0:0:0:0:
88,272,215346,2,0,L|156:272,1,46.25
284,256,215516,6,0,L|220:256,1,46.25
108,228,215687,2,0,L|176:228,1,46.25
300,212,215857,6,0,L|236:212,1,46.25
124,184,216028,2,0,L|192:184,1,46.25
320,168,216198,6,0,L|256:168,1,46.25
144,140,216369,2,0,L|212:140,1,46.25
332,104,216539,5,4,0:0:0:0:
332,104,216624,1,0,0:0:0:0:
332,104,216709,1,12,0:0:0:0:
272,364,216880,1,12,0:0:0:0:
140,60,217050,5,0,0:0:0:0:
140,60,217136,1,0,0:0:0:0:
140,60,217221,1,12,0:0:0:0:
192,332,217391,1,12,0:0:0:0:
276,32,217562,5,0,0:0:0:0:
276,32,217647,1,0,0:0:0:0:
276,32,217732,1,12,0:0:0:0:
344,328,217903,5,0,0:0:0:0:
344,328,217988,1,0,0:0:0:0:
344,328,218073,1,12,0:0:0:0:
348,88,218244,6,0,L|348:52,16,23.125
348,88,219096,5,0,0:0:0:0:
408,236,219266,1,6,0:0:0:0:
320,368,219437,1,0,0:0:0:0:
180,324,219607,2,0,P|156:284|152:236,1,92.5,10|2,0:0|0:0,0:0:0:0:
151,239,219863,1,0,0:0:0:0:
151,239,219948,1,2,0:0:0:0:
256,92,220119,1,0,0:0:0:0:
324,324,220289,2,0,P|352:284|356:232,1,92.5,10|0,0:0|0:0,0:0:0:0:
332,16,220630,5,2,0:0:0:0:
340,164,220800,1,0,0:0:0:0:
340,164,220886,1,0,0:0:0:0:
340,164,220971,2,0,L|380:72,1,92.5,10|2,0:0|0:0,0:0:0:0:
444,252,221312,1,2,0:0:0:0:
456,64,221482,1,0,0:0:0:0:
428,348,221653,2,0,P|384:308|348:288,1,92.5,10|0,0:0|0:0,0:0:0:0:
208,368,221994,6,0,P|244:316|248:216,1,138.75,2|0,0:0|0:0,0:0:0:0:
248,216,222334,1,10,0:0:0:0:
16,120,222505,1,2,0:0:0:0:
16,120,222590,1,0,0:0:0:0:
16,120,222675,2,0,L|16:64,1,46.25,0|0,0:0|2:0,0:0:0:0:
204,12,222846,2,0,L|204:108,1,92.5,2|8,0:0|0:0,0:0:0:0:
336,252,223187,6,0,L|336:184,1,46.25,2|0,0:0|1:0,0:0:0:0:
420,32,223357,2,0,L|420:88,1,46.25,0|0,0:0|2:0,0:0:0:0:
424,196,223528,5,2,0:0:0:0:
336,356,223698,1,8,0:0:0:0:
280,115,223869,1,2,0:0:0:0:
424,304,224039,1,0,0:0:0:0:
220,344,224209,1,2,0:0:0:0:
280,115,224380,1,8,0:0:0:0:
424,304,224550,2,0,L|376:304,1,46.25,2|0,0:0|1:0,0:0:0:0:
204,264,224721,6,0,P|160:200|208:116,1,185,2|10,0:0|0:0,0:0:0:0:
408,104,225232,2,0,L|408:164,1,46.25
408,200,225403,2,0,P|388:248|356:276,1,92.5,2|0,0:0|0:0,0:0:0:0:
156,336,225744,1,10,0:0:0:0:
56,136,225914,6,0,P|48:196|60:236,1,92.5,2|2,0:0|0:0,0:0:0:0:
288,376,226255,2,0,L|288:320,1,46.25
288,276,226425,2,0,P|296:216|284:176,1,92.5,10|0,0:0|0:0,0:0:0:0:
428,44,226766,2,0,L|440:140,1,92.5,2|0,0:0|0:0,0:0:0:0:
288,48,227107,1,10,0:0:0:0:
120,128,227278,2,0,L|72:152,1,46.25
224,96,227448,6,0,P|256:172|220:264,1,185,2|10,0:0|0:0,0:0:0:0:
136,332,227959,2,0,L|100:244,1,92.5,2|0,0:0|0:0,0:0:0:0:
188,136,228300,2,0,L|208:232,1,92.5,2|8,0:0|0:0,0:0:0:0:
376,332,228641,6,0,L|412:244,1,92.5,2|4,0:0|0:0,0:0:0:0:
188,136,228982,2,0,L|208:228,1,92.5,2|4,0:0|0:0,0:0:0:0:
432,120,229323,2,0,L|452:24,1,92.5,6|0,0:0|0:0,0:0:0:0:
88,156,229664,2,0,L|88:204,1,46.25,2|0,0:0|2:0,0:0:0:0:
208,304,229834,2,0,L|208:248,1,46.25,10|0,0:0|2:0,0:0:0:0:
288,80,230005,2,0,L|288:132,1,46.25,0|0,0:0|2:0,0:0:0:0:
384,264,230175,5,6,0:0:0:0:
492,160,230346,1,0,0:0:0:0:
492,160,230431,1,0,0:0:0:0:
492,160,230516,2,0,P|476:212|424:248,1,92.5,10|2,0:0|0:0,0:0:0:0:
224,308,230857,1,2,0:0:0:0:
416,304,231028,1,0,0:0:0:0:
176,308,231198,2,0,B|128:312|128:312|80:292,1,92.5,10|2,0:0|0:0,0:0:0:0:
312,196,231539,5,2,0:0:0:0:
44,192,231709,2,0,P|36:120|48:84,1,92.5,0|10,0:0|0:0,0:0:0:0:
196,12,232050,2,0,P|204:84|192:120,1,92.5,2|2,0:0|0:0,0:0:0:0:
192,268,232391,1,0,0:0:0:0:
192,268,232477,1,0,0:0:0:0:
192,268,232562,2,0,P|236:264|268:228,1,92.5,10|0,0:0|0:0,0:0:0:0:
392,112,232903,6,0,P|408:180|364:248,1,138.75,2|0,0:0|0:0,0:0:0:0:
352,248,233244,2,0,L|312:248,1,23.125,10|0,0:0|0:0,0:0:0:0:
120,168,233414,2,0,L|152:168,1,23.125,2|0,0:0|0:0,0:0:0:0:
288,100,233584,2,0,L|272:132,1,23.125
164,268,233755,2,0,L|180:244,1,23.125,2|0,0:0|0:0,0:0:0:0:
177,48,233925,2,0,L|188:88,1,23.125,8|0,0:0|0:0,0:0:0:0:
300,240,234096,2,0,L|289:202,1,23.125,2|2,0:0|0:0,0:0:0:0:
256,4,234266,6,0,P|208:20|168:64,1,92.5,2|2,0:0|0:0,0:0:0:0:
208,140,234607,1,8,0:0:0:0:
432,280,234778,1,2,0:0:0:0:
432,280,234863,1,0,0:0:0:0:
432,280,234948,2,0,P|477:241|501:188,1,92.5,2|0,0:0|0:0,0:0:0:0:
277,81,235289,2,0,P|232:108|202:148,1,92.5,10|0,0:0|0:0,0:0:0:0:
92,268,235630,6,0,P|64:224|56:180,1,92.5,2|0,0:0|0:0,0:0:0:0:
168,36,235971,2,0,P|196:80|204:124,1,92.5,10|0,0:0|0:0,0:0:0:0:
200,152,236227,1,0,0:0:0:0:
200,152,236312,1,2,0:0:0:0:
392,156,236482,6,0,L|452:156,1,46.25
400,72,236653,2,0,L|308:72,1,92.5,10|0,0:0|0:0,0:0:0:0:
48,196,236994,2,0,P|140:212|232:196,1,185,2|10,0:0|0:0,0:0:0:0:
360,220,237505,5,0,0:0:0:0:
360,220,237590,1,0,0:0:0:0:
360,220,237675,2,0,L|336:156,1,46.25,2|0,0:0|0:0,0:0:0:0:
152,220,237846,2,0,L|176:156,1,46.25
388,292,238016,2,0,L|364:228,1,46.25,10|0,0:0|0:0,0:0:0:0:
124,292,238187,2,0,L|148:228,1,46.25,2|0,0:0|0:0,0:0:0:0:
108,64,238357,6,0,P|156:68|196:104,1,92.5,6|0,0:0|0:0,0:0:0:0:
380,276,238698,1,10,0:0:0:0:
136,276,238869,1,6,0:0:0:0:
136,276,238954,1,0,0:0:0:0:
136,276,239039,1,0,0:0:0:0:
368,352,239209,1,6,0:0:0:0:
368,352,239295,1,0,0:0:0:0:
368,352,239380,1,0,0:0:0:0:
452,176,239550,5,6,0:0:0:0:
452,176,239636,1,0,0:0:0:0:
452,176,239721,1,0,0:0:0:0:
332,52,239891,1,6,0:0:0:0:
332,52,239977,1,0,0:0:0:0:
332,52,240062,1,0,0:0:0:0:
116,76,240232,6,0,P|180:100|200:124,1,92.5,6|0,0:0|0:0,0:0:0:0:
308,208,240488,1,0,0:0:0:0:
308,208,240573,2,0,P|272:256|252:296,1,92.5,6|0,0:0|0:0,0:0:0:0:
212,384,240914,1,2,0:0:0:0:
96,356,241084,6,0,P|72:300|80:176,1,185,6|10,0:0|0:0,0:0:0:0:
172,204,241596,1,0,0:0:0:0:
264,64,241766,1,2,0:0:0:0:
340,212,241937,1,0,0:0:0:0:
416,64,242107,1,2,0:0:0:0:
484,220,242278,1,0,0:0:0:0:
408,364,242448,5,2,0:0:0:0:
180,336,242619,1,0,0:0:0:0:
416,280,242789,1,2,0:0:0:0:
180,252,242959,1,0,0:0:0:0:
312,304,243130,5,2,0:0:0:0:
48,248,243300,1,0,0:0:0:0:
316,216,243471,1,2,0:0:0:0:
116,160,243641,1,0,0:0:0:0:
400,48,243812,5,0,0:0:0:0:
429,83,243897,1,0,0:0:0:0:
440,127,243982,1,0,0:0:0:0:
426,171,244067,1,0,0:0:0:0:
391,202,244153,1,0,0:0:0:0:
344,199,244238,1,0,0:0:0:0:
301,180,244323,1,0,0:0:0:0:
282,137,244408,1,0,0:0:0:0:
254,99,244494,1,0,0:0:0:0:
209,87,244579,1,0,0:0:0:0:
166,103,244664,1,0,0:0:0:0:
141,141,244749,1,0,0:0:0:0:
150,186,244834,1,0,0:0:0:0:
187,213,244920,1,0,0:0:0:0:
232,216,245005,1,0,0:0:0:0:
266,185,245090,1,0,0:0:0:0:
287,144,245175,5,0,0:0:0:0:
392,332,245346,1,0,0:0:0:0:
196,340,245516,1,0,0:0:0:0:
287,144,245687,1,0,0:0:0:0:
408,212,245857,6,0,L|408:260,1,46.25
316,340,246028,2,0,L|316:280,1,46.25
224,156,246198,2,0,L|224:208,1,46.25
136,352,246369,2,0,L|136:304,1,46.25
124,64,246539,1,4,0:0:0:0:
280,216,246880,5,0,0:0:0:0:
196,280,247050,1,0,0:0:0:0:
112,212,247221,2,0,P|100:160|104:116,1,83.2499974594117,2|0,0:0|0:0,0:0:0:0:
196,28,247562,2,0,L|196:128,1,83.2499974594117
288,216,247903,2,0,P|316:168|324:116,1,83.2499974594117,2|0,0:0|0:0,0:0:0:0:
280,56,248244,2,0,P|332:52|376:68,1,83.2499974594117
456,156,248584,6,2,L|472:140,7,13.8749995765686
448,164,248925,2,0,L|404:208,1,55.4999983062745,2|2,0:0|0:0,0:0:0:0:
304,340,249266,6,0,P|272:296|280:240,1,110.999996612549,2|0,0:0|0:0,0:0:0:0:
408,80,249778,1,0,0:0:0:0:
320,76,249948,2,0,L|320:168,1,83.2499974594117,2|0,0:0|0:0,0:0:0:0:
252,340,250289,2,0,P|224:320|208:268,1,83.2499974594117
188,104,250630,2,0,L|224:184,1,83.2499974594117,2|0,0:0|0:0,0:0:0:0:
116,156,250971,2,0,P|100:132|112:72,1,83.2499974594117
288,28,251312,2,0,B|288:76|288:76|292:68|292:68|292:128,1,110.999996612549,2|0,0:0|0:0,0:0:0:0:
296,316,251823,1,0,0:0:0:0:
296,316,251994,6,0,P|280:336|196:348,1,110.999996612549,4|0,0:0|0:0,0:0:0:0:
192,208,252505,1,0,0:0:0:0:
108,128,252675,2,0,L|200:128,1,83.2499974594117,2|0,0:0|0:0,0:0:0:0:
148,32,253016,2,0,L|232:64,1,83.2499974594117,2|0,0:0|0:0,0:0:0:0:
316,52,253357,2,0,P|312:96|280:124,1,83.2499974594117
240,200,253698,2,0,P|216:244|220:284,1,83.2499974594117,2|0,0:0|0:0,0:0:0:0:
280,352,254039,6,2,L|300:352,7,13.8749995765686
268,352,254380,2,0,L|200:352,1,55.4999983062745,2|2,0:0|0:0,0:0:0:0:
64,348,254721,6,0,P|44:316|36:240,1,110.999996612549,4|0,0:0|0:0,0:0:0:0:
88,168,255232,1,0,0:0:0:0:
208,180,255403,2,0,P|212:212|196:264,1,83.2499974594117,2|0,0:0|0:0,0:0:0:0:
152,100,255744,2,0,L|120:20,1,83.2499974594117,2|0,0:0|0:0,0:0:0:0:
248,96,256084,2,0,P|280:76|332:68,1,83.2499974594117
404,140,256425,2,0,P|372:160|320:168,1,83.2499974594117
112,196,256766,6,0,L|200:196,1,83.2499974594117,2|0,0:0|0:0,0:0:0:0:
444,240,257107,2,0,L|348:240,1,83.2499974594117,2|0,0:0|0:0,0:0:0:0:
140,328,257448,6,0,P|184:320|232:292,1,92.5,6|0,0:0|0:0,0:0:0:0:
144,212,257789,1,8,0:0:0:0:
260,152,257959,1,0,0:0:0:0:
204,32,258130,1,0,0:0:0:0:
76,92,258300,1,0,0:0:0:0:
144,212,258471,6,0,L|176:280,1,74,8|0,0:0|0:0,0:0:0:0:
352,136,258812,2,0,L|320:68,1,74
76,92,259153,2,0,B|44:120|44:120|36:176,1,74,8|0,0:0|0:0,0:0:0:0:
257,171,259494,1,0,0:0:0:0:
271,144,259579,1,0,0:0:0:0:
286,117,259664,1,0,0:0:0:0:
301,91,259749,1,0,0:0:0:0:
320,69,259834,2,0,B|355:72|355:72|405:98,1,74,8|0,0:0|0:0,0:0:0:0:
448,288,260175,6,0,B|400:232|400:232|432:136,1,148,6|8,0:0|0:0,0:0:0:0:
400,368,260687,1,0,0:0:0:0:
288,320,260857,2,0,B|320:300|320:300|368:292,1,74
208,292,261198,2,0,B|172:280|172:280|148:240,1,74,8|0,0:0|0:0,0:0:0:0:
112,184,261539,6,0,B|68:184|68:184|28:212,1,74
256,132,261880,2,0,B|304:132|304:132|340:160,1,74,8|0,0:0|0:0,0:0:0:0:
156,80,262221,2,0,B|108:80|108:80|72:108,1,74
300,28,262562,2,0,B|344:28|344:28|376:52,1,74,8|0,0:0|0:0,0:0:0:0:
408,112,262903,5,6,0:0:0:0:
472,184,263073,1,0,0:0:0:0:
428,272,263244,1,8,0:0:0:0:
332,252,263414,1,0,0:0:0:0:
280,332,263584,1,0,0:0:0:0:
220,256,263755,1,0,0:0:0:0:
148,320,263925,1,8,0:0:0:0:
92,244,264096,1,0,0:0:0:0:
132,76,264266,5,0,0:0:0:0:
216,192,264437,1,0,0:0:0:0:
332,88,264607,1,8,0:0:0:0:
436,208,264778,1,0,0:0:0:0:
320,320,264948,1,0,0:0:0:0:
280,312,265033,1,0,0:0:0:0:
240,304,265119,1,0,0:0:0:0:
200,296,265204,1,0,0:0:0:0:
160,284,265289,1,8,0:0:0:0:
124,136,265459,1,0,0:0:0:0:
256,52,265630,5,6,0:0:0:0:
468,112,265800,1,0,0:0:0:0:
268,312,265971,1,8,0:0:0:0:
336,24,266141,1,0,0:0:0:0:
408,260,266312,5,0,0:0:0:0:
336,24,266482,1,0,0:0:0:0:
224,240,266653,1,8,0:0:0:0:
132,28,266823,1,0,0:0:0:0:
32,184,266994,6,8,B|40:128|40:128|24:104|24:104|24:64,1,120.249994495392,12|0,0:0|2:0,0:0:0:0:
224,240,267334,2,8,B|208:288|208:288|240:316|240:316|240:364,1,120.249994495392,12|8,0:0|2:0,0:0:0:0:
380,176,267675,2,8,B|400:136|400:136|380:100|380:100|380:64,1,120.249994495392,12|8,0:0|2:0,0:0:0:0:
512,324,268016,6,0,L|512:356,9,30.062498623848,0|0|0|0|0|0|0|6|0|0,0:0|0:0|0:0|0:0|0:0|0:0|0:0|0:0|0:0|0:0,0:0:0:0:
200,344,268698,5,8,0:0:0:0:
64,288,268869,1,0,0:0:0:0:
64,140,269039,2,0,P|136:112|252:112,1,185,2|8,0:0|0:0,0:0:0:0:
408,176,269550,1,0,0:0:0:0:
279,341,269721,6,0,P|272:244|316:168,1,185,2|8,0:0|0:0,0:0:0:0:
408,344,270232,1,0,0:0:0:0:
448,152,270403,2,0,P|480:192|472:256,1,92.5,2|0,0:0|0:0,0:0:0:0:
332,300,270744,2,0,P|300:260|308:196,1,92.5,8|0,0:0|0:0,0:0:0:0:
188,216,271084,6,0,P|200:312|260:384,1,185,4|8,0:0|0:0,0:0:0:0:
440,88,271596,1,0,0:0:0:0:
216,52,271766,2,0,P|256:68|304:48,1,92.5
80,56,272107,5,8,0:0:0:0:
136,132,272278,1,0,0:0:0:0:
60,192,272448,2,0,P|40:256|100:360,1,185,2|8,0:0|0:0,0:0:0:0:
292,356,272959,1,0,0:0:0:0:
444,84,273130,2,0,P|476:128|488:176,1,92.5
468,344,273471,2,0,P|436:300|424:252,1,92.5,8|0,0:0|0:0,0:0:0:0:
343,76,273812,6,0,P|315:162|350:246,1,185,2|8,0:0|0:0,0:0:0:0:
416,136,274323,1,0,0:0:0:0:
412,332,274494,2,0,P|336:340|260:260,1,185,2|8,0:0|0:0,0:0:0:0:
256,40,275005,1,0,0:0:0:0:
52,36,275175,6,0,P|4:96|24:216,1,185,2|8,0:0|0:0,0:0:0:0:
324,280,275687,1,0,0:0:0:0:
192,360,275857,2,0,P|164:320|172:268,1,92.5,2|0,0:0|0:0,0:0:0:0:
359,280,276198,2,0,P|387:240|379:188,1,92.5,8|0,0:0|0:0,0:0:0:0:
256,52,276539,6,0,P|224:132|272:236,1,185,4|8,0:0|0:0,0:0:0:0:
444,152,277050,1,0,0:0:0:0:
412,320,277221,2,0,P|448:268|448:228,1,92.5,0|0,0:0|0:0,0:0:0:0:
397,56,277562,2,0,P|361:108|361:148,1,92.5,8|0,0:0|0:0,0:0:0:0:
448,240,277903,6,0,P|380:188|260:164,1,185,2|8,0:0|0:0,0:0:0:0:
212,220,278414,1,0,0:0:0:0:
36,220,278584,1,0,0:0:0:0:
172,140,278755,1,0,0:0:0:0:
80,140,278925,1,0,0:0:0:0:
124,284,279096,2,0,L|124:232,1,46.25
124,60,279266,6,0,B|124:104|124:104|116:120|116:120|132:124|132:124|132:144|132:144|116:152|116:152|124:164|124:164|124:224,1,185,6|8,0:0|0:0,0:0:0:0:
290,213,279778,1,0,0:0:0:0:
288,32,279948,2,0,P|304:116|288:220,1,185,2|8,0:0|0:0,0:0:0:0:
248,332,280459,1,0,0:0:0:0:
144,104,280630,6,0,P|68:148|67:252,1,185,2|8,0:0|0:0,0:0:0:0:
148,340,281141,1,0,0:0:0:0:
368,320,281312,2,0,P|396:272|400:228,1,92.5,2|0,0:0|0:0,0:0:0:0:
296,172,281653,2,0,P|268:124|264:89,1,92.5,8|0,0:0|0:0,0:0:0:0:
32,84,281994,6,0,P|92:52|208:48,1,185,4|8,0:0|0:0,0:0:0:0:
384,352,282505,1,0,0:0:0:0:
512,284,282675,2,0,P|460:256|424:248,1,92.5
124,252,283016,2,0,P|176:224|212:216,1,92.5,8|0,0:0|0:0,0:0:0:0:
384,352,283357,6,0,P|344:256|348:176,1,185,2|8,0:0|0:0,0:0:0:0:
368,88,283869,1,0,0:0:0:0:
347,176,284039,1,0,0:0:0:0:
296,28,284209,1,0,0:0:0:0:
347,176,284380,1,8,0:0:0:0:
448,44,284550,1,0,0:0:0:0:
156,32,284721,6,0,P|120:100|116:224,1,185,2|8,0:0|0:0,0:0:0:0:
232,168,285232,1,0,0:0:0:0:
301,350,285403,2,0,P|337:282|341:146,1,185,2|8,0:0|0:0,0:0:0:0:
336,20,285914,1,0,0:0:0:0:
432,240,286084,6,0,P|436:186|421:140,1,92.5,2|0,0:0|0:0,0:0:0:0:
257,123,286425,2,0,P|252:176|267:222,1,92.5,8|0,0:0|0:0,0:0:0:0:
374,310,286766,2,0,P|414:274|434:230,1,92.5,2|0,0:0|0:0,0:0:0:0:
257,123,287107,2,0,P|217:159|197:203,1,92.5,8|0,0:0|0:0,0:0:0:0:
260,356,287448,5,4,0:0:0:0:
304,360,287533,1,0,0:0:0:0:
347,344,287619,1,0,0:0:0:0:
374,307,287704,1,0,0:0:0:0:
374,260,287789,1,0,0:0:0:0:
343,225,287874,1,0,0:0:0:0:
299,209,287959,1,0,0:0:0:0:
256,227,288045,1,0,0:0:0:0:
210,232,288130,1,0,0:0:0:0:
170,208,288215,1,0,0:0:0:0:
149,166,288300,1,0,0:0:0:0:
159,120,288386,1,0,0:0:0:0:
190,86,288471,1,0,0:0:0:0:
235,79,288556,1,0,0:0:0:0:
278,93,288641,1,0,0:0:0:0:
314,122,288727,1,0,0:0:0:0:
329,165,288812,1,4,0:0:0:0:
256,192,288897,12,0,290175,0:0:0:0:
256,192,290346,12,8,294266,0:0:0:0:
60,140,295289,5,0,0:0:0:0:
20,216,295459,1,0,0:0:0:0:
96,260,295630,2,0,P|148:164|104:44,1,221.999993225098,2|0,0:0|0:0,0:0:0:0:
464,204,296823,5,0,0:0:0:0:
416,124,296994,2,0,P|364:220|408:340,1,221.999993225098,2|0,0:0|0:0,0:0:0:0:
284,328,298016,5,0,0:0:0:0:
284,328,298357,2,0,B|220:308|224:252|224:252|172:212|200:132,1,221.999993225098,2|0,0:0|0:0,0:0:0:0:
308,156,299550,5,0,0:0:0:0:
308,156,299721,2,0,P|356:72|256:44,1,221.999993225098,2|0,0:0|0:0,0:0:0:0:
308,156,300744,5,0,0:0:0:0:
384,200,300914,1,0,0:0:0:0:
324,264,301084,2,0,P|212:272|108:352,1,221.999993225098,2|0,0:0|0:0,0:0:0:0:
108,72,302107,5,0,0:0:0:0:
108,72,302278,1,0,0:0:0:0:
188,120,302448,2,0,P|300:112|404:32,1,221.999993225098,2|0,0:0|0:0,0:0:0:0:
244,300,303471,5,0,0:0:0:0:
168,344,303641,1,0,0:0:0:0:
104,288,303812,2,0,P|124:188|224:120,1,221.999993225098,2|0,0:0|0:0,0:0:0:0:
320,272,304834,1,0,0:0:0:0:
256,332,305005,6,0,P|236:288|244:220,2,110.999996612549,2|0|2,0:0|0:0|0:0,0:0:0:0:
412,268,306028,1,2,0:0:0:0:
412,268,306369,1,0,0:0:0:0:
272,228,306539,6,0,P|208:148|92:120,1,221.999993225098,2|0,0:0|0:0,0:0:0:0:
240,244,307562,5,0,0:0:0:0:
164,316,307732,1,0,0:0:0:0:
112,228,307903,2,0,P|176:148|292:120,1,221.999993225098,2|2,0:0|0:0,0:0:0:0:
396,144,308925,5,0,0:0:0:0:
400,256,309266,2,0,P|336:344|224:328,1,221.999993225098,2|0,0:0|0:0,0:0:0:0:
184,212,310459,5,0,0:0:0:0:
96,244,310630,2,0,P|80:200|88:124,1,110.999996612549,2|0,0:0|0:0,0:0:0:0:
228,32,311312,2,0,P|244:76|236:152,1,110.999996612549,2|0,0:0|0:0,0:0:0:0:
360,248,311994,6,0,P|384:140|364:12,1,221.999993225098,2|0,0:0|0:0,0:0:0:0:
192,332,313016,5,0,0:0:0:0:
192,332,313357,2,0,B|152:252|72:280|8:200,1,221.999993225098,2|0,0:0|0:0,0:0:0:0:
192,72,314550,5,0,0:0:0:0:
192,72,314721,1,2,0:0:0:0:
288,272,315062,5,0,0:0:0:0:
288,272,315232,1,0,0:0:0:0:
332,44,315573,5,0,0:0:0:0:
384,296,315914,2,0,P|356:348|296:364,2,110.999996612549
360,212,316937,2,0,P|352:176|344:136,1,55.4999983062745
332,76,317278,1,0,0:0:0:0:
100,264,317448,6,0,L|72:192,1,74,6|0,0:0|0:0,0:0:0:0:
184,100,317789,2,0,P|192:136|188:192,1,74,2|0,0:0|0:0,0:0:0:0:
296,280,318130,2,0,B|300:240|300:240|308:184,1,74,2|0,0:0|0:0,0:0:0:0:
336,24,318471,2,0,P|360:48|384:88,1,74,2|0,0:0|0:0,0:0:0:0:
416,264,318812,6,0,P|452:240|484:208,1,74,2|0,0:0|0:0,0:0:0:0:
256,192,319153,2,0,P|236:228|228:276,1,74,2|0,0:0|0:0,0:0:0:0:
100,32,319494,2,0,L|180:48,1,74,2|0,0:0|0:0,0:0:0:0:
328,206,319834,2,0,L|248:190,1,74,2|0,0:0|0:0,0:0:0:0:
123,326,320175,5,6,0:0:0:0:
44,112,320346,1,2,0:0:0:0:
36,280,320516,1,2,0:0:0:0:
124,28,320687,1,2,0:0:0:0:
180,256,320857,5,6,0:0:0:0:
212,16,321028,1,2,0:0:0:0:
68,224,321198,1,2,0:0:0:0:
40,20,321369,1,2,0:0:0:0:
68,276,321539,5,2,0:0:0:0:
80,304,321624,1,2,0:0:0:0:
107,315,321709,1,2,0:0:0:0:
140,311,321795,1,2,0:0:0:0:
164,289,321880,1,2,0:0:0:0:
175,253,321965,1,2,0:0:0:0:
202,227,322050,1,2,0:0:0:0:
238,217,322136,1,2,0:0:0:0:
276,231,322221,1,2,0:0:0:0:
303,270,322306,1,2,0:0:0:0:
300,317,322391,1,2,0:0:0:0:
304,362,322477,1,0,0:0:0:0:
348,376,322562,6,0,P|391:388|432:367,1,92.5,0|6,0:0|0:0,0:0:0:0:
464,284,323073,5,0,0:0:0:0:
464,284,323158,1,0,0:0:0:0:
464,284,323244,2,0,P|420:252|372:248,1,92.5,10|2,0:0|0:0,0:0:0:0:
196,356,323584,2,0,P|184:296|200:252,1,92.5,2|0,0:0|0:0,0:0:0:0:
468,192,323925,2,0,P|480:132|464:88,1,92.5,10|0,0:0|0:0,0:0:0:0:
376,148,324266,6,0,P|296:172|208:160,1,138.75,2|0,0:0|0:0,0:0:0:0:
220,152,324607,1,10,0:0:0:0:
56,68,324778,1,0,0:0:0:0:
56,68,324863,1,0,0:0:0:0:
56,68,324948,2,0,L|4:156,1,92.5,2|0,0:0|0:0,0:0:0:0:
304,248,325289,6,0,P|336:212|356:160,1,92.5,10|0,0:0|0:0,0:0:0:0:
40,172,325630,2,0,P|58:214|89:248,1,92.5,2|0,0:0|0:3,0:3:0:0:
392,112,325971,6,0,L|360:168,1,46.25,10|0,0:0|0:0,0:0:0:0:
184,180,326141,2,0,L|240:208,1,46.25,2|0,0:0|2:0,0:0:0:0:
340,348,326312,2,0,L|324:300,1,46.25
280,96,326482,5,2,0:0:0:0:
212,324,326653,1,8,0:0:0:0:
432,284,326823,1,2,0:0:0:0:
432,96,326994,5,0,0:0:0:0:
440,320,327164,1,2,0:0:0:0:
440,320,327249,1,0,0:0:0:0:
440,320,327334,2,0,L|344:308,1,92.5,8|2,0:0|0:0,0:0:0:0:
144,352,327590,1,0,0:0:0:0:
144,352,327675,2,0,P|108:308|100:252,1,92.5,0|2,0:0|0:0,0:0:0:0:
216,112,328016,2,0,P|250:143|265:187,1,92.5,10|0,0:0|0:0,0:0:0:0:
112,148,328272,5,0,0:0:0:0:
112,148,328357,2,0,P|136:60|244:8,1,185,2|10,0:0|0:0,0:0:0:0:
444,24,328869,2,0,B|464:36|464:36|480:56,1,46.25,2|0,0:0|2:0,0:0:0:0:
402,103,329039,2,0,P|360:96|312:68,1,92.5,2|0,0:0|0:0,0:0:0:0:
132,20,329380,2,0,P|113:58|137:118,1,92.5,10|0,0:0|0:0,0:0:0:0:
328,168,329721,6,0,P|392:228|368:320,1,185,2|10,0:0|0:0,0:0:0:0:
304,380,330232,1,0,0:0:0:0:
304,380,330317,1,0,0:0:0:0:
304,380,330403,2,0,B|212:380|212:380|144:304,1,185,2|10,0:0|0:0,0:0:0:0:
32,264,330914,2,0,L|92:264,1,46.25
212,248,331084,6,0,P|244:208|244:156,1,92.5,2|0,0:0|0:0,0:0:0:0:
136,16,331425,1,10,0:0:0:0:
100,280,331596,2,0,P|116:332|160:360,1,92.5,2|0,0:0|0:0,0:0:0:0:
328,56,331937,2,0,L|304:8,1,46.25,2|0,0:0|2:0,0:0:0:0:
252,172,332107,2,0,L|192:152,1,46.25,10|0,0:0|2:0,0:0:0:0:
224,304,332278,6,0,L|124:304,1,92.5,2|4,0:0|0:0,0:0:0:0:
12,144,332619,2,0,L|112:144,1,92.5,2|12,0:0|0:0,0:0:0:0:
380,188,332959,2,0,L|280:188,1,92.5,2|4,0:0|0:0,0:0:0:0:
224,44,333300,2,0,L|272:44,1,46.25,2|0,0:0|2:0,0:0:0:0:
460,192,333471,2,0,L|407:192,1,46.25,10|0,0:0|2:0,0:0:0:0:
160,292,333641,2,0,L|208:292,1,46.25
32,288,333812,6,0,P|20:216|80:120,1,185,6|10,0:0|0:0,0:0:0:0:
400,288,334323,1,0,0:0:0:0:
400,288,334408,1,0,0:0:0:0:
400,288,334494,2,0,L|340:368,1,92.5,2|0,0:0|0:0,0:0:0:0:
272,142,334834,2,0,L|332:62,1,92.5,10|2,0:0|0:0,0:0:0:0:
408,192,335175,6,0,P|368:208|288:184,1,92.5,2|0,0:0|0:0,0:0:0:0:
380,8,335516,1,10,0:0:0:0:
476,128,335687,1,2,0:0:0:0:
476,128,335772,1,0,0:0:0:0:
476,128,335857,2,0,P|494:166|488:220,1,92.5,2|2,0:0|0:0,0:0:0:0:
184,104,336198,2,0,L|256:28,1,92.5,10|0,0:0|0:0,0:0:0:0:
272,344,336539,6,0,P|224:292|208:208,1,138.75,2|0,0:0|0:0,0:0:0:0:
200,192,336879,2,0,L|200:132,1,46.25,10|0,0:0|2:0,0:0:0:0:
380,80,337050,2,0,L|380:144,1,46.25,2|0,0:0|2:0,0:0:0:0:
136,124,337221,6,0,L|152:64,1,46.25,0|0,0:0|2:0,0:0:0:0:
444,144,337391,2,0,L|433:193,1,46.25,2|0,0:0|2:0,0:0:0:0:
168,200,337562,6,0,L|104:192,1,46.25,8|0,0:0|2:0,0:0:0:0:
412,76,337732,2,0,L|464:84,1,46.25,2|0,0:0|2:0,0:0:0:0:
112,124,337903,6,0,P|68:204|120:276,1,185,2|10,0:0|0:0,0:0:0:0:
312,296,338414,1,2,0:0:0:0:
312,296,338499,1,0,0:0:0:0:
312,296,338584,2,0,P|336:256|336:204,1,92.5,2|0,0:0|0:0,0:0:0:0:
148,112,338840,1,0,0:0:0:0:
148,112,338925,2,0,L|144:204,1,92.5,10|0,0:0|0:0,0:0:0:0:
272,384,339181,5,0,0:0:0:0:
272,384,339266,2,0,P|356:372|408:284,2,185,2|10|2,0:0|0:0|0:0,0:0:0:0:
196,320,340119,1,0,0:0:0:0:
196,320,340204,1,0,0:0:0:0:
196,320,340289,2,0,P|196:264|180:228,1,92.5,10|0,0:0|0:0,0:0:0:0:
52,172,340630,6,0,P|6:89|42:3,1,185,2|10,0:0|0:0,0:0:0:0:
112,80,341141,1,2,0:0:0:0:
112,80,341227,1,0,0:0:0:0:
112,80,341312,2,0,L|184:12,1,92.5,2|0,0:0|0:0,0:0:0:0:
400,80,341567,1,0,0:0:0:0:
400,80,341653,2,0,L|328:12,1,92.5,10|0,0:0|0:0,0:0:0:0:
436,288,341994,6,0,L|436:192,1,92.5,6|0,0:0|0:0,0:0:0:0:
152,320,342334,1,10,0:0:0:0:
152,320,342420,1,0,0:0:0:0:
152,320,342505,2,0,L|232:260,1,92.5,6|0,0:0|0:0,0:0:0:0:
128,88,342846,2,0,L|188:168,1,92.5,6|8,0:0|0:0,0:0:0:0:
360,64,343187,2,0,L|280:124,1,92.5,6|0,0:0|0:0,0:0:0:0:
380,276,343528,5,2,0:0:0:0:
380,276,343613,1,0,0:0:0:0:
380,276,343698,2,0,L|343:242,1,46.25
121,257,343869,1,2,0:0:0:0:
121,257,343954,1,0,0:0:0:0:
121,257,344039,2,0,L|169:242,1,46.25
266,42,344209,1,2,0:0:0:0:
266,42,344294,1,0,0:0:0:0:
266,42,344379,2,0,L|255:91,1,46.25
268,352,344550,5,6,0:0:0:0:
268,352,344636,1,0,0:0:0:0:
268,352,344721,2,0,L|296:252,1,92.5,6|0,0:0|0:0,0:0:0:0:
384,276,345062,2,0,L|360:184,1,92.5,2|0,0:0|0:0,0:0:0:0:
444,144,345403,2,0,L|364:72,1,92.5,2|0,0:0|0:0,0:0:0:0:
284,208,345744,5,2,0:0:0:0:
268,32,345914,1,0,0:0:0:0:
208,256,346084,1,2,0:0:0:0:
140,44,346255,1,0,0:0:0:0:
112,240,346425,1,2,0:0:0:0:
48,72,346596,1,0,0:0:0:0:
44,336,346766,5,2,0:0:0:0:
176,148,346937,1,0,0:0:0:0:
292,332,347107,1,2,0:0:0:0:
400,148,347278,1,0,0:0:0:0:
424,352,347448,5,0,0:0:0:0:
433,302,347533,1,0,0:0:0:0:
447,252,347619,1,0,0:0:0:0:
461,203,347704,1,0,0:0:0:0:
461,152,347789,1,0,0:0:0:0:
440,105,347874,1,0,0:0:0:0:
401,71,347959,1,0,0:0:0:0:
350,61,348045,1,0,0:0:0:0:
301,76,348130,1,0,0:0:0:0:
269,115,348215,1,0,0:0:0:0:
261,165,348300,1,0,0:0:0:0:
284,210,348386,1,0,0:0:0:0:
298,258,348471,1,0,0:0:0:0:
287,307,348556,1,0,0:0:0:0:
249,340,348641,1,0,0:0:0:0:
197,340,348727,1,0,0:0:0:0:
153,313,348812,5,0,0:0:0:0:
52,48,348982,1,0,0:0:0:0:
52,324,349153,1,0,0:0:0:0:
176,88,349323,1,0,0:0:0:0:
180,224,349494,6,0,L|212:276,1,46.25
352,348,349664,2,0,L|324:296,1,46.25
352,80,349834,2,0,L|380:140,1,46.25
504,288,350005,2,0,L|472:232,1,46.25
396,20,350175,5,6,0:0:0:0:
496,148,350346,1,4,0:0:0:0:
296,152,350516,2,0,P|264:108|264:68,1,92.5,10|0,0:0|0:0,0:0:0:0:
169,69,350857,6,0,P|176:160|238:239,1,185,2|10,0:0|0:0,0:0:0:0:
392,88,351369,1,0,0:0:0:0:
396,308,351539,2,0,P|332:304|216:348,1,185,2|10,0:0|0:0,0:0:0:0:
220,345,352050,1,2,0:0:0:0:
148,288,352221,2,0,P|112:336|96:372,1,92.5,2|0,0:0|0:0,0:0:0:0:
56,204,352562,2,0,P|92:156|108:120,1,92.5,10|0,0:0|0:0,0:0:0:0:
260,52,352817,5,0,0:0:0:0:
260,52,352903,2,0,P|336:96|352:172,1,138.75,2|0,0:0|0:0,0:0:0:0:
348,168,353244,1,10,0:0:0:0:
304,264,353414,1,2,0:0:0:0:
304,264,353499,1,0,0:0:0:0:
304,264,353584,2,0,L|212:264,1,92.5,0|2,0:0|0:0,0:0:0:0:
148,328,353925,2,0,P|196:288|208:168,1,185,10|2,0:0|0:0,0:0:0:0:
120,148,354437,5,2,0:0:0:0:
120,148,354522,1,0,0:0:0:0:
120,148,354607,2,0,L|160:60,1,92.5,10|2,0:0|0:0,0:0:0:0:
236,112,354863,1,0,0:0:0:0:
236,112,354948,2,0,L|328:112,1,92.5,2|2,0:0|0:0,0:0:0:0:
428,68,355204,1,0,0:0:0:0:
428,68,355289,2,0,L|392:160,1,92.5,8|2,0:0|0:0,0:0:0:0:
444,232,355630,6,0,P|360:240|316:288,1,138.75,2|0,0:0|0:0,0:0:0:0:
312,300,355971,1,10,0:0:0:0:
212,360,356141,1,0,0:0:0:0:
212,360,356227,1,2,0:0:0:0:
212,360,356312,2,0,P|184:312|152:288,1,92.5,0|2,0:0|0:0,0:0:0:0:
72,328,356653,2,0,P|64:240|156:192,1,185,10|2,0:0|0:0,0:0:0:0:
192,40,357164,5,2,0:0:0:0:
192,40,357249,1,0,0:0:0:0:
192,40,357334,2,0,L|192:104,1,46.25,10|0,0:0|2:0,0:0:0:0:
208,260,357505,2,0,L|208:208,1,46.25,2|0,0:0|2:0,0:0:0:0:
280,88,357675,2,0,L|348:88,1,46.25,0|0,0:0|2:0,0:0:0:0:
484,216,357846,1,2,0:0:0:0:
484,216,357931,1,0,0:0:0:0:
484,216,358016,2,0,L|428:216,1,46.25,8|0,0:0|2:0,0:0:0:0:
168,152,358187,1,2,0:0:0:0:
396,164,358357,6,0,P|348:208|320:296,1,138.75,2|0,0:0|0:0,0:0:0:0:
328,304,358698,1,10,0:0:0:0:
420,360,358869,1,0,0:0:0:0:
244,356,359039,1,2,0:0:0:0:
112,236,359209,1,2,0:0:0:0:
200,216,359380,2,0,P|176:172|128:148,1,92.5,10|0,0:0|0:0,0:0:0:0:
164,60,359721,6,0,P|244:112|292:204,1,185,2|10,0:0|0:0,0:0:0:0:
272,276,360232,1,0,0:0:0:0:
272,276,360317,1,2,0:0:0:0:
272,276,360403,1,2,0:0:0:0:
364,256,360573,2,0,L|400:220,2,46.25,2|0|0,0:0|0:0|0:0,0:0:0:0:
332,344,360914,1,2,0:0:0:0:
360,96,361084,6,0,P|280:52|184:56,1,185,2|10,0:0|0:0,0:0:0:0:
180,144,361596,1,2,0:0:0:0:
89,273,361766,2,0,P|77:181|108:95,1,185,2|10,0:0|0:0,0:0:0:0:
172,312,362278,1,0,0:0:0:0:
264,316,362448,6,0,P|316:280|352:272,1,92.5,2|0,0:0|0:0,0:0:0:0:
428,308,362789,2,0,P|448:256|440:212,1,92.5,10|0,0:0|0:0,0:0:0:0:
384,148,363130,2,0,P|360:88|364:40,1,92.5,2|0,0:0|0:0,0:0:0:0:
448,48,363471,1,10,0:0:0:0:
272,44,363641,1,0,0:0:0:0:
272,44,363727,1,0,0:0:0:0:
272,44,363812,6,0,P|204:60|136:56,1,138.75,2|0,0:0|0:0,0:0:0:0:
112,44,364153,1,10,0:0:0:0:
32,180,364323,1,0,0:0:0:0:
32,180,364408,1,2,0:0:0:0:
32,180,364494,2,0,L|60:292,1,92.5,2|2,0:0|0:0,0:0:0:0:
344,308,364834,2,0,P|364:264|368:216,1,92.5,10|2,0:0|0:0,0:0:0:0:
372,32,365175,6,0,L|280:40,1,92.5,2|0,0:0|0:0,0:0:0:0:
240,44,365431,1,0,0:0:0:0:
240,44,365516,1,10,0:0:0:0:
56,60,365687,1,0,0:0:0:0:
56,60,365772,1,0,0:0:0:0:
56,60,365857,1,2,0:0:0:0:
136,180,366028,1,2,0:0:0:0:
48,304,366198,2,0,L|116:376,1,92.5,10|2,0:0|0:0,0:0:0:0:
48,212,366454,5,0,0:0:0:0:
48,212,366539,2,0,P|144:220|240:248,1,185,2|10,0:0|0:0,0:0:0:0:
368,344,367050,1,0,0:0:0:0:
368,344,367136,1,2,0:0:0:0:
368,344,367221,1,2,0:0:0:0:
248,288,367391,2,0,P|224:244|228:180,1,92.5,2|8,0:0|0:0,0:0:0:0:
384,76,367732,2,0,P|408:120|404:184,1,92.5,2|0,0:0|0:0,0:0:0:0:
288,124,368073,5,2,0:0:0:0:
288,124,368158,1,0,0:0:0:0:
288,124,368244,2,0,L|200:60,1,92.5,10|0,0:0|0:0,0:0:0:0:
184,48,368499,1,0,0:0:0:0:
184,48,368584,1,2,0:0:0:0:
184,240,368755,1,2,0:0:0:0:
104,96,368925,1,10,0:0:0:0:
80,296,369096,1,2,0:0:0:0:
392,308,369266,5,2,0:0:0:0:
436,292,369352,1,0,0:0:0:0:
461,253,369437,1,0,0:0:0:0:
466,207,369522,1,0,0:0:0:0:
447,164,369607,1,2,0:0:0:0:
407,139,369692,1,0,0:0:0:0:
360,143,369778,1,0,0:0:0:0:
321,117,369863,1,2,0:0:0:0:
324,70,369948,1,2,0:0:0:0:
362,45,370033,1,0,0:0:0:0:
407,55,370119,1,2,0:0:0:0:
445,80,370204,1,0,0:0:0:0:
464,122,370289,1,0,0:0:0:0:
456,167,370374,1,0,0:0:0:0:
432,206,370459,1,2,0:0:0:0:
389,226,370545,1,0,0:0:0:0:
344,232,370630,6,0,L|344:256,32,23.125
376,304,372334,5,8,0:0:0:0:
436,232,372505,1,0,0:0:0:0:
384,156,372675,2,8,P|300:136|220:208,1,185,0|8,0:0|0:0,0:0:0:0:
252,280,373187,1,0,0:0:0:0:
252,280,373357,6,0,L|168:96,1,185,0|8,0:0|0:0,0:0:0:0:
84,92,373869,1,0,0:0:0:0:
52,180,374039,2,0,L|56:276,1,92.5,0|0,0:0|0:0,0:0:0:0:
72,364,374380,2,0,P|108:300|212:240,1,185,8|0,0:0|0:0,0:0:0:0:
288,280,374891,5,0,0:0:0:0:
355,213,375062,2,0,P|376:252|380:300,1,92.5,8|0,0:0|0:0,0:0:0:0:
316,60,375403,2,0,P|295:98|291:146,1,92.5
216,52,375744,1,8,0:0:0:0:
56,92,375914,1,0,0:0:0:0:
228,168,376084,5,0,0:0:0:0:
40,228,376255,1,0,0:0:0:0:
144,292,376425,2,0,P|200:304|240:336,1,92.5,8|0,0:0|0:0,0:0:0:0:
316,356,376766,2,0,P|372:348|424:304,1,92.5
448,248,377107,2,0,P|412:204|408:144,1,92.5,8|0,0:0|0:0,0:0:0:0:
496,172,377448,6,0,L|328:256,1,185,0|8,0:0|0:0,0:0:0:0:
256,204,377959,1,0,0:0:0:0:
181,254,378130,2,0,L|16:172,1,185,0|8,0:0|0:0,0:0:0:0:
44,84,378641,1,0,0:0:0:0:
124,128,378812,6,0,L|124:36,1,92.5
216,36,379153,2,0,L|216:132,1,92.5,8|0,0:0|0:0,0:0:0:0:
308,124,379494,2,0,L|308:32,1,92.5
332,308,379834,1,8,0:0:0:0:
380,72,380005,1,0,0:0:0:0:
332,316,380175,6,0,P|248:304|196:192,1,185,0|8,0:0|0:0,0:0:0:0:
292,220,380687,1,0,0:0:0:0:
252,132,380857,2,0,P|336:144|388:256,1,185,0|8,0:0|0:0,0:0:0:0:
332,316,381369,1,0,0:0:0:0:
236,356,381539,6,0,P|188:308|184:264,1,92.5
192,184,381880,2,0,P|176:132|144:100,1,92.5,8|0,0:0|0:0,0:0:0:0:
60,64,382221,2,0,P|112:20|172:20,1,92.5
232,16,382562,1,8,0:0:0:0:
280,124,382903,6,0,P|320:172|324:220,1,92.5,4|0,0:0|0:0,0:0:0:0:
288,284,383244,2,0,P|232:312|196:344,1,92.5,8|0,0:0|0:0,0:0:0:0:
60,220,383584,2,0,P|116:248|138:266,1,92.5
212,212,383925,5,8,0:0:0:0:
244,24,384096,1,0,0:0:0:0:
320,192,384266,1,0,0:0:0:0:
156,104,384437,1,0,0:0:0:0:
344,84,384607,2,0,P|384:72|436:80,1,92.5,8|0,0:0|0:0,0:0:0:0:
484,292,384948,1,0,0:0:0:0:
396,152,385119,1,0,0:0:0:0:
360,336,385289,2,0,P|320:360|256:368,1,92.5,8|0,0:0|0:0,0:0:0:0:
125,331,385630,6,0,P|105:275|117:135,1,185,0|8,0:0|0:0,0:0:0:0:
172,48,386141,1,0,0:0:0:0:
356,48,386312,1,0,0:0:0:0:
304,152,386482,1,0,0:0:0:0:
112,152,386653,2,0,P|68:192|56:236,1,92.5,8|0,0:0|0:0,0:0:0:0:
8,300,386994,6,0,P|72:272|192:268,1,185,0|8,0:0|0:0,0:0:0:0:
248,336,387505,1,0,0:0:0:0:
332,296,387675,2,0,L|332:200,1,92.5
452,104,388016,2,0,L|452:200,1,92.5,8|0,0:0|0:0,0:0:0:0:
176,208,388357,6,0,L|235:132,1,92.5
388,130,388698,2,0,L|328:205,1,92.5,8|0,0:0|0:0,0:0:0:0:
184,344,389039,2,0,P|180:272|256:180,1,185,0|8,0:0|0:0,0:0:0:0:
330,202,389550,1,0,0:0:0:0:
424,296,389721,6,0,L|350:352,1,92.5
424,88,390062,2,0,L|350:31,1,92.5,8|0,0:0|0:0,0:0:0:0:
280,261,390403,2,0,L|188:276,1,92.5
280,123,390744,2,0,L|188:108,1,92.5,8|0,0:0|0:0,0:0:0:0:
88,192,391084,5,0,0:0:0:0:
280,123,391255,1,0,0:0:0:0:
248,352,391425,1,8,0:0:0:0:
222,230,391596,1,0,0:0:0:0:
381,247,391766,1,0,0:0:0:0:
243,327,391937,1,0,0:0:0:0:
307,181,392107,1,8,0:0:0:0:
341,337,392278,1,0,0:0:0:0:
256,192,392448,12,8,393812,0:0:0:0:
