osu file format v14

[General]
AudioFilename: audio.ogg
AudioLeadIn: 0
PreviewTime: 57637
Countdown: 0
SampleSet: Soft
StackLeniency: 0.3
Mode: 0
LetterboxInBreaks: 0
WidescreenStoryboard: 1

[Editor]
Bookmarks: 14453,25551,36649,47748,58846,69944,81042,87979,92141,97690,103239,108615
DistanceSpacing: 2.3
BeatDivisor: 4
GridSize: 8
TimelineZoom: 2.3

[Metadata]
Title:Limelight no Zanka
TitleUnicode:ライムライトの残火
Artist:Ayane
ArtistUnicode:アヤネ
Creator:Fushimi Rio
Version:lealu's Insane
Source:冥契のルペルカリア
Tags:Meikei no Lupercalia ウグイスカグラ めと meto metomate 有栖 Misure [ TNTlealu ] ImpurePug [Keqing] ScubDomino opening galgame visual novel eroge pop japanese jpop
BeatmapID:2777423
BeatmapSetID:1282405

[Difficulty]
HPDrainRate:6
CircleSize:4
OverallDifficulty:8
ApproachRate:8.5
SliderMultiplier:3.2
SliderTickRate:1

[Events]
//Background and Video events
0,0,"bge.jpg",0,0
//Break Periods
//Storyboard Layer 0 (Background)
//Storyboard Layer 1 (Fail)
//Storyboard Layer 2 (Pass)
//Storyboard Layer 3 (Foreground)
//Storyboard Layer 4 (Overlay)
//Storyboard Sound Samples

[TimingPoints]
3270,693.64161849711,4,2,1,50,1,0
7085,-100,4,2,1,70,0,0
8819,-100,4,2,1,90,0,0
12113,-83.3333333333333,4,2,1,90,0,0
12460,-100,4,2,1,90,0,0
14368,-100,4,2,1,60,0,0
14888,-111.111111111111,4,2,1,70,0,0
15755,-111.111111111111,4,2,1,60,0,0
17142,-111.111111111111,4,2,1,50,0,0
25466,-111.111111111111,4,2,1,50,0,0
33790,-111.111111111111,4,2,1,50,0,0
35350,-111.111111111111,4,2,1,60,0,0
36564,-142.857142857143,4,2,1,50,0,0
47663,-142.857142857143,4,2,1,60,0,0
50437,-142.857142857143,4,2,1,65,0,0
53212,-142.857142857143,4,2,1,70,0,0
54426,-142.857142857143,4,2,1,75,0,0
55293,-142.857142857143,4,2,1,80,0,0
57200,-83.3333333333333,4,2,1,80,0,0
57547,-83.3333333333333,4,2,1,90,0,0
58761,-100,4,2,1,90,0,1
59108,-100,4,2,1,90,0,0
69859,-100,4,2,1,90,0,1
70206,-100,4,2,1,90,0,0
80957,-100,4,2,1,90,0,1
81304,-100,4,2,1,90,0,0
92056,-100,4,2,1,90,0,1
92402,-100,4,2,1,90,0,0
100379,-125,4,2,1,75,0,0
101593,-125,4,2,1,60,0,0
103241,-125,4,2,1,60,0,0
103327,-125,4,2,1,5,0,0
103848,-125,4,2,1,5,0,0
104541,-125,4,2,1,5,0,0
105235,-125,4,2,1,5,0,0
105928,-125,4,2,1,5,0,0
106362,-125,4,2,1,5,0,0

[Colours]
Combo1 : 128,255,255
Combo2 : 192,192,192
Combo3 : 255,255,128
Combo4 : 255,128,128

[HitObjects]
460,43,3270,5,0,0:0:0:0:
485,76,3443,1,0,0:0:0:0:
476,116,3616,1,0,0:0:0:0:
438,133,3790,1,0,0:0:0:0:
360,80,3963,5,2,0:0:0:0:
344,118,4136,1,0,0:0:0:0:
305,130,4309,1,0,0:0:0:0:
271,105,4483,1,2,0:0:0:0:
113,134,4831,5,0,0:0:0:0:
141,59,5004,1,0,0:0:0:0:
217,36,5177,1,2,0:0:0:0:
102,147,5524,5,0,0:0:0:0:
26,124,5697,1,0,0:0:0:0:
0,49,5870,1,0,0:0:0:0:
116,147,6044,5,2,0:0:0:0:
154,189,6217,1,0,0:0:0:0:
159,245,6390,1,0,0:0:0:0:
136,297,6564,1,2,0:0:0:0:
136,297,6911,5,0,0:0:0:0:
274,210,7085,1,0,1:0:0:0:
385,322,7258,1,0,3:0:0:0:
385,322,7605,5,0,0:0:0:0:
363,244,7778,1,0,3:0:0:0:
304,297,7951,1,0,0:0:0:0:
290,109,8125,1,2,3:2:0:0:
226,188,8298,1,0,1:0:0:0:
247,206,8385,1,0,1:0:0:0:
270,222,8472,5,4,1:0:0:0:
323,206,8558,5,0,3:0:0:0:
377,191,8645,5,0,3:0:0:0:
432,177,8732,5,0,3:0:0:0:
486,161,8819,6,0,L|495:70,1,80,4|0,0:0|0:0,0:0:0:0:
395,265,9165,1,0,1:0:0:0:
512,361,9339,1,0,3:0:0:0:
512,361,9426,1,0,0:0:0:0:
512,361,9512,2,0,P|466:373|423:362,1,80,0|0,3:0|3:0,0:0:0:0:
288,294,9859,1,0,1:0:0:0:
148,380,10033,6,0,L|154:300,1,80,0|0,3:0|3:0,0:0:0:0:
181,101,10379,2,0,L|142:110,1,40
66,219,10553,2,0,L|111:208,1,40,0|0,1:0|0:0,0:0:0:0:
266,170,10726,2,0,L|365:150,1,80,0|0,0:0|3:0,0:0:0:0:
450,132,11073,1,0,3:0:0:0:
330,346,11246,2,0,P|317:289|379:220,1,120,0|0,1:0|0:0,0:0:0:0:
413,201,11593,5,2,0:0:0:0:
488,317,11767,1,0,3:0:0:0:
451,332,11853,1,0,0:0:0:0:
411,325,11940,1,0,1:0:0:0:
259,220,12113,2,0,P|219:205|157:224,1,95.9999970703126,0|0,0:0|3:0,0:0:0:0:
89,356,12460,2,0,L|82:305,1,40,0|0,3:0|0:0,0:0:0:0:
0,164,12634,1,0,1:0:0:0:
0,164,12720,1,0,3:0:0:0:
0,164,12807,6,0,P|42:171|91:232,1,120,4|0,0:0|0:0,0:0:0:0:
162,294,13154,1,2,0:0:0:0:
162,294,13241,1,0,3:0:0:0:
162,294,13327,2,0,L|186:238,1,40,0|0,3:0|0:0,0:0:0:0:
246,101,13501,6,0,B|236:128|236:128|326:113,1,120,4|0,1:0|0:0,0:0:0:0:
428,105,13848,1,0,3:0:0:0:
415,95,13934,1,0,3:0:0:0:
428,92,14021,1,0,1:0:0:0:
421,106,14108,5,0,3:0:0:0:
421,90,14194,5,0,3:0:0:0:
431,98,14281,5,0,3:0:0:0:
415,102,14368,5,4,0:0:0:0:
359,320,14715,5,0,1:0:0:0:
359,320,14888,2,0,P|349:274|358:245,1,71.9999978027344,4|0,3:0|0:0,0:0:0:0:
471,165,15235,2,0,P|405:181|341:131,1,143.999995605469,4|0,0:3|0:0,0:0:0:0:
345,140,15668,1,0,0:0:0:0:
345,140,15755,1,0,1:0:0:0:
257,23,15928,2,0,B|228:72|228:72|246:172,2,143.999995605469,0|4|0,0:0|0:3|0:0,0:0:0:0:
146,51,16796,1,0,3:0:0:0:
146,51,16969,1,0,0:0:0:0:
85,130,17142,6,0,P|51:143|16:145,1,71.9999978027344,2|0,0:0|0:0,0:0:0:0:
178,172,17489,1,0,0:0:0:0:
140,324,17663,2,0,P|89:295|112:210,1,143.999995605469,0|0,3:0|0:0,0:0:0:0:
298,118,18356,1,0,3:0:0:0:
298,118,18443,1,0,3:0:0:0:
298,118,18530,2,0,P|400:133|522:131,2,215.999993408203,0|8|0,1:0|0:3|1:0,0:0:0:0:
223,26,19743,1,0,3:0:0:0:
158,112,19917,6,0,B|139:136|150:175|150:175|185:200|177:242,1,143.999995605469,4|0,0:0|0:0,0:0:0:0:
125,319,20437,2,0,B|178:361|234:314|234:314|259:347|259:347|326:304|375:352,2,287.999991210938,0|0|4,3:0|1:0|0:3,0:0:0:0:
313,140,22171,1,0,3:0:0:0:
313,140,22345,1,0,0:0:0:0:
125,319,22691,6,0,P|96:280|128:190,1,143.999995605469,0|0,3:0|0:0,0:0:0:0:
246,276,23212,2,0,L|174:258,1,71.9999978027344,2|0,0:0|0:0,0:0:0:0:
208,360,23558,1,0,0:0:0:0:
208,360,23731,1,0,0:0:0:0:
319,120,23905,1,0,1:0:0:0:
319,120,24599,2,0,B|322:169|366:166|366:166|443:159,1,143.999995605469,8|0,0:3|0:0,0:0:0:0:
492,242,25119,2,0,L|398:252,1,71.9999978027344,4|0,0:3|0:0,0:0:0:0:
330,325,25466,5,4,0:0:0:0:
278,349,25639,1,0,0:0:0:0:
206,348,25813,1,0,0:0:0:0:
133,303,25986,2,0,P|123:232|177:165,1,143.999995605469,0|0,3:0|0:0,0:0:0:0:
247,112,26506,1,2,0:0:0:0:
247,112,26680,2,0,B|179:114|179:114|168:122|168:122|101:124,1,143.999995605469
51,198,27200,2,0,P|12:139|22:69,2,143.999995605469,0|0|0,0:0|3:0|0:0,0:0:0:0:
276,155,28241,5,2,0:0:0:0:
305,213,28414,1,0,0:0:0:0:
314,270,28587,1,0,0:0:0:0:
301,320,28761,2,0,B|267:346|267:346|147:317,2,143.999995605469,0|0|2,3:0|0:0|0:0,0:0:0:0:
434,160,29975,2,0,P|402:216|428:297,2,143.999995605469,0|0|0,0:0|3:0|0:0,0:0:0:0:
280,68,31015,5,0,0:1:0:0:
220,92,31189,1,0,0:0:0:0:
164,85,31362,1,0,0:0:0:0:
121,61,31535,2,0,B|89:31|89:31|72:132,1,143.999995605469
242,276,32229,2,0,B|190:324|190:324|162:161,1,215.999993408203
366,347,33096,1,0,3:0:0:0:
366,347,33270,2,0,P|414:293|397:220,1,143.999995605469
315,121,33790,5,2,0:0:0:0:
274,180,33963,1,0,0:0:0:0:
264,237,34137,1,0,0:0:0:0:
279,286,34310,1,0,3:0:0:0:
279,286,34657,5,0,3:2:0:0:
95,350,34831,1,0,0:0:0:0:
161,203,35004,1,0,1:0:0:0:
161,203,35350,5,4,3:0:0:0:
235,45,35524,1,4,0:3:0:0:
369,158,35697,2,0,B|328:175|328:175|232:137,1,143.999995605469,4|0,0:0|3:0,0:0:0:0:
30,115,36217,2,0,P|83:96|108:98,1,71.9999978027344,0|0,1:0|3:0,0:0:0:0:
220,340,36564,6,0,P|221:287|189:238,1,111.999996582031,4|0,3:0|3:0,0:0:0:0:
26,321,37085,1,0,3:0:0:0:
26,321,37258,2,0,L|143:306,1,111.999996582031,4|0,0:3|3:0,0:0:0:0:
356,360,37952,6,0,L|370:249,1,111.999996582031,4|0,0:3|3:0,0:0:0:0:
462,149,38472,1,0,3:0:0:0:
462,149,38645,2,0,P|438:171|398:178,1,55.9999982910157,4|0,0:3|3:0,0:0:0:0:
360,69,38992,2,0,P|380:49|406:39,1,55.9999982910157,0|0,3:0|0:0,0:0:0:0:
278,140,39339,6,0,P|243:119|161:123,1,111.999996582031,4|0,0:3|3:0,0:0:0:0:
256,291,39859,1,0,3:0:0:0:
256,291,40033,2,0,P|213:238|217:175,1,111.999996582031,4|0,0:3|3:0,0:0:0:0:
66,13,40726,6,0,L|72:131,1,111.999996582031,4|0,0:3|3:0,0:0:0:0:
79,257,41246,1,0,1:0:0:0:
79,257,41420,2,0,P|115:264|156:252,1,55.9999982910157,4|0,0:3|0:0,0:0:0:0:
238,163,41767,2,0,P|202:156|161:168,1,55.9999982910157,8|4,0:3|0:3,0:0:0:0:
297,342,42113,6,0,P|283:285|304:230,1,111.999996582031,4|0,3:3|3:0,0:0:0:0:
470,316,42634,1,0,3:0:0:0:
470,316,42807,2,0,P|409:317|362:289,1,111.999996582031,4|0,0:3|3:0,0:0:0:0:
380,164,43327,1,0,3:0:0:0:
380,164,43501,1,4,0:3:0:0:
128,49,43848,2,0,L|187:58,1,55.9999982910157,0|0,3:0|3:0,0:0:0:0:
86,132,44194,2,0,L|145:141,1,55.9999982910157,0|0,3:0|1:0,0:0:0:0:
44,216,44541,2,0,L|103:225,1,55.9999982910157,0|0,3:0|3:0,0:0:0:0:
164,349,44888,6,0,P|172:285|216:235,1,111.999996582031,4|0,0:3|3:0,0:0:0:0:
340,277,45408,1,0,3:0:0:0:
340,277,45582,2,0,P|274:316|219:304,1,111.999996582031,4|0,0:3|3:0,0:0:0:0:
266,175,46102,1,0,3:0:0:0:
400,212,46275,2,0,P|421:277|406:328,1,111.999996582031,4|0,0:3|3:0,0:0:0:0:
266,347,46796,2,0,P|299:289|354:278,1,111.999996582031,0|0,3:0|0:0,0:0:0:0:
266,175,47316,1,0,1:3:0:0:
266,175,47402,1,0,0:0:0:0:
266,175,47489,1,4,0:3:0:0:
395,103,47663,6,0,P|386:157|399:211,1,111.999996582031,4|0,0:0|0:0,0:0:0:0:
279,46,48183,1,0,0:0:0:0:
279,46,48356,2,0,P|245:43|212:50,1,55.9999982910157
129,181,48703,2,0,L|133:61,1,111.999996582031,0|0,0:0|1:0,0:0:0:0:
71,251,49397,2,0,P|133:276|188:251,2,111.999996582031,0|0|0,3:0|1:0|3:0,0:0:0:0:
301,363,50437,6,0,L|176:347,1,111.999996582031,4|0,0:0|0:0,0:0:0:0:
277,258,50957,1,0,0:0:0:0:
277,258,51131,2,0,L|439:276,1,111.999996582031,0|0,0:0|1:0,0:0:0:0:
253,154,51651,1,0,0:0:0:0:
17,106,51998,5,0,0:0:0:0:
59,121,52172,1,0,3:0:0:0:
99,104,52345,1,0,3:0:0:0:
229,9,52518,1,0,1:0:0:0:
229,9,52605,1,0,0:0:0:0:
229,9,52691,1,0,0:0:0:0:
149,209,52865,1,0,1:0:0:0:
113,13,53038,1,0,3:0:0:0:
355,150,53212,6,0,P|327:87|271:75,1,111.999996582031,4|0,0:0|1:0,0:0:0:0:
372,249,53732,2,0,P|435:221|447:165,1,111.999996582031
291,73,54252,1,0,1:0:0:0:
168,242,54426,2,0,P|222:214|297:212,1,111.999996582031,0|0,3:0|0:0,0:0:0:0:
63,47,54946,2,0,L|56:109,1,55.9999982910157,0|0,1:0|3:0,0:0:0:0:
154,99,55293,2,0,L|147:161,1,55.9999982910157,4|0,1:0|0:0,0:0:0:0:
79,315,55639,1,0,1:0:0:0:
46,204,55813,1,0,0:0:0:0:
232,215,55986,5,2,0:0:0:0:
256,192,56160,12,0,57027,0:0:0:0:
175,114,57200,6,0,P|234:125|327:74,1,143.999995605469,4|0,1:0|0:0,0:0:0:0:
368,50,57547,1,0,1:0:0:0:
393,158,57720,1,0,1:0:0:0:
341,276,57894,1,0,3:0:0:0:
204,326,58067,5,4,1:0:0:0:
250,293,58183,5,0,0:0:0:0:
304,305,58298,5,0,0:0:0:0:
354,329,58414,5,0,1:0:0:0:
407,312,58530,5,0,0:0:0:0:
437,265,58645,5,0,0:0:0:0:
428,209,58761,6,0,P|415:150|465:59,1,160,4|0,0:0|0:0,0:0:0:0:
353,248,59281,1,0,0:0:0:0:
180,167,59454,2,0,B|226:187|226:187|343:162,1,160,0|0,1:0|0:0,0:0:0:0:
111,105,59975,1,2,0:0:0:0:
18,301,60148,2,0,P|82:275|80:173,1,160
169,284,60668,1,0,3:0:0:0:
169,284,60755,1,0,0:0:0:0:
169,284,60841,5,0,1:0:0:0:
298,155,61015,1,0,0:0:0:0:
351,331,61189,1,0,0:0:0:0:
169,284,61362,1,0,0:0:0:0:
298,155,61535,6,0,B|312:180|312:180|185:149,1,160,0|0,3:0|0:0,0:0:0:0:
44,68,62056,1,0,3:0:0:0:
253,63,62229,2,0,B|294:36|331:56|331:56|366:76|405:53,1,160,0|0,1:0|0:0,0:0:0:0:
470,167,62749,1,2,0:0:0:0:
374,239,62923,2,0,B|358:241|340:258|340:258|367:192|355:140,1,160,0|0,0:0|1:0,0:0:0:0:
478,285,63443,1,0,0:0:0:0:
478,285,63530,1,0,0:0:0:0:
478,285,63616,5,0,1:0:0:0:
276,179,63790,1,8,0:3:0:0:
275,338,63963,1,4,0:3:0:0:
426,108,64137,1,0,0:0:0:0:
478,285,64310,6,0,P|421:259|326:295,1,160,4|0,0:0|0:0,0:0:0:0:
216,384,64830,1,0,0:0:0:0:
87,146,65004,2,0,P|147:162|197:251,1,160,0|0,1:0|0:0,0:0:0:0:
254,122,65524,1,2,0:0:0:0:
34,217,65697,2,0,P|-4:157|44:69,1,160
158,0,66217,1,0,0:0:0:0:
357,101,66391,2,0,L|249:76,1,80,0|0,1:0|0:0,0:0:0:0:
487,32,66738,2,0,L|379:7,1,80,0|0,3:0|0:0,0:0:0:0:
470,237,67085,6,0,B|440:263|440:263|468:128,1,160,2|0,3:2|0:0,0:0:0:0:
448,342,67605,1,0,3:0:0:0:
415,339,67691,1,0,3:0:0:0:
387,321,67778,1,0,1:0:0:0:
244,117,67952,1,0,1:0:0:0:
413,206,68125,1,0,0:0:0:0:
240,308,68298,6,0,B|173:335|120:305|120:305|150:277,1,160,4|2,1:0|0:0,0:0:0:0:
342,140,68819,1,0,3:0:0:0:
298,364,68992,2,0,P|318:315|253:230,1,160,4|0,1:0|1:0,0:0:0:0:
122,28,69512,2,0,P|103:50|97:77,1,40,0|0,1:0|1:0,0:0:0:0:
137,186,69686,2,0,P|137:162|125:143,1,40,0|0,3:0|3:0,0:0:0:0:
26,97,69859,6,0,L|190:122,1,160,4|0,0:0|0:0,0:0:0:0:
374,148,70379,1,0,0:0:0:0:
273,331,70553,2,0,P|237:261|293:180,1,160,0|0,1:0|0:0,0:0:0:0:
401,65,71073,1,2,0:0:0:0:
492,232,71246,2,0,B|506:268|506:268|388:230,1,160,0|0,0:0|3:0,0:0:0:0:
322,48,71767,1,0,3:0:0:0:
322,48,71853,1,0,0:0:0:0:
322,48,71940,2,0,P|308:88|296:132,1,80,0|0,1:0|0:0,0:0:0:0:
179,296,72287,2,0,P|170:253|157:213,1,80,0|0,3:0|0:0,0:0:0:0:
49,72,72634,6,0,P|145:62|191:130,1,160,0|0,3:0|3:0,0:0:0:0:
279,285,73154,1,0,0:0:0:0:
464,174,73327,2,0,P|372:164|315:220,1,160,0|0,1:0|0:0,0:0:0:0:
243,369,73848,1,0,0:0:0:0:
40,263,74021,2,0,B|28:297|28:297|162:256,1,160,0|0,0:0|1:0,0:0:0:0:
258,162,74541,1,0,0:0:0:0:
261,197,74628,1,0,0:0:0:0:
248,223,74715,5,0,1:0:0:0:
112,374,74888,1,0,1:0:0:0:
136,182,75061,1,4,3:3:0:0:
281,364,75235,1,0,3:0:0:0:
455,308,75408,6,0,P|394:259|316:264,1,160,4|0,0:1|3:0,0:0:0:0:
187,379,75928,1,0,0:0:0:0:
187,379,76102,2,0,L|176:206,1,160,0|0,1:0|0:0,0:0:0:0:
254,28,76622,1,0,3:0:0:0:
220,41,76709,1,0,0:0:0:0:
201,71,76796,1,0,0:0:0:0:
90,252,76969,1,0,3:0:0:0:
5,103,77142,2,0,P|45:101|83:118,1,80
252,209,77489,5,0,1:0:0:0:
424,67,77663,1,8,3:0:0:0:
423,221,77835,1,4,0:3:0:0:
274,107,78009,1,0,3:3:0:0:
357,265,78183,6,0,P|350:181|427:140,1,160,4|0,1:0|3:0,0:0:0:0:
429,313,78703,1,0,1:0:0:0:
395,340,78790,1,0,3:0:0:0:
353,352,78876,1,0,3:0:0:0:
132,214,79050,1,4,1:0:0:0:
181,384,79223,1,0,1:0:0:0:
265,118,79397,6,0,B|312:136|312:136|258:256,1,160,4|0,0:0|1:0,0:0:0:0:
267,237,79830,1,0,3:0:0:0:
267,237,79917,1,0,3:0:0:0:
385,165,80090,6,0,P|382:89|314:54,1,160,4|0,1:0|1:0,0:0:0:0:
267,68,80524,5,0,3:0:0:0:
221,53,80611,5,0,1:0:0:0:
181,26,80698,5,0,1:0:0:0:
133,22,80784,5,0,1:0:0:0:
93,52,80871,5,0,1:0:0:0:
84,99,80957,6,0,P|108:169|196:160,1,160,4|0,0:0|3:0,0:0:0:0:
371,35,81478,1,0,0:0:0:0:
499,103,81651,2,0,B|459:71|419:103|427:103|427:111|419:111|379:143|339:111,1,160,0|0,1:0|0:0,0:0:0:0:
243,239,82171,1,2,0:0:0:0:
390,323,82345,2,0,P|387:243|319:205,1,160
164,181,82865,1,0,3:0:0:0:
164,181,82952,1,0,0:0:0:0:
164,181,83038,5,0,1:0:0:0:
320,286,83212,1,0,0:0:0:0:
298,161,83385,1,0,0:0:0:0:
135,316,83559,2,0,P|113:314|79:300,1,40
32,265,83732,6,0,P|110:283|185:251,1,160,0|0,3:0|0:0,0:0:0:0:
237,110,84252,1,0,3:0:0:0:
380,350,84426,2,0,P|400:276|348:219,1,160,0|0,1:0|3:0,0:0:0:0:
167,174,84946,1,2,0:0:0:0:
394,90,85119,2,0,B|435:74|435:74|294:45,1,160,0|0,0:0|3:0,0:0:0:0:
99,143,85639,1,0,0:0:0:0:
91,183,85726,1,0,0:0:0:0:
107,215,85813,5,0,1:0:0:0:
294,113,85986,1,12,3:3:0:0:
249,260,86160,1,4,0:3:0:0:
139,43,86333,1,0,3:0:0:0:
182,298,86506,6,0,P|230:338|318:298,1,160,4|0,0:0|3:0,0:0:0:0:
381,148,87027,1,0,3:0:0:0:
464,362,87200,2,0,L|474:200,1,160,0|0,1:0|0:0,0:0:0:0:
386,56,87720,1,2,0:0:0:0:
249,260,87894,2,0,P|209:212|249:124,1,160
386,56,88414,1,0,3:0:0:0:
386,56,88501,1,0,3:0:0:0:
386,56,88587,2,0,P|346:40|290:48,1,80,0|0,1:0|3:0,0:0:0:0:
97,137,88934,2,0,P|137:153|193:145,1,80,0|0,1:0|3:0,0:0:0:0:
297,264,89281,6,0,P|297:192|249:112,1,160,4|0,0:1|3:0,0:0:0:0:
147,301,89801,2,0,P|206:304|318:240,1,160,2|0,0:0|1:0,0:0:0:0:
97,137,90322,1,0,0:0:0:0:
282,56,90495,6,0,B|298:40|330:40|330:40|330:96|290:144,1,160,4|2,1:0|0:0,0:0:0:0:
293,139,90928,1,0,3:0:0:0:
293,139,91015,1,0,3:0:0:0:
400,336,91189,6,0,P|384:272|424:168,1,160,4|0,1:1|1:0,0:0:0:0:
410,184,91622,1,0,0:0:0:0:
410,184,91709,1,0,1:0:0:0:
296,263,91882,1,0,1:0:0:0:
175,117,92056,6,0,B|166:93|166:93|293:139,1,160,4|0,0:0|3:0,0:0:0:0:
508,224,92576,1,0,0:0:0:0:
375,377,92749,2,0,P|344:317|383:229,1,160,0|0,1:0|3:0,0:0:0:0:
488,90,93270,1,0,0:0:0:0:
285,218,93443,2,0,B|243:210|215:248|215:248|193:205|153:207,1,160
322,148,93963,1,0,3:0:0:0:
349,164,94050,1,0,3:0:0:0:
365,193,94137,5,8,1:3:0:0:
143,287,94310,1,4,0:3:0:0:
176,121,94483,1,0,0:3:0:0:
279,294,94656,1,0,3:0:0:0:
218,49,94830,6,0,P|138:49|98:113,1,160,0|0,3:0|3:0,0:0:0:0:
70,264,95350,1,0,0:0:0:0:
260,214,95524,2,0,P|335:228|367:298,1,160,0|0,1:0|3:0,0:0:0:0:
452,182,96044,1,0,0:0:0:0:
279,294,96217,2,0,B|247:314|247:314|123:288,1,160,0|0,0:0|1:0,0:0:0:0:
15,179,96738,1,0,3:0:0:0:
15,179,96824,1,0,3:0:0:0:
15,179,96911,5,0,1:0:0:0:
57,378,97085,1,0,1:0:0:0:
235,271,97258,1,8,3:0:0:0:
0,291,97431,1,4,3:3:0:0:
207,186,97605,6,0,P|289:194|326:262,1,160,4|0,0:0|3:0,0:0:0:0:
158,315,98125,2,0,P|152:232|212:184,1,160,2|0,0:0|0:0,0:0:0:0:
380,133,98645,1,0,0:0:0:0:
172,69,98819,2,0,B|163:40|163:40|283:113,1,160,0|0,3:0|3:0,0:0:0:0:
384,328,99339,6,0,L|400:248,1,80,0|0,0:0|3:0,0:0:0:0:
399,249,99599,1,0,3:0:0:0:
399,249,99686,1,0,1:0:0:0:
336,192,99859,1,4,0:3:0:0:
272,248,100033,1,0,3:0:0:0:
296,328,100206,1,0,0:0:0:0:
384,328,100379,6,0,B|440:344|472:288|424:192|328:240|336:312|280:368|192:400|128:352|128:352|144:272|216:256|240:240|240:240|240:232|240:232|248:248|248:248|272:232|352:184|336:88|280:48|280:48|240:64|176:112|200:184,1,1024,4|0,0:0|0:0,0:0:0:0:
256,192,103241,12,0,106362,0:0:0:0:
