osu file format v14

[General]
AudioFilename: audio.ogg
AudioLeadIn: 0
PreviewTime: 57637
Countdown: 0
SampleSet: Soft
StackLeniency: 0.7
Mode: 0
LetterboxInBreaks: 0
WidescreenStoryboard: 1

[Editor]
DistanceSpacing: 1.1
BeatDivisor: 4
GridSize: 16
TimelineZoom: 0.6999999

[Metadata]
Title:Limelight no Zanka
TitleUnicode:ライムライトの残火
Artist:Ayane
ArtistUnicode:アヤネ
Creator:Fushimi Rio
Version:Normal
Source:冥契のルペルカリア
Tags:Meikei no Lupercalia ウグイスカグラ めと meto metomate 有栖 Misure [ TNTlealu ] ImpurePug [Keqing] ScubDomino opening galgame visual novel eroge pop japanese jpop
BeatmapID:2777424
BeatmapSetID:1282405

[Difficulty]
HPDrainRate:3
CircleSize:3.2
OverallDifficulty:4
ApproachRate:5.2
SliderMultiplier:1.6
SliderTickRate:1

[Events]
//Background and Video events
0,0,"bgf.jpg",0,0
//Break Periods
//Storyboard Layer 0 (Background)
//Storyboard Layer 1 (Fail)
//Storyboard Layer 2 (Pass)
//Storyboard Layer 3 (Foreground)
//Storyboard Layer 4 (Overlay)
//Storyboard Sound Samples

[TimingPoints]
3270,693.64161849711,4,2,1,50,1,0
7085,-100,4,2,1,70,0,0
8472,-100,4,2,1,70,0,0
8819,-100,4,2,1,90,0,0
11593,-100,4,2,1,90,0,0
13501,-100,4,2,1,90,0,0
14368,-100,4,2,1,60,0,0
14888,-100,4,2,1,70,0,0
15755,-100,4,2,1,60,0,0
17142,-100,4,2,1,50,0,0
35350,-100,4,2,1,60,0,0
36564,-100,4,2,1,50,0,0
47663,-100,4,2,1,60,0,0
50437,-100,4,2,1,65,0,0
53212,-100,4,2,1,70,0,0
54426,-100,4,2,1,75,0,0
55293,-100,4,2,1,80,0,0
57547,-100,4,2,1,90,0,0
58761,-100,4,2,1,90,0,1
100379,-100,4,2,1,75,0,0
101593,-100,4,2,1,60,0,0
103327,-100,4,2,1,5,0,0

[Colours]
Combo1 : 128,255,255
Combo2 : 192,192,192
Combo3 : 255,255,128
Combo4 : 255,128,128

[HitObjects]
246,187,7085,5,0,1:0:0:0:
246,318,7605,6,0,L|326:318,1,79.9999999999999,0|0,3:0|0:0,0:0:0:0:
363,343,8125,2,0,P|390:282|431:260,1,79.9999999999999,2|4,3:2|1:0,0:0:0:0:
402,188,8819,6,0,P|440:197|471:225,2,80,4|0|0,0:0|1:0|3:0,0:0:0:0:
316,209,9859,1,0,1:0:0:0:
257,143,10206,2,0,L|239:58,1,79.9999999999999,0|0,0:0|1:0,0:0:0:0:
168,115,10900,2,0,L|89:62,1,79.9999999999999,0|0,3:0|1:0,0:0:0:0:
76,154,11593,5,2,0:0:0:0:
64,241,11940,1,0,1:0:0:0:
85,326,12287,2,0,P|126:359|156:364,1,80,0|0,3:0|1:0,0:0:0:0:
188,339,12807,2,0,L|310:339,1,120,4|0,0:0|3:0,0:0:0:0:
321,296,13501,2,0,P|349:268|425:251,1,120,4|0,1:0|1:0,0:0:0:0:
510,275,14368,5,4,0:0:0:0:
438,166,14888,2,0,P|493:155|517:139,2,80,4|4|0,3:0|0:3|0:0,0:0:0:0:
398,158,15755,2,0,P|333:115|261:115,1,120,0|4,1:0|0:3,0:0:0:0:
290,198,16622,2,0,P|285:253|264:289,1,80,2|0,0:0|0:0,0:0:0:0:
231,282,17142,6,0,P|172:270|125:233,1,120,0|0,3:0|3:0,0:0:0:0:
65,116,18183,2,0,L|47:181,2,40,0|0|0,3:0|3:0|1:0,0:0:0:0:
193,147,19050,2,0,P|238:133|285:136,1,80,8|0,0:3|0:0,0:0:0:0:
309,155,19570,1,0,1:0:0:0:
382,207,19917,6,0,P|395:161|368:82,1,120,4|0,0:0|3:0,0:0:0:0:
303,253,21131,2,0,P|368:296|380:298,1,80,0|0,1:0|0:0,0:0:0:0:
445,339,21824,2,0,P|449:261|445:249,1,80,4|0,0:3|3:0,0:0:0:0:
425,223,22345,1,0,3:0:0:0:
408,136,22691,6,0,P|353:158|281:153,1,120,2|0,0:0|0:0,0:0:0:0:
219,108,23559,2,0,P|213:85|206:67,1,40,0|0,3:0|0:0,0:0:0:0:
178,36,23905,2,0,P|118:34|66:57,1,80,0|0,1:0|0:0,0:0:0:0:
61,119,24599,2,0,B|44:169|80:192|67:236,1,120,8|4,0:3|0:3,0:0:0:0:
10,303,25466,6,0,P|62:324|147:268,1,160,4|0,0:0|0:0,0:0:0:0:
161,187,26506,1,2,0:0:0:0:
155,99,26853,2,0,P|208:60|247:134,1,160,0|0,0:0|3:0,0:0:0:0:
382,241,28241,6,0,P|330:262|245:206,1,160,2|0,0:0|0:0,0:0:0:0:
251,123,29281,1,0,0:0:0:0:
228,37,29628,2,0,P|175:-2|136:72,1,160,0|0,3:0|0:0,0:0:0:0:
157,146,30668,1,2,0:0:0:0:
161,233,31015,6,0,L|-13:244,1,160,0|0,3:1|0:0,0:0:0:0:
123,369,32402,2,0,L|297:358,1,160,2|0,0:0|3:0,0:0:0:0:
413,240,33790,6,0,P|360:274|297:263,1,120,2|0,0:0|3:0,0:0:0:0:
295,180,34657,2,0,L|289:126,2,40,2|0|0,0:0|0:0|1:0,0:0:0:0:
207,168,35350,2,0,L|201:114,1,40,4|4,3:0|0:3,0:0:0:0:
195,84,35697,2,0,P|136:78|87:111,1,120,4|0,0:0|1:0,0:0:0:0:
107,197,36564,6,0,P|67:199|30:182,1,80,4|0,3:0|3:0,0:0:0:0:
0,102,37258,1,4,0:3:0:0:
172,65,37952,1,4,0:3:0:0:
209,237,38645,1,4,0:3:0:0:
136,286,38992,1,0,3:0:0:0:
188,356,39339,6,0,P|228:358|264:341,1,80,4|0,0:3|3:0,0:0:0:0:
301,261,40033,1,4,0:3:0:0:
473,300,40726,1,4,0:3:0:0:
512,128,41420,1,4,0:3:0:0:
453,61,41767,2,0,P|440:75|430:92,1,40,8|4,0:3|0:3,0:0:0:0:
402,126,42113,6,0,P|365:109|326:111,1,80,4|0,3:3|3:0,0:0:0:0:
263,49,42807,1,4,0:3:0:0:
209,216,43501,2,0,L|121:189,1,80,4|0,0:3|3:0,0:0:0:0:
48,164,44194,2,0,P|36:113|52:64,1,80,2|0,0:0|1:0,0:0:0:0:
112,34,44888,6,0,P|151:35|189:24,1,80,4|0,0:3|3:0,0:0:0:0:
222,106,45582,1,4,0:3:0:0:
392,61,46276,1,4,0:3:0:0:
413,146,46622,1,0,3:0:0:0:
437,231,46969,1,8,0:3:0:0:
461,316,47316,2,0,L|471:354,1,40,0|4,1:3|0:3,0:0:0:0:
427,348,47663,6,0,B|322:302|306:389|192:342,1,240,4|0,0:0|0:0,0:0:0:0:
119,294,49050,2,0,P|105:348|86:373,1,80,0|0,1:0|3:0,0:0:0:0:
8,337,49743,2,0,P|22:283|41:258,1,80,0|0,1:0|3:0,0:0:0:0:
101,205,50437,6,0,B|214:158|231:244|335:199,1,240,4|0,0:0|1:0,0:0:0:0:
374,217,51651,2,0,P|379:181|457:158,1,120,2|0,0:0|3:0,0:0:0:0:
504,223,52518,1,0,1:0:0:0:
436,280,52865,2,0,P|422:293|404:301,1,40,0|0,1:0|3:0,0:0:0:0:
367,326,53212,6,0,P|323:298|268:301,1,80,4|0,0:0|1:0,0:0:0:0:
252,300,53732,2,0,P|203:266|190:201,1,120,4|0,3:0|1:0,0:0:0:0:
117,157,54599,1,4,3:1:0:0:
80,237,54946,1,0,1:0:0:0:
0,200,55293,1,4,1:0:0:0:
37,120,55639,6,0,L|37:79,2,40,0|0|2,1:0|0:0|0:0,0:0:0:0:
256,336,57200,1,4,1:0:0:0:
313,269,57547,2,0,L|354:269,2,40,0|0|0,1:0|1:0|3:0,0:0:0:0:
278,241,58067,6,0,P|293:187|349:168,1,120,4|0,1:0|1:0,0:0:0:0:
384,141,58761,6,0,P|390:72|314:21,1,160,4|0,0:0|1:0,0:0:0:0:
247,67,59801,1,0,0:0:0:0:
169,108,60148,2,0,P|86:93|29:42,1,160,0|0,3:0|1:0,0:0:0:0:
5,133,61189,2,0,P|0:152|0:172,1,40,0|0,3:0|0:0,0:0:0:0:
34,200,61535,6,0,P|101:216|149:208,1,80,0|0,3:0|0:0,0:0:0:0:
195,188,62229,2,0,P|232:174|272:172,1,80,0|0,1:0|0:0,0:0:0:0:
314,186,62749,1,0,0:0:0:0:
345,217,62923,1,2,0:0:0:0:
429,190,63270,1,0,1:0:0:0:
480,261,63617,1,0,1:0:0:0:
429,333,63963,1,4,0:3:0:0:
345,305,64310,6,0,P|305:248|345:166,1,160,4|0,0:0|1:0,0:0:0:0:
370,89,65350,1,0,0:0:0:0:
292,48,65697,2,0,P|209:63|152:114,1,160,0|0,3:0|1:0,0:0:0:0:
67,93,66738,2,0,P|66:73|61:53,2,40,2|0|2,0:0|0:0|0:0,0:0:0:0:
39,176,67431,5,0,3:0:0:0:
65,211,67605,2,0,P|100:227|140:232,1,80,0|2,1:0|0:0,0:0:0:0:
227,216,68298,1,4,1:0:0:0:
258,298,68645,2,0,L|251:348,2,40,2|0|4,0:0|3:0|1:0,0:0:0:0:
330,245,69339,1,0,1:0:0:0:
337,201,69512,2,0,L|342:161,1,40,0|0,1:0|3:0,0:0:0:0:
351,118,69859,6,0,P|291:167|215:153,1,160,4|0,0:0|1:0,0:0:0:0:
193,69,70899,1,0,0:0:0:0:
119,20,71246,2,0,P|70:89|66:165,1,160,0|0,3:0|1:0,0:0:0:0:
92,246,72287,2,0,P|111:241|131:241,1,40,0|0,3:0|0:0,0:0:0:0:
159,275,72633,6,0,P|175:342|167:390,2,80,0|0|0,3:0|3:0|1:0,0:0:0:0:
210,203,73674,2,0,L|244:174,2,40,0|0|0,3:0|0:0|3:0,0:0:0:0:
253,279,74368,1,0,1:0:0:0:
176,322,74715,1,0,1:0:0:0:
252,366,75061,2,0,L|294:380,1,40,4|0,3:3|3:0,0:0:0:0:
328,358,75408,6,0,P|397:365|459:276,1,160,4|0,0:1|1:0,0:0:0:0:
493,223,76449,1,0,0:0:0:0:
404,231,76796,2,0,P|366:220|332:199,1,80,2|0,0:0|0:0,0:0:0:0:
280,129,77489,1,0,1:0:0:0:
236,120,77663,2,0,L|191:111,2,40,8|4|0,3:0|0:3|3:3,0:0:0:0:
212,157,78183,6,0,P|206:212|180:251,2,80,4|0|0,1:0|0:0|1:0,0:0:0:0:
125,174,79223,1,0,1:0:0:0:
91,145,79397,2,0,P|75:108|74:68,1,80,4|0,0:0|1:0,0:0:0:0:
88,26,79917,1,0,3:0:0:0:
129,39,80090,2,0,P|208:26|259:-8,1,120,4|0,1:0|1:0,0:0:0:0:
283,84,80957,6,0,P|351:78|403:154,1,160,4|0,0:0|1:0,0:0:0:0:
357,222,81998,1,0,0:0:0:0:
295,284,82344,2,0,P|217:297|143:269,1,160,0|0,3:0|1:0,0:0:0:0:
55,261,83385,2,0,P|59:280|59:300,1,40
22,276,83732,6,0,P|6:209|14:161,1,80,0|0,3:0|0:0,0:0:0:0:
84,156,84425,2,0,P|121:169|161:171,1,80,0|0,1:0|3:0,0:0:0:0:
203,158,84945,1,0,0:0:0:0:
234,127,85119,1,2,0:0:0:0:
318,154,85466,1,0,3:0:0:0:
369,83,85813,1,0,1:0:0:0:
318,10,86160,2,0,L|250:31,1,40,4|0,0:3|3:0,0:0:0:0:
238,38,86506,6,0,P|181:77|99:37,1,160,4|0,0:0|1:0,0:0:0:0:
48,113,87546,1,0,0:0:0:0:
25,197,87893,2,0,P|40:280|91:337,1,160,0|0,3:0|1:0,0:0:0:0:
175,349,88934,2,0,P|194:343|211:333,1,40,0|0,1:0|3:0,0:0:0:0:
245,304,89281,6,0,P|282:290|322:288,1,80,4|0,0:1|3:0,0:0:0:0:
405,316,89974,1,0,1:0:0:0:
405,272,90148,1,0,1:0:0:0:
360,196,90495,2,0,P|320:193|282:180,1,80,4|2,1:0|0:0,0:0:0:0:
247,153,91015,1,0,3:0:0:0:
239,109,91189,2,0,P|200:77|146:83,1,80,4|0,1:1|1:0,0:0:0:0:
130,90,91709,2,0,P|116:104|105:121,1,40,0|0,1:0|1:0,0:0:0:0:
86,81,92056,6,0,L|78:-13,1,80,4|0,0:0|3:0,0:0:0:0:
0,48,92749,2,0,L|6:127,1,80,0|0,1:0|3:0,0:0:0:0:
8,172,93270,1,0,0:0:0:0:
14,215,93443,2,0,P|83:166|159:162,1,160,0|0,0:0|1:3,0:0:0:0:
231,208,94483,2,0,P|250:207|270:202,1,40,2|0,0:0|3:0,0:0:0:0:
312,190,94830,6,0,P|328:257|320:305,2,80,0|0|0,3:0|3:0|1:0,0:0:0:0:
265,115,95871,2,0,L|231:86,2,40,0|0|0,3:0|0:0|0:0,0:0:0:0:
347,83,96564,2,0,L|354:43,1,40,0|0,1:0|0:3,0:0:0:0:
363,0,96911,1,0,1:0:0:0:
442,38,97258,2,0,L|449:-2,1,40,8|4,3:0|3:3,0:0:0:0:
485,24,97605,6,0,P|501:91|493:139,1,80,4|0,0:0|3:0,0:0:0:0:
433,158,98298,2,0,P|366:138|329:107,1,80,0|0,1:0|0:0,0:0:0:0:
325,102,98819,1,0,3:0:0:0:
286,80,98992,2,0,P|246:82|208:95,1,80,0|0,0:0|3:0,0:0:0:0:
129,135,99685,1,0,1:0:0:0:
120,91,99859,2,0,L|111:46,2,40,4|0|0,0:3|3:0|0:0,0:0:0:0:
75,89,100379,6,0,P|14:137|39:295,1,240,4|2,0:0|0:0,0:0:0:0:
64,310,101593,2,0,P|141:315|182:94,1,360
256,192,103327,12,0,106362,0:0:0:0:
