osu file format v14

[General]
AudioFilename: audio.mp3
AudioLeadIn: 0
PreviewTime: 53760
Countdown: 0
SampleSet: Soft
StackLeniency: 0.7
Mode: 0
LetterboxInBreaks: 0
WidescreenStoryboard: 1

[Editor]
DistanceSpacing: 0.8
BeatDivisor: 4
GridSize: 4
TimelineZoom: 1

[Metadata]
Title:Kamisama no Syndrome (TV Size)
TitleUnicode:神様のシンドローム (TV Size)
Artist:Ayane
ArtistUnicode:彩音
Creator:Blitzifyyy
Version:Normal
Source:ひぐらしのなく頃に 業
Tags:god ending ed gore horror Visual Novel VN anime pop japanese jpop j-pop Higurashi No Naku Koro Ni 2020 Gou When They Cry 07th Expansion Passione 竜騎士07 New
BeatmapID:2668158
BeatmapSetID:1285049

[Difficulty]
HPDrainRate:4
CircleSize:3.5
OverallDifficulty:5
ApproachRate:6
SliderMultiplier:2.2
SliderTickRate:1

[Events]
//Background and Video events
0,0,"BG Normal.jpg",0,0
Video,173,"blob.mp4"
//Break Periods
2,9842,18004
//Storyboard Layer 0 (Background)
//Storyboard Layer 1 (Fail)
//Storyboard Layer 2 (Pass)
//Storyboard Layer 3 (Foreground)
//Storyboard Layer 4 (Overlay)
//Storyboard Sound Samples

[TimingPoints]
231,588.235294117647,4,2,1,75,1,0
9495,-100,4,2,1,5,0,0
9642,-111.111111111111,4,2,1,60,0,0
28466,-111.111111111111,4,2,1,70,0,0
54348,-90.9090909090909,4,2,1,85,0,1
77878,-100,4,2,1,75,0,0

[Colours]
Combo1 : 101,0,191
Combo2 : 172,122,254
SliderBorder : 101,0,191
SliderTrackOverride : 172,122,254

[HitObjects]
459,188,231,6,0,P|430:183|404:189,2,55,6|0|2,1:2|0:0|0:0,0:0:0:0:
495,214,672,2,0,B|473:159|510:159|487:100,1,110,2|2,0:0|0:0,0:0:0:0:
415,58,1260,2,0,B|349:58|349:58|334:65|334:65|247:65,1,165,10|2,0:3|0:0,0:0:0:0:
184,121,1995,2,0,P|176:151|181:182,1,55,10|0,0:1|1:0,0:0:0:0:
202,214,2289,1,2,1:2:0:0:
170,296,2583,6,0,B|139:305|125:324|125:324|111:303|77:296,1,110,2|2,1:2|1:2,0:0:0:0:
34,290,3025,2,0,P|49:250|44:220,1,55,2|8,0:0|0:1,0:0:0:0:
23,202,3319,2,0,P|8:162|13:132,1,55,2|0,0:0|0:0,0:0:0:0:
26,110,3613,1,2,0:0:0:0:
128,27,4054,1,2,0:0:0:0:
199,78,4348,2,0,L|255:78,1,55,10|0,0:1|0:0,0:0:0:0:
293,59,4642,1,10,0:3:0:0:
362,112,4936,6,0,L|418:112,2,55,6|0|2,1:2|0:0|0:0,0:0:0:0:
331,143,5378,2,0,B|311:192|358:192|332:258,1,110,2|2,0:0|0:0,0:0:0:0:
275,313,5966,2,0,B|329:295|329:295|384:317,1,110,10|0,0:3|0:0,0:0:0:0:
415,337,6407,1,2,0:0:0:0:
480,278,6701,2,0,L|480:220,1,55,10|0,0:1|1:0,0:0:0:0:
455,186,6995,2,0,L|455:128,1,55,2|0,1:2|0:0,0:0:0:0:
478,93,7289,6,0,P|424:114|375:93,1,110,2|2,1:0|1:0,0:0:0:0:
348,63,7730,1,2,0:0:0:0:
281,121,8025,1,2,0:0:0:0:
215,62,8319,2,0,B|182:18|112:23|80:78|94:129|127:153|127:153|173:185|169:254|116:288|65:276|40:243,1,440,2|0,0:0|0:0,0:0:0:0:
13,213,9642,5,4,1:3:0:0:
164,218,19054,6,0,P|209:197|254:216,1,98.9999969787599,4|2,1:3|0:0,0:0:0:0:
318,274,19642,2,0,B|318:220|318:220|324:211|324:211|324:164,1,98.9999969787599,10|2,0:0|1:2,0:0:0:0:
325,132,20083,1,2,0:0:0:0:
254,77,20378,2,0,L|201:77,2,49.4999984893799,2|2|2,0:0|0:0|0:0,0:0:0:0:
288,49,20819,2,0,L|340:49,1,49.4999984893799,10|0,0:0|0:0,0:0:0:0:
381,53,21113,1,2,0:0:0:0:
438,118,21407,6,0,P|458:167|432:215,1,98.9999969787599,4|2,1:3|0:0,0:0:0:0:
351,207,21995,2,0,L|244:207,1,98.9999969787599,10|2,0:0|1:2,0:0:0:0:
207,205,22436,1,10,0:0:0:0:
131,315,22878,2,0,P|125:345|133:376,1,49.4999984893799,2|0,0:0|0:0,0:0:0:0:
168,381,23172,2,0,P|198:387|229:379,1,49.4999984893799,10|0,0:0|0:0,0:0:0:0:
258,368,23466,1,2,0:0:0:0:
334,321,23760,6,0,P|360:313|396:323,1,49.4999984893799,4|0,1:3|0:0,0:0:0:0:
421,335,24054,2,0,L|421:388,2,49.4999984893799,2|2|10,0:0|1:2|0:0,0:0:0:0:
484,272,24642,1,2,1:2:0:0:
484,272,24789,2,0,L|484:169,1,98.9999969787599,2|0,0:0|0:0,0:0:0:0:
486,128,25230,1,2,0:0:0:0:
416,72,25525,1,10,0:0:0:0:
343,123,25819,1,2,0:0:0:0:
256,192,26113,12,2,27289,0:0:0:0:
63,125,28466,6,0,P|44:175|62:222,1,98.9999969787599,6|0,1:2|0:0,0:0:0:0:
99,243,28907,1,0,1:2:0:0:
99,243,29054,1,10,0:0:0:0:
183,215,29348,2,0,L|294:215,1,98.9999969787599,2|0,1:2|0:0,0:0:0:0:
359,261,29936,1,2,1:2:0:0:
407,186,30230,2,0,P|417:155|412:125,1,49.4999984893799,8|0,0:0|0:0,0:0:0:0:
395,98,30525,1,2,0:0:0:0:
312,64,30819,6,0,B|254:64|254:64|246:69|246:69|197:69,1,98.9999969787599,2|0,1:2|0:0,0:0:0:0:
179,95,31260,1,0,1:2:0:0:
179,95,31407,1,10,0:0:0:0:
197,182,31701,2,0,B|173:161|173:161|44:161,1,148.49999546814,2|8,1:2|0:0,0:0:0:0:
11,161,32289,1,2,1:2:0:0:
8,71,32583,2,0,P|62:32|126:74,1,148.49999546814,8|8,0:0|0:0,0:0:0:0:
138,113,33172,6,0,B|138:160|138:160|132:173|132:173|132:221,1,98.9999969787599,0|2,1:2|0:0,0:0:0:0:
137,251,33613,1,2,1:2:0:0:
137,251,33760,2,0,P|184:233|231:260,1,98.9999969787599,10|0,0:0|1:2,0:0:0:0:
179,330,34348,2,0,P|132:348|85:321,1,98.9999969787599,2|2,0:0|1:2,0:0:0:0:
29,262,34936,2,0,L|29:133,1,98.9999969787599,10|2,0:0|0:0,0:0:0:0:
32,122,35378,1,2,0:0:0:0:
32,122,35525,6,0,B|84:132|84:132|140:120,1,98.9999969787599,2|2,1:2|0:0,0:0:0:0:
175,113,35966,1,2,1:2:0:0:
175,113,36113,1,8,0:0:0:0:
237,50,36407,2,0,P|283:32|328:50,1,98.9999969787599,0|0,1:2|0:0,0:0:0:0:
367,128,36995,1,0,1:2:0:0:
327,207,37289,2,0,P|320:241|329:268,1,49.4999984893799,8|8,0:0|0:0,0:0:0:0:
351,288,37583,1,10,0:3:0:0:
292,355,37878,6,0,B|239:355|239:355|231:359|231:359|172:359,1,98.9999969787599,6|0,1:2|0:0,0:0:0:0:
159,341,38319,1,0,1:2:0:0:
159,341,38466,2,0,P|154:314|160:286,1,49.4999984893799,10|0,0:0|0:0,0:0:0:0:
180,254,38760,1,2,1:2:0:0:
55,126,39348,1,2,1:2:0:0:
4,199,39642,1,0,0:0:0:0:
45,277,39936,2,0,L|45:335,1,49.4999984893799,2|0,0:0|0:0,0:0:0:0:
27,371,40230,6,0,B|102:344|102:404|185:371,1,148.49999546814,2|0,1:2|1:2,0:0:0:0:
209,351,40819,1,10,0:0:0:0:
270,286,41113,2,0,L|387:286,1,98.9999969787599,2|0,1:2|0:0,0:0:0:0:
413,284,41554,1,8,0:0:0:0:
413,284,41701,1,2,1:2:0:0:
473,218,41995,2,0,P|479:189|474:163,1,49.4999984893799,8|0,0:0|0:0,0:0:0:0:
459,128,42289,1,0,0:0:0:0:
371,111,42583,6,0,B|314:102|286:65|286:65|257:104|191:109,1,197.99999395752,4|2,1:2|0:0,0:0:0:0:
113,131,43466,1,8,0:3:0:0:
129,218,43760,2,0,L|129:319,1,98.9999969787599,6|2,1:2|0:0,0:0:0:0:
39,319,44348,2,0,L|39:218,1,98.9999969787599,2|10,0:0|1:3,0:0:0:0:
81,141,44936,6,0,P|130:123|176:141,1,98.9999969787599,4|2,1:2|0:0,0:0:0:0:
213,165,45378,1,0,1:2:0:0:
213,165,45525,2,0,L|213:222,1,49.4999984893799,10|0,0:0|0:0,0:0:0:0:
213,259,45819,1,0,1:2:0:0:
290,303,46113,1,0,0:0:0:0:
342,231,46407,1,0,1:2:0:0:
414,282,46701,2,0,L|414:358,1,49.4999984893799,8|0,0:0|0:0,0:0:0:0:
411,375,46995,1,0,0:0:0:0:
326,348,47289,6,0,P|280:328|232:349,1,98.9999969787599,6|2,1:2|0:0,0:0:0:0:
204,375,47730,2,0,L|120:375,1,49.4999984893799,2|8,1:2|0:0,0:0:0:0:
109,378,48025,1,2,0:0:0:0:
47,321,48319,1,2,0:0:0:0:
47,321,48466,2,0,L|47:215,1,98.9999969787599,2|2,0:0|1:2,0:0:0:0:
35,179,48907,2,0,L|35:124,1,49.4999984893799,2|8,0:0|0:0,0:0:0:0:
46,86,49201,1,2,0:0:0:0:
124,41,49495,1,2,0:0:0:0:
124,41,49642,6,0,B|170:58|170:58|221:40,1,98.9999969787599,6|2,1:2|1:2,0:0:0:0:
256,20,50083,2,0,L|317:20,1,49.4999984893799,2|8,1:2|0:0,0:0:0:0:
350,18,50378,1,2,0:0:0:0:
399,98,50672,1,2,0:0:0:0:
399,98,50819,2,0,B|399:206,1,98.9999969787599,2|2,0:0|1:2,0:0:0:0:
379,237,51260,2,0,B|329:222|329:270|263:250,1,98.9999969787599,2|2,0:0|0:0,0:0:0:0:
240,244,51701,1,2,0:0:0:0:
256,192,51995,12,2,53172,0:0:0:0:
58,339,54348,6,0,B|113:338|113:338|122:344|122:344|183:344,1,121.000003692627,6|2,1:2|0:0,0:0:0:0:
220,321,54789,1,0,1:2:0:0:
220,321,54936,2,0,P|229:285|218:253,1,60.5000018463135,8|0,0:0|0:0,0:0:0:0:
195,223,55230,1,2,1:2:0:0:
105,114,55672,1,8,0:0:0:0:
105,114,55819,2,0,L|165:114,1,60.5000018463135,2|0,1:2|0:0,0:0:0:0:
210,130,56113,2,0,L|270:130,1,60.5000018463135,8|0,0:0|0:0,0:0:0:0:
313,108,56407,1,2,0:0:0:0:
372,184,56701,6,0,P|397:247|371:300,1,121.000003692627,0|0,1:2|0:0,0:0:0:0:
333,313,57142,1,0,1:2:0:0:
333,313,57289,2,0,L|257:313,1,60.5000018463135,8|0,0:0|0:0,0:0:0:0:
224,313,57583,1,0,1:2:0:0:
328,212,58025,1,8,0:0:0:0:
328,212,58172,2,0,L|404:212,1,60.5000018463135,0|0,1:2|0:0,0:0:0:0:
428,184,58466,2,0,P|437:158|429:124,1,60.5000018463135,8|0,0:0|0:0,0:0:0:0:
400,87,58760,1,2,0:0:0:0:
313,44,59054,6,0,L|253:44,1,60.5000018463135,2|0,1:2|0:0,0:0:0:0:
209,65,59348,2,0,L|137:65,1,60.5000018463135,2|0,0:0|1:2,0:0:0:0:
104,45,59642,1,8,0:0:0:0:
58,130,59936,2,0,B|37:191|79:191|52:263,1,121.000003692627,2|0,1:2|0:0,0:0:0:0:
32,291,60378,1,8,0:0:0:0:
32,291,60525,2,0,P|64:281|97:290,1,60.5000018463135,2|0,1:2|0:0,0:0:0:0:
123,320,60819,2,0,P|155:330|188:321,1,60.5000018463135,8|0,0:0|0:0,0:0:0:0:
220,296,61113,1,2,0:0:0:0:
279,220,61407,6,0,L|279:151,1,60.5000018463135,0|0,1:2|0:0,0:0:0:0:
256,116,61701,2,0,L|256:51,1,60.5000018463135,2|0,0:0|1:2,0:0:0:0:
285,17,61995,2,0,P|314:10|350:20,1,60.5000018463135,10|2,0:0|0:0,0:0:0:0:
381,45,62289,1,2,1:2:0:0:
426,130,62583,2,0,P|436:161|428:194,1,60.5000018463135,0|8,0:0|0:0,0:0:0:0:
398,224,62878,2,0,P|388:255|396:288,1,60.5000018463135,0|0,1:2|0:0,0:0:0:0:
419,322,63172,2,0,L|486:322,2,60.5000018463135,8|8|10,0:0|0:0|0:3,0:0:0:0:
334,368,63760,6,0,B|273:368|273:368|259:374|259:374|191:374,1,121.000003692627,6|2,1:2|0:0,0:0:0:0:
171,350,64201,1,0,1:2:0:0:
171,350,64348,2,0,P|163:317|171:290,1,60.5000018463135,8|0,0:0|0:0,0:0:0:0:
205,258,64642,1,2,1:2:0:0:
144,126,65083,1,8,0:0:0:0:
144,126,65230,2,0,L|73:126,1,60.5000018463135,2|0,1:2|0:0,0:0:0:0:
34,127,65525,2,0,B|61:152|61:152|52:263,1,121.000003692627,8|2,0:0|0:0,0:0:0:0:
25,328,66113,6,0,B|93:308|93:350|155:333,1,121.000003692627,0|0,1:2|0:0,0:0:0:0:
183,308,66554,1,0,1:2:0:0:
183,308,66701,2,0,L|183:238,1,60.5000018463135,8|0,0:0|0:0,0:0:0:0:
183,199,66995,1,0,1:2:0:0:
98,81,67436,1,8,0:0:0:0:
98,81,67583,2,0,P|130:90|157:82,1,60.5000018463135,0|0,1:2|0:0,0:0:0:0:
194,53,67878,2,0,P|226:44|253:52,1,60.5000018463135,8|0,0:0|0:0,0:0:0:0:
285,85,68172,1,2,0:0:0:0:
329,170,68466,6,0,L|329:235,1,60.5000018463135,2|0,1:2|0:0,0:0:0:0:
329,278,68760,2,0,B|357:269|357:269|392:278,1,60.5000018463135,2|0,0:0|1:2,0:0:0:0:
429,300,69054,1,8,0:0:0:0:
501,236,69348,2,0,B|501:171|501:171|504:165|504:165|504:111,1,121.000003692627,2|0,1:2|0:0,0:0:0:0:
486,75,69789,1,8,0:0:0:0:
486,75,69936,2,0,P|454:64|419:77,1,60.5000018463135,2|0,1:2|0:0,0:0:0:0:
389,97,70230,2,0,P|357:108|322:95,1,60.5000018463135,8|0,0:0|0:0,0:0:0:0:
290,76,70525,1,2,0:0:0:0:
203,33,70819,6,0,P|170:24|135:34,1,60.5000018463135,0|0,1:2|0:0,0:0:0:0:
111,63,71113,2,0,P|102:96|112:131,1,60.5000018463135,2|0,0:0|1:2,0:0:0:0:
134,161,71407,2,0,P|143:194|133:229,1,60.5000018463135,10|0,0:0|0:0,0:0:0:0:
109,258,71701,2,0,B|175:237|175:279|234:260,1,121.000003692627,2|0,1:2|1:2,0:0:0:0:
269,239,72142,1,8,0:0:0:0:
344,177,72436,1,0,0:0:0:0:
344,177,72583,2,0,L|344:110,1,60.5000018463135,8|8,0:0|0:0,0:0:0:0:
344,67,72878,1,8,0:3:0:0:
432,105,73172,6,0,P|463:112|498:105,1,60.5000018463135,4|0,1:2|0:0,0:0:0:0:
509,63,73466,2,0,L|509:-1,2,60.5000018463135,2|2|10,0:0|1:2|0:0,0:0:0:0:
429,18,74054,1,2,1:2:0:0:
429,18,74201,2,0,B|362:18|362:18|357:21|357:21|296:21,1,121.000003692627,2|0,0:0|0:0,0:0:0:0:
263,39,74642,2,0,L|193:39,1,60.5000018463135,2|0,1:2|0:0,0:0:0:0:
157,57,74936,2,0,P|148:90|154:125,1,60.5000018463135,10|0,0:0|0:0,0:0:0:0:
176,156,75230,1,2,0:0:0:0:
244,224,75525,6,0,L|314:224,1,60.5000018463135,0|0,1:2|0:0,0:0:0:0:
349,245,75819,2,0,L|419:245,1,60.5000018463135,2|2,0:0|1:2,0:0:0:0:
447,215,76113,2,0,P|454:183|445:150,2,60.5000018463135,10|8|2,0:0|0:0|0:0,0:0:0:0:
488,240,76554,1,6,1:2:0:0:
49,179,77878,6,0,P|75:183|102:178,2,55,6|0|2,1:2|0:0|0:0,0:0:0:0:
6,168,78319,2,0,B|28:223|-9:223|14:282,1,110,2|2,0:0|0:0,0:0:0:0:
87,319,78907,2,0,B|153:319|153:319|168:312|168:312|255:312,1,165,10|2,0:3|0:0,0:0:0:0:
323,262,79642,2,0,P|331:232|326:201,1,55,10|0,0:1|1:0,0:0:0:0:
310,170,79936,1,2,1:2:0:0:
342,88,80230,6,0,B|373:79|387:60|387:60|401:81|435:88,1,110,2|2,1:2|1:2,0:0:0:0:
478,94,80672,2,0,P|463:134|468:164,1,55,2|8,0:0|0:1,0:0:0:0:
489,182,80966,2,0,P|504:222|499:252,1,55,2|0,0:0|0:0,0:0:0:0:
486,274,81260,1,2,0:0:0:0:
384,357,81701,1,2,0:0:0:0:
313,306,81995,2,0,L|257:306,1,55,10|0,0:1|0:0,0:0:0:0:
219,325,82289,1,10,0:3:0:0:
150,272,82583,6,0,L|94:272,2,55,6|0|2,1:2|0:0|0:0,0:0:0:0:
181,241,83025,2,0,B|201:192|154:192|180:126,1,110,2|2,0:0|0:0,0:0:0:0:
237,71,83613,2,0,B|183:89|183:89|128:67,1,110,10|0,0:3|0:0,0:0:0:0:
97,47,84054,1,2,0:0:0:0:
32,106,84348,2,0,L|32:164,1,55,10|0,0:1|1:0,0:0:0:0:
57,198,84642,2,0,L|57:256,1,55,2|0,1:2|0:0,0:0:0:0:
34,291,84936,6,0,P|88:270|137:291,1,110,2|2,1:0|1:0,0:0:0:0:
164,321,85377,1,2,0:0:0:0:
231,263,85672,1,2,0:0:0:0:
297,322,85966,2,0,B|326:360|388:356|416:307|404:262|374:241|374:241|334:213|337:151|384:121|429:132|452:161,1,385,2|2,0:0|0:0,0:0:0:0:
