osu file format v14

[General]
AudioFilename: audio.mp3
AudioLeadIn: 0
PreviewTime: 53760
Countdown: 0
SampleSet: Soft
StackLeniency: 0.7
Mode: 0
LetterboxInBreaks: 0
WidescreenStoryboard: 0

[Editor]
DistanceSpacing: 2.5
BeatDivisor: 4
GridSize: 4
TimelineZoom: 1

[Metadata]
Title:Kamisama no Syndrome (TV Size)
TitleUnicode:神様のシンドローム (TV Size)
Artist:Ayane
ArtistUnicode:彩音
Creator:Blitzifyyy
Version:Endless Future
Source:ひぐらしのなく頃に 業
Tags:god ending ed gore horror Visual Novel VN anime pop japanese jpop j-pop Higurashi No Naku Koro Ni 2020 Gou When They Cry 07th Expansion Passione 竜騎士07 New
BeatmapID:2668155
BeatmapSetID:1285049

[Difficulty]
HPDrainRate:6
CircleSize:4.5
OverallDifficulty:8
ApproachRate:9
SliderMultiplier:2.8
SliderTickRate:1

[Events]
//Background and Video events
0,0,"BG Insane.jpg",0,0
Video,173,"blob.mp4"
//Break Periods
2,9842,18454
//Storyboard Layer 0 (Background)
//Storyboard Layer 1 (Fail)
//Storyboard Layer 2 (Pass)
//Storyboard Layer 3 (Foreground)
//Storyboard Layer 4 (Overlay)
//Storyboard Sound Samples

[TimingPoints]
231,588.235294117647,4,2,1,75,1,0
8319,-133.333333333333,4,2,1,75,0,0
9495,-100,4,2,1,5,0,0
9642,-125,4,2,1,60,0,0
25966,-249.999999999999,4,2,1,60,0,0
28466,-111.111111111111,4,2,1,70,0,0
51701,-250,4,2,1,70,0,0
54348,-90.9090909090909,4,2,1,85,0,1
77878,-100,4,2,1,75,0,0
85966,-133.333333333333,4,2,1,75,0,0

[Colours]
Combo1 : 176,57,0
Combo2 : 255,137,81
SliderBorder : 176,57,0
SliderTrackOverride : 255,137,81

[HitObjects]
512,108,231,6,0,P|521:141|509:177,1,70,6|0,1:2|0:0,0:0:0:0:
438,32,525,1,2,0:0:0:0:
438,32,672,2,0,P|462:7|499:0,1,70,2|8,0:0|0:1,0:0:0:0:
410,135,966,2,0,P|376:126|351:97,1,70,2|0,0:0|0:0,0:0:0:0:
263,17,1260,6,0,B|116:16|263:22|115:21,1,140,10|0,0:3|0:0,0:0:0:0:
13,2,1701,1,2,0:0:0:0:
13,2,1848,1,8,0:3:0:0:
0,106,1995,2,0,L|4:191,1,70,10|0,0:1|1:0,0:0:0:0:
127,90,2289,2,0,L|123:20,1,70,2|0,1:2|0:0,0:0:0:0:
13,211,2583,6,0,B|47:202|47:202|81:210,1,70,2|0,1:2|0:0,0:0:0:0:
157,344,2878,1,2,1:2:0:0:
157,344,3025,2,0,B|132:319|132:319|122:285,1,70,2|8,0:0|0:1,0:0:0:0:
200,152,3319,2,0,B|190:185|190:185|166:211,1,70,2|0,0:0|0:0,0:0:0:0:
21,331,3613,6,0,B|98:312|81:365|166:341,1,140,2|0,0:0|1:0,0:0:0:0:
293,269,4054,2,0,P|257:261|221:271,1,70,2|0,0:0|0:0,0:0:0:0:
97,368,4348,2,0,P|133:376|169:366,1,70,10|0,0:1|0:0,0:0:0:0:
66,251,4642,1,10,0:3:0:0:
66,251,4789,1,0,1:0:0:0:
229,198,4936,6,0,P|224:236|224:277,1,70,6|0,1:2|0:0,0:0:0:0:
176,107,5230,1,2,0:0:0:0:
176,107,5378,2,0,P|209:91|246:71,1,70,2|8,0:0|0:1,0:0:0:0:
122,195,5672,2,0,P|100:164|72:132,1,70,2|0,0:0|0:0,0:0:0:0:
0,32,5966,6,0,B|23:34|43:47|43:47|147:33,1,140,10|0,0:3|0:0,0:0:0:0:
259,0,6407,1,2,0:0:0:0:
259,0,6554,1,8,0:3:0:0:
292,110,6701,2,0,P|300:146|292:178,1,70,10|0,0:1|1:0,0:0:0:0:
207,269,6995,1,2,1:2:0:0:
207,269,7142,1,0,0:0:0:0:
318,377,7289,6,0,B|352:384|352:384|386:378,1,70,2|0,1:0|0:0,0:0:0:0:
391,204,7583,1,2,1:0:0:0:
391,204,7730,2,0,B|367:229|367:229|356:262,1,70,2|8,0:0|0:1,0:0:0:0:
504,353,8025,2,0,B|493:320|493:320|470:293,1,70,2|0,0:0|0:0,0:0:0:0:
372,185,8319,6,0,B|340:142|273:147|242:200|256:249|287:271|287:271|331:302|328:368|277:401|228:389|204:358,1,420.000016021729,2|0,0:0|0:0,0:0:0:0:
149,247,9642,5,4,1:3:0:0:
448,110,19054,6,0,P|479:119|518:109,1,56,4|0,1:3|0:0,0:0:0:0:
432,17,19348,1,2,0:0:0:0:
432,17,19495,1,2,1:2:0:0:
340,77,19642,2,0,L|344:205,1,112,10|2,0:0|1:2,0:0:0:0:
456,289,20083,2,0,L|453:218,1,56,2|0,0:0|0:0,0:0:0:0:
348,322,20378,5,2,0:0:0:0:
348,322,20525,2,0,L|350:384,1,56,2|2,0:0|0:0,0:0:0:0:
261,251,20819,2,0,L|314:217,1,56,10|0,0:0|0:0,0:0:0:0:
243,361,21113,2,0,L|187:331,1,56,2|0,0:0|1:2,0:0:0:0:
14,310,21407,6,0,P|22:344|15:375,1,56,4|0,1:3|0:0,0:0:0:0:
113,276,21701,1,2,0:0:0:0:
113,276,21848,1,2,1:2:0:0:
42,202,21995,2,0,P|34:168|41:137,1,56,10|0,0:0|1:2,0:0:0:0:
99,63,22289,1,2,1:2:0:0:
99,63,22436,6,0,B|170:47|159:93|229:82,1,112,10|0,0:0|0:0,0:0:0:0:
359,4,22878,2,0,P|325:-4|290:5,1,56,2|0,0:0|0:0,0:0:0:0:
428,82,23172,2,0,P|451:56|461:21,1,56,10|0,0:0|0:0,0:0:0:0:
325,102,23466,2,0,P|335:135|360:161,1,56,2|0,0:0|0:0,0:0:0:0:
500,255,23760,6,0,L|436:252,1,56,4|0,1:3|0:0,0:0:0:0:
355,189,24054,1,2,0:0:0:0:
355,189,24201,1,2,1:2:0:0:
276,262,24348,2,0,L|212:259,1,56,10|0,0:0|0:0,0:0:0:0:
116,201,24642,1,2,1:2:0:0:
116,201,24789,6,0,P|90:260|114:321,1,112,2|0,0:0|0:0,0:0:0:0:
184,368,25230,2,0,P|216:361|252:368,1,56,2|0,0:0|0:0,0:0:0:0:
374,293,25525,2,0,P|342:300|306:293,1,56,10|0,0:0|0:0,0:0:0:0:
208,232,25819,1,2,0:0:0:0:
208,232,25966,6,0,B|183:221|178:186|178:186|153:243|188:283|188:283|216:320|180:372,1,252,2|2,0:0|0:0,0:0:0:0:
256,192,27436,12,2,28172,0:0:0:0:
383,23,28466,6,0,B|440:22|440:22|457:27|457:27|513:26,1,125.999996154785,6|0,1:2|0:0,0:0:0:0:
379,129,28907,1,0,1:2:0:0:
379,129,29054,2,0,L|308:131,1,62.9999980773926,10|0,0:0|0:0,0:0:0:0:
181,57,29348,2,0,B|204:89|204:89|205:184,1,125.999996154785,2|0,1:2|0:0,0:0:0:0:
109,259,29789,5,8,0:0:0:0:
109,259,29936,2,0,L|107:191,1,62.9999980773926,2|0,1:2|0:0,0:0:0:0:
185,328,30230,2,0,L|126:363,1,62.9999980773926,8|0,0:0|0:0,0:0:0:0:
206,227,30525,2,0,L|265:259,1,62.9999980773926,2|0,0:0|0:0,0:0:0:0:
373,359,30819,6,0,B|354:294|391:293|373:233,1,125.999996154785,2|0,1:2|0:0,0:0:0:0:
288,103,31260,1,0,1:2:0:0:
288,103,31407,2,0,P|281:134|287:163,1,62.9999980773926,10|0,0:0|0:0,0:0:0:0:
426,267,31701,2,0,B|387:259|375:236|375:236|364:260|321:268,1,125.999996154785,2|0,1:2|0:0,0:0:0:0:
201,354,32142,5,8,0:0:0:0:
200,354,32289,2,0,B|192:323|192:323|199:283,1,62.9999980773926,2|0,1:2|0:0,0:0:0:0:
300,184,32583,2,0,B|277:206|277:206|239:220,1,62.9999980773926,8|0,0:0|0:0,0:0:0:0:
102,182,32878,2,0,B|133:191|133:191|164:216,1,62.9999980773926,0|8,0:0|0:0,0:0:0:0:
23,388,33172,6,0,L|20:248,1,125.999996154785,0|2,1:2|0:0,0:0:0:0:
102,182,33613,1,2,1:2:0:0:
102,182,33760,2,0,B|155:181|155:181|175:187|175:187|227:186,1,125.999996154785,10|0,0:0|1:2,0:0:0:0:
347,187,34201,1,2,0:0:0:0:
347,187,34348,6,0,P|355:152|344:125,1,62.9999980773926,2|8,0:0|0:0,0:0:0:0:
203,85,34642,2,0,P|229:109|257:113,1,62.9999980773926,2|0,1:2|0:0,0:0:0:0:
362,11,34936,2,0,P|328:21|310:44,1,62.9999980773926,10|0,0:0|0:0,0:0:0:0:
230,144,35230,1,2,0:0:0:0:
230,144,35378,1,2,0:0:0:0:
124,44,35525,6,0,B|63:28|63:28|0:46,1,125.999996154785,2|2,1:2|0:0,0:0:0:0:
115,188,35966,1,2,1:2:0:0:
115,188,36113,2,0,P|122:155|114:127,1,62.9999980773926,8|0,0:0|0:0,0:0:0:0:
4,226,36407,2,0,P|-1:259|5:287,1,62.9999980773926,0|0,1:2|0:0,0:0:0:0:
111,382,36701,6,0,L|177:381,1,62.9999980773926,0|8,0:0|0:0,0:0:0:0:
319,277,36995,2,0,L|256:279,1,62.9999980773926,0|8,1:2|0:0,0:0:0:0:
234,279,37216,1,8,0:0:0:0:
234,279,37289,1,8,0:0:0:0:
156,196,37436,1,8,0:0:0:0:
227,104,37583,1,10,0:3:0:0:
227,104,37878,6,0,B|362:104|227:109|362:109,1,125.999996154785,6|0,1:2|0:0,0:0:0:0:
434,171,38319,1,0,1:2:0:0:
434,171,38466,2,0,P|444:202|436:231,1,62.9999980773926,10|0,0:0|0:0,0:0:0:0:
333,333,38760,2,0,B|394:306|394:362|462:334,1,125.999996154785,2|0,1:2|0:0,0:0:0:0:
244,371,39201,5,8,0:0:0:0:
244,371,39348,2,0,B|234:339|234:339|240:310,1,62.9999980773926,2|0,1:2|0:0,0:0:0:0:
358,229,39642,2,0,B|335:253|335:253|307:262,1,62.9999980773926,8|0,0:0|0:0,0:0:0:0:
178,201,39936,2,0,B|210:208|210:208|232:228,1,62.9999980773926,2|0,0:0|0:0,0:0:0:0:
85,384,40230,6,0,P|111:327|86:270,1,125.999996154785,2|0,1:2|0:0,0:0:0:0:
7,150,40672,1,0,1:2:0:0:
7,150,40819,2,0,P|-4:182|4:212,1,62.9999980773926,10|0,0:0|0:0,0:0:0:0:
111,325,41113,2,0,L|252:321,1,125.999996154785,2|0,1:2|0:0,0:0:0:0:
355,217,41554,5,8,0:0:0:0:
355,217,41701,2,0,L|285:218,1,62.9999980773926,2|0,1:2|0:0,0:0:0:0:
130,221,41995,1,8,0:0:0:0:
130,221,42289,5,0,0:0:0:0:
125,131,42436,1,8,0:0:0:0:
123,38,42583,6,0,L|189:36,1,62.9999980773926,4|0,1:2|0:0,0:0:0:0:
297,0,42878,1,2,0:0:0:0:
297,0,43025,1,10,0:3:0:0:
359,96,43172,2,0,B|383:135|363:169|363:169|334:183|333:217,1,125.999996154785,2|8,0:0|0:3,0:0:0:0:
419,297,43613,5,2,0:0:0:0:
419,297,43760,2,0,P|425:262|417:233,1,62.9999980773926,6|0,1:2|0:0,0:0:0:0:
280,175,44054,2,0,P|307:197|336:205,1,62.9999980773926,2|8,0:0|1:3,0:0:0:0:
455,115,44348,2,0,P|421:127|400:148,1,62.9999980773926,2|0,0:0|0:0,0:0:0:0:
307,295,44642,1,10,1:3:0:0:
307,295,44936,6,0,B|273:286|255:264|255:264|236:286|200:296,1,125.999996154785,4|2,1:2|0:0,0:0:0:0:
93,367,45378,1,0,1:2:0:0:
93,367,45525,2,0,L|91:300,1,62.9999980773926,10|0,0:0|0:0,0:0:0:0:
14,192,45819,2,0,B|22:206|46:212|46:212|92:189|148:214,1,125.999996154785,0|0,1:2|0:0,0:0:0:0:
253,282,46260,5,0,0:0:0:0:
253,282,46407,2,0,P|222:290|193:283,1,62.9999980773926,0|0,1:2|0:0,0:0:0:0:
305,199,46701,2,0,P|336:191|365:198,1,62.9999980773926,8|0,0:0|0:0,0:0:0:0:
452,271,46995,1,0,0:0:0:0:
452,271,47142,1,0,0:0:0:0:
507,115,47289,6,0,B|447:136|447:136|386:114,1,125.999996154785,6|2,1:2|0:0,0:0:0:0:
257,39,47730,2,0,L|336:38,1,62.9999980773926,2|8,1:2|0:0,0:0:0:0:
206,134,48025,2,0,L|143:135,1,62.9999980773926,2|0,0:0|1:2,0:0:0:0:
0,55,48319,1,2,0:0:0:0:
0,55,48466,6,0,P|8:88|0:122,1,62.9999980773926,2|0,0:0|0:0,0:0:0:0:
147,30,48760,1,2,1:2:0:0:
147,30,48907,2,0,P|113:20|88:-2,1,62.9999980773926,2|8,0:0|0:0,0:0:0:0:
94,169,49201,2,0,P|118:144|151:134,1,62.9999980773926,2|0,0:0|0:0,0:0:0:0:
298,203,49495,1,2,0:0:0:0:
298,203,49642,6,0,L|297:269,1,62.9999980773926,6|0,1:2|0:0,0:0:0:0:
108,251,49936,1,2,1:2:0:0:
108,251,50083,2,0,L|165:218,1,62.9999980773926,2|8,1:2|0:0,0:0:0:0:
249,384,50378,2,0,L|192:350,1,62.9999980773926,2|0,0:0|1:2,0:0:0:0:
22,221,50672,1,2,0:0:0:0:
22,221,50819,6,0,B|12:256|12:256|19:284,1,62.9999980773926,2|0,0:0|0:0,0:0:0:0:
188,168,51113,1,2,1:2:0:0:
188,168,51260,2,0,B|162:141|162:141|134:133,1,62.9999980773926,2|8,0:0|0:0,0:0:0:0:
179,319,51554,1,2,0:0:0:0:
179,319,51701,6,0,B|212:314|231:287|231:287|229:333|257:351|257:351|302:318|348:350|348:350|326:338|300:345,1,280,2|2,0:0|0:0,0:0:0:0:
459,106,54054,5,2,0:0:0:0:
507,184,54201,1,2,0:0:0:0:
385,278,54348,6,0,B|299:278|359:220|252:220,1,154.000004699707,6|2,1:2|0:0,0:0:0:0:
153,259,54789,1,0,1:2:0:0:
263,383,54936,2,0,P|276:349|261:305,1,77.0000023498536,8|0,0:0|0:0,0:0:0:0:
156,188,55230,1,2,1:2:0:0:
156,188,55378,2,0,P|143:222|158:266,1,77.0000023498536,8|0,0:0|0:0,0:0:0:0:
267,140,55672,5,8,0:0:0:0:
154,60,55819,2,0,L|62:65,1,77.0000023498536,2|0,1:2|0:0,0:0:0:0:
2,197,56113,2,0,L|167:187,1,154.000004699707,8|2,0:0|0:0,0:0:0:0:
155,187,56701,6,0,B|125:236|125:236|143:340,1,154.000004699707,0|0,1:2|0:0,0:0:0:0:
221,384,57142,1,0,1:2:0:0:
308,253,57289,2,0,P|271:242|234:253,1,77.0000023498536,8|0,0:0|0:0,0:0:0:0:
373,375,57583,1,0,1:2:0:0:
373,375,57730,2,0,P|410:386|447:375,1,77.0000023498536,8|0,0:0|0:0,0:0:0:0:
406,223,58025,5,8,0:0:0:0:
406,223,58172,2,0,L|408:303,1,77.0000023498536,0|0,1:2|0:0,0:0:0:0:
512,170,58466,2,0,L|510:93,1,77.0000023498536,8|0,0:0|0:0,0:0:0:0:
443,13,58760,1,2,0:0:0:0:
376,80,58907,1,2,0:0:0:0:
246,5,59054,6,0,B|164:-15|183:50|82:24,1,154.000004699707,2|2,1:2|0:0,0:0:0:0:
0,0,59495,1,0,1:2:0:0:
14,183,59642,2,0,P|6:143|13:103,1,77.0000023498536,8|0,0:0|0:0,0:0:0:0:
142,195,59936,1,2,1:2:0:0:
142,195,60083,2,0,P|153:234|142:274,1,77.0000023498536,8|0,0:0|0:0,0:0:0:0:
82,343,60378,5,8,0:0:0:0:
208,384,60525,2,0,B|243:383|243:383|252:377|252:377|287:376,1,77.0000023498536,2|0,1:2|0:0,0:0:0:0:
407,285,60819,2,0,B|337:286|337:286|319:297|319:297|250:298,1,154.000004699707,8|2,0:0|0:0,0:0:0:0:
256,297,61407,6,0,B|210:295|183:267|183:267|157:294|109:296,1,154.000004699707,0|2,1:2|0:0,0:0:0:0:
4,272,61848,1,0,1:2:0:0:
121,144,61995,2,0,P|133:179|120:220,1,77.0000023498536,10|2,0:0|0:0,0:0:0:0:
1,123,62289,1,2,1:2:0:0:
1,123,62436,2,0,P|-11:87|1:46,1,77.0000023498536,8|0,0:0|0:0,0:0:0:0:
168,3,62730,5,8,0:0:0:0:
168,3,62878,2,0,L|84:-1,1,77.0000023498536,0|0,1:2|0:0,0:0:0:0:
204,117,63172,1,8,0:0:0:0:
274,40,63319,1,8,0:0:0:0:
294,144,63466,1,10,0:3:0:0:
224,221,63613,1,2,1:2:0:0:
287,321,63760,6,0,B|320:311|452:317|287:324|410:336|452:321,1,154.000004699707,6|2,1:2|0:0,0:0:0:0:
512,256,64201,1,0,1:2:0:0:
377,124,64348,2,0,L|386:208,1,77.0000023498536,8|0,0:0|0:0,0:0:0:0:
497,76,64642,1,2,1:2:0:0:
497,76,64789,2,0,L|488:0,1,77.0000023498536,8|0,0:0|0:0,0:0:0:0:
385,98,65083,5,8,0:0:0:0:
275,13,65230,2,0,P|237:5|201:15,1,77.0000023498536,2|0,1:2|0:0,0:0:0:0:
57,95,65525,2,0,B|98:72|149:94|127:107|165:127|214:110,1,154.000004699707,8|2,0:0|0:0,0:0:0:0:
202,113,66113,6,0,P|158:175|200:230,1,154.000004699707,0|0,1:2|0:0,0:0:0:0:
295,274,66554,1,0,1:2:0:0:
199,363,66701,2,0,L|102:360,1,77.0000023498536,8|0,0:0|0:0,0:0:0:0:
2,259,66995,1,0,1:2:0:0:
2,259,67142,2,0,L|78:261,1,77.0000023498536,8|0,0:0|0:0,0:0:0:0:
211,203,67436,5,8,0:0:0:0:
211,203,67583,2,0,B|223:165|223:165|210:129,1,77.0000023498536,0|0,1:2|0:0,0:0:0:0:
67,46,67878,2,0,B|55:84|55:84|68:120,1,77.0000023498536,8|0,0:0|0:0,0:0:0:0:
110,243,68172,1,2,0:0:0:0:
211,203,68319,1,2,0:0:0:0:
318,354,68466,6,0,B|302:335|273:329|273:329|236:372|176:360,1,154.000004699707,2|2,1:2|0:0,0:0:0:0:
73,329,68907,1,0,1:2:0:0:
211,203,69054,2,0,L|208:294,1,77.0000023498536,8|0,0:0|0:0,0:0:0:0:
81,170,69348,1,2,1:2:0:0:
81,170,69495,2,0,L|83:93,1,77.0000023498536,8|0,0:0|0:0,0:0:0:0:
150,10,69789,5,8,0:0:0:0:
239,99,69936,2,0,P|279:111|317:99,1,77.0000023498536,2|0,1:2|0:0,0:0:0:0:
427,22,70230,2,0,B|415:15|405:-6|405:-6|410:125,1,154.000004699707,8|2,0:0|0:0,0:0:0:0:
409,111,70819,6,0,B|377:97|339:113|339:113|336:106|336:106|302:120|262:106,1,154.000004699707,0|2,1:2|0:0,0:0:0:0:
182,49,71260,1,0,1:2:0:0:
122,170,71407,2,0,L|126:271,1,77.0000023498536,10|0,0:0|0:0,0:0:0:0:
236,357,71701,1,2,1:2:0:0:
236,357,71848,2,0,L|232:280,1,77.0000023498536,8|0,0:0|0:0,0:0:0:0:
114,157,72142,5,8,0:0:0:0:
114,157,72289,2,0,P|75:145|42:155,1,77.0000023498536,0|0,1:2|0:0,0:0:0:0:
148,263,72583,1,8,0:0:0:0:
218,186,72730,1,8,0:0:0:0:
238,290,72877,1,8,0:3:0:0:
168,367,73024,1,0,1:2:0:0:
318,384,73172,6,0,B|391:380|391:380|407:384|407:384|476:380,1,154.000004699707,4|2,1:2|0:0,0:0:0:0:
411,222,73613,1,2,1:2:0:0:
411,222,73760,2,0,P|400:264|413:296,1,77.0000023498536,10|0,0:0|0:0,0:0:0:0:
512,164,74054,1,2,1:2:0:0:
512,164,74201,2,0,P|522:121|446:51,1,154.000004699707,2|0,0:0|0:0,0:0:0:0:
299,130,74642,6,0,B|339:137|339:137|380:125,1,77.0000023498536,2|0,1:2|0:0,0:0:0:0:
196,163,74936,2,0,B|169:194|169:194|159:235,1,77.0000023498536,10|0,0:0|0:0,0:0:0:0:
223,63,75230,2,0,B|209:24|209:24|178:-4,1,77.0000023498536,2|0,0:0|0:0,0:0:0:0:
32,23,75525,6,0,B|71:96|9:104|46:176,1,154.000004699707,0|2,1:2|0:0,0:0:0:0:
89,254,75966,1,2,1:2:0:0:
198,136,76113,2,0,L|117:134,1,77.0000023498536,10|8,0:0|0:0,0:0:0:0:
262,238,76407,5,2,0:0:0:0:
331,147,76554,1,6,1:2:0:0:
14,89,77878,6,0,B|5:56|5:56|17:20,1,70,6|0,1:2|0:0,0:0:0:0:
88,165,78172,1,2,0:0:0:0:
88,165,78319,2,0,B|64:190|64:190|27:197,1,70,2|8,0:0|0:1,0:0:0:0:
116,62,78613,2,0,B|150:71|150:71|175:100,1,70,2|0,0:0|0:0,0:0:0:0:
246,209,78907,6,0,B|393:210|246:204|394:205,1,140,10|0,0:3|0:0,0:0:0:0:
491,142,79348,1,2,0:0:0:0:
491,142,79495,1,8,0:3:0:0:
512,256,79642,2,0,L|508:341,1,70,10|0,0:1|1:0,0:0:0:0:
374,384,79936,2,0,L|378:314,1,70,2|0,1:2|0:0,0:0:0:0:
297,182,80230,6,0,B|263:173|263:173|229:181,1,70,2|0,1:2|0:0,0:0:0:0:
153,315,80525,1,2,1:2:0:0:
153,315,80672,2,0,B|178:290|178:290|188:256,1,70,2|8,0:0|0:1,0:0:0:0:
110,123,80966,2,0,B|120:156|120:156|144:182,1,70,2|0,0:0|0:0,0:0:0:0:
270,269,81260,6,0,B|347:288|330:235|415:259,1,140,2|0,0:0|1:0,0:0:0:0:
512,317,81701,2,0,P|519:350|511:384,1,70,2|0,0:0|0:0,0:0:0:0:
405,256,81995,2,0,P|397:222|405:188,1,70,10|0,0:1|0:0,0:0:0:0:
480,107,82289,1,10,0:3:0:0:
480,107,82436,1,0,1:0:0:0:
316,14,82583,6,0,L|237:18,1,70,6|0,1:2|0:0,0:0:0:0:
407,67,82877,1,2,0:0:0:0:
407,67,83025,2,0,L|443:-3,1,70,2|8,0:0|0:1,0:0:0:0:
319,121,83319,2,0,L|382:171,1,70,2|0,0:0|0:0,0:0:0:0:
512,285,83613,6,0,B|487:284|471:261|471:261|421:244|374:278,1,140,10|0,0:3|0:0,0:0:0:0:
314,347,84054,1,2,0:0:0:0:
314,347,84201,1,8,0:3:0:0:
221,279,84348,2,0,B|185:271|185:271|153:279,1,70,10|0,0:1|1:0,0:0:0:0:
63,364,84642,1,2,1:2:0:0:
63,364,84789,1,0,0:0:0:0:
0,236,84936,6,0,B|-14:202|-1:168,1,70,2|0,1:0|0:0,0:0:0:0:
173,163,85230,1,2,1:0:0:0:
173,163,85377,2,0,B|150:193|115:198,1,70,2|8,0:0|0:1,0:0:0:0:
24,50,85672,2,0,B|61:56|84:84,1,70,2|0,0:0|0:0,0:0:0:0:
194,184,85966,6,0,B|221:221|280:217|307:170|295:128|268:109|268:109|229:81|232:24|276:-4|319:6|340:33,1,367.500014019013,2|2,0:0|0:0,0:0:0:0:
